<?xml version="1.0" standalone="no"?> <!DOCTYPE svg PUBLIC "-//W3C//DTD SVG 1.0//EN" "http://www.w3.org/TR/2001/REC-SVG-20010904/DTD/svg10.dtd" > <svg xmlns="http://www.w3.org/2000/svg" width="100%" height="100%">
<defs >
<font horiz-adv-x="802" ><font-face
    font-family="Traditional Arabic"
    units-per-em="2048"
    panose-1="2 1 0 0 0 0 0 0 0 0"
    ascent="2036"
    descent="-1025"
    alphabetic="0" />
<missing-glyph horiz-adv-x="1024" d="M128 0V1450H896V0H128ZM256 128H768V1322H256V128Z" />
<glyph unicode=" " glyph-name="space" horiz-adv-x="500" />
<glyph unicode="!" glyph-name="exclam" horiz-adv-x="569" d="M375 989Q375 920 342 734Q308 544 307 416L306 301H265L264 418Q263 547 230 737Q197 924 197 987Q197 1143 287 1143Q375 1143 375 989ZM379 139Q379 104 353 79T289 53Q253 53 228 78T201 139Q200
177 226 204T289 231Q326 231 352 204T379 139Z" />
<glyph unicode="&quot;" glyph-name="quotedbl" horiz-adv-x="569" d="M452 1273Q452 1220 438 1110T423 899H381Q381 999 367 1109T353 1273Q353 1341 402 1341Q452 1341 452 1273ZM218 1273Q218 1220 204 1110T189 899H147Q147 999 133 1109T119 1273Q119 1341
168 1341Q218 1341 218 1273Z" />
<glyph unicode="#" glyph-name="numbersign" horiz-adv-x="1368" d="M1272 498H940L852 82H764L852 498H395L307 82H219L307 498H94V586H326L410 991H94V1079H430L516 1495H604L518 1079H971L1059 1495H1147L1059 1079H1272V991H1040L956 586H1272V498ZM952 991H498L414
586H868L952 991Z" />
<glyph unicode="$" glyph-name="dollar" horiz-adv-x="938" d="M856 432Q856 193 565 117V-80H512V102Q484 99 455 99Q416 99 375 104V-80H322V117Q228 137 150 191Q53 258 53 340Q53 367 73 388T121 410Q172 410 209 312Q248 206 322 172V756Q90 900 90 1063Q90
1160 160 1235Q223 1303 322 1331V1464H375V1337Q410 1342 444 1342Q478 1342 512 1337V1464H565V1331Q718 1288 777 1219Q805 1185 805 1151Q805 1087 745 1087Q714 1087 688 1116L648 1172Q606 1229 565 1264V791Q784 657 832 555Q856 502 856 432ZM512 815V1282Q484
1299 428 1299Q404 1299 375 1296V911L512 815ZM322 946V1288Q203 1248 203 1135Q203 1032 322 946ZM733 383Q733 465 671 525Q638 557 565 608V158Q733 230 733 383ZM512 143V635L375 729V158Q411 142 474 142Q492 142 512 143Z" />
<glyph unicode="%" glyph-name="percent" horiz-adv-x="1473" d="M1425 461Q1425 258 1294 161Q1233 115 1161 115Q1009 115 934 286Q899 366 899 461Q899 662 1030 761Q1090 807 1161 807Q1315 807 1390 635Q1425 555 1425 461ZM1274 1468L281 74H195L1190 1468H1274ZM573
1087Q573 886 442 787Q381 741 309 741Q157 741 82 913Q47 993 47 1087Q47 1289 178 1388Q238 1434 309 1434Q463 1434 538 1262Q573 1182 573 1087ZM1311 461Q1311 776 1161 776Q1014 776 1014 461Q1014 145 1161 145Q1311 145 1311 461ZM459 1087Q459 1403 309
1403Q162 1403 162 1087Q162 772 309 772Q459 772 459 1087Z" />
<glyph unicode="&amp;" glyph-name="ampersand" horiz-adv-x="1493" d="M1466 948Q1331 948 1292 909Q1258 875 1197 774Q1111 630 1108 626Q1059 553 985 467Q1029 392 1121 244Q1171 170 1231 170Q1292 170 1391 240L1409 207Q1274 100 1157 100Q1043 100 978
193Q942 244 883 354Q731 192 568 130Q489 100 416 100Q274 100 179 198T84 438Q84 605 234 711Q313 767 442 819Q297 944 297 1085Q297 1200 381 1264Q456 1323 575 1323Q732 1323 803 1228Q836 1182 836 1124Q836 978 604 864Q815 721 961 502Q1217 827 1217
907Q1217 948 1104 948V985H1466V948ZM711 1110Q711 1184 674 1231Q633 1282 561 1282Q426 1282 426 1135Q426 1003 578 889Q711 968 711 1110ZM860 389Q721 623 471 795Q252 644 252 463Q252 348 319 276T500 203Q593 203 698 260Q797 313 860 389Z" />
<glyph unicode="&apos;" glyph-name="quotesingle" horiz-adv-x="362" d="M283 1325Q283 1290 258 1145L207 850H158L106 1145Q82 1281 82 1325Q82 1371 109 1402T182 1434Q283 1434 283 1325Z" />
<glyph unicode="(" glyph-name="parenleft" horiz-adv-x="569" d="M526 891Q215 577 215 258Q215 110 289 -53Q354 -195 522 -387L514 -399Q353 -297 268 -201Q84 6 84 262Q84 498 256 694Q345 796 510 903L526 891Z" />
<glyph unicode=")" glyph-name="parenright" horiz-adv-x="569" d="M492 262Q492 8 305 -201Q220 -297 61 -399L49 -387Q107 -324 152 -268Q360 -9 360 258Q360 574 49 891L66 903Q234 790 317 694Q492 492 492 262Z" />
<glyph unicode="*" glyph-name="asterisk" horiz-adv-x="680" d="M649 1104Q649 1059 590 1059Q575 1059 496 1074L412 1090L403 1061L467 1016Q501 995 547 957Q569 934 569 913Q569 898 557 883Q523 856 485 894Q477 902 428 973L381 1041Q372 1036 354 1029L369
949Q385 864 385 853Q385 795 338 795Q295 795 295 851Q295 882 311 949L330 1029Q309 1033 301 1041L252 973Q230 940 195 894Q171 871 150 871Q135 871 122 884T108 914Q108 934 129 955Q137 963 209 1012L281 1061Q270 1076 268 1090L188 1074Q113 1059 92 1059Q35
1059 35 1104Q35 1148 90 1148Q121 1148 188 1133L268 1115Q273 1134 281 1141L209 1191Q178 1211 129 1250Q92 1287 121 1320Q136 1333 151 1333Q171 1333 195 1311L252 1231L299 1164Q308 1168 330 1176L311 1256Q295 1323 295 1354Q295 1410 338 1410Q385 1410
385 1350L369 1256L354 1172Q349 1172 381 1164L428 1231Q448 1262 485 1311Q522 1348 557 1320Q569 1305 569 1289Q569 1268 547 1246Q542 1240 467 1188L399 1141Q408 1130 416 1115L496 1133Q563 1148 594 1148Q649 1148 649 1104ZM379 1102Q379 1139 342 1139Q305
1139 305 1102Q305 1066 342 1066Q379 1066 379 1102Z" />
<glyph unicode="+" glyph-name="plus" horiz-adv-x="946" d="M835 452H514V129H430V452H105V535H430V863H514V535H835V452Z" />
<glyph unicode="," glyph-name="comma" horiz-adv-x="569" d="M379 90Q379 -76 195 -235L164 -202Q296 -83 296 19V30L295 41Q172 41 172 142Q172 181 200 207T268 234Q316 234 347 194T379 90Z" />
<glyph unicode="-" glyph-name="hyphenminus" horiz-adv-x="946" d="M835 452H105V535H835V452Z" />
<glyph unicode="." glyph-name="period" horiz-adv-x="569" d="M375 141Q375 104 350 79T289 53Q252 53 227 78T201 141Q201 178 225 204T283 231Q322 231 348 205T375 141Z" />
<glyph unicode="/" glyph-name="slash" horiz-adv-x="569" d="M508 1425L129 -139H66L442 1425H508Z" />
<glyph unicode="0" glyph-name="zero" horiz-adv-x="1004" d="M928 766Q928 378 714 188Q615 100 502 100Q378 100 274 204Q188 290 136 422Q75 576 75 766Q75 1156 291 1347Q390 1434 502 1434Q680 1434 804 1236T928 766ZM774 766Q774 1026 743 1152Q683 1395
502 1395Q306 1395 254 1101Q229 960 229 766Q229 513 262 383Q324 139 502 139Q703 139 751 427Q774 565 774 766Z" />
<glyph unicode="1" glyph-name="one" horiz-adv-x="1004" d="M782 129H266V168H377Q424 168 439 184T455 248V1270Q342 1171 199 1102L182 1130Q260 1182 363 1271Q478 1372 520 1434H592V246Q592 199 607 184T668 168H782V129Z" />
<glyph unicode="2" glyph-name="two" horiz-adv-x="1004" d="M920 416L881 129H61V162Q142 265 285 407Q499 619 521 643Q713 846 713 1042Q713 1201 580 1281Q518 1317 442 1317Q327 1317 237 1233Q155 1157 121 1040H88Q108 1218 222 1326T502 1434Q724 1434
830 1257Q879 1173 879 1071Q879 893 731 743L540 582Q369 439 193 256H731Q830 256 856 313Q870 343 887 416H920Z" />
<glyph unicode="3" glyph-name="three" horiz-adv-x="1004" d="M897 580Q897 452 821 338Q750 231 633 167Q513 100 379 100Q204 100 112 174Q70 207 70 246Q70 272 88 293T133 315Q164 315 243 258L353 178Q388 156 449 156Q615 156 703 342Q743 427 743 526Q743
635 687 717Q624 811 520 811Q447 811 377 756L358 784Q461 871 491 900Q569 973 605 1034Q637 1087 637 1141Q637 1222 578 1275T438 1329Q353 1329 275 1267Q206 1212 166 1128L129 1143Q200 1325 353 1399Q426 1434 508 1434Q666 1434 740 1321Q774 1268 774
1206Q774 1041 563 917L567 913Q582 915 597 915Q769 915 854 753Q897 671 897 580Z" />
<glyph unicode="4" glyph-name="four" horiz-adv-x="1004" d="M938 502H733V100H596V502H72V549L676 1434H733V604H938V502ZM596 604L592 1239L168 604H596Z" />
<glyph unicode="5" glyph-name="five" horiz-adv-x="1004" d="M877 537Q877 281 641 158Q530 100 395 100Q306 100 219 125Q96 161 96 229Q96 293 164 293Q216 293 294 224Q376 149 442 149Q601 149 685 323Q723 402 723 494Q723 637 636 728T418 819Q298 819
201 743L180 758L209 1407H694Q739 1407 754 1434H793L770 1274H252L236 905Q328 956 457 956Q631 956 753 833Q877 707 877 537Z" />
<glyph unicode="6" glyph-name="six" horiz-adv-x="1004" d="M920 514Q920 279 720 157Q627 100 520 100Q376 100 268 192Q168 277 123 419Q92 516 92 633Q92 934 293 1152Q476 1349 778 1434L801 1403Q482 1274 354 1039Q289 921 266 772Q421 891 557 891Q765
891 871 703Q920 615 920 514ZM766 496Q766 631 715 725Q651 842 526 842Q410 842 256 719Q246 671 246 592Q246 419 299 298Q371 135 524 135Q654 135 717 258Q766 353 766 496Z" />
<glyph unicode="7" glyph-name="seven" horiz-adv-x="1004" d="M901 1360L401 100H289L784 1270H221Q158 1270 135 1242Q117 1220 109 1151H76L90 1403H901V1360Z" />
<glyph unicode="8" glyph-name="eight" horiz-adv-x="1004" d="M903 477Q903 257 704 150Q611 100 500 100Q270 100 155 268Q102 345 102 436Q102 652 399 772Q119 897 119 1102Q119 1291 308 1389Q395 1434 494 1434Q650 1434 756 1349T862 1139Q862 945 596
840Q903 703 903 477ZM739 1141Q739 1292 619 1364Q562 1397 492 1397Q347 1397 274 1283Q240 1229 240 1165Q240 1048 365 963Q435 915 567 858Q739 966 739 1141ZM772 420Q772 539 658 630Q592 683 440 752Q231 638 231 440Q231 314 303 228Q379 137 502 137Q661
137 737 277Q772 342 772 420Z" />
<glyph unicode="9" glyph-name="nine" horiz-adv-x="1004" d="M911 901Q911 618 729 404Q551 194 225 100L203 131Q521 259 650 495Q714 613 737 762Q586 643 446 643Q239 643 133 832Q84 919 84 1020Q84 1143 151 1248T331 1402Q403 1434 483 1434Q742 1434 857
1178Q911 1058 911 901ZM758 942Q758 1248 614 1353Q551 1399 479 1399Q328 1399 268 1232Q238 1150 238 1040Q238 906 290 811Q354 692 477 692Q607 692 748 817Q758 862 758 942Z" />
<glyph unicode=":" glyph-name="colon" horiz-adv-x="569" d="M375 710Q375 673 350 648T289 622Q252 622 227 647T201 710Q201 747 225 773T283 800Q322 800 348 774T375 710ZM375 141Q375 104 350 79T289 53Q252 53 227 78T201 141Q201 178 225 204T283 231Q322
231 348 205T375 141Z" />
<glyph unicode=";" glyph-name="semicolon" horiz-adv-x="532" d="M377 864Q377 821 347 795T272 768Q228 768 198 794T168 864Q168 960 272 960Q316 960 346 934T377 864ZM393 127Q393 27 326 -57Q263 -136 166 -174L152 -137Q309 -46 309 68Q309 111 281 111Q273
111 256 108T231 104Q192 104 166 131T139 197Q139 241 172 269T250 297Q316 297 356 243Q393 195 393 127Z" />
<glyph unicode="&lt;" glyph-name="less" horiz-adv-x="1366" d="M1219 289L145 743V825L1219 1280V1178L268 784L1219 391V289Z" />
<glyph unicode="=" glyph-name="equal" horiz-adv-x="946" d="M836 539H105V625H836V539ZM836 362H105V448H836V362Z" />
<glyph unicode="&gt;" glyph-name="greater" horiz-adv-x="1366" d="M1221 743L147 289V391L1098 784L147 1178V1280L1221 825V743Z" />
<glyph unicode="?" glyph-name="question" horiz-adv-x="725" d="M637 1063Q637 839 463 757L328 694Q268 666 268 621Q268 551 346 473H301Q201 585 201 684Q201 763 260 809Q294 836 393 873T532 946Q588 998 588 1087Q588 1177 527 1226Q472 1270 379 1270Q352
1270 300 1263T221 1255Q104 1255 104 1329Q104 1425 283 1425Q435 1425 535 1327Q637 1226 637 1063ZM422 201Q422 157 392 131T317 104Q273 104 243 131T213 201Q213 297 317 297Q422 297 422 201Z" />
<glyph unicode="@" glyph-name="at" horiz-adv-x="1878" d="M1835 301Q1783 122 1651 -21Q1524 -158 1348 -235Q1168 -313 969 -313Q593 -313 345 -61T96 573Q96 983 372 1269Q645 1552 1042 1552Q1363 1552 1560 1363T1757 866Q1757 609 1618 398Q1462 160 1206
160Q1053 160 1053 297Q1053 351 1069 440L1065 444Q851 160 676 160Q592 160 540 236Q494 304 494 391Q494 544 589 716Q676 875 805 983T1044 1092Q1112 1092 1160 1056T1221 954L1251 1065L1409 1085L1231 477Q1198 366 1198 315Q1198 233 1276 233Q1425 233
1558 424Q1696 623 1696 885Q1696 1159 1515 1331T1049 1503Q666 1503 422 1205Q190 923 190 549Q190 327 283 146Q382 -44 568 -150Q747 -252 975 -252Q1342 -252 1585 2Q1705 128 1778 301H1835ZM1182 899Q1182 959 1150 999Q1115 1042 1057 1042Q959 1042 848
900Q769 798 713 670Q647 519 647 422Q647 369 678 327Q712 281 764 281Q897 281 1039 479T1182 899Z" />
<glyph unicode="A" glyph-name="A" horiz-adv-x="1386" d="M1376 129H813V168H866Q940 168 966 174Q1026 188 1026 238Q1026 263 1004 322L866 694H442L324 373Q283 261 283 244Q283 168 449 168H481V129H8V168Q133 172 170 235Q194 276 229 371L602 1389L584
1434H762L1190 297Q1228 197 1290 178Q1322 168 1376 168V129ZM831 784L651 1262L477 784H831Z" />
<glyph unicode="B" glyph-name="B" horiz-adv-x="1300" d="M1192 518Q1192 302 1003 189Q903 129 750 129H0V168H47Q204 168 233 234Q248 269 248 336V1186Q248 1286 219 1322Q186 1364 90 1364H18V1403Q56 1405 133 1409Q186 1412 276 1415Q457 1421 584 1421Q883
1421 995 1341Q1120 1252 1120 1114Q1120 992 1007 914Q952 876 887 860Q1083 802 1156 665Q1192 598 1192 518ZM936 1108Q936 1382 598 1382Q571 1382 418 1376V870H641Q936 870 936 1108ZM999 512Q999 695 835 786Q752 831 639 831H418V395Q418 275 476 228Q528
184 651 184Q999 184 999 512Z" />
<glyph unicode="C" glyph-name="C" horiz-adv-x="1493" d="M1415 451Q1381 340 1334 244Q1305 187 1284 152Q1263 155 1242 155Q1225 155 1208 153Q1125 135 959 105Q896 96 821 96Q626 96 466 173Q295 256 198 414Q106 564 106 750Q106 944 199 1100T463 1345T842
1434Q1014 1434 1180 1377Q1252 1352 1274 1352Q1303 1352 1311 1364H1341L1360 1067H1321Q1248 1266 1058 1344Q963 1382 854 1382Q510 1382 367 1098Q299 964 299 791Q299 519 471 332Q640 147 877 147Q1207 147 1376 451H1415Z" />
<glyph unicode="D" glyph-name="D" horiz-adv-x="1556" d="M1444 809Q1444 628 1351 474Q1260 324 1102 231Q929 129 686 129H31V168H66Q180 168 210 227Q227 260 227 317V1198Q227 1325 167 1350Q133 1364 72 1364H31V1403Q132 1408 319 1415Q484 1421 664 1421Q1052
1421 1255 1245Q1444 1080 1444 809ZM1251 776Q1251 1052 1086 1217T561 1382Q497 1382 397 1374V281Q397 194 450 179Q484 168 565 168Q828 168 951 234Q1115 322 1201 516Q1251 631 1251 776Z" />
<glyph unicode="E" glyph-name="E" horiz-adv-x="1217" d="M1126 434L1094 129H6V168H63Q214 168 242 236Q256 271 256 336V1200Q256 1317 196 1347Q161 1364 92 1364H47V1403H1030L1047 1118H1010Q979 1329 858 1329H426V825H793Q858 825 886 872Q905 904 911
979H950V590H911Q901 678 880 709Q851 752 772 752H426V315Q426 252 450 228T537 203H852Q983 203 1035 294Q1063 343 1090 434H1126Z" />
<glyph unicode="F" glyph-name="F" horiz-adv-x="1087" d="M1006 1161H971Q969 1253 931 1291T801 1329H412V848H817Q927 848 936 979H971V618H936Q933 700 903 735Q870 774 791 774H412V326Q412 208 477 183Q515 168 590 168V129H92V168Q153 172 177 182Q218
199 231 244Q242 285 242 369V1171Q242 1279 219 1315Q188 1363 88 1364V1403H1006V1161Z" />
<glyph unicode="G" glyph-name="G" horiz-adv-x="1516" d="M1466 639Q1323 630 1323 510V225Q1075 96 774 96Q583 96 432 180Q273 269 191 435Q117 583 117 741Q117 1005 291 1208Q484 1434 831 1434Q987 1434 1183 1378Q1232 1364 1239 1364Q1269 1364 1286 1378H1315V1047H1274Q1202
1382 854 1382Q597 1382 448 1194Q309 1018 309 754Q309 464 483 298Q640 147 840 147Q996 147 1153 225V483Q1153 573 1117 606T989 639H913V676H1466V639Z" />
<glyph unicode="H" glyph-name="H" horiz-adv-x="1622" d="M1563 129H983V168H1047Q1169 168 1195 233Q1208 266 1208 322V737H406V348Q406 247 437 210Q471 168 569 168H575V129H61V168H74Q193 168 221 227Q236 260 236 317V1219Q236 1299 202 1330Q171 1358
88 1364V1403H575V1364Q440 1364 418 1290Q406 1248 406 1167V811H1208V1214Q1208 1301 1171 1334Q1136 1364 1047 1364H1008V1403H1534V1364Q1415 1360 1392 1296Q1378 1259 1378 1196V346Q1378 209 1444 183Q1479 168 1542 168H1563V129Z" />
<glyph unicode="I" glyph-name="I" horiz-adv-x="682" d="M590 129H92V168Q188 172 218 210Q246 245 246 344V1216Q246 1299 210 1331Q178 1359 92 1364V1403H590V1364Q461 1364 433 1302Q416 1266 416 1198V330Q416 209 483 183Q521 168 590 168V129Z" />
<glyph unicode="J" glyph-name="J" horiz-adv-x="618" d="M559 1364Q468 1361 436 1333Q399 1302 399 1214V340Q399 -84 198 -263Q101 -348 -25 -348Q-90 -348 -147 -324Q-223 -294 -223 -238Q-223 -207 -202 -182T-150 -156Q-116 -156 -50 -204T61 -252Q229 -252
229 49V1143Q229 1317 172 1346Q137 1364 63 1364H41V1403H559V1364Z" />
<glyph unicode="K" glyph-name="K" horiz-adv-x="1430" d="M1432 129H831V168Q965 170 965 225Q965 285 713 537Q642 608 611 636Q539 698 494 714Q468 722 436 722Q423 722 410 721V338Q410 242 444 205T573 168H600V129H39V168H76Q165 168 202 199T240 317V1216Q240
1302 200 1335Q164 1364 76 1364H39V1403H592V1364H573Q481 1364 446 1329T410 1202V760Q519 771 639 891Q802 1054 886 1202Q924 1269 924 1300Q924 1364 782 1364V1403H1321V1364Q1133 1362 1051 1280Q1021 1250 963 1165Q920 1102 878 1039Q776 897 643 797Q685
791 806 671T1051 406L1148 291Q1166 269 1204 227Q1264 168 1432 168V129Z" />
<glyph unicode="L" glyph-name="L" horiz-adv-x="1130" d="M1114 428L956 129H41V168H109Q182 168 210 198T238 303V1210Q238 1298 202 1331T76 1364H47V1403H651V1364H575Q444 1364 422 1316Q408 1287 408 1223V279Q408 203 489 203H791Q896 203 966 284Q1002
326 1077 428H1114Z" />
<glyph unicode="M" glyph-name="M" horiz-adv-x="1878" d="M1835 129H1309V168Q1500 168 1491 303L1432 1221H1427L918 129H870L344 1221L289 299Q282 174 453 168V129H27V168Q164 168 187 246Q199 288 205 387L254 1184Q262 1320 221 1344Q194 1359 131 1364V1401H440L934
369L1425 1401H1726V1364L1660 1358Q1615 1351 1602 1335T1591 1284L1657 356Q1662 291 1665 271Q1674 213 1695 193Q1719 168 1835 168V129Z" />
<glyph unicode="N" glyph-name="N" horiz-adv-x="1665" d="M1630 1364Q1537 1364 1505 1352Q1444 1331 1444 1257V115H1391L330 1225V346Q330 205 404 182Q446 168 537 168V129H61V168H70Q238 168 238 305V1313Q168 1361 66 1364V1403H387L1352 397V1212Q1352
1329 1276 1350Q1233 1362 1151 1364V1403H1630V1364Z" />
<glyph unicode="O" glyph-name="O" horiz-adv-x="1686" d="M1577 801Q1577 496 1365 296T848 96Q654 96 489 171Q313 252 209 404Q109 550 109 737Q109 935 203 1095T473 1345Q644 1434 858 1434Q1155 1434 1366 1253T1577 801ZM1384 733Q1384 1018 1222 1200T805
1382Q560 1382 422 1189Q301 1019 301 801Q301 624 373 476Q450 318 593 231Q729 147 891 147Q1205 147 1329 448Q1384 583 1384 733Z" />
<glyph unicode="P" glyph-name="P" horiz-adv-x="1153" d="M1079 1059Q1079 861 923 757Q789 668 584 668Q491 668 410 684V326Q410 236 446 202T573 168H641V129H74V168H102Q179 168 207 189Q240 214 240 287V1255Q240 1364 143 1364H41V1403Q209 1411 299 1415Q449
1421 553 1421Q846 1421 974 1303Q1079 1206 1079 1059ZM887 1065Q887 1382 551 1382Q459 1382 410 1374V723Q479 707 520 707Q746 707 842 881Q887 963 887 1065Z" />
<glyph unicode="Q" glyph-name="Q" horiz-adv-x="1686" d="M1640 -242L1608 -285Q1559 -297 1513 -297Q1368 -297 1217 -201Q1194 -187 965 -9Q867 67 786 98Q602 111 450 191Q286 278 196 427Q109 570 109 745Q109 937 206 1096Q303 1252 473 1343T850 1434Q1155
1434 1364 1257Q1577 1075 1577 795Q1577 463 1318 256Q1193 156 1030 113Q1127 78 1319 -85Q1499 -237 1640 -242ZM1384 733Q1384 1018 1222 1200T805 1382Q560 1382 422 1189Q301 1019 301 801Q301 624 373 477Q450 319 594 232Q730 149 891 149Q1205 149 1329
450Q1384 585 1384 733Z" />
<glyph unicode="R" glyph-name="R" horiz-adv-x="1642" d="M1630 106Q1585 104 1544 104Q1362 104 1252 153Q1149 198 997 350L862 485Q728 619 651 668Q549 664 512 664Q472 664 408 668V322Q408 207 476 181Q510 168 571 168H618V129H39V168H74Q170 168 204
204T238 338V1200Q238 1292 206 1328T84 1364H39V1403Q79 1403 219 1411Q253 1413 297 1415Q427 1421 555 1421Q828 1421 970 1319Q1104 1222 1104 1057Q1104 935 1026 845Q953 761 831 725Q925 652 1065 512L1227 350Q1355 222 1483 174Q1550 149 1630 143V106ZM911
1044Q911 1261 750 1339Q661 1382 510 1382Q444 1382 408 1378V707Q443 702 535 702Q911 702 911 1044Z" />
<glyph unicode="S" glyph-name="S" horiz-adv-x="1004" d="M911 446Q911 284 780 186Q661 96 494 96Q422 96 281 135Q219 152 209 152Q183 152 168 129H133L90 440H129Q160 312 251 234Q346 152 475 152Q591 152 671 213Q758 281 758 393Q758 497 640 598Q597
635 435 738Q276 838 213 900Q100 1011 100 1137Q100 1312 279 1395Q362 1434 465 1434Q566 1434 672 1398Q719 1382 743 1382Q765 1382 780 1403H813L848 1143H813Q772 1250 685 1315Q594 1384 483 1384Q387 1384 324 1337Q254 1285 254 1192Q254 1090 370 993Q406
963 573 859Q732 759 799 692Q911 578 911 446Z" />
<glyph unicode="T" glyph-name="T" horiz-adv-x="1386" d="M1321 1102H1284Q1256 1272 1204 1310Q1177 1329 1135 1329H778V317Q778 231 817 198Q852 168 940 168H1016V129H371V168H446Q534 168 569 198Q608 231 608 317V1329H252Q176 1329 139 1249Q121 1210
102 1102H66L98 1434H137Q142 1403 201 1403H1186Q1244 1403 1249 1434H1288L1321 1102Z" />
<glyph unicode="U" glyph-name="U" horiz-adv-x="1622" d="M1597 1364Q1496 1362 1454 1319T1411 1176V623Q1411 452 1325 326T1083 141Q966 96 805 96Q522 96 364 245Q213 385 213 612V1210Q213 1330 149 1351Q114 1362 37 1364V1403H563V1364H545Q457 1364 420
1332T383 1214V645Q383 430 510 314Q632 203 850 203Q1317 203 1317 647V1124Q1317 1308 1248 1341Q1208 1359 1116 1364V1403H1597V1364Z" />
<glyph unicode="V" glyph-name="V" horiz-adv-x="1409" d="M1389 1364Q1304 1364 1253 1316Q1212 1277 1178 1188L756 96H653L209 1204Q184 1265 171 1289Q143 1336 106 1351Q73 1364 8 1364V1403H571V1364Q392 1362 369 1302Q357 1272 377 1223L745 305L1069
1151Q1104 1242 1104 1278Q1104 1364 913 1364V1403H1389V1364Z" />
<glyph unicode="W" glyph-name="W" horiz-adv-x="2048" d="M2034 1364Q1917 1364 1876 1300Q1851 1262 1819 1178L1407 96H1309L1040 729L782 96H682L256 1186Q215 1291 171 1326Q122 1364 14 1364H2V1403H532V1364H498Q386 1364 386 1292Q386 1268 399 1235L772
297L993 844L827 1247Q797 1320 745 1345Q704 1364 616 1364V1403H1456V1364Q1375 1364 1334 1345Q1280 1321 1253 1255L1122 936L1391 297L1753 1247Q1770 1291 1764 1315Q1751 1360 1610 1364V1403H2034V1364ZM1167 1276Q1178 1302 1178 1320Q1178 1364 1116
1364H1030Q964 1364 964 1324Q964 1309 973 1288L1075 1051L1167 1276Z" />
<glyph unicode="X" glyph-name="X" horiz-adv-x="1536" d="M1530 129H965V168Q1098 168 1098 218Q1098 253 1036 330L729 709L403 317Q352 256 352 218Q352 168 465 168H506V129H18V168Q155 179 239 255Q287 299 360 387L678 770L360 1169Q301 1243 268 1274Q211
1329 152 1347Q99 1362 18 1364V1403H629V1364Q463 1366 469 1311Q471 1282 504 1241L782 897L1004 1161Q1095 1269 1095 1318Q1095 1364 1012 1364H952V1403H1444V1364Q1267 1364 1096 1155L834 834L1219 354Q1277 282 1300 259Q1352 207 1403 190Q1446 176 1530
168V129Z" />
<glyph unicode="Y" glyph-name="Y" horiz-adv-x="1450" d="M1407 1364Q1314 1357 1257 1321T1151 1202L811 627V319Q811 234 851 200Q888 168 975 168H1001V129H438V168H477Q563 168 600 198Q641 231 641 315V604L276 1173Q231 1243 205 1274Q156 1331 108 1348Q66
1362 -4 1364V1403H541V1364Q393 1364 397 1310Q399 1282 432 1231L760 725L1049 1216Q1080 1269 1080 1302Q1080 1364 944 1364V1403H1407V1364Z" />
<glyph unicode="Z" glyph-name="Z" horiz-adv-x="1386" d="M1288 500L1264 129H82V176L1001 1329H393Q265 1329 232 1248Q213 1202 205 1114H168L178 1403H1233V1356L307 203H1032Q1165 203 1203 312Q1222 366 1251 500H1288Z" />
<glyph unicode="[" glyph-name="bracketleft" horiz-adv-x="618" d="M604 -309H209V1464H604V1423H459Q402 1423 379 1411Q346 1393 346 1343V-188Q346 -238 379 -256Q402 -268 459 -268H604V-309Z" />
<glyph unicode="\" glyph-name="backslash" horiz-adv-x="938" d="M844 100H756L94 1434H182L844 100Z" />
<glyph unicode="]" glyph-name="bracketright" horiz-adv-x="618" d="M410 -309H14V-268H160Q217 -268 240 -256Q272 -238 272 -188V1343Q272 1393 240 1411Q217 1423 160 1423H14V1464H410V-309Z" />
<glyph unicode="^" glyph-name="asciicircum" horiz-adv-x="961" d="M924 788H829L479 1374L131 788H37L465 1505H496L924 788Z" />
<glyph unicode="_" glyph-name="underscore" horiz-adv-x="1024" d="M1040 -127H-16V-25H1040V-127Z" />
<glyph unicode="`" glyph-name="grave" horiz-adv-x="682" d="M526 1128H500L283 1274Q143 1368 143 1419Q143 1479 207 1479Q273 1479 338 1389L526 1128Z" />
<glyph unicode="a" glyph-name="a" horiz-adv-x="811" d="M799 217Q660 104 596 104Q510 104 502 229Q349 104 264 104Q181 104 130 146Q74 191 74 272Q74 380 186 431Q224 448 343 486Q441 517 498 551V713Q498 803 463 844Q413 903 348 903Q306 903 265 875Q221
843 221 803Q221 787 231 764L92 696Q86 716 86 725Q86 770 151 836Q202 887 256 920Q327 963 389 963Q526 963 604 854Q635 811 635 678V403Q635 229 657 212Q667 203 688 203Q735 203 788 248L799 217ZM498 266V510Q459 487 377 453Q283 414 262 400Q205 361
205 297Q205 246 240 211T326 176Q370 176 498 266Z" />
<glyph unicode="b" glyph-name="b" horiz-adv-x="1024" d="M936 567Q936 371 800 239Q661 104 457 104Q382 104 279 121Q230 129 154 143V1253Q154 1351 128 1365Q113 1372 70 1378L12 1386V1421L258 1505H291V819Q490 963 600 963Q738 963 837 846T936 567ZM799
510Q799 722 662 822Q598 868 520 868Q425 868 291 772V379Q291 281 353 223T514 164Q651 164 729 272Q799 368 799 510Z" />
<glyph unicode="c" glyph-name="c" horiz-adv-x="874" d="M801 317Q667 104 438 104Q217 104 131 320Q94 412 94 500Q94 766 330 901Q438 963 565 963Q698 963 765 906Q795 879 795 846Q795 784 735 784Q690 784 627 843Q556 909 496 909Q347 909 268 724Q231
639 231 545Q231 333 373 235Q439 188 520 188Q664 188 770 336L801 317Z" />
<glyph unicode="d" glyph-name="d" horiz-adv-x="1024" d="M1020 207L758 104H733V250Q531 104 416 104Q226 104 132 302Q88 392 88 500Q88 767 308 901Q411 963 532 963Q637 963 733 924V1321Q733 1355 709 1367Q697 1373 653 1378L586 1386V1421L870 1505V303Q870
228 930 228Q948 228 971 235L1020 250V207ZM733 295V754Q628 907 489 907Q328 907 258 741Q225 663 225 569Q225 435 290 323Q367 192 492 192Q588 192 733 295Z" />
<glyph unicode="e" glyph-name="e" horiz-adv-x="897" d="M831 649H233Q225 587 225 563Q225 353 384 253Q456 207 537 207Q684 207 797 340L819 315Q652 104 455 104Q247 104 146 311Q98 407 98 524Q98 769 284 900Q373 963 494 963Q667 963 735 865Q762 803
831 696V649ZM659 702Q638 837 548 896Q504 924 457 924Q295 924 240 702H659Z" />
<glyph unicode="f" glyph-name="f" horiz-adv-x="555" d="M844 1409Q844 1394 822 1353T788 1311Q782 1311 711 1360Q635 1411 549 1411Q322 1411 322 1096V940H528L543 850H322V289Q322 215 362 189Q393 168 473 168H551V129H45V168Q156 168 174 220Q184 248
184 309V850H33V885Q117 903 184 940Q184 1073 218 1169Q255 1273 342 1360Q487 1505 633 1505Q741 1505 814 1448Q844 1424 844 1409Z" />
<glyph unicode="g" glyph-name="g" horiz-adv-x="961" d="M967 772Q854 779 762 797Q797 730 797 666Q797 495 629 410Q548 369 438 369Q393 369 344 385Q337 377 270 338Q219 307 219 281Q219 210 512 207Q664 206 707 201Q832 186 885 133Q946 72 946 -10Q946
-128 805 -232Q647 -348 387 -348Q272 -348 186 -308Q72 -256 72 -154Q72 -101 109 -60Q125 -42 191 8T291 98Q224 105 166 141Q96 184 96 244Q96 303 178 336Q225 354 305 395Q109 474 109 649Q109 749 172 829Q231 904 328 939Q393 963 469 963Q613 963 698 881Q782
881 886 892Q923 896 967 901V772ZM659 647Q659 761 610 836Q553 924 444 924Q345 924 293 854Q246 792 246 690Q246 534 342 451Q391 408 463 408Q559 408 612 482Q659 547 659 647ZM840 -47Q840 61 702 74Q677 76 641 78L413 86Q338 89 332 90Q290 55 217 -24Q199
-49 199 -86Q199 -194 352 -261Q421 -291 502 -291Q686 -291 792 -167Q840 -110 840 -47Z" />
<glyph unicode="h" glyph-name="h" horiz-adv-x="1067" d="M1038 129H596V168Q678 168 710 201Q739 231 747 315T756 631Q756 879 569 879Q480 879 328 782V291Q328 217 358 192Q385 168 461 168V129H51V168Q134 172 163 208Q190 240 190 326V1307Q190 1367 139
1374L51 1386V1421L295 1505H328V834Q547 963 666 963Q893 963 893 657Q893 429 883 246Q885 190 944 176Q975 168 1038 168V129Z" />
<glyph unicode="i" glyph-name="i" horiz-adv-x="532" d="M350 1356Q350 1321 323 1300T260 1278Q226 1278 199 1300T172 1356Q172 1390 199 1412T260 1434Q296 1434 323 1413T350 1356ZM492 129H37V168Q125 168 164 198Q207 232 207 317V729Q207 803 184 816Q171
823 143 829L47 848V881L313 973H344V285Q344 168 492 168V129Z" />
<glyph unicode="j" glyph-name="j" horiz-adv-x="512" d="M346 1356Q346 1321 319 1300T256 1278Q222 1278 195 1300T168 1356Q168 1390 195 1412T256 1434Q292 1434 319 1413T346 1356ZM344 92Q344 -113 248 -230T4 -348Q-64 -348 -128 -326Q-215 -297 -215 -242Q-215
-212 -200 -182Q-181 -147 -154 -147Q-125 -147 -53 -208T70 -270Q207 -270 207 -47V747Q207 792 195 807T139 831L47 848V881L315 973H344V92Z" />
<glyph unicode="k" glyph-name="k" horiz-adv-x="1024" d="M1016 129H575V168Q668 168 668 205Q668 226 637 258L326 582V268Q326 209 356 187Q382 168 444 168H465V129H45V168Q188 168 188 305V1294Q188 1336 179 1351Q167 1369 129 1374L45 1386V1421L295 1505H326V616L621
827Q662 856 648 879Q634 901 578 901H543V940H948V901Q851 897 780 864Q732 843 633 772L444 637L772 303Q840 234 880 208Q942 169 1016 168V129Z" />
<glyph unicode="l" glyph-name="l" horiz-adv-x="492" d="M473 129H12V168Q99 168 136 193Q182 224 182 305V1294Q182 1339 172 1353Q160 1372 119 1376L27 1386V1421L289 1505H319V291Q319 168 438 168H473V129Z" />
<glyph unicode="m" glyph-name="m" horiz-adv-x="1622" d="M1620 129H1159V168H1178Q1253 168 1282 197Q1315 230 1315 487V647Q1315 881 1161 881Q1063 881 889 766V295Q889 219 914 194T1016 168V129H596V168Q709 168 737 234Q752 269 752 326V704Q752 780 715
828Q674 881 600 881Q506 881 326 762V295Q326 194 379 178Q408 168 469 168V129H43V168Q127 168 159 206Q188 240 188 326V727Q188 778 181 796Q170 825 129 831L49 842V877L295 963H326V799Q559 963 690 963Q765 963 817 918T885 799Q969 853 1011 876Q1084 918
1145 941Q1202 963 1247 963Q1452 963 1452 653Q1452 423 1446 260Q1443 168 1554 168H1620V129Z" />
<glyph unicode="n" glyph-name="n" horiz-adv-x="1067" d="M1042 129H602V168Q683 171 719 207Q762 250 762 668Q762 816 681 862Q643 883 600 883Q518 883 328 752V307Q328 200 380 180Q409 168 465 168V129H53V168Q190 168 190 297V727Q190 780 183 795Q173
818 129 827L59 842V874L295 960H328V801Q477 894 496 904Q606 963 680 963Q899 963 899 655Q899 478 888 322Q884 273 883 250Q880 168 997 168H1042V129Z" />
<glyph unicode="o" glyph-name="o" horiz-adv-x="1067" d="M975 532Q975 353 850 230Q722 104 541 104Q280 104 152 312Q92 408 92 528Q92 727 231 849Q360 963 535 963Q724 963 848 841Q975 716 975 532ZM821 481Q821 658 730 785T506 913Q405 913 326 821T246
598Q246 341 404 214Q477 154 563 154Q704 154 783 309Q821 383 821 481Z" />
<glyph unicode="p" glyph-name="p" horiz-adv-x="1024" d="M928 575Q928 455 870 349T710 179T494 115Q417 115 307 156V-176Q307 -309 444 -309H496V-348H12V-309H33Q114 -309 143 -274Q170 -242 170 -158V745Q170 799 113 813L47 829V868L266 1003H307V807Q504
956 625 956Q793 956 886 761Q928 673 928 575ZM791 483Q791 726 644 818Q582 856 522 856Q424 856 307 756V289Q431 178 549 178Q692 178 760 329Q791 399 791 483Z" />
<glyph unicode="q" glyph-name="q" horiz-adv-x="1024" d="M1016 -348H520V-309H600Q682 -309 711 -271Q737 -237 737 -152V256Q574 113 428 113Q273 113 179 239Q94 354 94 514Q94 773 308 903Q407 963 526 963Q647 963 784 893Q818 938 852 958H887Q874 900
874 854V-184Q874 -309 993 -309H1016V-348ZM737 303V668Q737 815 624 881Q571 911 506 911Q368 911 294 802Q231 709 231 567Q231 427 301 321Q381 199 514 199Q633 199 737 303Z" />
<glyph unicode="r" glyph-name="r" horiz-adv-x="682" d="M702 901L653 778Q604 785 545 811Q500 831 473 831Q431 831 393 778Q346 713 328 676V279Q328 212 362 188Q390 168 461 168H539V129H53V168Q131 169 162 207Q190 241 190 322V795L53 844V879L287 960H328L332
743Q390 838 394 844Q440 914 468 934Q492 950 526 950Q551 950 596 932L702 901Z" />
<glyph unicode="s" glyph-name="s" horiz-adv-x="618" d="M553 338Q553 235 479 170T299 104Q250 104 209 119Q163 131 154 131Q134 131 119 106H88L66 336H98Q116 255 162 203Q216 143 293 143Q377 143 419 211Q438 243 438 279Q438 339 373 403Q335 441 234
510Q140 574 103 615T66 733Q66 840 145 904Q219 963 328 963Q406 963 492 930L496 743H461Q446 848 374 892Q339 913 297 913Q246 913 209 881T172 799Q172 736 236 680Q256 663 353 601T490 494Q553 424 553 338Z" />
<glyph unicode="t" glyph-name="t" horiz-adv-x="598" d="M584 272Q507 104 360 104Q266 104 208 177Q154 245 154 342V850H59V883Q139 922 201 1026Q231 1077 256 1143H291V940H584L551 850H291V373Q291 309 325 259Q365 201 426 201Q493 201 551 303L584 272Z" />
<glyph unicode="u" glyph-name="u" horiz-adv-x="1067" d="M1018 188L743 104V268Q515 104 395 104Q304 104 241 163T178 313V768Q178 837 123 852L51 872V903L315 960V387Q315 304 366 254T500 203Q607 203 743 315V756Q743 812 732 831Q718 855 668 864L565
883V911L881 960V270Q881 216 917 212Q934 209 975 217L1018 225V188Z" />
<glyph unicode="v" glyph-name="v" horiz-adv-x="981" d="M969 903Q865 885 807 754L524 111H465L168 791Q127 885 78 893L14 903V940H432V903Q333 900 308 879Q285 860 317 786L535 276L743 750Q773 818 746 857Q719 896 612 903V940H969V903Z" />
<glyph unicode="w" glyph-name="w" horiz-adv-x="1516" d="M1507 903Q1429 895 1384 838Q1359 806 1339 756L1075 111H1020L776 688L530 111H473L168 799Q127 891 16 903V940H414V903Q302 897 304 845Q305 817 328 766L549 272L750 747Q692 885 598 897L549 903V940H973V903Q895
901 875 872Q854 843 885 768L1085 281L1282 760Q1315 841 1289 872Q1261 903 1163 903V940H1507V903Z" />
<glyph unicode="x" glyph-name="x" horiz-adv-x="1004" d="M991 129H582V170Q658 170 676 189Q693 208 655 256L473 489L293 287Q267 257 267 233Q267 170 397 170V129H16V170Q90 170 134 195Q170 214 225 276L444 522L246 782Q158 898 31 903V940H444V903Q375
903 361 884Q345 861 377 819L530 616L664 766Q702 809 702 841Q702 903 596 903V940H991V903L932 897Q831 887 731 776L557 584L803 276Q847 221 889 194Q925 170 991 170V129Z" />
<glyph unicode="y" glyph-name="y" horiz-adv-x="961" d="M950 903Q872 895 824 824Q800 788 780 739L432 -129Q344 -348 252 -348Q219 -348 195 -329Q168 -309 168 -277Q168 -240 201 -221Q214 -213 267 -197T338 -162Q378 -121 408 -45L469 109L152 782Q122
847 91 871Q55 902 -10 903V940H401V903Q311 902 292 874Q272 845 303 778L535 279L709 713Q738 785 738 826Q738 849 730 862Q706 900 610 903V940H950V903Z" />
<glyph unicode="z" glyph-name="z" horiz-adv-x="831" d="M807 352L723 129H63V168L582 866H236Q200 866 180 825Q167 798 127 670H88L152 995H186Q186 957 218 946Q234 940 283 940H770V903L254 203H629Q684 203 721 253Q741 280 770 352H807Z" />
<glyph unicode="{" glyph-name="braceleft" horiz-adv-x="981" d="M768 -348Q617 -334 506 -225Q391 -112 391 37Q391 113 414 209Q438 309 438 356Q438 438 363 496Q300 545 211 561V596Q347 621 409 711Q438 752 438 801Q438 848 414 948Q391 1044 391 1120Q391
1269 506 1382Q617 1491 768 1505V1468Q626 1454 565 1338Q537 1285 537 1231Q537 1174 556 1069T575 909Q575 770 443 661Q378 608 291 578Q466 522 541 379Q575 314 575 248Q575 194 556 88T537 -74Q537 -170 604 -236T768 -311V-348Z" />
<glyph unicode="|" glyph-name="bar" horiz-adv-x="1044" d="M567 -348H479V1434H567V-348Z" />
<glyph unicode="}" glyph-name="braceright" horiz-adv-x="981" d="M770 561Q682 545 619 496Q543 437 543 356Q543 298 565 209Q590 108 590 37Q590 -158 407 -281Q321 -338 213 -348V-311Q353 -297 416 -181Q444 -129 444 -74Q444 -20 425 86T406 248Q406 362
494 457Q575 542 690 582Q515 634 440 780Q406 845 406 909Q406 964 425 1070T444 1231Q444 1351 337 1426Q285 1461 213 1468V1505Q328 1495 422 1427T562 1253Q590 1187 590 1120Q590 1065 567 960T543 801Q543 720 619 662Q682 613 770 596V561Z" />
<glyph unicode="~" glyph-name="asciitilde" horiz-adv-x="1110" d="M1096 922Q1084 616 831 616Q734 616 525 706T244 797Q105 797 72 616H14Q17 753 78 832Q147 922 279 922Q359 922 575 831Q798 737 870 737Q1021 737 1038 922H1096Z" />
<glyph unicode="" glyph-name="delete" horiz-adv-x="1600" d="M1520 129H1154V715H1232V198H1520V129ZM1080 129H642V715H1066V646H720V467H1044V398H720V198H1080V129ZM572 425Q572 299 516 222Q470 158 393 139Q352 129 298 129H87V715H289Q357 715 393 707Q505
681 549 565Q572 504 572 425ZM492 427Q492 594 388 634Q357 646 288 646H164V198H290Q392 198 433 239Q492 298 492 427Z" />
<glyph unicode="&#xa0;" glyph-name="nbspace" horiz-adv-x="500" />
<glyph unicode="&#xa1;" glyph-name="exclamdown" horiz-adv-x="569" d="M379 986Q379 948 353 921T289 894Q252 894 226 921T201 986Q202 1022 227 1047T289 1072Q326 1072 352 1047T379 986ZM375 136Q375 -18 287 -18Q197 -18 197 138Q197 201 230 389T264 707L265
824H306L307 709Q308 581 342 391Q375 205 375 136Z" />
<glyph unicode="&#xa2;" glyph-name="cent" horiz-adv-x="874" d="M801 317Q693 147 531 113Q493 104 452 104Q402 104 348 117L213 -215H147L291 137Q94 250 94 500Q94 631 163 742T351 913Q450 963 565 963Q591 963 618 960L725 1221H791L680 946Q795 912 795
846Q795 784 735 784Q686 784 633 834L389 221Q465 188 522 188Q658 188 772 336L801 317ZM586 874Q533 909 496 909Q347 909 268 724Q231 639 231 545Q231 381 338 262L586 874Z" />
<glyph unicode="&#xa3;" glyph-name="sterling" horiz-adv-x="1556" d="M1507 1335Q1507 1272 1442 1272Q1410 1272 1354 1320Q1313 1357 1272 1393Q1248 1411 1188 1411Q1112 1411 1038 1337T807 880Q697 611 688 591Q618 427 555 309H907L897 260H532Q463 112
358 -16L362 -21Q465 35 586 35Q728 35 911 -99Q1000 -164 1030 -181Q1101 -221 1167 -221Q1239 -221 1292 -182Q1352 -139 1352 -70Q1352 -36 1323 15T1294 80Q1294 111 1314 133T1366 156Q1412 156 1436 108Q1456 70 1456 20Q1456 -70 1398 -153Q1344 -228 1259
-274Q1171 -322 1075 -322Q930 -322 756 -175Q670 -103 631 -79Q556 -33 483 -33Q414 -33 317 -80Q277 -162 223 -227Q148 -317 84 -317Q65 -317 47 -303T29 -270Q29 -208 121 -134Q196 -75 270 -47Q330 56 406 260H104L115 309H426L586 723Q747 1140 936 1329Q1043
1436 1152 1466Q1208 1481 1266 1481Q1403 1481 1475 1408Q1507 1374 1507 1335Z" />
<glyph unicode="&#xa4;" glyph-name="currency" horiz-adv-x="1366" d="M1153 379L1092 317L967 442Q826 340 684 340Q545 340 401 440L276 317L215 379L340 502Q240 640 240 784Q240 932 340 1067L215 1190L276 1253L401 1130Q541 1229 684 1229Q828 1229 967
1128L1092 1253L1153 1190L1028 1067Q1128 933 1128 784Q1128 642 1028 504L1153 379ZM1040 784Q1040 990 861 1094Q779 1141 684 1141Q479 1141 376 963Q328 880 328 784Q328 582 506 477Q587 428 684 428Q831 428 935 533T1040 784Z" />
<glyph unicode="&#xa5;" glyph-name="yen" horiz-adv-x="1024" d="M1194 1364Q1026 1352 938 1202L858 1065H1085V997H817L627 676H1085V608H598V319Q598 234 638 200Q675 168 762 168H788V129H225V168H264Q350 168 387 198Q428 231 428 315V608H-121V676H383L176
997H-121V1065H133L63 1173Q17 1245 -8 1274Q-56 1331 -105 1348Q-147 1362 -217 1364V1403H328V1364Q180 1364 184 1310Q186 1281 219 1231L328 1065H748L836 1216Q867 1268 867 1301Q867 1364 731 1364V1403H1194V1364ZM707 997H371L547 725L707 997Z" />
<glyph unicode="&#xa6;" glyph-name="brokenbar" horiz-adv-x="1044" d="M567 678H479V1434H567V678ZM567 -348H479V408H567V-348Z" />
<glyph unicode="&#xa7;" glyph-name="section" horiz-adv-x="961" d="M852 166Q852 -54 695 -193Q547 -324 385 -324Q312 -324 234 -294Q133 -256 133 -195Q133 -169 153 -149T199 -129Q231 -129 284 -175Q324 -209 363 -244Q391 -264 455 -264Q558 -264 615 -183Q641
-146 641 -104Q641 -30 541 122L393 328Q259 519 203 626Q106 811 106 960Q106 1169 241 1325T567 1481Q706 1481 791 1411Q829 1379 829 1348Q829 1282 756 1282Q721 1282 657 1345Q580 1419 506 1419Q400 1419 345 1336Q319 1298 319 1253Q319 1186 427 1024Q503
919 578 815Q715 625 769 511Q852 339 852 166ZM774 145Q774 307 707 450Q666 539 541 719L445 858Q332 1022 284 1131Q257 1192 250 1237Q182 1126 182 981Q182 865 237 740Q268 670 358 522Q457 383 641 95Q693 2 707 -82Q774 18 774 145Z" />
<glyph unicode="&#xa8;" glyph-name="dieresis" horiz-adv-x="682" d="M631 1274Q631 1236 605 1210T541 1184Q503 1184 477 1210T451 1274Q451 1312 477 1338T541 1364Q579 1364 605 1338T631 1274ZM233 1274Q233 1236 207 1210T143 1184Q105 1184 79 1210T53
1274Q53 1312 79 1338T143 1364Q181 1364 207 1338T233 1274Z" />
<glyph unicode="&#xa9;" glyph-name="copyright" horiz-adv-x="1556" d="M1487 807Q1487 616 1393 453T1134 194T778 98Q588 98 425 192T166 451T70 807Q70 997 164 1160T423 1419T778 1515Q969 1515 1132 1421T1391 1162T1487 807ZM1425 807Q1425 981 1340 1129T1105
1366T778 1454Q604 1454 455 1368T219 1132T131 807Q131 539 320 350T778 160Q953 160 1102 245T1338 481T1425 807ZM1165 561Q1024 358 780 358Q509 358 378 577Q317 678 317 801Q317 930 382 1036T562 1203T815 1264Q893 1264 986 1232Q1023 1219 1040 1219Q1074
1219 1087 1264H1126L1147 983H1108Q1038 1221 805 1221Q604 1221 523 1037Q483 948 483 831Q483 648 556 542Q641 418 815 418Q1012 418 1126 580L1165 561Z" />
<glyph unicode="&#xaa;" glyph-name="ordfeminine" horiz-adv-x="532" d="M530 987Q443 915 387 915Q331 915 317 979Q232 915 172 915Q119 915 83 941Q43 971 43 1022Q43 1076 96 1107Q119 1120 199 1144T313 1188V1300Q313 1335 289 1360T229 1386Q199 1386
175 1363Q162 1349 162 1334Q162 1322 170 1309L59 1259Q51 1270 51 1283Q51 1303 68 1328Q97 1369 152 1401T256 1434Q350 1434 401 1372Q426 1341 426 1305V1042Q426 987 449 987Q485 987 518 1022L530 987ZM313 1018V1147Q256 1128 170 1083Q152 1067 152 1036Q152
971 215 971Q236 971 313 1018Z" />
<glyph unicode="&#xab;" glyph-name="guillemotleft" horiz-adv-x="834" d="M778 10H725L385 410L725 803H772L526 410L778 10ZM471 10H422L84 410L424 803H471L225 410L471 10Z" />
<glyph unicode="&#xac;" glyph-name="logicalnot" horiz-adv-x="1366" d="M1221 498H1128V985H145V1075H1221V498Z" />
<glyph unicode="&#xad;" glyph-name="sfthyphen" horiz-adv-x="1366" d="M1221 739H145V829H1221V739Z" />
<glyph unicode="&#xae;" glyph-name="registered" horiz-adv-x="1556" d="M1487 807Q1487 616 1393 453T1134 194T778 98Q588 98 425 192T166 451T70 807Q70 997 164 1160T423 1419T778 1515Q969 1515 1132 1421T1391 1162T1487 807ZM1425 807Q1425 981 1340 1129T1105
1366T778 1454Q604 1454 455 1368T219 1132T131 807Q131 539 320 350T778 160Q953 160 1102 245T1338 481T1425 807ZM1176 377H991L696 782H623V487Q623 410 739 410V377H373V410Q446 410 467 449Q477 469 477 498V1120Q477 1206 385 1206V1243H770Q954 1243 1032
1136Q1069 1085 1069 1018Q1069 852 846 797L1055 498Q1113 415 1176 410V377ZM907 1008Q907 1092 848 1145T705 1198Q671 1198 623 1184V825H662Q762 825 828 866Q907 914 907 1008Z" />
<glyph unicode="&#xaf;" glyph-name="overscore" horiz-adv-x="682" d="M623 1216H59V1335H623V1216Z" />
<glyph unicode="&#xb0;" glyph-name="degree" horiz-adv-x="811" d="M713 1130Q713 954 561 865Q490 823 406 823Q278 823 188 912T98 1130Q98 1306 252 1397Q323 1438 406 1438Q533 1438 623 1348T713 1130ZM629 1130Q629 1259 518 1324Q467 1354 406 1354Q312
1354 247 1289T182 1130Q182 1037 247 972T406 907Q534 907 599 1019Q629 1070 629 1130Z" />
<glyph unicode="&#xb1;" glyph-name="plusminus" horiz-adv-x="946" d="M835 581H514V328H430V581H105V664H430V992H514V664H835V581ZM835 175H105V258H835V175Z" />
<glyph unicode="&#xb2;" glyph-name="twosuperior" horiz-adv-x="618" d="M578 915L553 756H47V780Q76 809 223 939Q335 1038 387 1104Q432 1161 432 1229Q432 1288 389 1325T285 1362Q150 1362 104 1221H61Q73 1320 146 1378Q215 1434 317 1434Q410 1434 478
1386Q553 1333 553 1243Q553 1139 441 1056L308 958Q229 899 162 829H442Q493 829 510 846T535 915H578Z" />
<glyph unicode="&#xb3;" glyph-name="threesuperior" horiz-adv-x="618" d="M578 991Q578 851 415 776Q341 741 258 741Q204 741 146 758Q66 780 66 821Q66 864 115 864Q147 864 203 823T301 782Q370 782 418 840Q463 894 463 965Q463 1020 431 1061Q396 1104
342 1104Q301 1104 256 1069L231 1098Q401 1209 401 1278Q401 1318 367 1344Q337 1368 295 1368Q198 1368 139 1262L98 1276Q143 1376 240 1415Q287 1434 336 1434Q400 1434 449 1405Q506 1371 506 1311Q506 1236 395 1167Q509 1159 556 1078Q578 1039 578 991Z"
/>
<glyph unicode="&#xb4;" glyph-name="acute" horiz-adv-x="682" d="M526 1419Q526 1368 387 1274L170 1128H143L332 1389Q397 1479 463 1479Q526 1479 526 1419Z" />
<glyph unicode="&#xb5;" glyph-name="micro" horiz-adv-x="1024" d="M1016 332Q1012 240 973 177Q925 100 840 100Q751 100 708 189Q687 232 686 291Q495 100 346 100Q255 100 190 186Q187 155 187 127Q187 95 191 67Q193 52 219 -69Q236 -153 236 -205Q236 -247
210 -280T143 -313Q55 -313 55 -205Q55 -156 76 -68Q106 58 109 71Q117 118 117 203V940H254V498Q254 338 289 278Q327 213 420 213Q562 213 686 356V940H823V324Q823 209 893 209Q955 209 973 332H1016Z" />
<glyph unicode="&#xb6;" glyph-name="paragraph" horiz-adv-x="918" d="M930 1348H799V-348H725V1348H539V-348H465V647Q143 647 37 826Q-14 911 -14 1026Q-14 1266 195 1358Q297 1403 436 1403H930V1348Z" />
<glyph unicode="&#xb7;" glyph-name="middot" horiz-adv-x="532" d="M371 791Q371 747 341 721T266 694Q222 694 192 721T162 791Q162 887 266 887Q371 887 371 791Z" />
<glyph unicode="&#xb8;" glyph-name="cedilla" horiz-adv-x="682" d="M492 -123Q492 -196 441 -247T317 -299Q279 -299 229 -283L244 -254Q271 -262 297 -262Q341 -262 373 -232T406 -158Q406 -84 340 -84Q293 -84 209 -125L369 139H399L334 29Q345 31 355 31Q430
31 471 -44Q492 -82 492 -123Z" />
<glyph unicode="&#xb9;" glyph-name="onesuperior" horiz-adv-x="618" d="M487 756H160V788H244Q270 788 270 821V1325Q188 1272 127 1247L109 1274Q238 1348 313 1434H375V823Q375 788 414 788H487V756Z" />
<glyph unicode="&#xba;" glyph-name="ordmasculine" horiz-adv-x="705" d="M643 1176Q643 1034 501 953Q434 915 348 915Q196 915 117 1016Q53 1098 53 1176Q53 1312 190 1394Q256 1434 348 1434Q500 1434 579 1338Q643 1260 643 1176ZM522 1145Q522 1284 427
1358Q383 1391 332 1391Q263 1391 219 1336Q178 1285 178 1214Q178 1121 226 1045Q281 958 369 958Q441 958 484 1017Q522 1070 522 1145Z" />
<glyph unicode="&#xbb;" glyph-name="guillemotright" horiz-adv-x="834" d="M762 399L424 10H375L621 399L367 803H412L762 399ZM459 399L123 10H74L317 399L66 803H111L459 399Z" />
<glyph unicode="&#xbc;" glyph-name="onequarter" horiz-adv-x="1473" d="M1282 319H1161V115H1057V319H748V350L1108 807H1161V383H1282V319ZM1235 1468L240 74H156L1151 1468H1235ZM487 756H160V788H244Q270 788 270 821V1325Q188 1272 127 1247L109 1274Q238
1348 313 1434H375V823Q375 788 414 788H487V756ZM1057 383L1053 670L834 383H1057Z" />
<glyph unicode="&#xbd;" glyph-name="onehalf" horiz-adv-x="1473" d="M1358 289L1333 129H827V154Q922 239 1109 412Q1212 510 1212 602Q1212 661 1169 698T1065 735Q1002 735 953 696T885 594H842Q853 693 926 751Q996 807 1098 807Q1191 807 1258 759Q1333
705 1333 616Q1333 534 1268 468Q1245 445 1134 366Q1019 284 942 203H1223Q1286 203 1302 234Q1311 252 1315 289H1358ZM1235 1468L240 74H156L1151 1468H1235ZM487 756H160V788H244Q270 788 270 821V1325Q188 1272 127 1247L109 1274Q238 1348 313 1434H375V823Q375
788 414 788H487V756Z" />
<glyph unicode="&#xbe;" glyph-name="threequarters" horiz-adv-x="1473" d="M1317 319H1196V115H1092V319H782V350L1143 807H1196V383H1317V319ZM1270 1468L274 74H190L1186 1468H1270ZM567 991Q567 850 405 775Q331 741 248 741Q194 741 136 757Q55 780 55 821Q55
864 104 864Q137 864 193 823T291 782Q360 782 408 840Q453 894 453 965Q453 1020 421 1061Q386 1104 332 1104Q291 1104 246 1069L221 1098Q391 1209 391 1278Q391 1318 357 1344Q327 1368 285 1368Q190 1368 129 1262L88 1276Q133 1376 230 1415Q277 1434 326
1434Q390 1434 439 1405Q496 1371 496 1311Q496 1236 385 1167Q465 1161 514 1117Q567 1069 567 991ZM1092 383V670H1087L868 383H1092Z" />
<glyph unicode="&#xbf;" glyph-name="questiondown" horiz-adv-x="725" d="M512 877Q512 833 482 807T408 780Q364 780 334 806T303 877Q303 973 408 973Q512 973 512 877ZM621 -252Q621 -348 442 -348Q235 -348 136 -177Q88 -95 88 14Q88 241 261 321Q320 347
378 373Q457 415 457 457Q457 526 379 604H424Q524 502 524 393Q524 314 465 269Q433 244 334 207T194 132Q137 79 137 -10Q137 -100 198 -148Q254 -193 346 -193Q373 -193 425 -186T504 -178Q621 -178 621 -252Z" />
<glyph unicode="&#xc0;" glyph-name="Agrave" horiz-adv-x="1386" d="M1376 129H813V168H866Q940 168 966 174Q1026 188 1026 238Q1026 263 1004 322L866 694H442L324 373Q283 261 283 244Q283 168 449 168H481V129H8V168Q133 172 170 235Q194 276 229 371L602
1389L584 1434H762L1190 297Q1228 197 1290 178Q1322 168 1376 168V129ZM831 784L651 1262L477 784H831ZM878 1564H852L635 1710Q495 1804 495 1855Q495 1915 559 1915Q625 1915 690 1825L878 1564Z" />
<glyph unicode="&#xd7;" glyph-name="multiply" horiz-adv-x="946" d="M802 219L744 162L467 437L190 162L131 219L406 497L131 775L193 831L467 555L744 831L802 775L523 497L802 219Z" />
<glyph unicode="&#xe0;" glyph-name="agrave" horiz-adv-x="811" d="M799 217Q660 104 596 104Q510 104 502 229Q349 104 264 104Q181 104 130 146Q74 191 74 272Q74 380 186 431Q224 448 343 486Q441 517 498 551V713Q498 803 463 844Q413 903 348 903Q306 903
265 875Q221 843 221 803Q221 787 231 764L92 696Q86 716 86 725Q86 770 151 836Q202 887 256 920Q327 963 389 963Q526 963 604 854Q635 811 635 678V403Q635 229 657 212Q667 203 688 203Q735 203 788 248L799 217ZM498 266V510Q459 487 377 453Q283 414 262
400Q205 361 205 297Q205 246 240 211T326 176Q370 176 498 266ZM592 1128H566L349 1274Q209 1368 209 1419Q209 1479 273 1479Q339 1479 404 1389L592 1128Z" />
<glyph unicode="&#xe2;" glyph-name="acircumflex" horiz-adv-x="811" d="M799 217Q660 104 596 104Q510 104 502 229Q349 104 264 104Q181 104 130 146Q74 191 74 272Q74 380 186 431Q224 448 343 486Q441 517 498 551V713Q498 803 463 844Q413 903 348 903Q306
903 265 875Q221 843 221 803Q221 787 231 764L92 696Q86 716 86 725Q86 770 151 836Q202 887 256 920Q327 963 389 963Q526 963 604 854Q635 811 635 678V403Q635 229 657 212Q667 203 688 203Q735 203 788 248L799 217ZM498 266V510Q459 487 377 453Q283 414
262 400Q205 361 205 297Q205 246 240 211T326 176Q370 176 498 266ZM614 1124L360 1380L118 1124V1159L339 1528H397L614 1159V1124Z" />
<glyph unicode="&#xe7;" glyph-name="ccedilla" horiz-adv-x="874" d="M801 317Q671 112 451 104L406 29Q418 31 429 31Q478 31 516 -9Q563 -57 563 -123Q563 -197 513 -248T389 -299Q351 -299 301 -283L315 -254Q343 -262 369 -262Q413 -262 445 -232T477 -158Q477
-84 412 -84Q365 -84 281 -125L420 106Q211 118 129 325Q94 414 94 500Q94 766 330 901Q438 963 565 963Q698 963 765 906Q795 879 795 846Q795 784 735 784Q690 784 627 843Q556 909 496 909Q347 909 268 724Q231 639 231 545Q231 333 373 235Q439 188 520 188Q664
188 770 336L801 317Z" />
<glyph unicode="&#xe8;" glyph-name="egrave" horiz-adv-x="897" d="M831 649H233Q225 587 225 563Q225 353 384 253Q456 207 537 207Q684 207 797 340L819 315Q652 104 455 104Q247 104 146 311Q98 407 98 524Q98 769 284 900Q373 963 494 963Q667 963 735 865Q762
803 831 696V649ZM659 702Q638 837 548 896Q504 924 457 924Q295 924 240 702H659ZM635 1128H609L392 1274Q252 1368 252 1419Q252 1479 316 1479Q382 1479 447 1389L635 1128Z" />
<glyph unicode="&#xe9;" glyph-name="eacute" horiz-adv-x="897" d="M831 649H233Q225 587 225 563Q225 353 384 253Q456 207 537 207Q684 207 797 340L819 315Q652 104 455 104Q247 104 146 311Q98 407 98 524Q98 769 284 900Q373 963 494 963Q667 963 735 865Q762
803 831 696V649ZM659 702Q638 837 548 896Q504 924 457 924Q295 924 240 702H659ZM635 1419Q635 1368 496 1274L279 1128H252L441 1389Q506 1479 572 1479Q635 1479 635 1419Z" />
<glyph unicode="&#xea;" glyph-name="ecircumflex" horiz-adv-x="897" d="M831 649H233Q225 587 225 563Q225 353 384 253Q456 207 537 207Q684 207 797 340L819 315Q652 104 455 104Q247 104 146 311Q98 407 98 524Q98 769 284 900Q373 963 494 963Q667 963 735
865Q762 803 831 696V649ZM659 702Q638 837 548 896Q504 924 457 924Q295 924 240 702H659ZM728 1124L474 1380L232 1124V1159L453 1528H511L728 1159V1124Z" />
<glyph unicode="&#xeb;" glyph-name="edieresis" horiz-adv-x="897" d="M831 649H233Q225 587 225 563Q225 353 384 253Q456 207 537 207Q684 207 797 340L819 315Q652 104 455 104Q247 104 146 311Q98 407 98 524Q98 769 284 900Q373 963 494 963Q667 963 735
865Q762 803 831 696V649ZM659 702Q638 837 548 896Q504 924 457 924Q295 924 240 702H659ZM740 1274Q740 1236 714 1210T650 1184Q612 1184 586 1210T560 1274Q560 1312 586 1338T650 1364Q688 1364 714 1338T740 1274ZM342 1274Q342 1236 316 1210T252 1184Q214
1184 188 1210T162 1274Q162 1312 188 1338T252 1364Q290 1364 316 1338T342 1274Z" />
<glyph unicode="&#xee;" glyph-name="icircumflex" horiz-adv-x="532" d="M492 129H37V168Q125 168 164 198Q207 232 207 317V729Q207 803 184 816Q171 823 143 829L47 848V881L313 973H344V285Q344 168 492 168V129ZM739 1124L485 1380L243 1124V1159L464 1528H522L739
1159V1124Z" />
<glyph unicode="&#xef;" glyph-name="idieresis" horiz-adv-x="532" d="M492 129H37V168Q125 168 164 198Q207 232 207 317V729Q207 803 184 816Q171 823 143 829L47 848V881L313 973H344V285Q344 168 492 168V129ZM799 1274Q799 1236 773 1210T709 1184Q671 1184
645 1210T619 1274Q619 1312 645 1338T709 1364Q747 1364 773 1338T799 1274ZM401 1274Q401 1236 375 1210T311 1184Q273 1184 247 1210T221 1274Q221 1312 247 1338T311 1364Q349 1364 375 1338T401 1274Z" />
<glyph unicode="&#xf4;" glyph-name="ocircumflex" horiz-adv-x="1067" d="M975 532Q975 353 850 230Q722 104 541 104Q280 104 152 312Q92 408 92 528Q92 727 231 849Q360 963 535 963Q724 963 848 841Q975 716 975 532ZM821 481Q821 658 730 785T506 913Q405
913 326 821T246 598Q246 341 404 214Q477 154 563 154Q704 154 783 309Q821 383 821 481ZM747 1124L493 1380L251 1124V1159L472 1528H530L747 1159V1124Z" />
<glyph unicode="&#xf7;" glyph-name="divide" horiz-adv-x="946" d="M549 772Q549 736 525 711T466 685Q431 685 406 711T380 772Q380 807 405 831T466 855Q501 855 525 831T549 772ZM835 452H105V535H835V452ZM549 215Q549 179 525 154T466 129Q431 129 406 154T380
215Q380 251 405 275T466 300Q501 300 525 276T549 215Z" />
<glyph unicode="&#xf9;" glyph-name="ugrave" horiz-adv-x="1067" d="M1018 188L743 104V268Q515 104 395 104Q304 104 241 163T178 313V768Q178 837 123 852L51 872V903L315 960V387Q315 304 366 254T500 203Q607 203 743 315V756Q743 812 732 831Q718 855 668
864L565 883V911L881 960V270Q881 216 917 212Q934 209 975 217L1018 225V188ZM719 1128H693L476 1274Q336 1368 336 1419Q336 1479 400 1479Q466 1479 531 1389L719 1128Z" />
<glyph unicode="&#xfb;" glyph-name="ucircumflex" horiz-adv-x="1067" d="M1018 188L743 104V268Q515 104 395 104Q304 104 241 163T178 313V768Q178 837 123 852L51 872V903L315 960V387Q315 304 366 254T500 203Q607 203 743 315V756Q743 812 732 831Q718 855
668 864L565 883V911L881 960V270Q881 216 917 212Q934 209 975 217L1018 225V188ZM759 1124L505 1380L263 1124V1159L484 1528H542L759 1159V1124Z" />
<glyph unicode="&#xfc;" glyph-name="udieresis" horiz-adv-x="1067" d="M1018 188L743 104V268Q515 104 395 104Q304 104 241 163T178 313V768Q178 837 123 852L51 872V903L315 960V387Q315 304 366 254T500 203Q607 203 743 315V756Q743 812 732 831Q718 855
668 864L565 883V911L881 960V270Q881 216 917 212Q934 209 975 217L1018 225V188ZM824 1274Q824 1236 798 1210T734 1184Q696 1184 670 1210T644 1274Q644 1312 670 1338T734 1364Q772 1364 798 1338T824 1274ZM426 1274Q426 1236 400 1210T336 1184Q298 1184
272 1210T246 1274Q246 1312 272 1338T336 1364Q374 1364 400 1338T426 1274Z" />
<glyph unicode="&#xff;" glyph-name="ydieresis" horiz-adv-x="961" d="M950 903Q872 895 824 824Q800 788 780 739L432 -129Q344 -348 252 -348Q219 -348 195 -329Q168 -309 168 -277Q168 -240 201 -221Q214 -213 267 -197T338 -162Q378 -121 408 -45L469 109L152
782Q122 847 91 871Q55 902 -10 903V940H401V903Q311 902 292 874Q272 845 303 778L535 279L709 713Q738 785 738 826Q738 849 730 862Q706 900 610 903V940H950V903ZM770 1274Q770 1236 744 1210T680 1184Q642 1184 616 1210T590 1274Q590 1312 616 1338T680 1364Q718
1364 744 1338T770 1274ZM372 1274Q372 1236 346 1210T282 1184Q244 1184 218 1210T192 1274Q192 1312 218 1338T282 1364Q320 1364 346 1338T372 1274Z" />
<glyph unicode="&#x131;" glyph-name="dotlessi" horiz-adv-x="532" d="M492 129H37V168Q125 168 164 198Q207 232 207 317V729Q207 803 184 816Q171 823 143 829L47 848V881L313 973H344V285Q344 168 492 168V129Z" />
<glyph unicode="&#x152;" glyph-name="OE" horiz-adv-x="2028" d="M1931 434L1898 129H1081Q1075 129 978 126Q954 125 901 123L750 115Q587 115 443 197T210 420Q117 567 117 758Q117 996 274 1189Q459 1417 813 1417Q831 1417 1004 1409Q1134 1403 1225 1403H1835L1851
1118H1815Q1801 1217 1779 1260Q1743 1329 1663 1329H1247V825H1599Q1665 825 1692 871Q1712 904 1718 979H1757V590H1718Q1708 678 1687 709Q1658 752 1579 752H1247V203H1657Q1768 203 1821 266Q1859 310 1894 434H1931ZM1077 448V1141Q1077 1366 786 1366Q459
1366 347 1087Q295 957 295 791Q295 626 355 487Q422 333 548 247Q665 166 805 166Q957 166 1033 274Q1077 337 1077 448Z" />
<glyph unicode="&#x153;" glyph-name="oe" horiz-adv-x="1516" d="M1452 649H897Q896 628 896 608Q896 367 1031 250Q1097 192 1174 192Q1256 192 1415 338L1436 315Q1242 104 1083 104Q939 104 846 254Q734 104 535 104Q275 104 152 317Q94 416 94 537Q94 667
168 775T364 931Q444 963 530 963Q726 963 823 811Q948 963 1122 963Q1284 963 1350 871Q1385 801 1452 696V649ZM1264 702Q1264 843 1181 899Q1142 924 1092 924Q1018 924 956 846Q912 790 901 702H1264ZM772 483Q772 742 637 859Q573 913 494 913Q369 913 288
761Q248 687 248 586Q248 337 411 210Q482 154 553 154Q692 154 746 306Q772 380 772 483Z" />
<glyph unicode="&#x160;" glyph-name="Scaron" horiz-adv-x="1004" d="M911 446Q911 284 780 186Q661 96 494 96Q422 96 281 135Q219 152 209 152Q183 152 168 129H133L90 440H129Q160 312 251 234Q346 152 475 152Q591 152 671 213Q758 281 758 393Q758 497 640
598Q597 635 435 738Q276 838 213 900Q100 1011 100 1137Q100 1312 279 1395Q362 1434 465 1434Q566 1434 672 1398Q719 1382 743 1382Q765 1382 780 1403H813L848 1143H813Q772 1250 685 1315Q594 1384 483 1384Q387 1384 324 1337Q254 1285 254 1192Q254 1090
370 993Q406 963 573 859Q732 759 799 692Q911 578 911 446ZM750 1925L529 1556H471L254 1925V1960L508 1704L750 1960V1925Z" />
<glyph unicode="&#x161;" glyph-name="scaron" horiz-adv-x="618" d="M553 338Q553 235 479 170T299 104Q250 104 209 119Q163 131 154 131Q134 131 119 106H88L66 336H98Q116 255 162 203Q216 143 293 143Q377 143 419 211Q438 243 438 279Q438 339 373 403Q335
441 234 510Q140 574 103 615T66 733Q66 840 145 904Q219 963 328 963Q406 963 492 930L496 743H461Q446 848 374 892Q339 913 297 913Q246 913 209 881T172 799Q172 736 236 680Q256 663 353 601T490 494Q553 424 553 338ZM794 1493L573 1124H515L298 1493V1528L552
1272L794 1528V1493Z" />
<glyph unicode="&#x178;" glyph-name="Ydieresis" horiz-adv-x="1450" d="M1407 1364Q1314 1357 1257 1321T1151 1202L811 627V319Q811 234 851 200Q888 168 975 168H1001V129H438V168H477Q563 168 600 198Q641 231 641 315V604L276 1173Q231 1243 205 1274Q156
1331 108 1348Q66 1362 -4 1364V1403H541V1364Q393 1364 397 1310Q399 1282 432 1231L760 725L1049 1216Q1080 1269 1080 1302Q1080 1364 944 1364V1403H1407V1364ZM1016 1710Q1016 1672 990 1646T926 1620Q888 1620 862 1646T836 1710Q836 1748 862 1774T926 1800Q964
1800 990 1774T1016 1710ZM618 1710Q618 1672 592 1646T528 1620Q490 1620 464 1646T438 1710Q438 1748 464 1774T528 1800Q566 1800 592 1774T618 1710Z" />
<glyph unicode="&#x192;" glyph-name="florin" horiz-adv-x="1024" d="M1020 1409Q1020 1350 963 1350Q929 1350 875 1389Q811 1434 780 1434Q711 1434 661 1352Q623 1290 606 1208L551 940H727L707 872H539L434 274Q361 -144 134 -285Q32 -348 -72 -348Q-123
-348 -170 -326Q-229 -299 -229 -254Q-229 -229 -209 -211T-162 -193Q-124 -193 -62 -240Q-4 -283 33 -283Q98 -283 159 -222T262 21L307 279L412 872H270L276 911Q348 920 426 938Q483 1247 633 1397Q743 1507 874 1507Q925 1507 968 1484Q1020 1456 1020 1409Z"
/>
<glyph unicode="&#x2c6;" glyph-name="circumflex" horiz-adv-x="682" d="M590 1124L336 1380L94 1124V1159L315 1528H373L590 1159V1124Z" />
<glyph unicode="&#x2c7;" glyph-name="caron" horiz-adv-x="682" d="M588 1493L367 1124H309L92 1493V1528L346 1272L588 1528V1493Z" />
<glyph unicode="&#x60c;" glyph-name="arabiccomma" horiz-adv-x="569" d="M428 158Q428 114 398 85T324 55Q252 55 205 123T158 295Q158 495 332 627L356 594Q225 454 225 332Q225 263 252 240Q300 264 326 264Q367 264 397 232T428 158Z" />
<glyph unicode="&#x61b;" glyph-name="arabicsemicolon" horiz-adv-x="569" d="M428 445Q428 401 398 372T324 342Q252 342 205 410T158 582Q158 782 332 914L356 881Q225 741 225 619Q225 550 252 527Q300 551 326 551Q367 551 397 519T428 445ZM397 141Q397
104 372 79T311 53Q274 53 249 78T223 141Q223 178 247 204T305 231Q344 231 370 205T397 141Z" />
<glyph unicode="&#x61f;" glyph-name="arabicquestionmark" horiz-adv-x="643" d="M578 913Q578 846 542 801T455 756Q418 756 393 782T367 846Q367 900 412 926L453 950Q479 969 479 1001Q479 1041 446 1067T362 1094Q298 1094 257 1053T215 950Q215 893 244
846L307 719Q385 562 385 424Q385 395 373 311H342Q343 335 346 360Q348 381 348 387Q348 471 306 509L209 596Q80 712 80 858Q80 973 158 1054T348 1135Q446 1135 512 1071T578 913ZM434 141Q434 104 410 79T348 53Q311 53 284 79T256 141Q256 178 281 204T344
231Q381 231 407 205T434 141Z" />
<glyph unicode="&#x621;" glyph-name="hamza" horiz-adv-x="569" d="M502 258Q481 181 436 160L41 -29V-10Q41 54 227 129Q29 168 29 264Q29 340 127 461Q209 563 283 563Q320 563 344 536T369 471Q369 435 324 369Q283 436 225 436Q178 436 145 401T111 326Q111
286 189 253Q263 221 344 221Q403 221 502 258Z" />
<glyph unicode="&#x622;" glyph-name="alefwithmaddaabovefinal" horiz-adv-x="535" arabic-form="terminal" d="M605 129H465Q296 129 279 319Q270 419 236 707Q206 957 206 983Q206 1023 278 1110L342 385Q354 250 465 250H605V129ZM491 1245Q406 1152 280 1152Q247
1152 183 1170T84 1188Q54 1188 14 1167L0 1178Q54 1270 107 1270Q149 1270 231 1248T355 1226Q398 1226 479 1257L491 1245Z" />
<glyph unicode="&#x622;" glyph-name="alefwithmaddaabove" horiz-adv-x="479" arabic-form="isolated" d="M340 379Q340 288 287 129L267 135Q279 215 279 244Q279 319 267 410L216 798Q207 866 207 899Q207 978 273 1110Q275 948 287 856L328 528Q340 432 340
379ZM491 1245Q406 1152 280 1152Q247 1152 183 1170T84 1188Q54 1188 14 1167L0 1178Q54 1270 107 1270Q149 1270 231 1248T355 1226Q398 1226 479 1257L491 1245Z" />
<glyph unicode="&#x623;" glyph-name="alefwithhamzaabovefinal" horiz-adv-x="448" arabic-form="terminal" d="M518 129H378Q209 129 192 319Q183 419 149 707Q119 957 119 983Q119 1023 191 1110L255 385Q267 250 378 250H518V129ZM355 1258Q349 1230 345 1221Q336
1197 321 1193L45 1114Q54 1152 74 1168Q91 1183 146 1203Q80 1235 80 1281Q80 1302 97 1325Q183 1443 260 1443Q312 1443 312 1387Q312 1363 283 1319Q232 1352 202 1352Q174 1352 135 1319Q215 1244 277 1244Q302 1244 355 1258Z" />
<glyph unicode="&#x623;" glyph-name="alefwithhamzaabove" horiz-adv-x="344" arabic-form="isolated" d="M250 379Q250 288 197 129L177 135Q189 215 189 244Q189 319 177 410L126 798Q117 866 117 899Q117 978 183 1110Q185 948 197 856L238 528Q250 432 250
379ZM355 1258Q349 1230 345 1221Q336 1197 321 1193L45 1114Q54 1152 74 1168Q91 1183 146 1203Q80 1235 80 1281Q80 1302 97 1325Q183 1443 260 1443Q312 1443 312 1387Q312 1363 283 1319Q232 1352 202 1352Q174 1352 135 1319Q215 1244 277 1244Q302 1244 355
1258Z" />
<glyph unicode="&#x624;" glyph-name="wawwithhamzaabovefinal" horiz-adv-x="719" arabic-form="terminal" d="M789 129H639Q590 -64 526 -164Q409 -348 252 -348Q167 -348 18 -264L35 -246Q105 -274 154 -274Q304 -274 434 -155T597 129H565Q479 129 424 157T369
233Q369 288 446 416Q488 485 526 485Q570 485 605 416T643 250H789V129ZM590 250Q559 360 492 360Q478 360 462 347T446 313Q446 287 484 270Q524 250 590 250ZM665 662Q659 634 655 625Q646 601 631 597L355 518Q364 556 384 572Q401 587 456 607Q390 639 390
685Q390 706 407 729Q493 847 570 847Q622 847 622 791Q622 767 593 723Q542 756 512 756Q484 756 445 723Q525 648 587 648Q612 648 665 662Z" />
<glyph unicode="&#x624;" glyph-name="wawwithhamzaabove" horiz-adv-x="719" arabic-form="isolated" d="M664 281Q664 39 546 -154T281 -348Q188 -348 37 -268L55 -252Q116 -276 176 -276Q319 -276 449 -152Q523 -82 569 12Q614 103 614 178Q614 224 594 258Q545
190 498 190Q450 190 415 226T379 313Q379 369 440 498Q481 584 532 584Q585 584 624 493T664 281ZM542 378Q526 422 489 422Q455 422 455 385Q455 342 492 342Q528 342 542 378ZM619 795Q613 767 609 758Q600 734 585 730L309 651Q318 689 338 705Q355 720 410
740Q344 772 344 818Q344 839 361 862Q447 980 524 980Q576 980 576 924Q576 900 547 856Q496 889 466 889Q438 889 399 856Q479 781 541 781Q566 781 619 795Z" />
<glyph unicode="&#x625;" glyph-name="alefwithhamzabelowfinal" horiz-adv-x="420" arabic-form="terminal" d="M490 129H350Q181 129 164 319Q155 419 121 707Q91 957 91 983Q91 1023 163 1110L227 385Q239 250 350 250H490V129ZM414 -135Q408 -163 404 -172Q395
-196 380 -200L104 -279Q113 -241 133 -225Q150 -210 205 -190Q139 -158 139 -112Q139 -91 156 -68Q242 50 319 50Q371 50 371 -6Q371 -31 342 -74Q291 -41 261 -41Q233 -41 194 -74Q274 -149 336 -149Q361 -149 414 -135Z" />
<glyph unicode="&#x625;" glyph-name="alefwithhamzabelow" horiz-adv-x="344" arabic-form="isolated" d="M226 379Q226 288 173 129L153 135Q165 215 165 244Q165 319 153 410L102 798Q93 866 93 899Q93 978 159 1110Q161 948 173 856L214 528Q226 432 226 379ZM330
-135Q324 -163 320 -172Q311 -196 296 -200L20 -279Q29 -241 49 -225Q66 -210 121 -190Q55 -158 55 -112Q55 -91 72 -68Q158 50 235 50Q287 50 287 -6Q287 -31 258 -74Q207 -41 177 -41Q149 -41 110 -74Q190 -149 252 -149Q277 -149 330 -135Z" />
<glyph unicode="&#x626;" glyph-name="yehwithhamzaaboveinitial" horiz-adv-x="379" arabic-form="initial" d="M264 397Q264 129 70 129H0V250H70Q122 250 168 271Q219 294 219 326Q219 342 209 358L166 428Q152 451 152 471Q152 492 164 510L219 594Q264 495
264 397ZM355 795Q349 767 345 758Q336 734 321 730L45 651Q54 689 74 705Q91 720 146 740Q80 772 80 818Q80 839 97 862Q183 980 260 980Q312 980 312 924Q312 900 283 856Q232 889 202 889Q174 889 135 856Q215 781 277 781Q302 781 355 795Z" />
<glyph unicode="&#x626;" glyph-name="yehwithhamzaabovemedial" horiz-adv-x="379" arabic-form="medial" d="M449 129H309Q287 129 257 168T225 244Q165 129 70 129H0V250H70Q159 250 262 391L274 387Q285 309 299 283Q318 250 363 250H449V129ZM395 617Q389
589 385 580Q376 556 361 552L85 473Q94 511 114 527Q131 542 186 562Q120 594 120 640Q120 661 137 684Q223 802 300 802Q352 802 352 746Q352 722 323 678Q272 711 242 711Q214 711 175 678Q255 603 317 603Q342 603 395 617Z" />
<glyph unicode="&#x626;" glyph-name="yehwithhamzaabovefinal" horiz-adv-x="983" arabic-form="terminal" d="M1053 129H915Q826 129 773 102T719 35Q719 6 780 -6L864 -23Q987 -48 987 -154Q987 -272 792 -358Q615 -436 424 -436Q266 -436 178 -358T90 -141Q90
1 197 197L215 182Q141 25 141 -61Q141 -171 223 -235T446 -299Q580 -299 758 -248Q940 -196 940 -154Q940 -109 860 -102L719 -90Q627 -82 627 -25Q627 70 718 158Q812 250 928 250H1053V129ZM395 458Q389 430 385 421Q376 397 361 393L85 314Q94 352 114 368Q131
383 186 403Q120 435 120 481Q120 502 137 525Q223 643 300 643Q352 643 352 587Q352 563 323 519Q272 552 242 552Q214 552 175 519Q255 444 317 444Q342 444 395 458Z" />
<glyph unicode="&#x626;" glyph-name="yehwithhamzaabove" horiz-adv-x="1171" arabic-form="isolated" d="M1092 766L1063 621Q1025 658 983 658Q903 658 793 585T682 428Q682 359 799 338L949 311Q1038 295 1038 246Q1038 167 1006 115Q955 32 762 -47T416 -127Q250
-127 155 -54T59 145Q59 246 110 364Q136 425 215 565L238 547Q129 339 129 240Q129 136 217 73T453 10Q597 10 790 81Q971 148 971 184Q971 212 920 219L780 238Q608 261 608 373Q608 469 762 633Q898 778 1026 778Q1055 778 1092 766ZM400 795Q394 767 390 758Q381
734 366 730L90 651Q99 689 119 705Q136 720 191 740Q125 772 125 818Q125 839 142 862Q228 980 305 980Q357 980 357 924Q357 900 328 856Q277 889 247 889Q219 889 180 856Q260 781 322 781Q347 781 400 795Z" />
<glyph unicode="&#x627;" glyph-name="aleffinal" horiz-adv-x="420" arabic-form="terminal" d="M490 129H350Q181 129 164 319Q155 419 121 707Q91 957 91 983Q91 1023 163 1110L227 385Q239 250 350 250H490V129Z" />
<glyph unicode="&#x627;" glyph-name="arabicalef" horiz-adv-x="301" arabic-form="isolated" d="M226 379Q226 288 173 129L153 135Q165 215 165 244Q165 319 153 410L102 798Q93 866 93 899Q93 978 159 1110Q161 948 173 856L214 528Q226 432 226 379Z" />
<glyph unicode="&#x628;" glyph-name="behinitial" horiz-adv-x="379" arabic-form="initial" d="M264 397Q264 129 70 129H0V250H70Q122 250 168 271Q219 294 219 326Q219 342 209 358L166 428Q152 451 152 471Q152 492 164 510L219 594Q264 495 264 397ZM256
-49L188 -158L90 -84L154 23L256 -49Z" />
<glyph unicode="&#x628;" glyph-name="behmedial" horiz-adv-x="379" arabic-form="medial" d="M449 129H309Q287 129 257 168T225 244Q165 129 70 129H0V250H70Q159 250 262 391L274 387Q285 309 299 283Q318 250 363 250H449V129ZM311 -87L240 -197L139 -124L207
-17L311 -87Z" />
<glyph unicode="&#x628;" glyph-name="behfinal" horiz-adv-x="1438" arabic-form="terminal" d="M1508 129H1368Q1324 129 1291 155Q1255 183 1251 227Q1052 53 596 53Q92 53 92 330Q92 417 170 565L193 555Q152 473 152 418Q152 315 286 252T643 188Q864 188
1036 231Q1219 277 1247 350Q1281 250 1368 250H1508V129ZM821 -170L750 -274L651 -201L719 -98L821 -170Z" />
<glyph unicode="&#x628;" glyph-name="beh" horiz-adv-x="1399" arabic-form="isolated" d="M1315 471Q1315 290 1153 215Q875 86 539 86Q323 86 205 148T86 324Q86 403 182 553L207 545Q154 460 154 412Q154 324 262 275T563 225Q822 225 1067 301Q1260 361 1260
410Q1260 424 1253 434L1210 510Q1202 524 1202 547Q1202 566 1217 600L1247 668Q1315 540 1315 471ZM836 -77L772 -187L674 -118L735 -13L836 -77Z" />
<glyph unicode="&#x629;" glyph-name="tehmarbutafinal" horiz-adv-x="570" arabic-form="terminal" d="M639 129H500Q409 129 375 348L315 292Q270 256 225 256Q163 256 115 275T66 319Q66 335 111 430Q158 529 326 614V631Q326 694 367 772L428 403Q453 250
500 250H639V129ZM367 410L342 551Q222 510 166 412Q215 391 299 391Q332 391 367 410ZM418 922L350 821L244 889L182 797L78 870L141 975L250 903L313 993L418 922Z" />
<glyph unicode="&#x629;" glyph-name="tehmarbuta" horiz-adv-x="528" arabic-form="isolated" d="M459 360Q459 252 396 181T238 109Q170 109 127 157T84 281Q84 361 139 474T217 619T264 651Q322 651 385 571Q459 477 459 360ZM397 336Q397 361 350 399Q276
459 219 459Q184 459 162 422T139 332Q139 264 246 264Q309 264 353 284T397 336ZM430 1024L367 920L262 983L197 891L96 963L160 1069L264 1001L330 1092L430 1024Z" />
<glyph unicode="&#x62a;" glyph-name="tehinitial" horiz-adv-x="379" arabic-form="initial" d="M264 397Q264 129 70 129H0V250H70Q122 250 168 271Q219 294 219 326Q219 342 209 358L166 428Q152 451 152 471Q152 492 164 510L219 594Q264 495 264 397ZM373
870L307 766L203 836L135 748L35 817L102 922L207 854L274 940L373 870Z" />
<glyph unicode="&#x62a;" glyph-name="tehmedial" horiz-adv-x="379" arabic-form="medial" d="M449 129H309Q287 129 257 168T225 244Q165 129 70 129H0V250H70Q159 250 262 391L274 387Q285 309 299 283Q318 250 363 250H449V129ZM385 687L319 582L215 654L152
562L55 631L117 740L225 666L281 760L385 687Z" />
<glyph unicode="&#x62a;" glyph-name="tehfinal" horiz-adv-x="1438" arabic-form="terminal" d="M1508 129H1368Q1324 129 1291 155Q1255 183 1251 227Q1052 53 596 53Q92 53 92 330Q92 417 170 565L193 555Q152 473 152 418Q152 315 286 252T643 188Q864 188
1036 231Q1219 277 1247 350Q1281 250 1368 250H1508V129ZM870 686L805 579L700 647L639 551L528 618L596 729L705 661L766 753L870 686Z" />
<glyph unicode="&#x62a;" glyph-name="teh" horiz-adv-x="1399" arabic-form="isolated" d="M1315 471Q1315 290 1153 215Q875 86 539 86Q323 86 205 148T86 324Q86 403 182 553L207 545Q154 460 154 412Q154 324 262 275T563 225Q822 225 1067 301Q1260 361 1260
410Q1260 424 1253 434L1210 510Q1202 524 1202 547Q1202 566 1217 600L1247 668Q1315 540 1315 471ZM842 697L774 588L670 666L606 576L510 649L575 758L680 680L737 772L842 697Z" />
<glyph unicode="&#x62b;" glyph-name="thehinitial" horiz-adv-x="379" arabic-form="initial" d="M264 397Q264 129 70 129H0V250H70Q122 250 168 271Q219 294 219 326Q219 342 209 358L166 428Q152 451 152 471Q152 492 164 510L219 594Q264 495 264 397ZM241
1164L179 1053L77 1117L138 1231L241 1164ZM372 986L310 877L204 943L149 844L40 918L102 1029L212 961L267 1053L372 986Z" />
<glyph unicode="&#x62b;" glyph-name="thehmedial" horiz-adv-x="379" arabic-form="medial" d="M449 129H309Q287 129 257 168T225 244Q165 129 70 129H0V250H70Q159 250 262 391L274 387Q285 309 299 283Q318 250 363 250H449V129ZM262 858L197 754L98 817L160
928L262 858ZM387 680L326 569L219 643L158 547L59 618L121 725L225 655L283 750L387 680Z" />
<glyph unicode="&#x62b;" glyph-name="thehfinal" horiz-adv-x="1438" arabic-form="terminal" d="M1508 129H1368Q1324 129 1291 155Q1255 183 1251 227Q1052 53 596 53Q92 53 92 330Q92 417 170 565L193 555Q152 473 152 418Q152 315 286 252T643 188Q864 188
1036 231Q1219 277 1247 350Q1281 250 1368 250H1508V129ZM731 868L668 763L565 831L631 942L731 868ZM860 694L797 585L688 651L631 561L526 628L590 737L694 671L760 761L860 694Z" />
<glyph unicode="&#x62b;" glyph-name="theh" horiz-adv-x="1399" arabic-form="isolated" d="M1315 471Q1315 290 1153 215Q875 86 539 86Q323 86 205 148T86 324Q86 403 182 553L207 545Q154 460 154 412Q154 324 262 275T563 225Q822 225 1067 301Q1260 361
1260 410Q1260 424 1253 434L1210 510Q1202 524 1202 547Q1202 566 1217 600L1247 668Q1315 540 1315 471ZM713 883L649 779L551 848L612 953L713 883ZM836 701L772 597L668 668L608 576L504 650L569 756L676 681L731 775L836 701Z" />
<glyph unicode="&#x62c;" glyph-name="jeeminitial" horiz-adv-x="1020" arabic-form="initial" d="M932 434L897 326H855Q815 326 751 331T655 336Q538 336 420 282Q329 233 237 183Q139 129 70 129H0V250H70Q157 250 290 300Q456 363 483 369Q456 375 350 422Q262
461 203 461Q155 461 80 438L74 436Q124 596 258 596Q317 596 479 514Q637 434 850 434H932ZM704 181L642 73L542 138L605 247L704 181Z" />
<glyph unicode="&#x62c;" glyph-name="jeemmedial" horiz-adv-x="1098" arabic-form="medial" d="M1168 129H1020Q846 129 778 152Q707 176 707 238Q707 284 729 338H688Q552 338 424 284Q392 270 233 183Q135 129 70 129H0V250H70Q154 250 258 293Q399 351 508
375L350 433Q259 465 201 465Q146 465 74 442Q110 602 256 602Q293 602 450 536Q621 465 768 449Q831 442 958 442L932 342Q891 336 852 336Q805 336 774 338Q783 273 875 256Q908 250 1020 250H1168V129ZM619 172L556 68L457 135L519 240L619 172Z" />
<glyph unicode="&#x62c;" glyph-name="jeemfinal" horiz-adv-x="1020" arabic-form="terminal" d="M1081 129H920Q742 129 677 152T612 238Q612 284 637 369Q396 320 249 188T102 -115Q102 -301 261 -407T698 -514Q803 -514 1026 -492L1036 -514L674 -631Q421
-631 287 -578Q41 -481 41 -207Q41 153 422 385Q289 410 246 410Q174 410 104 397L127 492Q216 541 299 541Q330 541 472 520T786 498Q836 498 889 502L836 397Q780 392 674 375Q694 292 769 266Q814 250 920 250H1081V129ZM565 -30L508 -141L399 -73L459 35L565
-30Z" />
<glyph unicode="&#x62c;" glyph-name="jeem" horiz-adv-x="1098" arabic-form="isolated" d="M1036 -510L700 -633H578Q324 -633 183 -518T41 -195Q41 159 416 385Q297 410 233 410Q175 410 102 391L123 492Q222 545 299 545Q338 545 455 524T717 502Q803 502
885 508L834 406Q500 379 295 229Q98 83 98 -117Q98 -304 260 -407T717 -510Q809 -510 1030 -489L1036 -510ZM588 -25L522 -139L422 -74L483 41L588 -25Z" />
<glyph unicode="&#x62d;" glyph-name="hahinitial" horiz-adv-x="1020" arabic-form="initial" d="M932 434L897 326H855Q815 326 751 331T655 336Q538 336 420 282Q329 233 237 183Q139 129 70 129H0V250H70Q157 250 290 300Q456 363 483 369Q456 375 350 422Q262
461 203 461Q155 461 80 438L74 436Q124 596 258 596Q317 596 479 514Q637 434 850 434H932Z" />
<glyph unicode="&#x62d;" glyph-name="hahmedial" horiz-adv-x="1098" arabic-form="medial" d="M1168 129H1020Q846 129 778 152Q707 176 707 238Q707 284 729 338H688Q552 338 424 284Q392 270 233 183Q135 129 70 129H0V250H70Q154 250 258 293Q399 351 508
375L350 433Q259 465 201 465Q146 465 74 442Q110 602 256 602Q293 602 450 536Q621 465 768 449Q831 442 958 442L932 342Q891 336 852 336Q805 336 774 338Q783 273 875 256Q908 250 1020 250H1168V129Z" />
<glyph unicode="&#x62d;" glyph-name="hahfinal" horiz-adv-x="1020" arabic-form="terminal" d="M1081 129H920Q742 129 677 152T612 238Q612 284 637 369Q396 320 249 188T102 -115Q102 -301 261 -407T698 -514Q803 -514 1026 -492L1036 -514L674 -631Q421 -631
287 -578Q41 -481 41 -207Q41 153 422 385Q289 410 246 410Q174 410 104 397L127 492Q216 541 299 541Q330 541 472 520T786 498Q836 498 889 502L836 397Q780 392 674 375Q694 292 769 266Q814 250 920 250H1081V129Z" />
<glyph unicode="&#x62d;" glyph-name="hah" horiz-adv-x="1098" arabic-form="isolated" d="M1036 -510L700 -633H578Q324 -633 183 -518T41 -195Q41 159 416 385Q297 410 233 410Q175 410 102 391L123 492Q222 545 299 545Q338 545 455 524T717 502Q803 502 885
508L834 406Q500 379 295 229Q98 83 98 -117Q98 -304 260 -407T717 -510Q809 -510 1030 -489L1036 -510Z" />
<glyph unicode="&#x62e;" glyph-name="khahinitial" horiz-adv-x="1020" arabic-form="initial" d="M932 434L897 326H855Q815 326 751 331T655 336Q538 336 420 282Q329 233 237 183Q139 129 70 129H0V250H70Q157 250 290 300Q456 363 483 369Q456 375 350 422Q262
461 203 461Q155 461 80 438L74 436Q124 596 258 596Q317 596 479 514Q637 434 850 434H932ZM728 724L663 617L564 685L626 789L728 724Z" />
<glyph unicode="&#x62e;" glyph-name="khahmedial" horiz-adv-x="1098" arabic-form="medial" d="M1168 129H1020Q846 129 778 152Q707 176 707 238Q707 284 729 338H688Q552 338 424 284Q392 270 233 183Q135 129 70 129H0V250H70Q154 250 258 293Q399 351 508
375L350 433Q259 465 201 465Q146 465 74 442Q110 602 256 602Q293 602 450 536Q621 465 768 449Q831 442 958 442L932 342Q891 336 852 336Q805 336 774 338Q783 273 875 256Q908 250 1020 250H1168V129ZM685 726L627 619L523 683L580 791L685 726Z" />
<glyph unicode="&#x62e;" glyph-name="khahfinal" horiz-adv-x="1020" arabic-form="terminal" d="M1081 129H920Q742 129 677 152T612 238Q612 284 637 369Q396 320 249 188T102 -115Q102 -301 261 -407T698 -514Q803 -514 1026 -492L1036 -514L674 -631Q421
-631 287 -578Q41 -481 41 -207Q41 153 422 385Q289 410 246 410Q174 410 104 397L127 492Q216 541 299 541Q330 541 472 520T786 498Q836 498 889 502L836 397Q780 392 674 375Q694 292 769 266Q814 250 920 250H1081V129ZM532 823L471 719L367 784L430 891L532
823Z" />
<glyph unicode="&#x62e;" glyph-name="khah" horiz-adv-x="1098" arabic-form="isolated" d="M1036 -510L700 -633H578Q324 -633 183 -518T41 -195Q41 159 416 385Q297 410 233 410Q175 410 102 391L123 492Q222 545 299 545Q338 545 455 524T717 502Q803 502
885 508L834 406Q500 379 295 229Q98 83 98 -117Q98 -304 260 -407T717 -510Q809 -510 1030 -489L1036 -510ZM526 827L455 725L356 793L424 891L526 827Z" />
<glyph unicode="&#x62f;" glyph-name="dalfinal" horiz-adv-x="793" arabic-form="terminal" d="M863 129H724Q606 129 551 350Q497 238 425 195T219 152Q68 152 68 244Q68 275 111 375L133 373Q136 281 305 281Q532 281 532 442Q532 494 505 615T477 784Q477
833 532 909L608 459Q643 250 749 250H863V129Z" />
<glyph unicode="&#x62f;" glyph-name="dal" horiz-adv-x="643" arabic-form="isolated" d="M575 354Q575 290 545 219Q384 117 209 117Q179 117 84 127L102 274Q145 270 203 270Q417 270 528 342Q516 504 233 606L274 748Q396 722 485 605T575 354Z" />
<glyph unicode="&#x630;" glyph-name="thalfinal" horiz-adv-x="793" arabic-form="terminal" d="M863 129H724Q606 129 551 350Q497 238 425 195T219 152Q68 152 68 244Q68 275 111 375L133 373Q136 281 305 281Q532 281 532 442Q532 494 505 615T477 784Q477
833 532 909L608 459Q643 250 749 250H863V129ZM563 1141L504 1030L399 1092L455 1202L563 1141Z" />
<glyph unicode="&#x630;" glyph-name="thal" horiz-adv-x="643" arabic-form="isolated" d="M575 354Q575 290 545 219Q384 117 209 117Q179 117 84 127L102 274Q145 270 203 270Q417 270 528 342Q516 504 233 606L274 748Q396 722 485 605T575 354ZM350 1042L283
938L182 1008L250 1110L350 1042Z" />
<glyph unicode="&#x631;" glyph-name="rehfinal" horiz-adv-x="643" arabic-form="terminal" d="M713 129H582Q556 -77 461 -200T233 -324Q170 -324 18 -276L35 -258Q74 -264 96 -264Q237 -264 361 -164T532 90L455 213L508 319Q571 250 611 250H713V129Z" />
<glyph unicode="&#x631;" glyph-name="reh" horiz-adv-x="680" arabic-form="isolated" d="M608 203Q608 11 494 -139T233 -289Q150 -289 12 -227L29 -209Q94 -225 135 -225Q224 -225 301 -176Q410 -106 483 -19T557 129Q557 170 515 252T473 360Q473 379 489
410L528 485Q608 371 608 203Z" />
<glyph unicode="&#x632;" glyph-name="zainfinal" horiz-adv-x="643" arabic-form="terminal" d="M713 129H582Q556 -77 461 -200T233 -324Q170 -324 18 -276L35 -258Q74 -264 96 -264Q237 -264 361 -164T532 90L455 213L508 319Q571 250 611 250H713V129ZM569
606L496 498L399 575L471 688L569 606Z" />
<glyph unicode="&#x632;" glyph-name="zain" horiz-adv-x="680" arabic-form="isolated" d="M608 203Q608 11 494 -139T233 -289Q150 -289 12 -227L29 -209Q94 -225 135 -225Q224 -225 301 -176Q410 -106 483 -19T557 129Q557 170 515 252T473 360Q473 379 489
410L528 485Q608 371 608 203ZM547 780L471 682L379 766L453 860L547 780Z" />
<glyph unicode="&#x633;" glyph-name="seeninitial" horiz-adv-x="981" arabic-form="initial" d="M871 430Q871 328 831 263T729 197Q666 197 588 281Q509 129 366 129Q307 129 276 159Q254 179 225 244Q140 129 70 129H0V250H41Q159 250 262 391L274 387Q285
309 299 283Q318 250 363 250Q563 250 619 461H633Q649 336 791 336Q828 336 828 356Q828 368 778 410L815 535Q871 504 871 430Z" />
<glyph unicode="&#x633;" glyph-name="seenmedial" horiz-adv-x="1058" arabic-form="medial" d="M1128 129H1000Q961 129 923 181Q888 228 870 293Q807 152 704 152Q617 152 591 244Q536 176 499 154Q453 127 377 127Q317 127 286 152T225 244Q151 129 70 129H0V250H48Q159
250 262 391L274 387Q285 308 301 282Q322 248 377 248Q484 248 535 284Q570 308 640 410L652 406Q655 293 740 293Q824 293 870 412H886Q902 341 942 294Q979 250 1016 250H1128V129Z" />
<glyph unicode="&#x633;" glyph-name="seenfinal" horiz-adv-x="1491" arabic-form="terminal" d="M1561 129H1430Q1391 129 1350 184Q1311 236 1303 293Q1240 152 1137 152Q1050 152 1024 244Q958 129 835 129H821Q821 -52 729 -215Q630 -391 319 -391Q195 -391
115 -318T35 -133Q35 -16 145 154L164 147Q90 10 90 -74Q90 -161 172 -211T399 -262Q510 -262 603 -225T731 -129Q762 -76 762 25Q762 135 707 219L760 338Q804 250 838 250Q926 250 972 285Q1004 309 1073 410L1085 406Q1088 293 1173 293Q1257 293 1303 412H1319Q1378
250 1448 250H1561V129Z" />
<glyph unicode="&#x633;" glyph-name="seen" horiz-adv-x="1308" arabic-form="isolated" d="M1302 430Q1302 328 1262 263T1160 197Q1078 197 1019 281Q987 214 934 172T829 129H821Q821 -68 729 -215Q619 -391 319 -391Q195 -391 115 -318T35 -133Q35 -16 145
154L164 147Q90 10 90 -74Q90 -161 172 -211T399 -262Q510 -262 603 -225T731 -129Q762 -76 762 25Q762 135 707 219L760 338Q790 290 805 250H828Q900 250 962 307T1050 461H1064Q1080 336 1222 336Q1259 336 1259 356Q1259 375 1209 410L1246 535Q1302 504 1302
430Z" />
<glyph unicode="&#x634;" glyph-name="sheeninitial" horiz-adv-x="981" arabic-form="initial" d="M871 430Q871 328 831 263T729 197Q666 197 588 281Q509 129 366 129Q307 129 276 159Q254 179 225 244Q140 129 70 129H0V250H41Q159 250 262 391L274 387Q285
309 299 283Q318 250 363 250Q563 250 619 461H633Q649 336 791 336Q828 336 828 356Q828 368 778 410L815 535Q871 504 871 430ZM595 927L528 818L429 884L491 994L595 927ZM720 745L657 638L548 708L491 616L386 681L450 792L558 724L616 818L720 745Z" />
<glyph unicode="&#x634;" glyph-name="sheenmedial" horiz-adv-x="1058" arabic-form="medial" d="M1128 129H1000Q961 129 923 181Q888 228 870 293Q807 152 704 152Q617 152 591 244Q536 176 499 154Q453 127 377 127Q317 127 286 152T225 244Q151 129 70 129H0V250H48Q159
250 262 391L274 387Q285 308 301 282Q322 248 377 248Q484 248 535 284Q570 308 640 410L652 406Q655 293 740 293Q824 293 870 412H886Q902 341 942 294Q979 250 1016 250H1128V129ZM628 895L566 786L462 854L523 963L628 895ZM757 717L695 612L587 680L525 584L421
651L487 760L597 694L654 786L757 717Z" />
<glyph unicode="&#x634;" glyph-name="sheenfinal" horiz-adv-x="1491" arabic-form="terminal" d="M1561 129H1430Q1391 129 1350 184Q1311 236 1303 293Q1240 152 1137 152Q1050 152 1024 244Q958 129 835 129H821Q821 -52 729 -215Q630 -391 319 -391Q195 -391
115 -318T35 -133Q35 -16 145 154L164 147Q90 10 90 -74Q90 -161 172 -211T399 -262Q510 -262 603 -225T731 -129Q762 -76 762 25Q762 135 707 219L760 338Q804 250 838 250Q926 250 972 285Q1004 309 1073 410L1085 406Q1088 293 1173 293Q1257 293 1303 412H1319Q1378
250 1448 250H1561V129ZM1060 870L995 766L896 829L958 940L1060 870ZM1185 692L1124 581L1017 655L956 559L857 630L919 737L1023 667L1081 762L1185 692Z" />
<glyph unicode="&#x634;" glyph-name="sheen" horiz-adv-x="1311" arabic-form="isolated" d="M1302 430Q1302 328 1262 263T1160 197Q1097 197 1019 281Q940 129 829 129H821Q821 -68 729 -215Q619 -391 319 -391Q195 -391 115 -318T35 -133Q35 -16 145 154L164
147Q90 10 90 -74Q90 -161 172 -211T399 -262Q510 -262 603 -225T731 -129Q762 -76 762 25Q762 135 707 219L760 338Q790 290 805 250H828Q900 250 962 307T1050 461H1064Q1080 336 1222 336Q1259 336 1259 356Q1259 368 1209 410L1246 535Q1302 504 1302 430ZM1025
872L960 768L861 831L923 942L1025 872ZM1150 694L1089 583L982 657L921 561L822 632L884 739L988 669L1046 764L1150 694Z" />
<glyph unicode="&#x635;" glyph-name="sadinitial" horiz-adv-x="1182" arabic-form="initial" d="M1122 465Q1122 168 459 129Q435 67 411 -18L391 19L415 129H357Q304 129 266 160T225 244Q165 129 70 129H0V250H70Q159 250 262 391L274 387Q283 317 297 291Q318
250 368 250H479Q602 440 755 542Q882 627 987 627Q1044 627 1083 581T1122 465ZM1044 403Q1044 479 897 479Q680 479 527 250H597Q735 250 892 306Q1044 360 1044 403Z" />
<glyph unicode="&#x635;" glyph-name="sadmedial" horiz-adv-x="1221" arabic-form="medial" d="M1291 129H461Q443 88 412 -23L392 18Q399 50 419 129H342Q296 129 261 167Q227 202 225 244Q165 129 70 129H0V250H70Q159 250 262 391L274 387Q293 250 368 250H478Q612
427 746 529T982 631Q1041 631 1082 585T1123 473Q1123 395 1074 342T908 238Q1119 250 1155 250H1291V129ZM1045 403Q1045 439 995 462Q950 483 896 483Q699 483 527 250Q721 252 867 305Q1045 369 1045 403Z" />
<glyph unicode="&#x635;" glyph-name="sadfinal" horiz-adv-x="1710" arabic-form="terminal" d="M1778 129H950Q932 88 901 -23L881 18Q888 50 908 129H821Q818 -58 729 -215Q630 -391 319 -391Q195 -391 115 -318T35 -133Q35 -16 145 154L164 147Q90 10 90 -74Q90
-161 172 -211T399 -262Q510 -262 603 -225T731 -129Q762 -76 762 25Q762 135 707 219L760 338Q790 290 805 250H967Q1101 427 1235 529T1471 631Q1530 631 1571 585T1612 473Q1612 395 1563 342T1397 238Q1608 250 1630 250H1778V129ZM1534 403Q1534 439 1484
462Q1439 483 1385 483Q1188 483 1016 250Q1210 252 1356 305Q1534 369 1534 403Z" />
<glyph unicode="&#x635;" glyph-name="sad" horiz-adv-x="1632" arabic-form="isolated" d="M1621 465Q1621 168 958 129Q934 67 910 -18L890 19L914 129H821Q818 -58 729 -215Q630 -391 319 -391Q195 -391 115 -318T35 -133Q35 -16 145 154L164 147Q90 10 90
-74Q90 -161 172 -211T399 -262Q510 -262 603 -225T731 -129Q762 -76 762 25Q762 135 707 219L760 338Q790 290 805 250H978Q1101 440 1254 542Q1381 627 1486 627Q1543 627 1582 581T1621 465ZM1543 403Q1543 479 1396 479Q1179 479 1026 250H1096Q1234 250 1391
306Q1543 360 1543 403Z" />
<glyph unicode="&#x636;" glyph-name="dadinitial" horiz-adv-x="1182" arabic-form="initial" d="M1122 465Q1122 168 459 129Q435 67 411 -18L391 19L415 129H357Q304 129 266 160T225 244Q165 129 70 129H0V250H70Q159 250 262 391L274 387Q283 317 297 291Q318
250 368 250H479Q602 440 755 542Q882 627 987 627Q1044 627 1083 581T1122 465ZM1044 403Q1044 479 897 479Q680 479 527 250H597Q735 250 892 306Q1044 360 1044 403ZM712 864L645 748L540 823L608 938L712 864Z" />
<glyph unicode="&#x636;" glyph-name="dadmedial" horiz-adv-x="1221" arabic-form="medial" d="M1291 129H461Q443 88 412 -23L392 18Q399 50 419 129H342Q296 129 261 167Q227 202 225 244Q165 129 70 129H0V250H70Q159 250 262 391L274 387Q293 250 368 250H478Q612
427 746 529T982 631Q1041 631 1082 585T1123 473Q1123 395 1074 342T908 238Q1119 250 1155 250H1291V129ZM1045 403Q1045 439 995 462Q950 483 896 483Q699 483 527 250Q721 252 867 305Q1045 369 1045 403ZM701 870L638 754L533 827L597 944L701 870Z" />
<glyph unicode="&#x636;" glyph-name="dadfinal" horiz-adv-x="1710" arabic-form="terminal" d="M1780 129H950Q932 88 901 -23L881 18Q888 50 908 129H821Q818 -58 729 -215Q630 -391 319 -391Q195 -391 115 -318T35 -133Q35 -16 145 154L164 147Q90 10 90 -74Q90
-161 172 -211T399 -262Q510 -262 603 -225T731 -129Q762 -76 762 25Q762 135 707 219L760 338Q790 290 805 250H967Q1101 427 1235 529T1471 631Q1530 631 1571 585T1612 473Q1612 395 1563 342T1397 238Q1608 250 1640 250H1780V129ZM1534 403Q1534 439 1484
462Q1439 483 1385 483Q1188 483 1016 250Q1210 252 1356 305Q1534 369 1534 403ZM1192 854L1129 738L1024 811L1088 928L1192 854Z" />
<glyph unicode="&#x636;" glyph-name="dad" horiz-adv-x="1653" arabic-form="isolated" d="M1621 465Q1621 168 958 129Q934 67 910 -18L890 19L914 129H821Q818 -58 729 -215Q630 -391 319 -391Q195 -391 115 -318T35 -133Q35 -16 145 154L164 147Q90 10 90
-74Q90 -161 172 -211T399 -262Q510 -262 603 -225T731 -129Q762 -76 762 25Q762 135 707 219L760 338Q790 290 805 250H978Q1101 440 1254 542Q1381 627 1486 627Q1543 627 1582 581T1621 465ZM1543 403Q1543 479 1396 479Q1179 479 1026 250H1096Q1234 250 1391
306Q1543 360 1543 403ZM1206 864L1139 748L1034 823L1102 938L1206 864Z" />
<glyph unicode="&#x637;" glyph-name="tahinitial" horiz-adv-x="870" arabic-form="initial" d="M809 467Q809 329 638 231Q462 129 207 129H0V250H70Q209 250 209 514Q209 685 169 885T129 1100Q129 1162 178 1227L264 1104Q215 1068 215 969Q215 948 235 822T256
578Q256 486 233 344Q264 378 324 436Q513 633 674 633Q731 633 770 586T809 467ZM729 406Q729 433 683 455T578 477Q380 477 211 250H254Q363 250 526 301Q729 364 729 406Z" />
<glyph unicode="&#x637;" glyph-name="tahmedial" horiz-adv-x="907" arabic-form="medial" d="M977 129H147Q121 81 98 -23L78 18Q84 78 104 129H0V250H70Q209 250 209 539Q209 653 171 857T133 1092Q133 1155 178 1235L262 1106Q209 1064 209 1010Q256 723 256
590Q256 505 233 347Q487 633 670 633Q730 633 769 587T809 471Q809 334 571 233Q729 250 826 250H977V129ZM729 410Q729 432 686 456Q640 483 588 483Q482 483 381 420T210 250H247Q385 250 559 310Q729 369 729 410Z" />
<glyph unicode="&#x637;" glyph-name="tahfinal" horiz-adv-x="1171" arabic-form="terminal" d="M1241 129H215Q145 129 98 182L25 264Q202 233 262 233Q383 233 431 291T479 496Q479 662 439 863T399 1087Q399 1139 449 1223L535 1098Q485 1043 485 987Q485
970 503 847T522 602Q522 493 504 369Q763 637 928 637Q987 637 1025 590T1063 471Q1063 390 1014 339T834 233Q1041 250 1060 250H1241V129ZM987 406Q987 440 942 461Q901 479 848 479Q744 479 658 430T471 250Q651 252 784 293Q862 317 924 352T987 406Z" />
<glyph unicode="&#x637;" glyph-name="tah" horiz-adv-x="1135" arabic-form="isolated" d="M1063 477Q1063 322 851 222T313 121Q195 121 154 141Q108 164 25 264Q171 244 227 244Q378 244 428 294T479 492Q479 666 439 868T399 1092Q399 1145 449 1223L535 1098Q485
1043 485 987Q485 975 503 845T522 602Q522 486 504 369Q772 637 928 637Q986 637 1024 591T1063 477ZM987 412Q987 436 951 458Q909 485 846 485Q622 485 471 250H482Q642 250 822 315Q987 374 987 412Z" />
<glyph unicode="&#x638;" glyph-name="zahinitial" horiz-adv-x="870" arabic-form="initial" d="M809 467Q809 329 638 231Q462 129 207 129H0V250H70Q209 250 209 514Q209 685 169 885T129 1100Q129 1162 178 1227L264 1104Q215 1068 215 969Q215 948 235 822T256
578Q256 486 233 344Q264 378 324 436Q513 633 674 633Q731 633 770 586T809 467ZM729 406Q729 433 683 455T578 477Q380 477 211 250H254Q363 250 526 301Q729 364 729 406ZM590 913L526 797L418 872L485 989L590 913Z" />
<glyph unicode="&#x638;" glyph-name="zahmedial" horiz-adv-x="907" arabic-form="medial" d="M977 129H147Q121 81 98 -23L78 18Q84 78 104 129H0V250H70Q209 250 209 539Q209 653 171 857T133 1092Q133 1155 178 1235L262 1106Q209 1064 209 1010Q256 723 256
590Q256 505 233 347Q487 633 670 633Q730 633 769 587T809 471Q809 334 571 233Q729 250 826 250H977V129ZM729 410Q729 432 686 456Q640 483 588 483Q482 483 381 420T210 250H247Q385 250 559 310Q729 369 729 410ZM594 920L528 799L422 872L489 989L594 920Z"
/>
<glyph unicode="&#x638;" glyph-name="zahfinal" horiz-adv-x="1171" arabic-form="terminal" d="M1241 129H215Q145 129 98 182L25 264Q202 233 262 233Q383 233 431 291T479 496Q479 662 439 863T399 1087Q399 1139 449 1223L535 1098Q485 1043 485 987Q485
970 503 847T522 602Q522 493 504 369Q763 637 928 637Q987 637 1025 590T1063 471Q1063 390 1014 339T834 233Q1041 250 1060 250H1241V129ZM987 406Q987 440 942 461Q901 479 848 479Q744 479 658 430T471 250Q651 252 784 293Q862 317 924 352T987 406ZM854
922L791 803L682 879L750 995L854 922Z" />
<glyph unicode="&#x638;" glyph-name="zah" horiz-adv-x="1135" arabic-form="isolated" d="M1063 477Q1063 322 851 222T313 121Q195 121 154 141Q108 164 25 264Q171 244 227 244Q378 244 428 294T479 492Q479 666 439 868T399 1092Q399 1145 449 1223L535 1098Q485
1043 485 987Q485 975 503 845T522 602Q522 486 504 369Q772 637 928 637Q986 637 1024 591T1063 477ZM987 412Q987 436 951 458Q909 485 846 485Q622 485 471 250H482Q642 250 822 315Q987 374 987 412ZM852 907L786 803L682 872L750 981L852 907Z" />
<glyph unicode="&#x639;" glyph-name="aininitial" horiz-adv-x="756" arabic-form="initial" d="M738 489L704 379L266 186Q225 168 185 149Q131 129 70 129H0V250H70Q164 250 218 299Q136 365 136 424Q136 522 232 629Q331 741 433 741Q509 741 624 631L609
618Q554 645 501 645Q437 645 334 609Q224 570 224 539Q224 501 288 443Q357 381 419 381Q479 381 568 418L738 489Z" />
<glyph unicode="&#x639;" glyph-name="ainmedial" horiz-adv-x="606" arabic-form="medial" d="M676 129H536Q433 129 305 283Q272 240 203 190Q120 129 70 129H0V250H50Q153 250 227 330L80 410Q125 575 311 575Q396 575 459 537T522 446Q522 373 397 330Q463
250 556 250H676V129Z" />
<glyph unicode="&#x639;" glyph-name="ainfinal" horiz-adv-x="793" arabic-form="terminal" d="M975 -516L625 -631Q527 -632 494 -631Q6 -613 6 -190Q6 101 313 356L182 430Q255 588 397 588Q474 588 537 547T600 455Q600 412 489 356L559 296Q613 250 726 250H863V129H726Q594
129 496 214L391 305Q59 133 59 -127Q59 -309 226 -411T694 -514Q753 -514 969 -498L975 -516Z" />
<glyph unicode="&#x639;" glyph-name="ain" horiz-adv-x="1061" arabic-form="isolated" d="M1030 -508L720 -624Q661 -633 606 -633Q354 -633 202 -517T49 -209Q49 -61 102 62Q158 189 287 332Q111 375 111 471Q111 538 176 655Q251 791 344 791Q402 791 492
711Q359 708 262 657T164 541Q164 496 236 464Q300 434 367 434Q418 434 575 526Q605 544 694 584L602 453Q437 358 354 293Q102 96 102 -117Q102 -310 316 -428Q453 -504 731 -504Q869 -504 1024 -485L1030 -508Z" />
<glyph unicode="&#x63a;" glyph-name="ghaininitial" horiz-adv-x="756" arabic-form="initial" d="M738 489L704 379L266 186Q225 168 185 149Q131 129 70 129H0V250H70Q164 250 218 299Q136 365 136 424Q136 522 232 629Q331 741 433 741Q509 741 624 631L609
618Q554 645 501 645Q437 645 334 609Q224 570 224 539Q224 501 288 443Q357 381 419 381Q479 381 568 418L738 489ZM427 1036L372 922L263 987L323 1098L427 1036Z" />
<glyph unicode="&#x63a;" glyph-name="ghainmedial" horiz-adv-x="606" arabic-form="medial" d="M676 129H536Q433 129 305 283Q272 240 203 190Q120 129 70 129H0V250H50Q153 250 227 330L80 410Q125 575 311 575Q396 575 459 537T522 446Q522 373 397 330Q463
250 556 250H676V129ZM332 895L270 784L170 848L231 958L332 895Z" />
<glyph unicode="&#x63a;" glyph-name="ghainfinal" horiz-adv-x="793" arabic-form="terminal" d="M975 -516L625 -631Q527 -632 494 -631Q6 -613 6 -190Q6 101 313 356L182 430Q255 588 397 588Q474 588 537 547T600 455Q600 412 489 356L559 296Q613 250 726
250H863V129H726Q594 129 496 214L391 305Q59 133 59 -127Q59 -309 226 -411T694 -514Q753 -514 969 -498L975 -516ZM471 907L403 791L299 860L362 981L471 907Z" />
<glyph unicode="&#x63a;" glyph-name="ghain" horiz-adv-x="1061" arabic-form="isolated" d="M1030 -508L720 -624Q661 -633 606 -633Q354 -633 202 -517T49 -209Q49 -61 102 62Q158 189 287 332Q111 375 111 471Q111 538 176 655Q251 791 344 791Q402 791 492
711Q359 708 262 657T164 541Q164 496 236 464Q300 434 367 434Q418 434 575 526Q605 544 694 584L602 453Q437 358 354 293Q102 96 102 -117Q102 -310 317 -429Q453 -504 731 -504Q869 -504 1024 -485L1030 -508ZM385 1081L319 975L221 1038L283 1147L385 1081Z"
/>
<glyph unicode="&#x640;" glyph-name="tatweel" horiz-adv-x="1284" d="M1354 129H0V250H1354V129Z" />
<glyph unicode="&#x641;" glyph-name="fehinitial" horiz-adv-x="455" arabic-form="initial" d="M417 399Q417 277 341 221Q216 129 70 129H0V250H70Q165 250 271 289Q384 331 384 379Q384 420 337 449Q283 344 212 344Q163 344 133 371T102 442Q102 486 129
577Q175 731 243 731Q304 731 360 621T417 399ZM274 539Q274 548 247 565T202 582Q169 582 169 547Q169 492 214 492Q236 492 255 508T274 539ZM280 1018L214 901L110 975L175 1087L280 1018Z" />
<glyph unicode="&#x641;" glyph-name="fehmedial" horiz-adv-x="606" arabic-form="medial" d="M676 129H538Q412 129 295 211Q188 129 70 129H0V250H70Q146 250 188 287Q182 317 182 330Q182 401 227 479Q336 668 422 668Q463 668 495 604Q526 544 526 477Q526
395 442 283Q501 250 548 250H676V129ZM473 422Q473 455 446 487Q416 522 379 522Q337 522 292 490T246 434Q246 381 332 336Q473 381 473 422ZM492 958L416 848L319 926L391 1036L492 958Z" />
<glyph unicode="&#x641;" glyph-name="fehfinal" horiz-adv-x="1511" arabic-form="terminal" d="M1581 129H1442Q1309 129 1229 186Q959 70 817 31Q660 -12 483 -12Q304 -12 200 57T96 246Q96 362 190 471L203 461Q152 363 152 317Q152 227 254 172T526 117Q674
117 794 145T1098 252Q1061 292 1061 324Q1061 382 1112 492Q1189 657 1253 657Q1295 657 1337 583Q1376 513 1376 459Q1376 363 1327 274Q1366 250 1442 250H1581V129ZM1327 410Q1327 438 1298 481Q1267 528 1241 528Q1213 528 1168 482T1122 399Q1122 379 1151
352T1214 313Q1327 376 1327 410ZM1198 922L1143 815L1038 877L1098 987L1198 922Z" />
<glyph unicode="&#x641;" glyph-name="feh" horiz-adv-x="1511" arabic-form="isolated" d="M1425 520Q1425 410 1373 355T1153 233Q837 109 526 109Q96 109 96 360Q96 459 182 608L207 600Q147 510 147 436Q147 348 253 291T522 233Q876 233 1239 393Q1393 461
1393 504Q1393 540 1352 600Q1308 538 1294 524Q1258 489 1210 489Q1160 489 1126 523T1092 608Q1092 660 1149 766Q1209 877 1264 877Q1317 877 1368 777Q1425 666 1425 520ZM1272 680Q1272 694 1251 709T1202 725Q1159 725 1159 686Q1159 673 1177 655T1217 637Q1272
637 1272 680ZM1202 1130L1137 1024L1032 1085L1094 1192L1202 1130Z" />
<glyph unicode="&#x642;" glyph-name="qafinitial" horiz-adv-x="455" arabic-form="initial" d="M417 399Q417 277 341 221Q216 129 70 129H0V250H70Q165 250 271 289Q384 331 384 379Q384 420 337 449Q283 344 212 344Q163 344 133 371T102 442Q102 486 129
577Q175 731 243 731Q304 731 360 621T417 399ZM274 539Q274 548 247 565T202 582Q169 582 169 547Q169 492 214 492Q236 492 255 508T274 539ZM382 1008L319 897L210 963L149 870L49 938L110 1044L217 983L276 1069L382 1008Z" />
<glyph unicode="&#x642;" glyph-name="qafmedial" horiz-adv-x="606" arabic-form="medial" d="M676 129H538Q412 129 295 211Q188 129 70 129H0V250H70Q146 250 188 287Q182 317 182 330Q182 401 227 479Q336 668 422 668Q463 668 495 604Q526 544 526 477Q526
395 442 283Q501 250 548 250H676V129ZM473 422Q473 455 446 487Q416 522 379 522Q337 522 292 490T246 434Q246 381 332 336Q473 381 473 422ZM528 983L465 870L360 940L299 848L190 922L252 1026L367 956L422 1055L528 983Z" />
<glyph unicode="&#x642;" glyph-name="qaffinal" horiz-adv-x="907" arabic-form="terminal" d="M977 129H817Q799 20 762 -41Q700 -142 565 -214T301 -287Q189 -287 112 -214T35 -35Q35 113 160 283L178 268Q90 126 90 37Q90 -42 164 -94T350 -147Q514 -147 640
-77T766 86Q766 109 762 129H662Q547 129 547 215Q547 247 563 287Q626 446 698 446Q776 446 827 250H977V129ZM735 250Q696 332 649 332Q608 332 608 289Q608 250 705 250H735ZM817 729L750 618L645 692L588 600L483 670L545 778L651 705L711 799L817 729Z" />
<glyph unicode="&#x642;" glyph-name="qaf" horiz-adv-x="1061" arabic-form="isolated" d="M971 430Q971 263 901 165T703 7T440 -53Q291 -53 206 16T121 207Q121 341 252 563L270 551Q188 399 188 301Q188 204 259 148T453 92Q627 92 784 178Q938 262 938 369Q938
417 897 492Q829 403 748 403Q693 403 657 436T621 520Q621 644 723 766Q756 805 793 805Q847 805 903 698Q971 569 971 430ZM815 595Q779 649 741 649Q694 649 694 608Q694 569 743 569Q786 569 815 595ZM946 1015L883 905L774 978L719 884L608 960L670 1064L780
991L840 1087L946 1015Z" />
<glyph unicode="&#x643;" glyph-name="kafinitial" horiz-adv-x="946" arabic-form="initial" d="M956 1245L901 1122Q561 1010 344 922Q96 822 96 784Q96 766 233 694Q340 638 403 546T467 348Q467 129 117 129H0V250H157Q253 250 336 277Q430 308 430 354Q430
401 342 484Q259 560 182 596Q96 636 78 657T59 741Q59 818 78 852Q95 883 250 965Q498 1096 956 1245Z" />
<glyph unicode="&#x643;" glyph-name="kafmedial" horiz-adv-x="983" arabic-form="medial" d="M1044 129H913Q876 129 834 158Q799 182 705 268L597 367Q523 430 460 467Q467 440 467 410Q467 129 103 129H0V250H108Q245 250 342 288T440 385Q440 452 340 534Q243
613 127 647Q43 761 43 823Q43 882 87 935T251 1073Q478 1233 888 1419L852 1294Q473 1113 264 983Q79 868 79 829Q79 798 176 760Q360 688 530 559Q567 531 767 356Q888 250 927 250H1044V129Z" />
<glyph unicode="&#x643;" glyph-name="arabickaffinal" horiz-adv-x="1399" arabic-form="terminal" d="M1469 129H1331Q1170 129 1152 354Q1095 201 1023 145Q942 82 771 38T437 -6Q40 -6 40 233Q40 318 89 465L112 461Q93 398 93 348Q93 252 185 196T433 139Q690
139 947 219Q1046 250 1088 307T1131 465Q1131 562 1090 1036Q1088 1059 1088 1116Q1088 1161 1109 1184Q1144 1158 1150 1075Q1156 987 1193 520Q1206 350 1248 290Q1276 250 1330 250H1469V129ZM707 680Q707 622 656 567Q599 504 522 504Q468 504 385 557Q602
576 602 618Q602 638 535 643Q461 648 461 700Q461 748 513 831Q572 924 643 963L657 866Q553 819 553 791Q553 763 614 760Q707 742 707 680Z" />
<glyph unicode="&#x643;" glyph-name="arabickaf" horiz-adv-x="983" arabic-form="isolated" d="M903 369Q903 265 856 196T741 123Q478 111 428 111Q247 111 193 119Q90 133 90 186Q90 252 121 326H141Q141 257 241 245Q236 246 391 246Q560 246 777 262Q852
268 852 313Q852 366 779 738T705 1137Q705 1222 756 1253L836 1141Q793 1107 791 1038Q790 1018 846 750Q903 478 903 369ZM552 695Q552 637 501 582Q444 519 367 519Q313 519 230 572Q447 591 447 633Q447 653 380 658Q306 663 306 715Q306 763 358 846Q417 939
488 978L502 881Q398 834 398 806Q398 778 459 775Q552 757 552 695Z" />
<glyph unicode="&#x644;" glyph-name="laminitial" horiz-adv-x="342" arabic-form="initial" d="M280 475Q280 129 70 129H0V250H57Q142 250 191 285Q235 317 235 362Q235 397 185 714Q135 1025 137 1069Q143 1191 196 1229L272 1104Q210 1060 210 981Q210 939
245 730T280 475Z" />
<glyph unicode="&#x644;" glyph-name="lammedial" horiz-adv-x="416" arabic-form="medial" d="M486 129H346Q243 129 201 316Q186 247 155 194Q116 129 70 129H0V250H50Q184 250 184 510Q184 612 169 840T154 1085Q154 1166 182 1192Q200 1179 205 1162Q216 1131
221 1042L252 485Q265 250 376 250H486V129Z" />
<glyph unicode="&#x644;" glyph-name="lamfinal" horiz-adv-x="907" arabic-form="terminal" d="M977 129H840Q770 129 729 250Q741 80 741 23Q741 -141 682 -256Q638 -341 532 -393T295 -446Q165 -446 92 -381T18 -201Q18 -46 133 127L152 117Q72 -26 72 -109Q72
-196 140 -248T324 -301Q463 -301 600 -225Q660 -192 677 -165T694 -72Q694 39 667 523T639 1018Q639 1101 688 1202L698 995Q723 659 762 449Q799 250 859 250H977V129Z" />
<glyph unicode="&#x644;" glyph-name="lam" horiz-adv-x="907" arabic-form="isolated" d="M791 252Q791 121 748 53Q700 -23 592 -75T373 -127Q248 -127 166 -61T84 109Q84 243 197 442L221 428L209 404Q141 270 141 203Q141 119 210 65T385 10Q534 10 682 96Q754
138 754 201Q754 322 693 731T631 1155Q631 1217 670 1266L756 1147Q717 1110 717 1032Q717 998 754 687T791 252Z" />
<glyph unicode="&#x645;" glyph-name="meeminitial" horiz-adv-x="606" arabic-form="initial" d="M552 362Q552 320 521 273T460 225Q411 225 255 313Q196 222 175 197Q119 129 71 129H0V250H70Q159 250 243 387Q283 456 324 526Q372 596 427 596Q482 596 521
497Q552 418 552 362ZM446 385Q446 483 374 483Q323 483 323 440Q323 412 446 385Z" />
<glyph unicode="&#x645;" glyph-name="meemmedial" horiz-adv-x="793" arabic-form="medial" d="M863 129H723Q635 129 551 209Q545 102 473 102Q425 102 344 161Q337 166 225 258Q158 176 147 165Q110 129 70 129H0V250H70Q144 250 249 364T391 479Q415 479 461
435L544 354Q669 250 723 250H863V129ZM453 281Q453 309 431 362T391 416Q348 416 299 332Q390 244 424 244Q453 244 453 281Z" />
<glyph unicode="&#x645;" glyph-name="meemfinal" horiz-adv-x="793" arabic-form="terminal" d="M863 129H721Q532 129 469 178Q472 147 472 115Q472 50 452 5T402 -41Q361 -41 324 28T269 209Q82 171 82 78Q82 41 91 -18Q168 -419 168 -522Q168 -577 132 -625Q124
-535 83 -287Q48 -76 48 12Q48 135 82 204T199 326Q252 360 267 370Q291 389 324 424Q460 250 721 250H863V129Z" />
<glyph unicode="&#x645;" glyph-name="meem" horiz-adv-x="606" arabic-form="isolated" d="M553 406Q553 366 526 299Q504 300 461 303Q427 305 412 305Q288 305 199 258T109 145Q109 100 172 -171Q236 -448 238 -473Q240 -503 209 -547Q193 -456 127 -192Q72
24 72 80Q72 162 95 250Q120 347 154 369Q227 415 356 446Q309 496 270 496Q232 496 182 442L152 449Q189 557 226 598T326 639Q402 639 489 539Q553 466 553 406Z" />
<glyph unicode="&#x646;" glyph-name="nooninitial" horiz-adv-x="379" arabic-form="initial" d="M264 397Q264 129 70 129H0V250H70Q122 250 168 271Q219 294 219 326Q219 342 209 358L166 428Q152 451 152 471Q152 492 164 510L219 594Q264 495 264 397ZM268
879L201 774L98 848L166 952L268 879Z" />
<glyph unicode="&#x646;" glyph-name="noonmedial" horiz-adv-x="379" arabic-form="medial" d="M449 129H309Q287 129 257 168T225 244Q165 129 70 129H0V250H70Q159 250 262 391L274 387Q285 309 299 283Q318 250 363 250H449V129ZM293 668L227 563L129 631L190
737L293 668Z" />
<glyph unicode="&#x646;" glyph-name="noonfinal" horiz-adv-x="907" arabic-form="terminal" d="M977 129H815Q804 -128 713 -240Q588 -393 326 -393Q10 -393 10 -152Q10 -3 127 158L145 139Q66 34 66 -68Q66 -155 150 -209T369 -264Q550 -264 668 -190Q756 -135
756 8Q756 125 696 217L750 342Q766 301 803 274Q835 250 859 250H977V129ZM498 504L434 399L332 471L399 575L498 504Z" />
<glyph unicode="&#x646;" glyph-name="noon" horiz-adv-x="870" arabic-form="isolated" d="M784 412Q784 245 673 140T387 35Q253 35 178 102T102 289Q102 390 195 584L213 575Q152 440 152 369Q152 289 220 234T387 178Q528 178 634 233T741 362Q741 461 612
729Q612 750 655 848Q784 656 784 412ZM479 952L412 846L313 915L379 1026L479 952Z" />
<glyph unicode="&#x647;" glyph-name="hehinitial" horiz-adv-x="756" arabic-form="initial" d="M705 348Q705 207 613 207Q568 207 460 231T318 274Q271 233 223 193Q138 129 71 129H0V250H70Q157 250 223 301Q193 337 193 369Q193 450 316 602Q297 608 279
608Q262 608 250 606Q274 750 346 750Q385 750 455 699T592 571Q705 439 705 348ZM672 307Q621 415 484 520Q465 415 416 350Q563 307 649 307H672ZM428 453Q428 481 407 513T361 545Q329 545 290 506T250 436Q250 414 287 397L359 369Q428 405 428 453Z" />
<glyph unicode="&#x647;" glyph-name="hehmedial" horiz-adv-x="719" arabic-form="medial" d="M789 129H646Q604 129 483 115Q541 45 541 -18Q541 -115 496 -183T385 -252Q311 -252 259 -145T203 115Q128 129 70 129H0V250H70Q81 250 213 276Q272 427 351 538T477
649Q526 649 526 532Q526 423 483 350Q444 284 350 221Q476 250 646 250H789V129ZM477 440Q477 463 460 483T424 504Q335 504 256 289Q477 350 477 440ZM504 -68Q504 -12 434 37T250 111Q282 -115 412 -115Q447 -115 475 -102T504 -68Z" />
<glyph unicode="&#x647;" glyph-name="hehfinal" horiz-adv-x="569" arabic-form="terminal" d="M639 129H500Q409 129 375 348L315 292Q270 256 225 256Q163 256 115 275T66 319Q66 335 111 430Q158 529 326 614V631Q326 694 367 772L428 403Q453 250 500 250H639V129ZM367
410L342 551Q222 510 166 412Q215 391 299 391Q332 391 367 410Z" />
<glyph unicode="&#x647;" glyph-name="heh" horiz-adv-x="528" arabic-form="isolated" d="M459 360Q459 252 396 181T238 109Q170 109 127 157T84 281Q84 361 139 474T217 619T264 651Q322 651 385 571Q459 477 459 360ZM397 336Q397 361 350 399Q276 459 219
459Q184 459 162 422T139 332Q139 264 246 264Q309 264 353 284T397 336Z" />
<glyph unicode="&#x648;" glyph-name="wawfinal" horiz-adv-x="719" arabic-form="terminal" d="M789 129H639Q590 -64 526 -164Q409 -348 252 -348Q167 -348 18 -264L35 -246Q105 -274 154 -274Q304 -274 434 -155T597 129H565Q479 129 424 157T369 233Q369 288
446 416Q488 485 526 485Q570 485 605 416T643 250H789V129ZM590 250Q559 360 492 360Q478 360 462 347T446 313Q446 287 484 270Q524 250 590 250Z" />
<glyph unicode="&#x648;" glyph-name="waw" horiz-adv-x="719" arabic-form="isolated" d="M664 281Q664 40 546 -154T281 -348Q188 -348 37 -268L55 -252Q116 -276 176 -276Q319 -276 449 -152Q523 -82 569 12Q614 103 614 178Q614 224 594 258Q545 190 498 190Q450
190 415 226T379 313Q379 369 440 498Q481 584 532 584Q585 584 624 493T664 281ZM542 378Q526 422 489 422Q455 422 455 385Q455 342 492 342Q528 342 542 378Z" />
<glyph unicode="&#x649;" glyph-name="alefmaksurafinal" horiz-adv-x="983" arabic-form="terminal" d="M1053 129H915Q826 129 773 102T719 35Q719 6 780 -6L864 -23Q987 -48 987 -154Q987 -272 792 -358Q615 -436 424 -436Q266 -436 178 -358T90 -141Q90 1
197 197L215 182Q141 25 141 -61Q141 -171 223 -235T446 -299Q580 -299 758 -248Q940 -196 940 -154Q940 -109 860 -102L719 -90Q627 -82 627 -25Q627 70 718 158Q812 250 928 250H1053V129Z" />
<glyph unicode="&#x649;" glyph-name="alefmaksura" horiz-adv-x="1171" arabic-form="isolated" d="M1092 766L1063 621Q1025 658 983 658Q903 658 793 585T682 428Q682 359 799 338L949 311Q1038 295 1038 246Q1038 167 1006 115Q955 32 762 -47T416 -127Q250
-127 155 -54T59 145Q59 246 110 364Q136 425 215 565L238 547Q129 339 129 240Q129 136 217 73T453 10Q597 10 790 81Q971 148 971 184Q971 212 920 219L780 238Q608 261 608 373Q608 469 762 633Q898 778 1026 778Q1055 778 1092 766Z" />
<glyph unicode="&#x64a;" glyph-name="yehinitial" horiz-adv-x="379" arabic-form="initial" d="M264 397Q264 129 70 129H0V250H70Q122 250 168 271Q219 294 219 326Q219 342 209 358L166 428Q152 451 152 471Q152 492 164 510L219 594Q264 495 264 397ZM324
-23L258 -129L152 -61L92 -154L-12 -90L49 18L160 -49L215 43L324 -23Z" />
<glyph unicode="&#x64a;" glyph-name="yehmedial" horiz-adv-x="379" arabic-form="medial" d="M449 129H309Q287 129 257 168T225 244Q165 129 70 129H0V250H70Q159 250 262 391L274 387Q285 309 299 283Q318 250 363 250H449V129ZM373 -68L307 -176L203 -102L145
-195L41 -117L104 -16L209 -90L270 4L373 -68Z" />
<glyph unicode="&#x64a;" glyph-name="yehfinal" horiz-adv-x="983" arabic-form="terminal" d="M1044 129H915Q826 129 773 102T719 35Q719 6 780 -6L864 -23Q987 -48 987 -154Q987 -272 792 -358Q615 -436 424 -436Q266 -436 178 -358T90 -141Q90 1 197 197L215
182Q141 25 141 -61Q141 -171 223 -235T446 -299Q580 -299 758 -248Q940 -196 940 -154Q940 -109 860 -102L719 -90Q627 -82 627 -25Q627 70 718 158Q812 250 928 250H1044V129ZM651 -532L582 -621L485 -559L412 -627L313 -569L387 -483L485 -547L557 -467L651
-532Z" />
<glyph unicode="&#x64a;" glyph-name="yeh" horiz-adv-x="1171" arabic-form="isolated" d="M1092 766L1063 621Q1025 658 983 658Q903 658 793 585T682 428Q682 359 799 338L949 311Q1038 295 1038 246Q1038 167 1006 115Q955 32 762 -47T416 -127Q250 -127 155
-54T59 145Q59 246 110 364Q136 425 215 565L238 547Q129 339 129 240Q129 136 217 73T453 10Q597 10 790 81Q971 148 971 184Q971 212 920 219L780 238Q608 261 608 373Q608 469 762 633Q898 778 1026 778Q1055 778 1092 766ZM668 -250L600 -354L496 -287L440
-381L332 -311L397 -203L502 -270L559 -178L668 -250Z" />
<glyph unicode="&#x64b;" glyph-name="fathatan" horiz-adv-x="408" d="M408 1854Q408 1788 373 1768L70 1596Q73 1637 84 1655T136 1697L408 1854ZM408 1708Q408 1642 373 1622L70 1450Q73 1491 84 1509T136 1551L408 1708Z" />
<glyph unicode="&#x64c;" glyph-name="dammatan" horiz-adv-x="463" d="M463 1582Q463 1547 461 1523Q421 1544 369 1582Q245 1453 129 1437Q172 1528 172 1566Q172 1621 123 1621Q81 1621 74 1545Q64 1576 64 1597Q64 1643 88 1675T148 1707Q215 1707 215 1607L209
1515Q274 1540 333 1605Q267 1649 267 1699Q267 1751 307 1798T389 1846Q412 1846 434 1820T457 1766Q457 1736 446 1708T424 1652Q463 1622 463 1582ZM387 1726Q387 1779 346 1779Q320 1779 320 1756Q320 1731 383 1687Q387 1699 387 1726Z" />
<glyph unicode="&#x64d;" glyph-name="kasratan" horiz-adv-x="408" d="M408 -620Q408 -686 373 -706L70 -878Q73 -837 84 -819T136 -777L408 -620ZM408 -767Q408 -833 373 -853L70 -1025Q73 -984 84 -966T136 -924L408 -767Z" />
<glyph unicode="&#x64e;" glyph-name="fatha" horiz-adv-x="408" d="M408 1708Q408 1642 373 1622L70 1450Q73 1491 84 1509T136 1551L408 1708Z" />
<glyph unicode="&#x64f;" glyph-name="damma" horiz-adv-x="414" d="M414 1641L406 1542L326 1594Q206 1450 129 1450Q110 1450 70 1462Q172 1519 283 1618Q222 1663 222 1708Q222 1768 267 1833Q297 1876 338 1876Q406 1876 406 1788Q406 1740 375 1671Q389 1661
414 1641ZM344 1729Q344 1752 328 1771T291 1790Q273 1790 273 1770Q273 1739 338 1695Q344 1715 344 1729Z" />
<glyph unicode="&#x650;" glyph-name="kasra" horiz-adv-x="408" d="M408 -620Q408 -686 373 -706L70 -878Q73 -837 84 -819T136 -777L408 -620Z" />
<glyph unicode="&#x651;" glyph-name="shadda" horiz-adv-x="420" d="M420 1683Q420 1515 316 1515Q281 1515 252 1536Q244 1502 213 1476T148 1450Q66 1450 66 1558Q66 1580 88 1659L111 1663Q111 1552 150 1552Q214 1552 240 1714L258 1720Q281 1622 316 1622Q374
1622 383 1769L406 1779Q420 1724 420 1683Z" />
<glyph unicode="&#x652;" glyph-name="sukun" horiz-adv-x="332" d="M332 1614Q332 1550 286 1500T181 1450Q74 1450 74 1571Q74 1655 112 1708T211 1762Q258 1762 295 1717T332 1614ZM277 1590Q277 1615 234 1647Q193 1676 166 1676Q107 1676 107 1608Q107 1549
199 1549Q277 1549 277 1590Z" />
<glyph unicode="&#x660;" glyph-name="arabicindicdigitzero" horiz-adv-x="946" d="M590 424Q574 362 545 213Q440 273 360 336Q385 454 422 559Q496 492 590 424Z" />
<glyph unicode="&#x661;" glyph-name="arabicindicdigitone" horiz-adv-x="946" d="M590 227Q590 144 569 -16H547Q544 224 483 418Q449 524 403 618Q367 691 293 805Q315 902 348 999Q439 859 492 719Q590 457 590 227Z" />
<glyph unicode="&#x662;" glyph-name="arabicindicdigittwo" horiz-adv-x="946" d="M705 983Q705 807 663 735T516 662Q494 662 449 668Q499 551 528 416Q551 310 551 209Q551 161 539 -10H510Q496 183 449 343T354 599T197 846L252 995Q330 896 385 859T508 821Q654
821 686 983H705Z" />
<glyph unicode="&#x663;" glyph-name="arabicindicdigitthree" horiz-adv-x="946" d="M848 999Q848 707 662 707Q588 707 539 774Q470 680 397 680Q375 680 362 682Q430 497 430 295Q430 193 406 0H379Q380 20 381 66Q382 378 240 639Q199 714 127 811L178 989Q291
829 387 829Q522 829 582 1001H594Q612 866 711 866Q811 866 829 1001L848 999Z" />
<glyph unicode="&#x664;" glyph-name="arabicindicdigitfour" horiz-adv-x="946" d="M729 147L682 -6Q301 63 301 147Q301 228 345 297Q377 346 502 485Q430 517 357 550Q274 594 274 640Q274 714 369 824Q462 931 588 1008L547 854Q399 792 399 750Q399 722 518
668T637 584Q637 558 518 432T399 274Q399 227 729 147Z" />
<glyph unicode="&#x665;" glyph-name="arabicindicdigitfive" horiz-adv-x="946" d="M754 535Q754 476 717 393T631 262Q571 201 428 201Q329 201 265 249T201 373Q201 418 230 503Q261 596 305 670Q381 797 461 797Q557 797 655 712T754 535ZM688 428Q688 494
580 578T397 662Q349 662 307 591Q270 527 270 471Q270 417 337 386T520 354Q688 354 688 428Z" />
<glyph unicode="&#x666;" glyph-name="arabicindicdigitsix" horiz-adv-x="946" d="M760 213L743 18Q601 52 590 252Q584 328 571 735Q456 705 375 705Q244 705 209 756Q190 784 190 879Q190 926 195 975H215Q268 877 434 877Q514 877 643 915Q612 779 612 680Q612
478 676 313Q698 257 760 213Z" />
<glyph unicode="&#x667;" glyph-name="arabicindicdigitseven" horiz-adv-x="946" d="M827 762Q723 702 637 496T516 12H483Q451 260 348 472T133 737L147 971Q257 926 343 733Q419 559 502 201Q641 890 827 977V762Z" />
<glyph unicode="&#x668;" glyph-name="arabicindicdigiteight" horiz-adv-x="946" d="M827 241L813 7Q703 52 618 245Q541 419 458 777Q319 88 133 1V216Q237 276 323 482T444 966H477Q509 718 612 506T827 241Z" />
<glyph unicode="&#x669;" glyph-name="arabicindicdigitnine" horiz-adv-x="946" d="M756 188L729 -35Q660 0 632 109T578 547Q484 461 385 461Q309 461 264 507T219 633Q219 686 250 766Q297 888 345 937T465 987Q539 987 571 940T614 772L639 479Q661 224 756
188ZM557 674Q535 817 416 817Q357 817 314 789T270 723Q270 682 313 654T412 625Q479 625 557 674Z" />
<glyph unicode="&#x66a;" glyph-name="arabicpercentsign" horiz-adv-x="946" d="M293 1024Q293 988 267 961T207 934Q170 934 144 960T117 1024Q117 1061 143 1086T207 1112Q241 1112 267 1086T293 1024ZM760 1192L250 -133H182L688 1192H760ZM834 47Q834 12
810 -12T748 -37Q710 -37 684 -13T657 47Q657 84 684 109T750 135Q785 135 809 110T834 47Z" />
<glyph unicode="&#x66d;" glyph-name="arabicfivepointedstar" horiz-adv-x="815" d="M765 1190L547 1029L629 770L408 928L187 770L269 1029L51 1190H322L408 1450L494 1190H765Z" />
<glyph unicode="&#x670;" glyph-name="superscriptalef" horiz-adv-x="239" d="M170 1180Q170 1127 128 1030L106 1033Q118 1110 118 1099Q118 1151 111 1198L76 1431Q70 1471 70 1492Q70 1545 120 1618Q124 1577 138 1466L163 1269Q170 1214 170 1180Z" />
<glyph unicode="&#x671;" glyph-name="alefwaslafinal" horiz-adv-x="448" arabic-form="terminal" d="M518 129H378Q209 129 192 319Q183 419 149 707Q119 957 119 983Q119 1023 191 1110L255 385Q267 250 378 250H518V129ZM402 1320Q402 1269 356 1226Q306 1180
236 1180H75Q45 1180 45 1137Q45 1132 46 1120T47 1102Q0 1149 0 1199Q0 1263 74 1263H97Q211 1417 323 1417Q402 1417 402 1320ZM315 1321Q315 1358 284 1358Q231 1358 149 1263H228Q315 1263 315 1321Z" />
<glyph unicode="&#x671;" glyph-name="alefwasla" horiz-adv-x="402" arabic-form="isolated" d="M270 379Q270 288 217 129L197 135Q209 215 209 244Q209 319 197 410L146 798Q137 866 137 899Q137 978 203 1110Q205 948 217 856L258 528Q270 432 270 379ZM402
1320Q402 1269 356 1226Q306 1180 236 1180H75Q45 1180 45 1137Q45 1132 46 1120T47 1102Q0 1149 0 1199Q0 1263 74 1263H97Q211 1417 323 1417Q402 1417 402 1320ZM315 1321Q315 1358 284 1358Q231 1358 149 1263H228Q315 1263 315 1321Z" />
<glyph unicode="&#x674;" glyph-name="highhamza" horiz-adv-x="344" d="M355 1448Q349 1420 345 1411Q336 1387 321 1383L45 1304Q54 1342 74 1358Q91 1373 146 1393Q80 1425 80 1471Q80 1492 97 1515Q183 1633 260 1633Q312 1633 312 1577Q312 1553 283 1509Q232
1542 202 1542Q174 1542 135 1509Q215 1434 277 1434Q302 1434 355 1448Z" />
<glyph unicode="&#x67e;" glyph-name="pehinitial" horiz-adv-x="379" arabic-form="initial" d="M264 397Q264 129 70 129H0V250H70Q122 250 168 271Q219 294 219 326Q219 342 209 358L166 428Q152 451 152 471Q152 492 164 510L219 594Q264 495 264 397ZM335
-51L273 -162L163 -94L108 -186L3 -119L65 -10L171 -76L226 23L335 -51ZM298 -250L237 -364L134 -297L196 -186L298 -250Z" />
<glyph unicode="&#x67e;" glyph-name="pehmedial" horiz-adv-x="379" arabic-form="medial" d="M449 129H309Q287 129 257 168T225 244Q165 129 70 129H0V250H70Q159 250 262 391L274 387Q285 309 299 283Q318 250 363 250H449V129ZM376 -91L314 -202L204 -134L149
-226L44 -159L106 -50L212 -116L267 -17L376 -91ZM339 -290L278 -404L175 -337L237 -226L339 -290Z" />
<glyph unicode="&#x67e;" glyph-name="pehfinal" horiz-adv-x="1438" arabic-form="terminal" d="M1508 129H1368Q1324 129 1291 155Q1255 183 1251 227Q1052 53 596 53Q92 53 92 330Q92 417 170 565L193 555Q152 473 152 418Q152 315 286 252T643 188Q864 188
1036 231Q1219 277 1247 350Q1281 250 1368 250H1508V129ZM831 -111L769 -222L659 -154L604 -246L499 -179L561 -70L667 -136L726 -37L831 -111ZM794 -310L733 -424L630 -357L692 -246L794 -310Z" />
<glyph unicode="&#x67e;" glyph-name="peh" horiz-adv-x="1399" arabic-form="isolated" d="M1315 471Q1315 290 1153 215Q875 86 539 86Q323 86 205 148T86 324Q86 403 182 553L207 545Q154 460 154 412Q154 324 262 275T563 225Q822 225 1067 301Q1260 361 1260
410Q1260 424 1253 434L1210 510Q1202 524 1202 547Q1202 566 1217 600L1247 668Q1315 540 1315 471ZM911 -91L849 -202L739 -134L684 -226L579 -159L641 -50L747 -116L802 -17L911 -91ZM874 -290L813 -404L710 -337L772 -226L874 -290Z" />
<glyph unicode="&#x686;" glyph-name="tchehinitial" horiz-adv-x="1020" arabic-form="initial" d="M932 434L897 326H855Q815 326 751 331T655 336Q538 336 420 282Q329 233 237 183Q139 129 70 129H0V250H70Q157 250 290 300Q456 363 483 369Q456 375 350 422Q262
461 203 461Q155 461 80 438L74 436Q124 596 258 596Q317 596 479 514Q637 434 850 434H932ZM653 54L591 -57L481 11L426 -81L321 -14L383 95L489 29L544 128L653 54ZM616 -145L555 -259L452 -192L514 -81L616 -145Z" />
<glyph unicode="&#x686;" glyph-name="tchehmedial" horiz-adv-x="1098" arabic-form="medial" d="M1168 129H1020Q846 129 778 152Q707 176 707 238Q707 284 729 338H688Q552 338 424 284Q392 270 233 183Q135 129 70 129H0V250H70Q154 250 258 293Q399 351 508
375L350 433Q259 465 201 465Q146 465 74 442Q110 602 256 602Q293 602 450 536Q621 465 768 449Q831 442 958 442L932 342Q891 336 852 336Q805 336 774 338Q783 273 875 256Q908 250 1020 250H1168V129ZM653 54L591 -57L481 11L426 -81L321 -14L383 95L489 29L544
128L653 54ZM616 -145L555 -259L452 -192L514 -81L616 -145Z" />
<glyph unicode="&#x686;" glyph-name="tchehfinal" horiz-adv-x="1020" arabic-form="terminal" d="M1081 129H920Q742 129 677 152T612 238Q612 284 637 369Q396 320 249 188T102 -115Q102 -301 261 -407T698 -514Q803 -514 1026 -492L1036 -514L674 -631Q421
-631 287 -578Q41 -481 41 -207Q41 153 422 385Q289 410 246 410Q174 410 104 397L127 492Q216 541 299 541Q330 541 472 520T786 498Q836 498 889 502L836 397Q780 392 674 375Q694 292 769 266Q814 250 920 250H1081V129ZM668 2L606 -109L496 -41L441 -133L336
-66L398 43L504 -23L559 76L668 2ZM631 -197L570 -311L467 -244L529 -133L631 -197Z" />
<glyph unicode="&#x686;" glyph-name="tcheh" horiz-adv-x="1098" arabic-form="isolated" d="M1036 -510L700 -633H578Q324 -633 183 -518T41 -195Q41 159 416 385Q297 410 233 410Q175 410 102 391L123 492Q222 545 299 545Q338 545 455 524T717 502Q803 502
885 508L834 406Q500 379 295 228Q98 83 98 -117Q98 -304 260 -407T717 -510Q809 -510 1030 -489L1036 -510ZM668 2L606 -109L496 -41L441 -133L336 -66L398 43L504 -23L559 76L668 2ZM631 -197L570 -311L467 -244L529 -133L631 -197Z" />
<glyph unicode="&#x698;" glyph-name="jehfinal" horiz-adv-x="643" arabic-form="terminal" d="M713 129H582Q556 -77 461 -200T233 -324Q170 -324 18 -276L35 -258Q74 -264 96 -264Q237 -264 361 -164T532 90L455 213L508 319Q571 250 611 250H713V129ZM493
785L431 674L329 738L390 852L493 785ZM624 607L562 498L456 564L401 465L292 539L354 650L464 582L519 674L624 607Z" />
<glyph unicode="&#x698;" glyph-name="jeh" horiz-adv-x="680" arabic-form="isolated" d="M608 203Q608 11 494 -139T233 -289Q150 -289 12 -227L29 -209Q94 -225 135 -225Q224 -225 301 -176Q410 -106 483 -19T557 129Q557 170 515 252T473 360Q473 379 489
410L528 485Q608 371 608 203ZM510 962L448 851L346 915L407 1029L510 962ZM641 784L579 675L473 741L418 642L309 716L371 827L481 759L536 851L641 784Z" />
<glyph unicode="&#x6a4;" glyph-name="vehinitial" horiz-adv-x="455" arabic-form="initial" d="M417 399Q417 277 341 221Q216 129 70 129H0V250H70Q165 250 271 289Q384 331 384 379Q384 420 337 449Q283 344 212 344Q163 344 133 371T102 442Q102 486 129
577Q175 731 243 731Q304 731 360 621T417 399ZM274 539Q274 548 247 565T202 582Q169 582 169 547Q169 492 214 492Q236 492 255 508T274 539ZM270 1129L205 1025L106 1088L168 1199L270 1129ZM395 951L334 840L227 914L166 818L67 889L129 996L233 926L291 1021L395
951Z" />
<glyph unicode="&#x6a4;" glyph-name="vehmedial" horiz-adv-x="606" arabic-form="medial" d="M676 129H538Q412 129 295 211Q188 129 70 129H0V250H70Q146 250 188 287Q182 317 182 330Q182 401 227 479Q336 668 422 668Q463 668 495 604Q526 544 526 477Q526
395 442 283Q501 250 548 250H676V129ZM473 422Q473 455 446 487Q416 522 379 522Q337 522 292 490T246 434Q246 381 332 336Q473 381 473 422ZM359 1039L294 935L195 998L257 1109L359 1039ZM484 861L423 750L316 824L255 728L156 799L218 906L322 836L380 931L484
861Z" />
<glyph unicode="&#x6a4;" glyph-name="vehfinal" horiz-adv-x="1511" arabic-form="terminal" d="M1581 129H1442Q1309 129 1229 186Q959 70 817 31Q660 -12 483 -12Q304 -12 200 57T96 246Q96 362 190 471L203 461Q152 363 152 317Q152 227 254 172T526 117Q674
117 794 145T1098 252Q1061 292 1061 324Q1061 382 1112 492Q1189 657 1253 657Q1295 657 1337 583Q1376 513 1376 459Q1376 363 1327 274Q1366 250 1442 250H1581V129ZM1327 410Q1327 438 1298 481Q1267 528 1241 528Q1213 528 1168 482T1122 399Q1122 379 1151
352T1214 313Q1327 376 1327 410ZM1223 1039L1158 935L1059 998L1121 1109L1223 1039ZM1348 861L1287 750L1180 824L1119 728L1020 799L1082 906L1186 836L1244 931L1348 861Z" />
<glyph unicode="&#x6a4;" glyph-name="veh" horiz-adv-x="1511" arabic-form="isolated" d="M1425 520Q1425 410 1373 355T1153 233Q837 109 526 109Q96 109 96 360Q96 459 182 608L207 600Q147 510 147 436Q147 348 253 291T522 233Q876 233 1239 393Q1393 461
1393 504Q1393 540 1352 600Q1308 538 1294 524Q1258 489 1210 489Q1160 489 1126 523T1092 608Q1092 660 1149 766Q1209 877 1264 877Q1317 877 1368 777Q1425 666 1425 520ZM1272 680Q1272 694 1251 709T1202 725Q1159 725 1159 686Q1159 673 1177 655T1217 637Q1272
637 1272 680ZM1147 1253L1082 1149L983 1212L1045 1323L1147 1253ZM1272 1075L1211 964L1104 1038L1043 942L944 1013L1006 1120L1110 1050L1168 1145L1272 1075Z" />
<glyph unicode="&#x6a9;" glyph-name="kehehinitial" horiz-adv-x="946" arabic-form="initial" d="M956 1245L901 1122Q561 1010 344 922Q96 822 96 784Q96 766 233 694Q340 638 403 546T467 348Q467 129 117 129H0V250H157Q253 250 336 277Q430 308 430 354Q430
401 342 484Q259 560 182 596Q96 636 78 657T59 741Q59 818 78 852Q95 883 250 965Q498 1096 956 1245Z" />
<glyph unicode="&#x6a9;" glyph-name="kehehmedial" horiz-adv-x="983" arabic-form="medial" d="M1044 129H913Q876 129 834 158Q799 182 705 268L597 367Q523 430 460 467Q467 440 467 410Q467 129 103 129H0V250H108Q245 250 342 288T440 385Q440 452 340 534Q243
613 127 647Q43 761 43 823Q43 882 87 935T251 1073Q478 1233 888 1419L852 1294Q473 1113 264 983Q79 868 79 829Q79 798 176 760Q360 688 530 559Q567 531 767 356Q888 250 927 250H1044V129Z" />
<glyph unicode="&#x6a9;" glyph-name="kehehfinal" horiz-adv-x="1660" arabic-form="terminal" d="M1730 129H1599Q1562 129 1520 158Q1485 182 1391 268L1283 367Q1209 430 1146 467Q1153 440 1153 410Q1153 265 1055 155Q997 90 802 42Q604 -6 387 -6Q40 -6
40 243Q40 329 90 459L111 453Q90 396 90 325Q90 245 186 192T430 139Q674 139 883 201Q1126 273 1126 385Q1126 452 1026 534Q929 613 813 647Q729 761 729 823Q729 882 773 935T937 1073Q1164 1233 1574 1419L1538 1294Q1159 1113 950 983Q765 868 765 829Q765
798 862 760Q1046 688 1216 559Q1253 531 1453 356Q1574 250 1613 250H1730V129Z" />
<glyph unicode="&#x6a9;" glyph-name="keheh" horiz-adv-x="1702" arabic-form="isolated" d="M1706 1245L1651 1122Q1311 1010 1094 922Q846 822 846 784Q846 766 983 694Q1217 571 1217 348Q1217 280 1189 237Q1168 205 1110 163Q1010 89 799 41Q593 -6 387
-6Q40 -6 40 243Q40 329 90 459L111 453Q90 396 90 325Q90 245 186 192T430 139Q726 139 973 228Q1180 303 1180 354Q1180 401 1092 484Q1009 560 932 596Q846 636 828 657T809 741Q809 818 828 852Q845 883 1000 965Q1248 1096 1706 1245Z" />
<glyph unicode="&#x6af;" glyph-name="gafinitial" horiz-adv-x="946" arabic-form="initial" d="M956 1245L901 1122Q561 1010 344 922Q96 822 96 784Q96 766 233 694Q340 638 403 546T467 348Q467 129 117 129H0V250H157Q253 250 336 277Q430 308 430 354Q430
401 342 484Q259 560 182 596Q96 636 78 657T59 741Q59 818 78 852Q95 883 250 965Q498 1096 956 1245ZM927 1502L886 1390Q678 1318 368 1175Q106 1054 94 1054Q75 1054 75 1073Q75 1126 374 1275Q666 1420 927 1502Z" />
<glyph unicode="&#x6af;" glyph-name="gafmedial" horiz-adv-x="983" arabic-form="medial" d="M1044 129H913Q876 129 834 158Q799 182 705 268L597 367Q523 430 460 467Q467 440 467 410Q467 129 103 129H0V250H108Q245 250 342 288T440 385Q440 452 340 534Q243
613 127 647Q43 761 43 823Q43 882 87 935T251 1073Q478 1233 888 1419L852 1294Q473 1113 264 983Q79 868 79 829Q79 798 176 760Q360 688 530 559Q567 531 767 356Q888 250 927 250H1044V129ZM816 1671L791 1555Q595 1455 308 1270Q65 1114 54 1112Q35 1109 32
1128Q24 1181 300 1370Q569 1554 816 1671Z" />
<glyph unicode="&#x6af;" glyph-name="gaffinal" horiz-adv-x="1660" arabic-form="terminal" d="M1730 129H1599Q1562 129 1520 158Q1485 182 1391 268L1283 367Q1209 430 1146 467Q1153 440 1153 410Q1153 265 1055 155Q997 90 802 42Q604 -6 387 -6Q40 -6 40
243Q40 329 90 459L111 453Q90 396 90 325Q90 245 186 192T430 139Q674 139 883 201Q1126 273 1126 385Q1126 452 1026 534Q929 613 813 647Q729 761 729 823Q729 882 773 935T937 1073Q1164 1233 1574 1419L1538 1294Q1159 1113 950 983Q765 868 765 829Q765 798
862 760Q1046 688 1216 559Q1253 531 1453 356Q1574 250 1613 250H1730V129ZM1507 1695L1483 1566Q1323 1483 1018 1287Q756 1119 746 1119Q724 1119 724 1135Q724 1181 1038 1403Q1345 1620 1507 1695Z" />
<glyph unicode="&#x6af;" glyph-name="gaf" horiz-adv-x="1702" arabic-form="isolated" d="M1706 1245L1651 1122Q1311 1010 1094 922Q846 822 846 784Q846 766 983 694Q1217 571 1217 348Q1217 280 1189 237Q1168 205 1110 163Q1010 89 799 41Q593 -6 387 -6Q40
-6 40 243Q40 329 90 459L111 453Q90 396 90 325Q90 245 186 192T430 139Q726 139 973 228Q1180 303 1180 354Q1180 401 1092 484Q1009 560 932 596Q846 636 828 657T809 741Q809 818 828 852Q845 883 1000 965Q1248 1096 1706 1245ZM1677 1502L1636 1390Q1428
1318 1118 1175Q856 1054 844 1054Q825 1054 825 1073Q825 1126 1124 1275Q1416 1420 1677 1502Z" />
<glyph unicode="&#x6cc;" glyph-name="yehinitial" horiz-adv-x="379" arabic-form="initial" d="M264 397Q264 129 70 129H0V250H70Q122 250 168 271Q219 294 219 326Q219 342 209 358L166 428Q152 451 152 471Q152 492 164 510L219 594Q264 495 264 397ZM324
-23L258 -129L152 -61L92 -154L-12 -90L49 18L160 -49L215 43L324 -23Z" />
<glyph unicode="&#x6cc;" glyph-name="yehmedial" horiz-adv-x="379" arabic-form="medial" d="M449 129H309Q287 129 257 168T225 244Q165 129 70 129H0V250H70Q159 250 262 391L274 387Q285 309 299 283Q318 250 363 250H449V129ZM373 -68L307 -176L203 -102L145
-195L41 -117L104 -16L209 -90L270 4L373 -68Z" />
<glyph unicode="&#x6cc;" glyph-name="farsiyehfinal" horiz-adv-x="983" arabic-form="terminal" d="M1044 129H915Q826 129 773 102T719 35Q719 6 780 -6L864 -23Q987 -48 987 -154Q987 -272 792 -358Q615 -436 424 -436Q266 -436 178 -358T90 -141Q90 1 197
197L215 182Q141 25 141 -61Q141 -171 223 -235T446 -299Q580 -299 758 -248Q940 -196 940 -154Q940 -109 860 -102L719 -90Q627 -82 627 -25Q627 70 718 158Q812 250 928 250H1044V129Z" />
<glyph unicode="&#x6cc;" glyph-name="farsiyeh" horiz-adv-x="1171" arabic-form="isolated" d="M1092 766L1063 621Q1025 658 983 658Q903 658 793 585T682 428Q682 359 799 338L949 311Q1038 295 1038 246Q1038 167 1006 115Q955 32 762 -47T416 -127Q250 -127
155 -54T59 145Q59 246 110 364Q136 425 215 565L238 547Q129 339 129 240Q129 136 217 73T453 10Q597 10 790 81Q971 148 971 184Q971 212 920 219L780 238Q608 261 608 373Q608 469 762 633Q898 778 1026 778Q1055 778 1092 766Z" />
<glyph unicode="&#x6d5;" glyph-name="arabicae" horiz-adv-x="528" d="M459 360Q459 252 396 181T238 109Q170 109 127 157T84 281Q84 361 139 474T217 619T264 651Q322 651 385 571Q459 477 459 360ZM397 336Q397 361 350 399Q276 459 219 459Q184 459 162 422T139
332Q139 264 246 264Q309 264 353 284T397 336Z" />
<glyph unicode="&#x6e4;" glyph-name="smallhighmadda" horiz-adv-x="480" d="M491 1405Q406 1312 280 1312Q247 1312 183 1330T84 1348Q54 1348 14 1327L0 1338Q54 1430 107 1430Q149 1430 231 1408T355 1386Q398 1386 479 1417L491 1405Z" />
<glyph unicode="&#x6f0;" glyph-name="extendedarabicindicdigitzero" horiz-adv-x="946" d="M590 424Q574 362 545 213Q440 273 360 336Q385 454 422 559Q496 492 590 424Z" />
<glyph unicode="&#x6f1;" glyph-name="extendedarabicindicdigitone" horiz-adv-x="946" d="M590 227Q590 144 569 -16H547Q544 224 483 418Q449 524 403 618Q367 691 293 805Q315 902 348 999Q439 859 492 719Q590 457 590 227Z" />
<glyph unicode="&#x6f2;" glyph-name="extendedarabicindicdigittwo" horiz-adv-x="946" d="M705 983Q705 807 663 735T516 662Q494 662 449 668Q499 551 528 416Q551 310 551 209Q551 161 539 -10H510Q496 183 449 343T354 599T197 846L252 995Q330 896 385 859T508
821Q654 821 686 983H705Z" />
<glyph unicode="&#x6f3;" glyph-name="extendedarabicindicdigitthree" horiz-adv-x="946" d="M848 999Q848 707 662 707Q588 707 539 774Q470 680 397 680Q375 680 362 682Q430 497 430 295Q430 193 406 0H379Q380 20 381 66Q382 378 240 639Q199 714 127 811L178
989Q291 829 387 829Q522 829 582 1001H594Q612 866 711 866Q811 866 829 1001L848 999Z" />
<glyph unicode="&#x6f4;" glyph-name="extendedarabicindicdigitfour" horiz-adv-x="946" d="M803 862Q756 590 545 590Q497 590 441 606Q521 384 521 209Q521 161 509 -10H480Q466 183 419 343T324 599T167 846L222 995Q286 919 349 844Q375 814 430 774Q474
1022 616 1022Q696 1022 784 928L774 911Q702 936 664 936Q487 936 461 760Q516 739 571 739Q724 739 786 868L803 862Z" />
<glyph unicode="&#x6f5;" glyph-name="extendedarabicindicdigitfive" horiz-adv-x="946" d="M815 360Q815 250 755 151Q689 43 600 43Q550 43 508 90Q427 16 344 16Q271 16 222 69T172 200Q172 435 496 768L459 811L522 995Q815 615 815 360ZM760 311Q760 473
518 741Q295 491 295 311Q295 260 328 225T410 190Q475 190 563 274Q602 202 664 202Q760 202 760 311Z" />
<glyph unicode="&#x6f6;" glyph-name="extendedarabicindicdigitsix" horiz-adv-x="946" d="M840 709L784 559Q409 453 262 -27H240Q258 146 299 253Q352 392 471 516Q324 532 266 566T207 670Q207 759 317 885Q413 995 508 995Q570 995 618 962T737 838L723 823Q605
881 492 881Q414 881 363 851T311 780Q311 732 388 695T565 657Q668 657 840 709Z" />
<glyph unicode="&#x6f7;" glyph-name="extendedarabicindicdigitseven" horiz-adv-x="946" d="M827 762Q723 702 637 496T516 12H483Q451 260 348 472T133 737L147 971Q257 926 343 733Q419 559 502 201Q641 890 827 977V762Z" />
<glyph unicode="&#x6f8;" glyph-name="extendedarabicindicdigiteight" horiz-adv-x="946" d="M827 241L813 7Q703 52 618 245Q541 419 458 777Q319 88 133 1V216Q237 276 323 482T444 966H477Q509 718 612 506T827 241Z" />
<glyph unicode="&#x6f9;" glyph-name="extendedarabicindicdigitnine" horiz-adv-x="946" d="M756 188L729 -35Q660 0 632 109T578 547Q484 461 385 461Q309 461 264 507T219 633Q219 686 250 766Q297 888 345 937T465 987Q539 987 571 940T614 772L639 479Q661
224 756 188ZM557 674Q535 817 416 817Q357 817 314 789T270 723Q270 682 313 654T412 625Q479 625 557 674Z" />
<glyph unicode="&#x200c;" glyph-name="zeronojoin" horiz-adv-x="45" d="M45 0H0V1628H45V0Z" />
<glyph unicode="&#x200d;" glyph-name="zerojoin" horiz-adv-x="45" d="M160 1496L130 1466L45 1551V0H0V1550L-84 1466L-114 1496L-7 1603L-114 1710L-84 1740L23 1633L130 1740L160 1710L53 1603L160 1496Z" />
<glyph unicode="&#x200e;" glyph-name="lefttoright" horiz-adv-x="45" d="M303 1604L166 1466L135 1497L221 1583H45V0H0V1628H217L135 1710L166 1741L303 1604Z" />
<glyph unicode="&#x200f;" glyph-name="righttoleft" horiz-adv-x="45" d="M45 0H0V1583H-176L-90 1497L-121 1466L-258 1604L-121 1741L-90 1710L-172 1628H45V0Z" />
<glyph unicode="&#x2013;" glyph-name="endash" horiz-adv-x="1024" d="M1036 594H-12V684H1036V594Z" />
<glyph unicode="&#x2014;" glyph-name="quotedash" horiz-adv-x="2048" d="M2060 594H-12V684H2060V594Z" />
<glyph unicode="&#x2018;" glyph-name="quoteleft" horiz-adv-x="532" d="M393 1110Q393 1067 360 1039T283 1010Q217 1010 176 1063Q139 1112 139 1180Q139 1311 249 1409Q301 1456 367 1481L381 1444Q223 1351 223 1239Q223 1196 252 1196Q260 1196 276 1199T301
1202Q393 1202 393 1110Z" />
<glyph unicode="&#x2019;" glyph-name="quoteright" horiz-adv-x="532" d="M393 1311Q393 1211 326 1127Q263 1048 166 1010L152 1047Q309 1138 309 1251Q309 1294 281 1294Q272 1294 256 1291T231 1288Q193 1288 166 1315T139 1380Q139 1424 172 1452T250 1481Q316
1481 356 1427Q393 1379 393 1311Z" />
<glyph unicode="&#x201a;" glyph-name="quotesinglbase" horiz-adv-x="532" d="M393 127Q393 27 326 -57Q263 -136 166 -174L152 -137Q309 -46 309 68Q309 111 281 111Q273 111 256 108T231 104Q192 104 166 131T139 197Q139 241 172 269T250 297Q316 297 356
243Q393 195 393 127Z" />
<glyph unicode="&#x201c;" glyph-name="quotedblleft" horiz-adv-x="981" d="M842 1110Q842 1066 809 1038T731 1010Q664 1010 624 1063Q588 1111 588 1180Q588 1310 697 1409Q748 1456 815 1481L829 1444Q672 1352 672 1239Q672 1196 700 1196Q707 1197 713 1198L725
1200Q737 1202 750 1202Q842 1202 842 1110ZM377 1110Q377 1066 344 1038T266 1010Q199 1010 159 1063Q123 1111 123 1180Q123 1310 232 1409Q283 1456 350 1481L365 1444Q207 1352 207 1239Q207 1196 236 1196Q244 1196 260 1199T285 1202Q377 1202 377 1110Z"
/>
<glyph unicode="&#x201d;" glyph-name="quotedblright" horiz-adv-x="981" d="M858 1311Q858 1211 791 1127Q728 1048 631 1010L616 1047Q774 1138 774 1251Q774 1294 745 1294Q736 1294 720 1291T696 1288Q658 1288 631 1315T604 1380Q604 1424 637 1452T715
1481Q781 1481 821 1427Q858 1379 858 1311ZM393 1311Q393 1211 326 1127Q263 1048 166 1010L152 1047Q309 1138 309 1251Q309 1294 281 1294Q272 1294 256 1291T231 1288Q193 1288 166 1315T139 1380Q139 1424 172 1452T250 1481Q316 1481 356 1427Q393 1379 393
1311Z" />
<glyph unicode="&#x201e;" glyph-name="quotedblbase" horiz-adv-x="981" d="M858 127Q858 27 791 -57Q728 -136 631 -174L616 -137Q774 -46 774 68Q774 111 745 111Q737 111 721 108T696 104Q657 104 631 131T604 197Q604 241 637 269T715 297Q781 297 821 243Q858
195 858 127ZM393 127Q393 27 326 -57Q263 -136 166 -174L152 -137Q309 -46 309 68Q309 111 281 111Q273 111 256 108T231 104Q192 104 166 131T139 197Q139 241 172 269T250 297Q316 297 356 243Q393 195 393 127Z" />
<glyph unicode="&#x2020;" glyph-name="dagger" horiz-adv-x="1024" d="M971 887Q971 836 942 840L547 893L612 -270Q614 -311 586 -311H449Q412 -311 414 -268L479 893L94 840Q55 835 55 883V983Q55 1026 84 1022L479 965L422 1421Q417 1460 455 1460H547Q597
1460 602 1448Q604 1441 602 1423L547 965L932 1020Q971 1026 971 971V887Z" />
<glyph unicode="&#x2021;" glyph-name="daggerdbl" horiz-adv-x="1067" d="M991 117Q991 63 954 68L571 121L623 -258Q629 -305 584 -305H485Q439 -305 446 -256L498 121L117 68Q76 62 76 104V205Q76 252 123 246L498 195L459 578L498 960L123 909Q76 903 76 950V1051Q76
1093 117 1087L498 1034L446 1411Q445 1420 445 1428Q445 1460 485 1460H584Q629 1460 623 1413L571 1034L954 1087Q991 1092 991 1038V950Q991 902 940 909L571 960L610 578L571 195L940 246Q991 253 991 205V117Z" />
<glyph unicode="&#x2022;" glyph-name="bullet" horiz-adv-x="725" d="M614 768Q614 623 491 550Q434 516 365 516Q259 516 186 589T113 768Q113 874 186 946T365 1018Q535 1018 596 866Q614 819 614 768Z" />
<glyph unicode="&#x2026;" glyph-name="ellipsis" horiz-adv-x="2048" d="M1810 201Q1810 104 1706 104Q1662 104 1632 131T1602 201Q1602 297 1706 297Q1810 297 1810 201ZM1128 201Q1128 104 1024 104Q980 104 950 131T920 201Q920 297 1024 297Q1128 297 1128
201ZM446 201Q446 104 342 104Q298 104 268 131T238 201Q238 297 342 297Q446 297 446 201Z" />
<glyph unicode="&#x2030;" glyph-name="perthousand" horiz-adv-x="2048" d="M2013 461Q2013 258 1882 161Q1820 115 1749 115Q1597 115 1522 286Q1487 366 1487 461Q1487 662 1618 761Q1678 807 1749 807Q1901 807 1978 636Q2013 556 2013 461ZM1386 461Q1386
258 1255 161Q1194 115 1122 115Q970 115 895 286Q860 366 860 461Q860 662 991 761Q1051 807 1122 807Q1276 807 1351 635Q1386 555 1386 461ZM1249 1468L256 74H170L1165 1468H1249ZM559 1087Q559 887 427 787Q366 741 295 741Q142 741 68 914Q33 993 33 1087Q33
1288 162 1388Q222 1434 295 1434Q447 1434 524 1263Q559 1183 559 1087ZM1898 461Q1898 776 1749 776Q1602 776 1602 461Q1602 145 1749 145Q1898 145 1898 461ZM1272 461Q1272 776 1122 776Q975 776 975 461Q975 145 1122 145Q1272 145 1272 461ZM444 1087Q444
1403 295 1403Q147 1403 147 1087Q147 772 295 772Q444 772 444 1087Z" />
<glyph unicode="&#x2039;" glyph-name="guilsinglleft" horiz-adv-x="469" d="M408 201H371L70 578L371 954H408L213 578L408 201Z" />
<glyph unicode="&#x203a;" glyph-name="guilsinglright" horiz-adv-x="469" d="M399 578L98 201H61L256 578L61 954H98L399 578Z" />
<glyph unicode="&#x2122;" glyph-name="trademark" horiz-adv-x="2005" d="M1974 678H1575V713Q1653 715 1674 739T1696 844L1692 1335L1389 678H1356L1047 1327V844Q1047 770 1059 747Q1078 713 1143 713H1180V678H870V713Q962 713 977 758Q985 785 985 844V1311Q985
1425 945 1440Q921 1448 870 1448V1485H1159L1432 911L1696 1485H1974V1448Q1930 1446 1913 1441Q1881 1431 1874 1403T1866 1311V844Q1866 739 1902 725Q1924 716 1974 713V678ZM803 1284H768Q753 1386 679 1412Q639 1425 575 1425H504V844Q504 762 522 740T606
713V678H231V713Q271 717 288 723Q319 735 327 762Q334 786 334 844V1425H254Q166 1425 126 1398Q81 1367 66 1284H31L51 1485H780L803 1284Z" />
<glyph unicode="&#xe811;" glyph-name="lamwithmeemwithjeeminitial" horiz-adv-x="983" d="M920 440L885 338Q838 342 799 342Q627 342 468 287Q398 262 239 184Q127 129 70 129H0V250H70Q140 250 277 296Q445 352 489 360L61 436Q66 457 73 475Q90 516 115 532Q315
694 582 772Q562 860 517 1025Q485 1142 485 1165Q485 1205 535 1264Q575 1212 606 1161Q564 1117 564 1081Q564 1041 631 780Q655 784 662 784Q754 784 827 676L793 565Q724 624 685 644Q632 670 559 670Q417 670 203 539Q324 501 436 479Q625 442 920 440ZM800
175L732 68L632 142L699 247L800 175Z" />
<glyph unicode="&#xe812;" glyph-name="behwithhehinitial" horiz-adv-x="756" d="M705 348Q705 207 613 207Q568 207 460 231T318 274Q271 233 223 193Q138 129 71 129H0V250H70Q157 250 223 301Q193 337 193 369Q193 450 316 602Q309 614 301 625Q291 644 291
669Q291 706 376 796Q438 862 549 948Q615 924 615 906Q615 886 531 814Q439 735 429 718Q481 679 592 571Q705 438 705 348ZM671 68L600 -42L499 31L567 138L671 68ZM672 307Q621 415 484 520Q465 415 416 350Q563 307 649 307H672ZM428 453Q428 481 407 513T361
545Q329 545 290 506T250 436Q250 414 287 397L359 369Q428 405 428 453Z" />
<glyph unicode="&#xe813;" glyph-name="pehwithhehinitial" horiz-adv-x="756" d="M705 348Q705 207 613 207Q568 207 460 231T318 274Q271 233 223 193Q138 129 71 129H0V250H70Q157 250 223 301Q193 337 193 369Q193 450 316 602Q309 614 301 625Q291 644 291
669Q291 706 376 796Q438 862 549 948Q615 924 615 906Q615 886 531 814Q439 735 429 718Q481 679 592 571Q705 438 705 348ZM708 64L646 -47L536 21L481 -71L376 -4L438 105L544 39L599 138L708 64ZM671 -135L610 -249L507 -182L569 -71L671 -135ZM672 307Q621
415 484 520Q465 415 416 350Q563 307 649 307H672ZM428 453Q428 481 407 513T361 545Q329 545 290 506T250 436Q250 414 287 397L359 369Q428 405 428 453Z" />
<glyph unicode="&#xe814;" glyph-name="tehwithhehinitial" horiz-adv-x="756" d="M659 1157L594 1050L489 1118L428 1022L317 1089L385 1200L494 1132L555 1224L659 1157ZM705 348Q705 207 613 207Q568 207 460 231T318 274Q271 233 223 193Q138 129 71 129H0V250H70Q157
250 223 301Q193 337 193 369Q193 450 316 602Q309 614 301 625Q291 644 291 669Q291 706 376 796Q438 862 549 948Q615 924 615 906Q615 886 531 814Q439 735 429 718Q481 679 592 571Q705 438 705 348ZM672 307Q621 415 484 520Q465 415 416 350Q563 307 649
307H672ZM428 453Q428 481 407 513T361 545Q329 545 290 506T250 436Q250 414 287 397L359 369Q428 405 428 453Z" />
<glyph unicode="&#xe815;" glyph-name="noonwithhehinitial" horiz-adv-x="756" d="M602 1155L531 1050L436 1130L506 1233L602 1155ZM705 348Q705 207 613 207Q568 207 460 231T318 274Q271 233 223 193Q138 129 71 129H0V250H70Q157 250 223 301Q193 337 193
369Q193 450 316 602Q309 614 301 625Q291 644 291 669Q291 706 376 796Q438 862 549 948Q615 924 615 906Q615 886 531 814Q439 735 429 718Q481 679 592 571Q705 438 705 348ZM672 307Q621 415 484 520Q465 415 416 350Q563 307 649 307H672ZM428 453Q428 481
407 513T361 545Q329 545 290 506T250 436Q250 414 287 397L359 369Q428 405 428 453Z" />
<glyph unicode="&#xe816;" glyph-name="rayaleflam" horiz-adv-x="1508" d="M1458 223Q1458 88 1378 -17T1195 -122Q1137 -122 1040 -78L1052 -66Q1100 -77 1126 -77Q1190 -77 1243 -43Q1319 6 1370 67T1422 171Q1422 200 1393 257T1363 332Q1363 346 1374 367L1402
420Q1458 338 1458 223ZM1031 358Q1031 171 895 171H777Q658 171 646 304Q640 375 616 575Q595 750 595 768Q595 797 646 857L690 350Q698 255 777 255H895Q932 255 964 270Q1000 286 1000 309Q1000 320 993 331L963 380Q953 396 953 410Q953 425 961 437L1000
496Q1031 427 1031 358ZM1073 64L1027 -10L953 38L911 -27L838 17L881 93L958 46L997 111L1073 64ZM553 257Q553 165 523 118Q489 65 414 29T261 -8Q173 -8 116 38T58 157Q58 250 137 390L154 380Q98 267 98 223Q98 163 146 125T269 87Q371 87 477 148Q527 177
527 221Q527 306 484 593T441 889Q441 931 469 967L529 883Q501 857 501 803Q501 779 527 561T553 257Z" />
<glyph unicode="&#xe817;" glyph-name=".notdef" horiz-adv-x="1247" d="M1195 416H1158Q1050 416 884 463T589 510Q517 510 442 492Q509 435 533 392T558 287Q558 166 479 166Q388 166 208 258Q159 129 70 129H0V250H70Q193 250 202 350Q221 563 575 563Q614
563 741 553Q568 711 421 711Q396 711 347 700Q394 821 526 821Q587 821 696 745Q876 618 902 603Q1036 527 1158 527H1183L1195 416ZM1010 242L948 131L838 199L783 107L678 174L740 283L846 217L901 316L1010 242ZM973 43L912 -71L809 -4L871 107L973 43ZM521
281Q521 295 497 313Q409 378 285 423Q271 428 262 428Q247 428 247 409Q247 384 298 362Q329 347 452 283Q492 262 507 262Q521 262 521 281Z" />
<glyph unicode="&#xe818;" glyph-name="shaddawithfathatanisolated" horiz-adv-x="414" d="M408 1954Q393 1887 346 1868L66 1753Q84 1817 131 1837L408 1954ZM408 1845Q397 1784 359 1769L64 1653Q91 1722 150 1745L408 1845ZM414 1673Q414 1603 384 1557T308
1511Q288 1511 246 1534L242 1536Q205 1450 138 1450Q60 1450 60 1548Q60 1543 66 1609L95 1628Q105 1550 148 1550Q203 1550 236 1683L258 1689Q284 1616 316 1616Q374 1616 381 1738L408 1747Q414 1714 414 1673Z" />
<glyph unicode="&#xe820;" glyph-name="fathalow" horiz-adv-x="408" d="M408 1288Q408 1222 373 1202L70 1030Q73 1071 84 1089T136 1131L408 1288Z" />
<glyph unicode="&#xe821;" glyph-name="dammalow" horiz-adv-x="414" d="M414 1221L406 1122L326 1174Q206 1030 129 1030Q110 1030 70 1042Q172 1099 283 1198Q222 1243 222 1288Q222 1348 267 1413Q297 1456 338 1456Q406 1456 406 1368Q406 1320 375 1251Q389
1241 414 1221ZM344 1309Q344 1332 328 1351T291 1370Q273 1370 273 1350Q273 1319 338 1275Q344 1295 344 1309Z" />
<glyph unicode="&#xe822;" glyph-name="sukunlow" horiz-adv-x="332" d="M332 1194Q332 1130 286 1080T181 1030Q74 1030 74 1151Q74 1235 112 1288T211 1342Q258 1342 295 1297T332 1194ZM277 1170Q277 1195 234 1227Q193 1256 166 1256Q107 1256 107 1188Q107
1129 199 1129Q277 1129 277 1170Z" />
<glyph unicode="&#xe823;" glyph-name="fathatanlow" horiz-adv-x="408" d="M408 1434Q408 1368 373 1348L70 1176Q73 1217 84 1235T136 1277L408 1434ZM408 1288Q408 1222 373 1202L70 1030Q73 1071 84 1089T136 1131L408 1288Z" />
<glyph unicode="&#xe824;" glyph-name="dammatanlow" horiz-adv-x="463" d="M463 1159Q463 1124 461 1100Q421 1121 369 1159Q245 1030 129 1014Q172 1105 172 1143Q172 1198 123 1198Q81 1198 74 1122Q64 1153 64 1174Q64 1220 88 1252T148 1284Q215 1284 215
1184L209 1092Q274 1117 333 1182Q267 1226 267 1276Q267 1328 307 1375T389 1423Q412 1423 434 1397T457 1343Q457 1313 446 1285T424 1229Q463 1199 463 1159ZM387 1303Q387 1356 346 1356Q320 1356 320 1333Q320 1308 383 1264Q387 1276 387 1303Z" />
<glyph unicode="&#xe825;" glyph-name="shaddalow" horiz-adv-x="420" d="M420 1263Q420 1095 316 1095Q281 1095 252 1116Q244 1082 213 1056T148 1030Q66 1030 66 1138Q66 1160 88 1239L111 1243Q111 1132 150 1132Q214 1132 240 1294L258 1300Q281 1202 316
1202Q374 1202 383 1349L406 1359Q420 1304 420 1263Z" />
<glyph unicode="&#xe826;" glyph-name="kasralow" horiz-adv-x="408" d="M408 -71Q408 -137 373 -157L70 -329Q73 -288 84 -270T136 -228L408 -71Z" />
<glyph unicode="&#xe827;" glyph-name="kasratanlow" horiz-adv-x="408" d="M408 -71Q408 -137 373 -157L70 -329Q73 -288 84 -270T136 -228L408 -71ZM408 -218Q408 -284 373 -304L70 -476Q73 -435 84 -417T136 -375L408 -218Z" />
<glyph unicode="&#xe828;" glyph-name="shaddawithfathaisolatedlow" horiz-adv-x="420" d="M408 1552Q408 1486 373 1466L70 1294Q73 1335 84 1353T136 1395L408 1552ZM420 1263Q420 1095 316 1095Q281 1095 252 1116Q244 1082 213 1056T148 1030Q66 1030 66
1138Q66 1160 88 1239L111 1243Q111 1132 150 1132Q214 1132 240 1294L258 1300Q281 1202 316 1202Q374 1202 383 1349L406 1359Q420 1304 420 1263Z" />
<glyph unicode="&#xe829;" glyph-name="shaddawithdammaisolatedlow" horiz-adv-x="420" d="M414 1503L406 1404L326 1456Q206 1312 129 1312Q110 1312 70 1324Q172 1381 283 1480Q222 1525 222 1570Q222 1630 267 1695Q297 1738 338 1738Q406 1738 406 1650Q406
1602 375 1533Q389 1523 414 1503ZM420 1263Q420 1095 316 1095Q281 1095 252 1116Q244 1082 213 1056T148 1030Q66 1030 66 1138Q66 1160 88 1239L111 1243Q111 1132 150 1132Q214 1132 240 1294L258 1300Q281 1202 316 1202Q374 1202 383 1349L406 1359Q420 1304
420 1263ZM344 1591Q344 1614 328 1633T291 1652Q273 1652 273 1632Q273 1601 338 1557Q344 1577 344 1591Z" />
<glyph unicode="&#xe82a;" glyph-name="shaddawithfathatanisolatedlow" horiz-adv-x="420" d="M408 1686Q408 1620 373 1600L70 1428Q73 1469 84 1487T136 1529L408 1686ZM408 1540Q408 1474 373 1454L70 1282Q73 1323 84 1341T136 1383L408 1540ZM420 1263Q420
1095 316 1095Q281 1095 252 1116Q244 1082 213 1056T148 1030Q66 1030 66 1138Q66 1160 88 1239L111 1243Q111 1132 150 1132Q214 1132 240 1294L258 1300Q281 1202 316 1202Q374 1202 383 1349L406 1359Q420 1304 420 1263Z" />
<glyph unicode="&#xe82b;" glyph-name="shaddawithdammatanisolatedlow" horiz-adv-x="469" d="M469 1459Q469 1424 467 1400Q427 1421 375 1459Q251 1330 135 1314Q178 1405 178 1443Q178 1498 129 1498Q87 1498 80 1422Q70 1453 70 1474Q70 1520 94 1552T154
1584Q221 1584 221 1484L215 1392Q280 1417 339 1482Q273 1526 273 1576Q273 1628 313 1675T395 1723Q418 1723 440 1697T463 1643Q463 1613 452 1585T430 1529Q469 1499 469 1459ZM455 1263Q455 1095 351 1095Q316 1095 287 1116Q279 1082 248 1056T183 1030Q101
1030 101 1138Q101 1160 123 1239L146 1243Q146 1132 185 1132Q249 1132 275 1294L293 1300Q316 1202 351 1202Q409 1202 418 1349L441 1359Q455 1304 455 1263ZM393 1603Q393 1656 352 1656Q326 1656 326 1633Q326 1608 389 1564Q393 1576 393 1603Z" />
<glyph unicode="&#xe82c;" glyph-name="shaddawithkasraisolatedlow" horiz-adv-x="420" d="M420 1491Q420 1323 316 1323Q281 1323 252 1344Q244 1310 213 1284T148 1258Q66 1258 66 1366Q66 1388 88 1467L111 1471Q111 1360 150 1360Q214 1360 240 1522L258
1528Q281 1430 316 1430Q374 1430 383 1577L406 1587Q420 1532 420 1491ZM408 1288Q408 1222 373 1202L70 1030Q73 1071 84 1089T136 1131L408 1288Z" />
<glyph unicode="&#xe82d;" glyph-name="shaddawithkasratanisolatedlow" horiz-adv-x="420" d="M420 1520Q420 1352 316 1352Q281 1352 252 1373Q244 1339 213 1313T148 1287Q66 1287 66 1395Q66 1417 88 1496L111 1500Q111 1389 150 1389Q214 1389 240 1551L258
1557Q281 1459 316 1459Q374 1459 383 1606L406 1616Q420 1561 420 1520ZM412 1353Q397 1287 353 1267L70 1140Q98 1213 156 1239L412 1353ZM412 1236Q397 1175 346 1152L70 1030Q90 1100 142 1122L412 1236Z" />
<glyph unicode="&#xe832;" glyph-name="fathaonhamza" horiz-adv-x="420" d="M408 1865Q397 1804 359 1789L64 1673Q91 1742 150 1765L408 1865ZM425 1539Q419 1511 415 1502Q406 1478 391 1474L115 1395Q124 1433 144 1449Q161 1464 216 1484Q150 1516 150 1562Q150
1583 167 1606Q253 1724 330 1724Q382 1724 382 1668Q382 1644 353 1600Q302 1633 272 1633Q244 1633 205 1600Q285 1525 347 1525Q372 1525 425 1539Z" />
<glyph unicode="&#xe833;" glyph-name="fathatanonhamza" horiz-adv-x="420" d="M408 1974Q393 1907 346 1888L66 1773Q84 1837 131 1857L408 1974ZM408 1865Q397 1804 359 1789L64 1673Q91 1742 150 1765L408 1865ZM425 1539Q419 1511 415 1502Q406 1478 391
1474L115 1395Q124 1433 144 1449Q161 1464 216 1484Q150 1516 150 1562Q150 1583 167 1606Q253 1724 330 1724Q382 1724 382 1668Q382 1644 353 1600Q302 1633 272 1633Q244 1633 205 1600Q285 1525 347 1525Q372 1525 425 1539Z" />
<glyph unicode="&#xe834;" glyph-name="sukunonhamza" horiz-adv-x="420" d="M366 1892Q366 1834 320 1789T215 1744Q108 1744 108 1854Q108 1929 146 1977T245 2026Q292 2026 329 1985T366 1892ZM425 1539Q419 1511 415 1502Q406 1478 391 1474L115 1395Q124
1433 144 1449Q161 1464 216 1484Q150 1516 150 1562Q150 1583 167 1606Q253 1724 330 1724Q382 1724 382 1668Q382 1644 353 1600Q302 1633 272 1633Q244 1633 205 1600Q285 1525 347 1525Q372 1525 425 1539ZM311 1871Q311 1894 269 1921T200 1948Q141 1948 141
1887Q141 1834 233 1834Q311 1834 311 1871Z" />
<glyph unicode="&#xe835;" glyph-name="dammaonhamza" horiz-adv-x="420" d="M424 1763Q377 1769 314 1792Q192 1694 129 1694Q105 1694 64 1714Q196 1757 273 1812Q224 1850 224 1896Q224 1940 262 1979T344 2019Q367 2019 392 1996T418 1952Q418 1908 382 1864Q399
1856 417 1842Q424 1833 424 1800V1763ZM435 1539Q429 1511 425 1502Q416 1478 401 1474L125 1395Q134 1433 154 1449Q171 1464 226 1484Q160 1516 160 1562Q160 1583 177 1606Q263 1724 340 1724Q392 1724 392 1668Q392 1644 363 1600Q312 1633 282 1633Q254 1633
215 1600Q295 1525 357 1525Q382 1525 435 1539ZM353 1927Q353 1976 310 1976Q285 1976 285 1946Q285 1921 344 1884Q353 1908 353 1927Z" />
<glyph unicode="&#xe836;" glyph-name="dammatanonhamza" horiz-adv-x="420" d="M482 1788Q482 1780 475 1769Q450 1775 381 1800Q247 1730 174 1730Q136 1730 92 1743Q156 1777 156 1818Q156 1872 106 1872Q119 1872 70 1865Q94 1941 141 1941Q166 1941 184 1919T203
1865Q203 1838 186 1792Q258 1799 319 1837Q266 1873 266 1915Q266 1950 309 1988T393 2027Q416 2027 438 2003T461 1953Q461 1928 436 1874Q482 1845 482 1788ZM435 1539Q429 1511 425 1502Q416 1478 401 1474L125 1395Q134 1433 154 1449Q171 1464 226 1484Q160
1516 160 1562Q160 1583 177 1606Q263 1724 340 1724Q392 1724 392 1668Q392 1644 363 1600Q312 1633 282 1633Q254 1633 215 1600Q295 1525 357 1525Q382 1525 435 1539ZM395 1941Q395 1982 364 1982Q334 1982 334 1958Q334 1934 381 1902Q395 1928 395 1941Z"
/>
<glyph unicode="&#xfb50;" glyph-name="alefwaslaisolated" horiz-adv-x="402" d="M270 379Q270 288 217 129L197 135Q209 215 209 244Q209 319 197 410L146 798Q137 866 137 899Q137 978 203 1110Q205 948 217 856L258 528Q270 432 270 379ZM402 1320Q402 1269
356 1226Q306 1180 236 1180H75Q45 1180 45 1137Q45 1132 46 1120T47 1102Q0 1149 0 1199Q0 1263 74 1263H97Q211 1417 323 1417Q402 1417 402 1320ZM315 1321Q315 1358 284 1358Q231 1358 149 1263H228Q315 1263 315 1321Z" />
<glyph unicode="&#xfb51;" glyph-name="alefwaslafinal" horiz-adv-x="448" d="M518 129H378Q209 129 192 319Q183 419 149 707Q119 957 119 983Q119 1023 191 1110L255 385Q267 250 378 250H518V129ZM402 1320Q402 1269 356 1226Q306 1180 236 1180H75Q45 1180
45 1137Q45 1132 46 1120T47 1102Q0 1149 0 1199Q0 1263 74 1263H97Q211 1417 323 1417Q402 1417 402 1320ZM315 1321Q315 1358 284 1358Q231 1358 149 1263H228Q315 1263 315 1321Z" />
<glyph unicode="&#xfb56;" glyph-name="pehisolated" horiz-adv-x="1399" d="M1315 471Q1315 290 1153 215Q875 86 539 86Q323 86 205 148T86 324Q86 403 182 553L207 545Q154 460 154 412Q154 324 262 275T563 225Q822 225 1067 301Q1260 361 1260 410Q1260 424
1253 434L1210 510Q1202 524 1202 547Q1202 566 1217 600L1247 668Q1315 540 1315 471ZM911 -91L849 -202L739 -134L684 -226L579 -159L641 -50L747 -116L802 -17L911 -91ZM874 -290L813 -404L710 -337L772 -226L874 -290Z" />
<glyph unicode="&#xfb57;" glyph-name="pehfinal" horiz-adv-x="1438" d="M1508 129H1368Q1324 129 1291 155Q1255 183 1251 227Q1052 53 596 53Q92 53 92 330Q92 417 170 565L193 555Q152 473 152 418Q152 315 286 252T643 188Q864 188 1036 231Q1219 277 1247
350Q1281 250 1368 250H1508V129ZM831 -111L769 -222L659 -154L604 -246L499 -179L561 -70L667 -136L726 -37L831 -111ZM794 -310L733 -424L630 -357L692 -246L794 -310Z" />
<glyph unicode="&#xfb58;" glyph-name="pehinitial" horiz-adv-x="379" d="M264 397Q264 129 70 129H0V250H70Q122 250 168 271Q219 294 219 326Q219 342 209 358L166 428Q152 451 152 471Q152 492 164 510L219 594Q264 495 264 397ZM335 -51L273 -162L163 -94L108
-186L3 -119L65 -10L171 -76L226 23L335 -51ZM298 -250L237 -364L134 -297L196 -186L298 -250Z" />
<glyph unicode="&#xfb59;" glyph-name="pehmedial" horiz-adv-x="379" d="M449 129H309Q287 129 257 168T225 244Q165 129 70 129H0V250H70Q159 250 262 391L274 387Q285 309 299 283Q318 250 363 250H449V129ZM376 -91L314 -202L204 -134L149 -226L44 -159L106
-50L212 -116L267 -17L376 -91ZM339 -290L278 -404L175 -337L237 -226L339 -290Z" />
<glyph unicode="&#xfb6a;" glyph-name="vehisolated" horiz-adv-x="1511" d="M1425 520Q1425 410 1373 355T1153 233Q837 109 526 109Q96 109 96 360Q96 459 182 608L207 600Q147 510 147 436Q147 348 253 291T522 233Q876 233 1239 393Q1393 461 1393 504Q1393
540 1352 600Q1308 538 1294 524Q1258 489 1210 489Q1160 489 1126 523T1092 608Q1092 660 1149 766Q1209 877 1264 877Q1317 877 1368 777Q1425 666 1425 520ZM1272 680Q1272 694 1251 709T1202 725Q1159 725 1159 686Q1159 673 1177 655T1217 637Q1272 637 1272
680ZM1147 1253L1082 1149L983 1212L1045 1323L1147 1253ZM1272 1075L1211 964L1104 1038L1043 942L944 1013L1006 1120L1110 1050L1168 1145L1272 1075Z" />
<glyph unicode="&#xfb6b;" glyph-name="vehfinal" horiz-adv-x="1511" d="M1581 129H1442Q1309 129 1229 186Q959 70 817 31Q660 -12 483 -12Q304 -12 200 57T96 246Q96 362 190 471L203 461Q152 363 152 317Q152 227 254 172T526 117Q674 117 794 145T1098 252Q1061
292 1061 324Q1061 382 1112 492Q1189 657 1253 657Q1295 657 1337 583Q1376 513 1376 459Q1376 363 1327 274Q1366 250 1442 250H1581V129ZM1327 410Q1327 438 1298 481Q1267 528 1241 528Q1213 528 1168 482T1122 399Q1122 379 1151 352T1214 313Q1327 376 1327
410ZM1223 1039L1158 935L1059 998L1121 1109L1223 1039ZM1348 861L1287 750L1180 824L1119 728L1020 799L1082 906L1186 836L1244 931L1348 861Z" />
<glyph unicode="&#xfb6c;" glyph-name="vehinitial" horiz-adv-x="455" d="M417 399Q417 277 341 221Q216 129 70 129H0V250H70Q165 250 271 289Q384 331 384 379Q384 420 337 449Q283 344 212 344Q163 344 133 371T102 442Q102 486 129 577Q175 731 243 731Q304
731 360 621T417 399ZM274 539Q274 548 247 565T202 582Q169 582 169 547Q169 492 214 492Q236 492 255 508T274 539ZM270 1129L205 1025L106 1088L168 1199L270 1129ZM395 951L334 840L227 914L166 818L67 889L129 996L233 926L291 1021L395 951Z" />
<glyph unicode="&#xfb6d;" glyph-name="vehmedial" horiz-adv-x="606" d="M676 129H538Q412 129 295 211Q188 129 70 129H0V250H70Q146 250 188 287Q182 317 182 330Q182 401 227 479Q336 668 422 668Q463 668 495 604Q526 544 526 477Q526 395 442 283Q501 250
548 250H676V129ZM473 422Q473 455 446 487Q416 522 379 522Q337 522 292 490T246 434Q246 381 332 336Q473 381 473 422ZM359 1039L294 935L195 998L257 1109L359 1039ZM484 861L423 750L316 824L255 728L156 799L218 906L322 836L380 931L484 861Z" />
<glyph unicode="&#xfb7a;" glyph-name="tchehisolated" horiz-adv-x="1098" d="M1036 -510L700 -633H578Q324 -633 183 -518T41 -195Q41 159 416 385Q297 410 233 410Q175 410 102 391L123 492Q222 545 299 545Q338 545 455 524T717 502Q803 502 885 508L834 406Q500
379 295 228Q98 83 98 -117Q98 -304 260 -407T717 -510Q809 -510 1030 -489L1036 -510ZM668 2L606 -109L496 -41L441 -133L336 -66L398 43L504 -23L559 76L668 2ZM631 -197L570 -311L467 -244L529 -133L631 -197Z" />
<glyph unicode="&#xfb7b;" glyph-name="tchehfinal" horiz-adv-x="1020" d="M1081 129H920Q742 129 677 152T612 238Q612 284 637 369Q396 320 249 188T102 -115Q102 -301 261 -407T698 -514Q803 -514 1026 -492L1036 -514L674 -631Q421 -631 287 -578Q41 -481
41 -207Q41 153 422 385Q289 410 246 410Q174 410 104 397L127 492Q216 541 299 541Q330 541 472 520T786 498Q836 498 889 502L836 397Q780 392 674 375Q694 292 769 266Q814 250 920 250H1081V129ZM668 2L606 -109L496 -41L441 -133L336 -66L398 43L504 -23L559
76L668 2ZM631 -197L570 -311L467 -244L529 -133L631 -197Z" />
<glyph unicode="&#xfb7c;" glyph-name="tchehinitial" horiz-adv-x="1020" d="M932 434L897 326H855Q815 326 751 331T655 336Q538 336 420 282Q329 233 237 183Q139 129 70 129H0V250H70Q157 250 290 300Q456 363 483 369Q456 375 350 422Q262 461 203 461Q155
461 80 438L74 436Q124 596 258 596Q317 596 479 514Q637 434 850 434H932ZM653 54L591 -57L481 11L426 -81L321 -14L383 95L489 29L544 128L653 54ZM616 -145L555 -259L452 -192L514 -81L616 -145Z" />
<glyph unicode="&#xfb7d;" glyph-name="tchehmedial" horiz-adv-x="1098" d="M1168 129H1020Q846 129 778 152Q707 176 707 238Q707 284 729 338H688Q552 338 424 284Q392 270 233 183Q135 129 70 129H0V250H70Q154 250 258 293Q399 351 508 375L350 433Q259 465
201 465Q146 465 74 442Q110 602 256 602Q293 602 450 536Q621 465 768 449Q831 442 958 442L932 342Q891 336 852 336Q805 336 774 338Q783 273 875 256Q908 250 1020 250H1168V129ZM653 54L591 -57L481 11L426 -81L321 -14L383 95L489 29L544 128L653 54ZM616
-145L555 -259L452 -192L514 -81L616 -145Z" />
<glyph unicode="&#xfb8a;" glyph-name="jehisolated" horiz-adv-x="680" d="M608 203Q608 11 494 -139T233 -289Q150 -289 12 -227L29 -209Q94 -225 135 -225Q224 -225 301 -176Q410 -106 483 -19T557 129Q557 170 515 252T473 360Q473 379 489 410L528 485Q608
371 608 203ZM510 962L448 851L346 915L407 1029L510 962ZM641 784L579 675L473 741L418 642L309 716L371 827L481 759L536 851L641 784Z" />
<glyph unicode="&#xfb8b;" glyph-name="jehfinal" horiz-adv-x="643" d="M713 129H582Q556 -77 461 -200T233 -324Q170 -324 18 -276L35 -258Q74 -264 96 -264Q237 -264 361 -164T532 90L455 213L508 319Q571 250 611 250H713V129ZM493 785L431 674L329 738L390
852L493 785ZM624 607L562 498L456 564L401 465L292 539L354 650L464 582L519 674L624 607Z" />
<glyph unicode="&#xfb8e;" glyph-name="kehehisolated" horiz-adv-x="1702" d="M1706 1245L1651 1122Q1311 1010 1094 922Q846 822 846 784Q846 766 983 694Q1217 571 1217 348Q1217 280 1189 237Q1168 205 1110 163Q1010 89 799 41Q593 -6 387 -6Q40 -6 40 243Q40
329 90 459L111 453Q90 396 90 325Q90 245 186 192T430 139Q726 139 973 228Q1180 303 1180 354Q1180 401 1092 484Q1009 560 932 596Q846 636 828 657T809 741Q809 818 828 852Q845 883 1000 965Q1248 1096 1706 1245Z" />
<glyph unicode="&#xfb8f;" glyph-name="kehehfinal" horiz-adv-x="1660" d="M1730 129H1599Q1562 129 1520 158Q1485 182 1391 268L1283 367Q1209 430 1146 467Q1153 440 1153 410Q1153 265 1055 155Q997 90 802 42Q604 -6 387 -6Q40 -6 40 243Q40 329 90 459L111
453Q90 396 90 325Q90 245 186 192T430 139Q674 139 883 201Q1126 273 1126 385Q1126 452 1026 534Q929 613 813 647Q729 761 729 823Q729 882 773 935T937 1073Q1164 1233 1574 1419L1538 1294Q1159 1113 950 983Q765 868 765 829Q765 798 862 760Q1046 688 1216
559Q1253 531 1453 356Q1574 250 1613 250H1730V129Z" />
<glyph unicode="&#xfb90;" glyph-name="kehehinitial" horiz-adv-x="946" d="M956 1245L901 1122Q561 1010 344 922Q96 822 96 784Q96 766 233 694Q340 638 403 546T467 348Q467 129 117 129H0V250H157Q253 250 336 277Q430 308 430 354Q430 401 342 484Q259 560
182 596Q96 636 78 657T59 741Q59 818 78 852Q95 883 250 965Q498 1096 956 1245Z" />
<glyph unicode="&#xfb91;" glyph-name="kehehmedial" horiz-adv-x="983" d="M1044 129H913Q876 129 834 158Q799 182 705 268L597 367Q523 430 460 467Q467 440 467 410Q467 129 103 129H0V250H108Q245 250 342 288T440 385Q440 452 340 534Q243 613 127 647Q43
761 43 823Q43 882 87 935T251 1073Q478 1233 888 1419L852 1294Q473 1113 264 983Q79 868 79 829Q79 798 176 760Q360 688 530 559Q567 531 767 356Q888 250 927 250H1044V129Z" />
<glyph unicode="&#xfb92;" glyph-name="gafisolated" horiz-adv-x="1702" d="M1706 1245L1651 1122Q1311 1010 1094 922Q846 822 846 784Q846 766 983 694Q1217 571 1217 348Q1217 280 1189 237Q1168 205 1110 163Q1010 89 799 41Q593 -6 387 -6Q40 -6 40 243Q40
329 90 459L111 453Q90 396 90 325Q90 245 186 192T430 139Q726 139 973 228Q1180 303 1180 354Q1180 401 1092 484Q1009 560 932 596Q846 636 828 657T809 741Q809 818 828 852Q858 906 1003 968Q1133 1025 1263 1083Q1462 1166 1706 1245ZM1677 1502L1636 1390Q1428
1318 1118 1175Q856 1054 844 1054Q825 1054 825 1073Q825 1126 1124 1275Q1416 1420 1677 1502Z" />
<glyph unicode="&#xfb93;" glyph-name="gaffinal" horiz-adv-x="1660" d="M1730 129H1599Q1562 129 1520 158Q1485 182 1391 268L1283 367Q1209 430 1146 467Q1153 440 1153 410Q1153 265 1055 155Q997 90 802 42Q604 -6 387 -6Q40 -6 40 243Q40 329 90 459L111
453Q90 396 90 325Q90 245 186 192T430 139Q674 139 883 201Q1126 273 1126 385Q1126 452 1026 534Q929 613 813 647Q729 761 729 823Q729 882 773 935T937 1073Q1164 1233 1574 1419L1538 1294Q1159 1113 950 983Q765 868 765 829Q765 798 862 760Q1046 688 1216
559Q1253 531 1453 356Q1574 250 1613 250H1730V129ZM1507 1695L1483 1566Q1323 1483 1018 1287Q756 1119 746 1119Q724 1119 724 1135Q724 1181 1038 1403Q1345 1620 1507 1695Z" />
<glyph unicode="&#xfb94;" glyph-name="gafinitial" horiz-adv-x="946" d="M956 1245L901 1122Q561 1010 344 922Q96 822 96 784Q96 766 233 694Q340 638 403 546T467 348Q467 129 117 129H0V250H157Q253 250 336 277Q430 308 430 354Q430 401 342 484Q259 560
182 596Q96 636 78 657T59 741Q59 818 78 852Q95 883 250 965Q498 1096 956 1245ZM927 1502L886 1390Q678 1318 368 1175Q106 1054 94 1054Q75 1054 75 1073Q75 1126 374 1275Q666 1420 927 1502Z" />
<glyph unicode="&#xfb95;" glyph-name="gafmedial" horiz-adv-x="983" d="M1044 129H913Q876 129 834 158Q799 182 705 268L597 367Q523 430 460 467Q467 440 467 410Q467 129 103 129H0V250H108Q245 250 342 288T440 385Q440 452 340 534Q243 613 127 647Q43
761 43 823Q43 882 87 935T251 1073Q478 1233 888 1419L852 1294Q473 1113 264 983Q79 868 79 829Q79 798 176 760Q360 688 530 559Q567 531 767 356Q888 250 927 250H1044V129ZM816 1671L791 1555Q595 1455 308 1270Q65 1114 54 1112Q35 1109 32 1128Q24 1181
300 1370Q569 1554 816 1671Z" />
<glyph unicode="&#xfbfc;" glyph-name="farsiyehisolated" horiz-adv-x="1171" d="M1092 766L1063 621Q1025 658 983 658Q903 658 793 585T682 428Q682 359 799 338L949 311Q1038 295 1038 246Q1038 167 1006 115Q955 32 762 -47T416 -127Q250 -127 155 -54T59
145Q59 246 110 364Q136 425 215 565L238 547Q129 339 129 240Q129 136 217 73T453 10Q597 10 790 81Q971 148 971 184Q971 212 920 219L780 238Q608 261 608 373Q608 469 762 633Q898 778 1026 778Q1055 778 1092 766Z" />
<glyph unicode="&#xfbfd;" glyph-name="farsiyehfinal" horiz-adv-x="983" d="M1044 129H915Q826 129 773 102T719 35Q719 6 780 -6L864 -23Q987 -48 987 -154Q987 -272 792 -358Q615 -436 424 -436Q266 -436 178 -358T90 -141Q90 1 197 197L215 182Q141 25 141
-61Q141 -171 223 -235T446 -299Q580 -299 758 -248Q940 -196 940 -154Q940 -109 860 -102L719 -90Q627 -82 627 -25Q627 70 718 158Q812 250 928 250H1044V129Z" />
<glyph unicode="&#xfc08;" glyph-name="behwithmeemisolated" horiz-adv-x="870" d="M803 633Q803 592 743 510Q685 578 606 578Q444 578 336 455L429 412Q569 347 569 293Q569 270 541 219Q521 182 498 182Q489 182 430 197Q406 203 354 203Q252 203 182 174T111
102Q111 6 170 -209Q215 -373 215 -485Q215 -529 188 -575L84 -59Q72 1 72 66Q72 118 104 178Q139 245 227 281L176 330Q196 421 342 551Q417 618 516 665Q624 717 705 717Q803 717 803 633ZM768 171L704 66L602 134L664 247L768 171Z" />
<glyph unicode="&#xfc09;" glyph-name="behwithalefmaksuraisolated" horiz-adv-x="1098" d="M1036 115Q1036 -14 883 -121Q655 -281 424 -281Q284 -281 198 -201T111 10Q111 143 221 360L244 354Q164 188 164 92Q164 -9 245 -77T449 -145Q629 -145 846 -37Q983
31 983 68Q983 96 846 122L680 152Q690 207 700 215Q704 218 754 234Q823 256 823 362Q823 479 760 581L855 720Q910 607 910 431Q910 295 843 221Q897 209 950 197Q1036 168 1036 115ZM970 -328L902 -437L804 -363L868 -256L970 -328Z" />
<glyph unicode="&#xfc0a;" glyph-name="behwithyehisolated" horiz-adv-x="1098" d="M1036 115Q1036 -14 883 -121Q655 -281 424 -281Q284 -281 198 -201T111 10Q111 143 221 360L244 354Q164 188 164 92Q164 -9 245 -77T449 -145Q629 -145 846 -37Q983 31 983
68Q983 96 846 122L680 152Q690 207 700 215Q704 218 754 234Q823 256 823 362Q823 479 760 581L855 720Q910 607 910 431Q910 295 843 221Q897 209 950 197Q1036 168 1036 115ZM970 -328L902 -437L804 -363L868 -256L970 -328ZM634 -408L568 -525L461 -456L406
-556L298 -494L359 -378L464 -445L525 -341L634 -408Z" />
<glyph unicode="&#xfc0e;" glyph-name="tehwithmeemisolated" horiz-adv-x="870" d="M803 633Q803 592 743 510Q685 578 606 578Q444 578 336 455L429 412Q569 347 569 293Q569 270 541 219Q521 182 498 182L430 197Q402 203 354 203Q252 203 182 174T111 102Q111
6 170 -209Q215 -373 215 -485Q215 -529 188 -575L84 -59Q72 1 72 66Q72 118 104 178Q139 245 227 281L176 330Q196 421 342 551Q417 618 516 665Q624 717 705 717Q803 717 803 633ZM815 1003L748 896L643 970L586 878L477 950L543 1056L649 983L709 1077L815 1003Z"
/>
<glyph unicode="&#xfc10;" glyph-name="tehwithyehisolated" horiz-adv-x="1098" d="M1036 115Q1036 -14 883 -121Q655 -281 424 -281Q284 -281 198 -201T111 10Q111 143 221 360L244 354Q164 188 164 92Q164 -9 245 -77T449 -145Q629 -145 846 -37Q983 31 983
68Q983 96 846 122L680 152Q690 207 700 215Q704 218 754 234Q823 256 823 362Q823 479 760 581L855 720Q910 607 910 431Q910 295 843 221Q897 209 950 197Q1036 168 1036 115ZM634 -408L568 -525L461 -456L406 -556L298 -494L359 -378L464 -445L525 -341L634
-408ZM816 868L750 751L643 820L588 720L480 782L541 898L646 831L707 935L816 868Z" />
<glyph unicode="&#xfc12;" glyph-name="thehwithmeemisolated" horiz-adv-x="870" d="M803 633Q803 592 743 510Q685 578 606 578Q444 578 336 455L429 412Q569 347 569 293Q569 270 541 219Q521 182 498 182L430 197Q402 203 354 203Q252 203 182 174T111 102Q111
6 170 -209Q215 -373 215 -485Q215 -529 188 -575L84 -59Q72 1 72 66Q72 118 104 178Q139 245 227 281L176 330Q196 421 342 551Q417 618 516 665Q624 717 705 717Q803 717 803 633ZM686 1190L624 1079L522 1143L583 1257L686 1190ZM817 1012L755 903L649 969L594
870L485 944L547 1055L657 987L712 1079L817 1012Z" />
<glyph unicode="&#xfc31;" glyph-name="fehwithalefmaksuraisolated" horiz-adv-x="1098" d="M1001 190Q1001 126 958 78Q861 -30 705 -100T412 -170Q273 -170 189 -103T104 74Q104 244 233 461L252 449Q161 263 161 178Q161 84 245 22T459 -41Q602 -41 783 34Q956
107 956 154Q956 207 705 246Q709 299 729 321T809 360Q950 399 950 498Q950 555 909 600Q867 530 841 508T772 485Q732 485 706 516T680 594Q680 691 741 791Q786 864 836 864Q875 864 920 784Q993 621 993 498Q993 417 907 311Q1001 270 1001 190ZM834 674Q806
713 780 713Q743 713 743 670Q743 643 774 643Q808 643 834 674ZM703 975L638 871L539 934L601 1045L703 975Z" />
<glyph unicode="&#xfc32;" glyph-name="fehwithyehisolated" horiz-adv-x="1098" d="M1001 190Q1001 126 958 78Q861 -30 705 -100T412 -170Q273 -170 189 -103T104 74Q104 244 233 461L252 449Q161 263 161 178Q161 84 245 22T459 -41Q602 -41 783 34Q956 107
956 154Q956 207 705 246Q709 299 729 321T809 360Q950 399 950 498Q950 555 909 600Q867 530 841 508T772 485Q732 485 706 516T680 594Q680 691 741 791Q786 864 836 864Q875 864 920 784Q993 621 993 498Q993 417 907 311Q1001 270 1001 190ZM834 674Q806 713
780 713Q743 713 743 670Q743 643 774 643Q808 643 834 674ZM703 975L638 871L539 934L601 1045L703 975ZM791 -276L725 -393L618 -324L563 -424L455 -362L516 -246L621 -313L682 -209L791 -276Z" />
<glyph unicode="&#xfc3f;" glyph-name="lamwithjeemisolated" horiz-adv-x="1061" d="M1024 -504L674 -621Q639 -625 590 -625Q330 -625 184 -511T37 -190Q37 174 418 393Q330 422 252 422Q191 422 102 403L121 502Q212 563 338 563Q402 563 424 583T446 664Q446
758 416 929T385 1112Q385 1152 436 1239L516 1116Q467 1054 467 1006Q467 995 482 881T498 657Q498 596 465 528Q633 504 731 504Q753 504 794 506Q844 509 883 510L836 412Q593 378 483 338Q300 272 199 157T98 -104Q98 -288 257 -393T698 -498Q841 -498 1020
-479L1024 -504ZM648 -20L580 -127L480 -53L547 52L648 -20Z" />
<glyph unicode="&#xfc40;" glyph-name="lamwithhahisolated" horiz-adv-x="1061" d="M1024 -504L674 -621Q639 -625 590 -625Q330 -625 184 -511T37 -190Q37 174 418 393Q330 422 252 422Q191 422 102 403L121 502Q212 563 338 563Q402 563 424 583T446 664Q446
758 416 929T385 1112Q385 1152 436 1239L516 1116Q467 1054 467 1006Q467 995 482 881T498 657Q498 596 465 528Q633 504 731 504Q753 504 794 506Q844 509 883 510L836 412Q593 378 483 338Q300 272 199 157T98 -104Q98 -288 257 -393T698 -498Q841 -498 1020
-479L1024 -504Z" />
<glyph unicode="&#xfc41;" glyph-name="lamwithkhahisolated" horiz-adv-x="1061" d="M1024 -504L674 -621Q639 -625 590 -625Q330 -625 184 -511T37 -190Q37 174 418 393Q330 422 252 422Q191 422 102 403L121 502Q212 563 338 563Q402 563 424 583T446 664Q446
758 416 929T385 1112Q385 1152 436 1239L516 1116Q467 1054 467 1006Q467 995 482 881T498 657Q498 596 465 528Q633 504 731 504Q753 504 794 506Q844 509 883 510L836 412Q593 378 483 338Q300 272 199 157T98 -104Q98 -288 257 -393T698 -498Q841 -498 1020
-479L1024 -504ZM316 833L248 726L148 800L215 905L316 833Z" />
<glyph unicode="&#xfc42;" glyph-name="lamwithmeemisolated" horiz-adv-x="907" d="M588 291Q588 278 557 213Q536 170 472 170H397Q264 170 178 141Q138 128 127 110T115 49Q115 32 121 -6L201 -516Q201 -521 202 -530T203 -545Q203 -579 172 -625L80 -111Q72
-66 72 -23Q72 54 90 127Q117 235 246 307Q207 324 207 348Q207 430 305 471Q410 515 410 618Q410 733 350 1036Q338 1097 338 1128Q338 1183 397 1253Q421 1197 472 1141Q416 1057 416 993Q416 963 435 852T455 694Q455 582 403 434Q490 387 522 367Q588 326 588
291Z" />
<glyph unicode="&#xfc43;" glyph-name="lamwithalefmaksuraisolated" horiz-adv-x="1098" d="M1036 115Q1036 -14 883 -121Q655 -281 424 -281Q284 -281 198 -201T111 10Q111 143 221 360L244 354Q164 188 164 92Q164 -9 245 -77T449 -145Q629 -145 846 -37Q983
31 983 68Q983 96 846 122L680 152Q690 207 699 214T754 234Q823 253 823 326Q823 426 758 744T692 1094Q692 1143 741 1227L815 1094Q766 1042 766 999Q766 982 815 742T864 387Q864 283 840 221Q945 199 952 197Q1036 168 1036 115Z" />
<glyph unicode="&#xfc44;" glyph-name="lamwithyehisolated" horiz-adv-x="1098" d="M1036 115Q1036 -14 883 -121Q655 -281 424 -281Q284 -281 198 -201T111 10Q111 143 221 360L244 354Q164 188 164 92Q164 -9 245 -77T449 -145Q629 -145 846 -37Q983 31 983
68Q983 99 857 123Q769 138 680 152Q680 216 717 222Q823 240 823 326Q823 402 758 744T692 1094Q692 1143 741 1227L815 1094Q766 1053 766 999Q864 496 864 367Q864 309 840 221L956 197Q1036 171 1036 115ZM769 -411L702 -522L597 -448L540 -540L435 -470L497
-362L603 -435L663 -341L769 -411Z" />
<glyph unicode="&#xfc4e;" glyph-name="noonwithmeemisolated" horiz-adv-x="870" d="M803 633Q803 592 743 510Q685 578 606 578Q444 578 336 455L429 412Q569 347 569 293Q569 270 541 219Q521 182 498 182Q489 182 430 197Q406 203 354 203Q252 203 182 174T111
102Q111 6 170 -209Q215 -373 215 -485Q215 -529 188 -575L84 -59Q72 1 72 66Q72 118 104 178Q139 245 227 281L176 330Q196 421 342 551Q417 618 516 665Q624 717 705 717Q803 717 803 633ZM754 968L686 861L586 935L653 1040L754 968Z" />
<glyph unicode="&#xfc4f;" glyph-name="noonwithalefmaksuraisolated" horiz-adv-x="1098" d="M1036 115Q1036 -14 883 -121Q655 -281 424 -281Q284 -281 198 -201T111 10Q111 143 221 360L244 354Q164 188 164 92Q164 -9 245 -77T449 -145Q629 -145 846 -37Q983
31 983 68Q983 96 846 122L680 152Q690 207 700 215Q704 218 754 234Q823 256 823 362Q823 479 760 581L855 720Q910 607 910 431Q910 295 843 221Q897 209 950 197Q1036 168 1036 115ZM665 724L600 617L501 685L563 789L665 724Z" />
<glyph unicode="&#xfc50;" glyph-name="noonwithyehisolated" horiz-adv-x="1098" d="M1036 115Q1036 -14 883 -121Q655 -281 424 -281Q284 -281 198 -201T111 10Q111 143 221 360L244 354Q164 188 164 92Q164 -9 245 -77T449 -145Q629 -145 846 -37Q983 31 983
68Q983 96 846 122L680 152Q690 207 700 215Q704 218 754 234Q823 256 823 362Q823 479 760 581L855 720Q910 607 910 431Q910 295 843 221Q897 209 950 197Q1036 168 1036 115ZM665 724L600 617L501 685L563 789L665 724ZM634 -408L568 -525L461 -456L406 -556L298
-494L359 -378L464 -445L525 -341L634 -408Z" />
<glyph unicode="&#xfc58;" glyph-name="yehwithmeemisolated" horiz-adv-x="870" d="M803 633Q803 592 743 510Q685 578 606 578Q444 578 336 455L429 412Q569 347 569 293Q569 270 541 219Q521 182 498 182Q489 182 430 197Q406 203 354 203Q252 203 182 174T111
102Q111 6 170 -209Q215 -373 215 -485Q215 -529 188 -575L84 -59Q72 1 72 66Q72 118 104 178Q139 245 227 281L176 330Q196 421 342 551Q417 618 516 665Q624 717 705 717Q803 717 803 633ZM937 191L870 84L765 158L708 66L599 138L665 244L771 171L831 265L937
191Z" />
<glyph unicode="&#xfc59;" glyph-name="yehwithalefmaksuraisolated" horiz-adv-x="1098" d="M1036 115Q1036 -14 883 -121Q655 -281 424 -281Q284 -281 198 -201T111 10Q111 143 221 360L244 354Q164 188 164 92Q164 -9 245 -77T449 -145Q629 -145 846 -37Q983
31 983 68Q983 96 846 122L680 152Q690 207 700 215Q704 218 754 234Q823 256 823 362Q823 479 760 581L855 720Q910 607 910 431Q910 295 843 221Q897 209 950 197Q1036 168 1036 115ZM1075 -305L1010 -414L899 -342L844 -443L737 -365L801 -256L905 -324L965
-232L1075 -305Z" />
<glyph unicode="&#xfc5e;" glyph-name="shaddawithdammatanisolated" horiz-adv-x="482" d="M482 1788Q482 1780 475 1769Q450 1775 381 1800Q247 1730 174 1730Q136 1730 92 1743Q156 1777 156 1818Q156 1872 106 1872Q119 1872 70 1865Q94 1941 141 1941Q166
1941 184 1919T203 1865Q203 1838 186 1792Q258 1799 319 1837Q266 1873 266 1915Q266 1950 309 1988T393 2027Q416 2027 438 2003T461 1953Q461 1928 436 1874Q482 1845 482 1788ZM455 1677Q455 1603 426 1556T350 1509Q327 1509 282 1532L278 1534Q233 1450 174
1450Q94 1450 94 1554Q94 1586 117 1650L137 1652Q142 1552 186 1552Q233 1552 272 1687L291 1689Q308 1616 356 1616Q408 1616 430 1726H450Q455 1704 455 1677ZM395 1941Q395 1982 364 1982Q334 1982 334 1958Q334 1934 381 1902Q395 1928 395 1941Z" />
<glyph unicode="&#xfc5f;" glyph-name="shaddawithkasratanisolated" horiz-adv-x="420" d="M420 1940Q420 1772 316 1772Q281 1772 252 1793Q244 1759 213 1733T148 1707Q66 1707 66 1815Q66 1837 88 1916L111 1920Q111 1809 150 1809Q214 1809 240 1971L258
1977Q281 1879 316 1879Q374 1879 383 2026L406 2036Q420 1981 420 1940ZM412 1773Q397 1707 353 1687L70 1560Q98 1633 156 1659L412 1773ZM412 1656Q397 1595 346 1572L70 1450Q90 1520 142 1542L412 1656Z" />
<glyph unicode="&#xfc60;" glyph-name="shaddawithfathaisolated" horiz-adv-x="414" d="M408 1845Q397 1784 359 1769L64 1653Q91 1722 150 1745L408 1845ZM414 1673Q414 1603 384 1557T308 1511Q288 1511 246 1534L242 1536Q205 1450 138 1450Q60 1450 60 1548Q60
1543 66 1609L95 1628Q105 1550 148 1550Q203 1550 236 1683L258 1689Q284 1616 316 1616Q374 1616 381 1738L408 1747Q414 1714 414 1673Z" />
<glyph unicode="&#xfc61;" glyph-name="shaddawithdammaisolated" horiz-adv-x="424" d="M424 1763Q377 1769 314 1792Q192 1694 129 1694Q105 1694 64 1714Q196 1757 273 1812Q224 1850 224 1896Q224 1940 262 1979T344 2019Q367 2019 392 1996T418 1952Q418
1908 382 1864Q399 1856 417 1842Q424 1833 424 1800V1763ZM418 1720Q418 1505 310 1505Q269 1505 240 1530Q208 1450 136 1450Q58 1450 58 1548Q58 1591 80 1632L101 1634Q107 1552 148 1552Q194 1552 236 1671L260 1677Q272 1610 314 1610Q370 1610 394 1714L418
1720ZM353 1927Q353 1976 310 1976Q285 1976 285 1946Q285 1921 344 1884Q353 1908 353 1927Z" />
<glyph unicode="&#xfc62;" glyph-name="shaddawithkasraisolated" horiz-adv-x="420" d="M420 1830Q420 1662 316 1662Q281 1662 252 1683Q244 1649 213 1623T148 1597Q66 1597 66 1705Q66 1727 88 1806L111 1810Q111 1699 150 1699Q214 1699 240 1861L258 1867Q281
1769 316 1769Q374 1769 383 1916L406 1926Q420 1871 420 1830ZM412 1663Q397 1597 353 1577L70 1450Q98 1523 156 1549L412 1663Z" />
<glyph unicode="&#xfc6a;" glyph-name="behwithrehfinal" horiz-adv-x="946" d="M1016 129H876Q736 129 723 412Q634 303 532 287Q539 227 539 190Q539 -13 438 -148T184 -283Q102 -283 10 -252L18 -231Q47 -238 86 -238Q225 -238 354 -96Q497 62 497 164Q497
192 460 269T422 367Q422 393 455 446Q524 406 569 406Q673 406 731 528H743Q769 357 795 304T876 250H1016V129ZM781 -17L713 -124L613 -50L680 55L781 -17Z" />
<glyph unicode="&#xfc6d;" glyph-name="behwithnoonfinal" horiz-adv-x="1247" d="M1317 129H1177Q1101 129 1062 189Q1011 267 980 485Q906 362 812 356Q820 296 820 252Q820 68 686 -55T351 -178Q214 -178 138 -115T62 66Q62 173 150 367L169 356Q114 220 114
145Q114 60 189 3T378 -55Q551 -55 667 26T783 227Q783 320 716 397L751 496Q807 471 845 471Q925 471 996 584L1015 582Q1040 387 1073 319T1177 250H1317V129ZM541 725L473 618L373 692L440 797L541 725ZM1161 -78L1097 -183L995 -115L1057 -2L1161 -78Z" />
<glyph unicode="&#xfc6e;" glyph-name="behwithalefmaksurafinal" horiz-adv-x="1098" d="M1168 129H1018Q949 129 876 199T766 270Q702 270 647 215Q596 164 596 115Q596 50 714 34L913 7Q1022 -8 1022 -59Q1022 -189 813 -294T346 -399Q189 -399 99 -324T8 -115Q8
58 129 225L142 218Q62 64 62 -25Q62 -131 154 -203T381 -276Q537 -276 743 -218Q953 -159 953 -111Q953 -91 903 -86L651 -60Q518 -46 518 31Q518 115 629 248T811 381Q843 381 915 316T1018 250H1168V129ZM1263 -57L1199 -162L1097 -94L1159 19L1263 -57Z" />
<glyph unicode="&#xfc6f;" glyph-name="behwithyehfinal" horiz-adv-x="1098" d="M1168 129H1018Q949 129 876 199T766 270Q702 270 647 215Q596 164 596 115Q596 50 714 34L913 7Q1022 -8 1022 -59Q1022 -189 813 -294T346 -399Q189 -399 99 -324T8 -115Q8 58
129 225L142 218Q62 64 62 -25Q62 -131 154 -203T381 -276Q537 -276 743 -218Q953 -159 953 -111Q953 -91 903 -86L651 -60Q518 -46 518 31Q518 115 629 248T811 381Q843 381 915 316T1018 250H1168V129ZM1263 -57L1199 -162L1097 -94L1159 19L1263 -57ZM614 -510L551
-614L446 -539L385 -631L283 -553L350 -449L455 -528L516 -436L614 -510Z" />
<glyph unicode="&#xfc73;" glyph-name="tehwithnoonfinal" horiz-adv-x="1247" d="M1317 129H1177Q1101 129 1062 189Q1011 267 980 485Q906 362 812 356Q820 296 820 252Q820 68 686 -55T351 -178Q214 -178 138 -115T62 66Q62 173 150 367L169 356Q114 220 114
145Q114 60 189 3T378 -55Q551 -55 667 26T783 227Q783 320 716 397L751 496Q807 471 845 471Q925 471 996 584L1015 582Q1040 387 1073 319T1177 250H1317V129ZM1239 772L1178 658L1069 723L1012 631L903 693L969 811L1079 742L1135 834L1239 772ZM541 725L473
618L373 692L440 797L541 725Z" />
<glyph unicode="&#xfc74;" glyph-name="tehwithalefmaksurafinal" horiz-adv-x="1098" d="M1168 129H1018Q949 129 876 199T766 270Q702 270 647 215Q596 164 596 115Q596 50 714 34L913 7Q1022 -8 1022 -59Q1022 -189 813 -294T346 -399Q189 -399 99 -324T8 -115Q8
58 129 225L142 218Q62 64 62 -25Q62 -131 154 -203T381 -276Q537 -276 743 -218Q953 -159 953 -111Q953 -91 903 -86L651 -60Q518 -46 518 31Q518 115 629 248T811 381Q843 381 915 316T1018 250H1168V129ZM628 690L561 579L456 653L399 561L294 631L356 739L462
666L522 760L628 690Z" />
<glyph unicode="&#xfc75;" glyph-name="tehwithyehfinal" horiz-adv-x="1098" d="M1168 129H1018Q949 129 876 199T766 270Q702 270 647 215Q596 164 596 115Q596 50 714 34L913 7Q1022 -8 1022 -59Q1022 -189 813 -294T346 -399Q189 -399 99 -324T8 -115Q8 58
129 225L142 218Q62 64 62 -25Q62 -131 154 -203T381 -276Q537 -276 743 -218Q953 -159 953 -111Q953 -91 903 -86L651 -60Q518 -46 518 31Q518 115 629 248T811 381Q843 381 915 316T1018 250H1168V129ZM628 690L561 579L456 653L399 561L294 631L356 739L462
666L522 760L628 690ZM614 -510L551 -614L446 -539L385 -631L283 -553L350 -449L455 -528L516 -436L614 -510Z" />
<glyph unicode="&#xfc8e;" glyph-name="noonwithalefmaksurafinal" horiz-adv-x="1098" d="M1168 129H1018Q949 129 876 199T766 270Q702 270 647 215Q596 164 596 115Q596 50 714 34L913 7Q1022 -8 1022 -59Q1022 -189 813 -294T346 -399Q189 -399 99 -324T8
-115Q8 58 129 225L142 218Q62 64 62 -25Q62 -131 154 -203T381 -276Q537 -276 743 -218Q953 -159 953 -111Q953 -91 903 -86L651 -60Q518 -46 518 31Q518 115 629 248T811 381Q843 381 915 316T1018 250H1168V129ZM546 609L482 504L380 572L442 685L546 609Z"
/>
<glyph unicode="&#xfc8f;" glyph-name="noonwithyehfinal" horiz-adv-x="1098" d="M1168 129H1018Q949 129 876 199T766 270Q702 270 647 215Q596 164 596 115Q596 50 714 34L913 7Q1022 -8 1022 -59Q1022 -189 813 -294T346 -399Q189 -399 99 -324T8 -115Q8 58
129 225L142 218Q62 64 62 -25Q62 -131 154 -203T381 -276Q537 -276 743 -218Q953 -159 953 -111Q953 -91 903 -86L651 -60Q518 -46 518 31Q518 115 629 248T811 381Q843 381 915 316T1018 250H1168V129ZM546 609L482 504L380 572L442 685L546 609ZM614 -510L551
-614L446 -539L385 -631L283 -553L350 -449L455 -528L516 -436L614 -510Z" />
<glyph unicode="&#xfc91;" glyph-name="yehwithrehfinal" horiz-adv-x="946" d="M1016 129H876Q736 129 723 412Q634 303 532 287Q539 227 539 190Q539 -13 438 -148T184 -283Q102 -283 10 -252L18 -231Q47 -238 86 -238Q225 -238 354 -96Q497 62 497 164Q497
192 460 269T422 367Q422 393 455 446Q524 406 569 406Q673 406 731 528H743Q769 357 795 304T876 250H1016V129ZM901 -30L834 -141L729 -67L672 -159L567 -89L629 19L735 -54L795 40L901 -30Z" />
<glyph unicode="&#xfc94;" glyph-name="yehwithnoonfinal" horiz-adv-x="1247" d="M1317 129H1177Q1101 129 1062 189Q1011 267 980 485Q906 362 812 356Q820 296 820 252Q820 68 686 -55T351 -178Q214 -178 138 -115T62 66Q62 173 150 367L169 356Q114 220 114
145Q114 60 189 3T378 -55Q551 -55 667 26T783 227Q783 320 716 397L751 496Q807 471 845 471Q925 471 996 584L1015 582Q1040 387 1073 319T1177 250H1317V129ZM541 725L473 618L373 692L440 797L541 725ZM1239 -68L1178 -182L1069 -117L1012 -209L903 -147L969
-29L1079 -98L1135 -6L1239 -68Z" />
<glyph unicode="&#xfc95;" glyph-name="yehwithalefmaksurafinal" horiz-adv-x="1098" d="M1168 129H1018Q949 129 876 199T766 270Q702 270 647 215Q596 164 596 115Q596 50 714 34L913 7Q1022 -8 1022 -59Q1022 -189 813 -294T346 -399Q189 -399 99 -324T8 -115Q8
58 129 225L142 218Q62 64 62 -25Q62 -131 154 -203T381 -276Q537 -276 743 -218Q953 -159 953 -111Q953 -91 903 -86L651 -60Q518 -46 518 31Q518 115 629 248T811 381Q843 381 915 316T1018 250H1168V129ZM1417 -133L1354 -237L1249 -162L1188 -254L1086 -176L1153
-72L1258 -151L1319 -59L1417 -133Z" />
<glyph unicode="&#xfc9c;" glyph-name="behwithjeeminitial" horiz-adv-x="946" d="M902 422L865 339H839Q611 339 448 285Q371 259 237 183Q140 129 70 129H0V250H70Q148 250 230 283Q355 333 440 354Q245 407 83 440Q96 496 121 521T212 569Q478 664 605 928Q631
981 651 981Q727 981 753 705L721 701Q706 866 651 866Q629 866 586 812Q513 720 476 681Q386 590 270 522Q523 422 792 422H902ZM870 117L809 6L707 74L766 184L870 117ZM489 117L428 6L326 74L385 184L489 117Z" />
<glyph unicode="&#xfc9d;" glyph-name="behwithhahinitial" horiz-adv-x="946" d="M902 422L865 339H839Q611 339 448 285Q371 259 237 183Q140 129 70 129H0V250H70Q148 250 230 283Q355 333 440 354Q245 407 83 440Q96 496 121 521T212 569Q478 664 605 928Q631
981 651 981Q727 981 753 705L721 701Q706 866 651 866Q629 866 586 812Q513 720 476 681Q386 590 270 522Q523 422 792 422H902ZM870 117L809 6L707 74L766 184L870 117Z" />
<glyph unicode="&#xfc9e;" glyph-name="behwithkhahinitial" horiz-adv-x="946" d="M902 422L865 339H839Q611 339 448 285Q371 259 237 183Q140 129 70 129H0V250H70Q148 250 230 283Q355 333 440 354Q245 407 83 440Q96 496 121 521T212 569Q478 664 605 928Q631
981 651 981Q727 981 753 705L721 701Q706 866 651 866Q629 866 586 812Q513 720 476 681Q386 590 270 522Q523 422 792 422H902ZM262 858L197 754L98 817L160 928L262 858ZM870 117L809 6L707 74L766 184L870 117Z" />
<glyph unicode="&#xfc9f;" glyph-name="behwithmeeminitial" horiz-adv-x="643" d="M588 780Q588 764 581 744L557 674Q478 717 422 717Q350 717 300 674T250 569Q250 508 290 460T440 344Q460 332 514 299L467 154Q396 187 293 231Q267 194 189 161Q117 129 70
129H0V250H70Q104 250 153 271T225 319Q188 408 188 479Q188 625 287 748Q371 852 471 852Q514 852 551 832T588 780ZM786 111L722 6L620 74L682 187L786 111Z" />
<glyph unicode="&#xfca1;" glyph-name="tehwithjeeminitial" horiz-adv-x="946" d="M902 422L865 339H839Q611 339 448 285Q371 259 237 183Q140 129 70 129H0V250H70Q148 250 230 283Q355 333 440 354Q245 407 83 440Q96 496 121 521T212 569Q478 664 605 928Q631
981 651 981Q727 981 753 705L721 701Q706 866 651 866Q629 866 586 812Q513 720 476 681Q386 590 270 522Q523 422 792 422H902ZM805 1247L735 1141L633 1217L571 1124L465 1202L535 1309L639 1233L700 1325L805 1247ZM786 111L722 6L620 74L682 187L786 111Z"
/>
<glyph unicode="&#xfca2;" glyph-name="tehwithhahinitial" horiz-adv-x="946" d="M902 422L865 339H839Q611 339 448 285Q371 259 237 183Q140 129 70 129H0V250H70Q148 250 230 283Q355 333 440 354Q245 407 83 440Q96 496 121 521T212 569Q478 664 605 928Q631
981 651 981Q727 981 753 705L721 701Q706 866 651 866Q629 866 586 812Q513 720 476 681Q386 590 270 522Q523 422 792 422H902ZM805 1247L735 1141L633 1217L571 1124L465 1202L535 1309L639 1233L700 1325L805 1247Z" />
<glyph unicode="&#xfca3;" glyph-name="tehwithkhahinitial" horiz-adv-x="946" d="M902 422L865 339H839Q611 339 448 285Q371 259 237 183Q140 129 70 129H0V250H70Q148 250 230 283Q355 333 440 354Q245 407 83 440Q96 496 121 521T212 569Q478 664 605 928Q631
981 651 981Q727 981 753 705L721 701Q706 866 651 866Q629 866 586 812Q513 720 476 681Q386 590 270 522Q523 422 792 422H902ZM805 1247L735 1141L633 1217L571 1124L465 1202L535 1309L639 1233L700 1325L805 1247ZM262 858L197 754L98 817L160 928L262 858Z"
/>
<glyph unicode="&#xfca4;" glyph-name="tehwithmeeminitial" horiz-adv-x="643" d="M588 780Q588 764 581 744L557 674Q478 717 422 717Q350 717 300 674T250 569Q250 508 290 460T440 344Q460 332 514 299L467 154Q396 187 293 231Q267 194 189 161Q117 129 70
129H0V250H70Q104 250 153 271T225 319Q188 408 188 479Q188 625 287 748Q371 852 471 852Q514 852 551 832T588 780ZM579 1043L518 932L411 1006L350 910L251 981L313 1088L417 1018L475 1113L579 1043Z" />
<glyph unicode="&#xfca6;" glyph-name="thehwithmeeminitial" horiz-adv-x="643" d="M588 780Q588 764 581 744L557 674Q478 717 422 717Q350 717 300 674T250 569Q250 508 290 460T440 344Q460 332 514 299L467 154Q396 187 293 231Q267 194 189 161Q117 129
70 129H0V250H70Q104 250 153 271T225 319Q188 408 188 479Q188 625 287 748Q371 852 471 852Q514 852 551 832T588 780ZM458 1182L394 1077L292 1145L354 1258L458 1182ZM595 1007L524 898L421 970L358 878L261 946L321 1051L427 984L488 1075L595 1007Z" />
<glyph unicode="&#xfca8;" glyph-name="jeemwithmeeminitial" horiz-adv-x="1247" d="M1195 416H1158Q1050 416 884 463T589 510Q517 510 442 492Q509 435 533 392T558 287Q558 166 479 166Q388 166 208 258Q159 129 70 129H0V250H70Q193 250 202 350Q221 563
575 563Q614 563 741 553Q568 711 421 711Q396 711 347 700Q394 821 526 821Q587 821 696 745Q876 618 902 603Q1036 527 1158 527H1183L1195 416ZM521 281Q521 295 497 313Q409 378 285 423Q271 428 262 428Q247 428 247 409Q247 384 298 362Q329 347 452 283Q492
262 507 262Q521 262 521 281ZM786 111L722 6L620 74L682 187L786 111Z" />
<glyph unicode="&#xfcaa;" glyph-name="hahwithmeeminitial" horiz-adv-x="1247" d="M1195 416H1158Q1050 416 884 463T589 510Q517 510 442 492Q509 435 533 392T558 287Q558 166 479 166Q388 166 208 258Q159 129 70 129H0V250H70Q193 250 202 350Q221 563 575
563Q614 563 741 553Q568 711 421 711Q396 711 347 700Q394 821 526 821Q587 821 696 745Q876 618 902 603Q1036 527 1158 527H1183L1195 416ZM521 281Q521 295 497 313Q409 378 285 423Q271 428 262 428Q247 428 247 409Q247 384 298 362Q329 347 452 283Q492
262 507 262Q521 262 521 281Z" />
<glyph unicode="&#xfcac;" glyph-name="khahwithmeeminitial" horiz-adv-x="1247" d="M1195 416H1158Q1050 416 884 463T589 510Q517 510 442 492Q509 435 533 392T558 287Q558 166 479 166Q388 166 208 258Q159 129 70 129H0V250H70Q193 250 202 350Q221 563
575 563Q614 563 741 553Q568 711 421 711Q396 711 347 700Q394 821 526 821Q587 821 696 745Q876 618 902 603Q1036 527 1158 527H1183L1195 416ZM521 281Q521 295 497 313Q409 378 285 423Q271 428 262 428Q247 428 247 409Q247 384 298 362Q329 347 452 283Q492
262 507 262Q521 262 521 281ZM553 969L488 865L389 928L451 1039L553 969Z" />
<glyph unicode="&#xfcb0;" glyph-name="seenwithmeeminitial" horiz-adv-x="1098" d="M1032 772Q1032 669 993 604T892 539Q839 539 749 621Q660 477 552 477Q469 477 430 569Q402 621 362 621Q310 621 273 588T235 516Q235 448 325 336Q413 329 454 309Q492 291
528 240Q511 180 462 117L434 136Q349 194 300 194Q262 194 190 162T70 129H0V250H70Q93 250 135 276Q182 305 223 311Q192 396 192 436Q192 526 239 614Q268 667 318 707T405 748Q437 748 485 686Q540 614 604 614Q733 614 780 805H794Q813 676 952 676Q985 676
985 700Q985 717 935 750L976 877Q1032 844 1032 772Z" />
<glyph unicode="&#xfcc9;" glyph-name="lamwithjeeminitial" horiz-adv-x="1061" d="M1023 424L968 324Q775 342 687 342Q564 342 435 287Q409 276 236 184Q131 129 70 129H0V250H70Q166 250 282 298Q456 369 522 387Q354 449 104 449Q118 534 173 560Q212 578
317 578Q394 578 418 592Q452 611 452 676Q452 753 421 936T390 1135Q390 1184 454 1253L519 1135Q476 1084 476 1018Q476 985 489 851T503 692Q503 596 464 535Q658 474 726 460Q834 436 1023 424ZM786 111L722 6L620 74L682 187L786 111Z" />
<glyph unicode="&#xfcca;" glyph-name="lamwithhahinitial" horiz-adv-x="1061" d="M1023 424L968 324Q775 342 687 342Q564 342 435 287Q409 276 236 184Q131 129 70 129H0V250H70Q166 250 282 298Q456 369 522 387Q354 449 104 449Q118 534 173 560Q212 578
317 578Q394 578 418 592Q452 611 452 676Q452 753 421 936T390 1135Q390 1184 454 1253L519 1135Q476 1084 476 1018Q476 985 489 851T503 692Q503 596 464 535Q658 474 726 460Q834 436 1023 424Z" />
<glyph unicode="&#xfccb;" glyph-name="lamwithkhahinitial" horiz-adv-x="1061" d="M1023 424L968 324Q775 342 687 342Q564 342 435 287Q409 276 236 184Q131 129 70 129H0V250H70Q166 250 282 298Q456 369 522 387Q354 449 104 449Q118 534 173 560Q212 578
317 578Q394 578 418 592Q452 611 452 676Q452 753 421 936T390 1135Q390 1184 454 1253L519 1135Q476 1084 476 1018Q476 985 489 851T503 692Q503 596 464 535Q658 474 726 460Q834 436 1023 424ZM262 858L197 754L98 817L160 928L262 858Z" />
<glyph unicode="&#xfccc;" glyph-name="lamwithmeeminitial" horiz-adv-x="528" d="M491 215Q491 176 452 104Q361 203 280 203Q247 203 182 166T70 129H0V250H70Q114 250 166 277Q226 308 251 313Q237 363 183 721T128 1122Q128 1198 184 1251L263 1122Q208 1076
208 995Q208 868 261 559Q282 437 308 392T405 311Q491 267 491 215Z" />
<glyph unicode="&#xfccd;" glyph-name="lamwithhehinitial" horiz-adv-x="719" d="M663 381Q663 261 627 222T483 182Q382 182 233 209Q211 180 157 155T70 129H0V250H70Q119 250 145 268Q128 325 128 356Q128 513 368 674Q357 847 329 966Q304 1072 304 1079Q304
1119 356 1184L433 1075Q383 1030 383 980L415 668Q422 594 468 570L582 511Q663 469 663 381ZM624 317Q624 363 491 434Q472 444 440 465Q411 390 360 307Q470 293 513 293Q624 293 624 317ZM384 422Q384 461 359 498T304 535Q265 535 218 481T171 387Q171 342
276 324Q384 368 384 422Z" />
<glyph unicode="&#xfcce;" glyph-name="meemwithjeeminitial" horiz-adv-x="946" d="M902 412L872 332L753 324Q549 310 405 259Q351 240 222 172Q138 129 70 129H0V250H70Q160 250 442 344Q157 433 83 440Q125 538 194 582Q349 682 556 748L495 786Q532 879 562
928Q694 888 792 811Q772 741 735 664L654 659Q341 640 212 535Q515 418 902 412ZM786 111L722 6L620 74L682 187L786 111Z" />
<glyph unicode="&#xfccf;" glyph-name="meemwithhahinitial" horiz-adv-x="946" d="M902 412L872 332L753 324Q549 310 405 259Q351 240 222 172Q138 129 70 129H0V250H70Q160 250 442 344Q157 433 83 440Q125 538 194 582Q349 682 556 748L495 786Q532 879 562
928Q694 888 792 811Q772 741 735 664L654 659Q341 640 212 535Q515 418 902 412Z" />
<glyph unicode="&#xfcd0;" glyph-name="meemwithkhahinitial" horiz-adv-x="946" d="M902 412L872 332L753 324Q549 310 405 259Q351 240 222 172Q138 129 70 129H0V250H70Q160 250 442 344Q157 433 83 440Q125 538 194 582Q349 682 556 748L495 786Q532 879 562
928Q694 888 792 811Q772 741 735 664L654 659Q341 640 212 535Q515 418 902 412ZM262 858L197 754L98 817L160 928L262 858Z" />
<glyph unicode="&#xfcd1;" glyph-name="meemwithmeeminitial" horiz-adv-x="719" d="M685 817L624 668Q286 624 286 528Q286 425 460 326Q558 270 558 246Q558 215 513 117Q405 172 311 244Q192 129 70 129H0V250H70Q163 250 249 336Q218 399 218 440Q218 484
282 618Q309 674 336 697Q358 715 433 748L360 793L466 963Q577 932 685 817Z" />
<glyph unicode="&#xfcd2;" glyph-name="noonwithjeeminitial" horiz-adv-x="946" d="M902 422L865 339H839Q611 339 448 285Q371 259 237 183Q140 129 70 129H0V250H70Q148 250 230 283Q355 333 440 354Q245 407 83 440Q96 496 121 521T212 569Q478 664 605 928Q631
981 651 981Q727 981 753 705L721 701Q706 866 651 866Q629 866 586 812Q513 720 476 681Q386 590 270 522Q523 422 792 422H902ZM741 1235L670 1130L575 1210L645 1313L741 1235ZM786 111L722 6L620 74L682 187L786 111Z" />
<glyph unicode="&#xfcd3;" glyph-name="noonwithhahinitial" horiz-adv-x="946" d="M902 422L865 339H839Q611 339 448 285Q371 259 237 183Q140 129 70 129H0V250H70Q148 250 230 283Q355 333 440 354Q245 407 83 440Q96 496 121 521T212 569Q478 664 605 928Q631
981 651 981Q727 981 753 705L721 701Q706 866 651 866Q629 866 586 812Q513 720 476 681Q386 590 270 522Q523 422 792 422H902ZM741 1235L670 1130L575 1210L645 1313L741 1235Z" />
<glyph unicode="&#xfcd4;" glyph-name="noonwithkhahinitial" horiz-adv-x="946" d="M902 422L865 339H839Q611 339 448 285Q371 259 237 183Q140 129 70 129H0V250H70Q148 250 230 283Q355 333 440 354Q245 407 83 440Q96 496 121 521T212 569Q478 664 605 928Q631
981 651 981Q727 981 753 705L721 701Q706 866 651 866Q629 866 586 812Q513 720 476 681Q386 590 270 522Q523 422 792 422H902ZM741 1235L670 1130L575 1210L645 1313L741 1235ZM262 858L197 754L98 817L160 928L262 858Z" />
<glyph unicode="&#xfcd5;" glyph-name="noonwithmeeminitial" horiz-adv-x="643" d="M588 780Q588 764 581 744L557 674Q478 717 422 717Q350 717 300 674T250 569Q250 508 290 460T440 344Q460 332 514 299L467 154Q396 187 293 231Q267 194 189 161Q117 129
70 129H0V250H70Q104 250 153 271T225 319Q188 408 188 479Q188 625 287 748Q371 852 471 852Q514 852 551 832T588 780ZM511 1116L446 1012L347 1075L409 1186L511 1116Z" />
<glyph unicode="&#xfcd8;" glyph-name="hehwithmeeminitial" horiz-adv-x="1061" d="M993 688Q993 617 965 567T897 516Q815 516 668 545Q589 480 463 444Q485 403 485 362Q485 305 453 259T379 213Q279 213 182 270Q115 129 48 129H0V250H48Q72 250 106 268Q145
289 151 315Q178 425 225 469T367 514H414Q528 514 598 565Q504 591 504 639Q504 761 651 877Q621 892 563 901Q583 1032 661 1032Q759 1032 876 911T993 688ZM952 645Q952 715 803 817Q796 697 756 645Q837 623 907 623Q952 623 952 645ZM741 731Q741 821 674
821Q640 821 605 783T569 717Q569 681 698 660Q741 693 741 731ZM430 330Q430 360 365 394T252 428Q227 428 227 399Q227 377 308 343Q383 311 412 311Q430 311 430 330Z" />
<glyph unicode="&#xfcda;" glyph-name="yehwithjeeminitial" horiz-adv-x="946" d="M902 422L865 339H839Q611 339 448 285Q371 259 237 183Q140 129 70 129H0V250H70Q148 250 230 283Q355 333 440 354Q245 407 83 440Q96 496 121 521T212 569Q478 664 605 928Q631
981 651 981Q727 981 753 705L721 701Q706 866 651 866Q629 866 586 812Q513 720 476 681Q386 590 270 522Q523 422 792 422H902ZM901 115L836 6L725 78L670 -23L563 55L627 164L731 96L791 188L901 115ZM430 -60L366 -165L264 -97L326 16L430 -60Z" />
<glyph unicode="&#xfcdb;" glyph-name="yehwithhahinitial" horiz-adv-x="946" d="M902 422L865 339H839Q611 339 448 285Q371 259 237 183Q140 129 70 129H0V250H70Q148 250 230 283Q355 333 440 354Q245 407 83 440Q96 496 121 521T212 569Q478 664 605 928Q631
981 651 981Q727 981 753 705L721 701Q706 866 651 866Q629 866 586 812Q513 720 476 681Q386 590 270 522Q523 422 792 422H902ZM901 115L836 6L725 78L670 -23L563 55L627 164L731 96L791 188L901 115Z" />
<glyph unicode="&#xfcdc;" glyph-name="yehwithkhahinitial" horiz-adv-x="946" d="M902 422L865 339H839Q611 339 448 285Q371 259 237 183Q140 129 70 129H0V250H70Q148 250 230 283Q355 333 440 354Q245 407 83 440Q96 496 121 521T212 569Q478 664 605 928Q631
981 651 981Q727 981 753 705L721 701Q706 866 651 866Q629 866 586 812Q513 720 476 681Q386 590 270 522Q523 422 792 422H902ZM262 858L197 754L98 817L160 928L262 858ZM901 115L836 6L725 78L670 -23L563 55L627 164L731 96L791 188L901 115Z" />
<glyph unicode="&#xfcdd;" glyph-name="yehwithmeeminitial" horiz-adv-x="643" d="M588 780Q588 764 581 744L557 674Q478 717 422 717Q350 717 300 674T250 569Q250 508 290 460T440 344Q460 332 514 299L467 154Q396 187 293 231Q267 194 189 161Q117 129 70
129H0V250H70Q104 250 153 271T225 319Q188 408 188 479Q188 625 287 748Q371 852 471 852Q514 852 551 832T588 780ZM753 47L692 -64L585 10L524 -86L425 -15L487 92L591 22L649 117L753 47Z" />
<glyph unicode="&#xfcf2;" glyph-name="shaddawithfathamedial" horiz-adv-x="1284" d="M807 1552Q807 1486 772 1466L469 1294Q472 1335 483 1353T535 1395L807 1552ZM819 1263Q819 1095 715 1095Q680 1095 651 1116Q643 1082 612 1056T547 1030Q465 1030 465
1138Q465 1160 487 1239L510 1243Q510 1132 549 1132Q613 1132 639 1294L657 1300Q680 1202 715 1202Q773 1202 782 1349L805 1359Q819 1304 819 1263ZM1354 129H0V250H1354V129Z" />
<glyph unicode="&#xfcf3;" glyph-name="shaddawithdammamedial" horiz-adv-x="1284" d="M813 1503L805 1404L725 1456Q605 1312 528 1312Q509 1312 469 1324Q571 1381 682 1480Q621 1525 621 1570Q621 1630 666 1695Q696 1738 737 1738Q805 1738 805 1650Q805
1602 774 1533Q788 1523 813 1503ZM819 1263Q819 1095 715 1095Q680 1095 651 1116Q643 1082 612 1056T547 1030Q465 1030 465 1138Q465 1160 487 1239L510 1243Q510 1132 549 1132Q613 1132 639 1294L657 1300Q680 1202 715 1202Q773 1202 782 1349L805 1359Q819
1304 819 1263ZM743 1591Q743 1614 727 1633T690 1652Q672 1652 672 1632Q672 1601 737 1557Q743 1577 743 1591ZM1354 129H0V250H1354V129Z" />
<glyph unicode="&#xfcf4;" glyph-name="shaddawithkasramedial" horiz-adv-x="1284" d="M819 1491Q819 1323 715 1323Q680 1323 651 1344Q643 1310 612 1284T547 1258Q465 1258 465 1366Q465 1388 487 1467L510 1471Q510 1360 549 1360Q613 1360 639 1522L657
1528Q680 1430 715 1430Q773 1430 782 1577L805 1587Q819 1532 819 1491ZM807 1288Q807 1222 772 1202L469 1030Q472 1071 483 1089T535 1131L807 1288ZM1354 129H0V250H1354V129Z" />
<glyph unicode="&#xfd30;" glyph-name="sheenwithmeeminitial" horiz-adv-x="1098" d="M1032 772Q1032 669 993 604T892 539Q839 539 749 621Q660 477 552 477Q469 477 430 569Q402 621 362 621Q310 621 273 588T235 516Q235 448 325 336Q413 329 454 309Q492
291 528 240Q511 180 462 117L434 136Q349 194 300 194Q262 194 190 162T70 129H0V250H70Q93 250 135 276Q182 305 223 311Q192 396 192 436Q192 526 239 614Q268 667 318 707T405 748Q437 748 485 686Q540 614 604 614Q733 614 780 805H794Q813 676 952 676Q985
676 985 700Q985 717 935 750L976 877Q1032 844 1032 772ZM657 1190L595 1079L493 1143L554 1257L657 1190ZM788 1012L726 903L620 969L565 870L456 944L518 1055L628 987L683 1079L788 1012Z" />
<glyph unicode="&#xfd3c;" glyph-name="alefwithfathatanfinal" horiz-adv-x="535" d="M605 129H465Q296 129 279 319Q270 419 236 707Q206 957 206 983Q206 1023 278 1110L342 385Q354 250 465 250H605V129ZM408 1494Q408 1428 373 1408L70 1236Q73 1277 84 1295T136
1337L408 1494ZM408 1348Q408 1282 373 1262L70 1090Q73 1131 84 1149T136 1191L408 1348Z" />
<glyph unicode="&#xfd3d;" glyph-name="alefwithfathatanisolated" horiz-adv-x="479" d="M340 379Q340 288 287 129L267 135Q279 215 279 244Q279 319 267 410L216 798Q207 866 207 899Q207 978 273 1110Q275 948 287 856L328 528Q340 432 340 379ZM408 1494Q408
1428 373 1408L70 1236Q73 1277 84 1295T136 1337L408 1494ZM408 1348Q408 1282 373 1262L70 1090Q73 1131 84 1149T136 1191L408 1348Z" />
<glyph unicode="&#xfd3e;" glyph-name="ornateleftparenthesis" horiz-adv-x="1135" d="M1075 -612Q1075 -627 1051 -627Q975 -627 822 -476Q621 -280 508 23Q299 26 299 78Q436 222 436 301Q374 301 303 228T221 154Q183 154 166 317Q55 371 55 412Q55 458 160
520Q171 676 209 676Q362 532 436 532Q429 609 358 678T287 756Q287 772 348 791Q417 812 502 815Q574 1032 697 1203Q792 1336 901 1422Q988 1491 1024 1491Q1044 1491 1044 1468Q1044 1458 971 1377Q881 1276 824 1169Q735 1005 705 805Q805 789 805 760Q664
618 664 539Q736 539 879 686Q897 686 916 633T938 522Q1044 467 1044 422Q1044 385 944 326Q936 166 889 166L821 231Q752 299 668 307Q668 236 741 164T815 80Q815 57 707 35Q739 -128 837 -301T1055 -578Q1075 -595 1075 -612ZM956 1417Q678 1229 528 768Q407
762 387 759Q362 755 362 743L401 705Q449 660 479 600Q524 682 553 682Q572 682 618 600Q628 624 683 673Q731 716 731 750Q731 760 701 766L655 774Q714 1018 753 1109Q812 1247 956 1417ZM989 428Q989 454 897 485Q886 612 872 612Q864 612 818 565Q766 512
713 492Q809 450 809 418Q809 385 717 350Q783 328 834 280L879 238Q897 238 897 354Q989 406 989 428ZM680 418Q680 471 642 509T551 547Q497 547 460 509T422 418Q422 366 459 330T551 293Q604 293 642 329T680 418ZM387 348Q293 390 293 422Q293 456 385 489Q358
498 304 553Q257 602 221 602Q203 602 203 485Q111 433 111 412Q111 387 203 354Q214 227 227 227Q235 227 282 274Q334 328 387 348ZM1001 -571Q888 -469 800 -315Q694 -130 664 68Q743 75 743 90L700 131Q649 178 618 240Q581 158 551 158Q511 158 483 240Q455
173 410 127L373 86Q373 78 465 68Q490 68 535 72Q672 -359 1001 -571Z" />
<glyph unicode="&#xfd3f;" glyph-name="ornaterightparenthesis" horiz-adv-x="1135" d="M1079 453Q1079 405 975 344Q964 188 926 188Q773 332 698 332Q706 255 777 187T848 109Q848 93 787 73Q718 52 633 49Q561 -168 438 -339Q343 -472 234 -558Q147 -627 111
-627Q90 -627 90 -606Q90 -596 163 -514Q253 -412 311 -306Q399 -142 430 59Q330 76 330 104Q471 247 471 326Q398 326 256 178Q237 178 219 230T197 342Q90 398 90 442Q90 480 190 539Q200 698 246 698L314 633Q383 565 467 557Q467 629 393 701T319 784Q319 807
428 829Q396 993 298 1166T80 1442Q59 1460 59 1475Q59 1491 84 1491Q160 1491 313 1341Q514 1144 627 842Q836 839 836 786Q698 642 698 563Q760 563 832 637T913 711Q951 711 969 547Q1079 493 1079 453ZM762 778Q762 787 670 797Q645 797 600 793Q460 1223 133
1436Q247 1331 335 1178Q441 993 471 797Q391 790 391 774L434 733Q486 687 516 625Q555 707 584 707Q624 707 651 625Q679 691 724 737L762 778ZM1024 453Q1024 476 932 510Q921 637 907 637Q899 637 853 590Q801 536 748 516Q842 474 842 442Q842 408 750 375Q777
366 830 311Q877 262 913 262Q932 262 932 379Q1024 433 1024 453ZM713 446Q713 498 675 534T584 571Q531 571 493 535T455 446Q455 393 493 355T584 317Q637 317 675 355T713 446ZM422 373Q326 413 326 446Q326 481 418 514Q351 536 300 584L256 627Q238 627 238
510Q145 458 145 436Q145 410 238 379Q249 252 262 252Q270 252 317 299Q369 353 422 373ZM772 121L733 160Q686 204 655 264Q612 182 582 182Q562 182 516 264Q494 209 446 160L403 115Q403 105 434 98Q456 94 479 90Q422 -153 382 -246Q323 -382 178 -553Q458
-364 606 96Q727 102 749 105T772 121Z" />
<glyph unicode="&#xfd88;" glyph-name="lamwithmeemwithhahinitial" horiz-adv-x="983" d="M920 440L885 338Q838 342 799 342Q627 342 468 287Q398 262 239 184Q127 129 70 129H0V250H70Q140 250 277 296Q445 352 489 360L61 436Q66 457 73 475Q90 516 115 532Q315
694 582 772Q562 860 517 1025Q485 1142 485 1165Q485 1205 535 1264Q575 1212 606 1161Q564 1117 564 1081Q564 1041 631 780Q655 784 662 784Q754 784 827 676L793 565Q724 624 685 644Q632 670 559 670Q417 670 203 539Q324 501 436 479Q625 442 920 440Z" />
<glyph unicode="&#xfdf2;" glyph-name="allahisolated" horiz-adv-x="1098" d="M571 1321L557 1290Q509 1388 477 1427Q446 1463 379 1503L338 1628Q420 1614 473 1540Q522 1473 571 1321ZM754 1130Q754 1074 724 1031T655 987Q634 987 588 1001Q538 913 485 913Q451
913 429 942T406 1014Q406 1054 422 1110L436 1124Q436 1026 489 1026Q561 1026 575 1184L590 1190Q608 1098 651 1098Q719 1098 719 1245L735 1251Q754 1182 754 1130ZM1018 338Q1018 249 978 183T883 117Q798 117 729 281Q676 104 528 104Q407 104 373 252Q283
154 233 154Q167 154 114 175T61 225Q61 248 103 321T170 418Q257 497 326 522Q324 545 324 563Q324 590 362 674L406 440Q424 343 441 311Q473 250 545 250Q633 250 705 356Q678 454 651 553Q618 681 618 754Q618 799 670 864L688 762Q740 465 793 363Q838 274
922 274Q969 274 969 319Q969 340 918 543T866 760Q866 792 901 870L955 664Q1018 424 1018 338ZM362 313L336 459Q268 428 242 408Q207 379 172 317Q243 293 289 293Q316 293 362 313Z" />
<glyph unicode="&#xfe70;" glyph-name="fathatanisolated" horiz-adv-x="408" d="M408 1854Q408 1788 373 1768L70 1596Q73 1637 84 1655T136 1697L408 1854ZM408 1708Q408 1642 373 1622L70 1450Q73 1491 84 1509T136 1551L408 1708Z" />
</font>
</defs>
</svg>
