<?xml version="1.0" standalone="no"?> <!DOCTYPE svg PUBLIC "-//W3C//DTD SVG 1.0//EN" "http://www.w3.org/TR/2001/REC-SVG-20010904/DTD/svg10.dtd" > <svg xmlns="http://www.w3.org/2000/svg" width="100%" height="100%">
<defs >
<font horiz-adv-x="723" ><font-face
    font-family="STIXScriptRegular"
    units-per-em="1000"
    panose-1="0 0 0 0 0 0 0 0 0 0"
    ascent="693"
    descent="-218"
    alphabetic="0" />
<missing-glyph horiz-adv-x="500" />
<glyph unicode=" " glyph-name="space" horiz-adv-x="500" />
<glyph unicode="A" glyph-name="A" horiz-adv-x="819" d="M461 372Q438 406 403 426T318 447Q290 447 264 436T218 406T185 360T172 301Q172 238 201 193T279 119Q323 167 369 234T461 372ZM505 199Q505 238 498 275T476 344Q434 279 392 218T304 105Q371 73 455
67L504 176Q505 182 505 187T505 199ZM740 638Q709 627 679 602T618 540T557 461T495 371Q511 340 519 303T528 227Q580 341 634 449T741 638H740ZM815 658Q780 590 748 522T684 383T619 234T550 69Q577 74 605 83T653 103L662 87Q638 69 604 58T538 42L521 0H424L442
39Q399 42 358 52T280 79Q238 36 195 11T107 -15Q59 -15 30 11T0 77Q0 110 18 129T62 149Q83 149 97 135T112 101Q112 85 101 69T69 53Q65 53 55 55T40 65H38Q38 58 42 49T54 33T75 20T103 15Q146 15 179 33T253 92Q199 123 165 173T131 299Q131 343 147 376T191
433T251 468T318 480Q373 480 413 458T479 398Q516 452 553 501T629 589T705 651T782 674Q789 674 794 674T806 672L815 658Z" />
<glyph unicode="B" glyph-name="B" horiz-adv-x="886" d="M813 485Q813 514 802 537T773 580Q724 538 687 481T611 348Q615 350 622 351T634 352Q644 352 659 349T689 338Q721 341 744 355T783 390T805 436T813 485ZM874 641Q832 622 802 601Q834 575 854 542T874
463Q874 439 863 415T831 370T782 336T721 318V316Q769 296 790 259T811 186Q811 142 786 98T715 22Q665 -11 603 -11Q579 -11 562 -4T532 15T515 40T509 67Q509 116 544 152T647 199L651 176Q630 174 611 165T578 144T555 115T546 82Q546 62 560 48T596 34Q613
34 628 37T657 49Q694 71 714 113T735 203Q735 233 725 258T689 298Q677 295 661 294T640 292Q624 292 611 297T593 311Q551 223 503 161T403 60T295 3T179 -15Q139 -15 107 -5T53 21T18 60T6 107Q6 139 23 159T65 179Q86 179 101 166T116 131Q116 112 105 98T73
83Q67 83 58 85T43 95H41Q41 82 50 68T74 43T112 24T161 16Q208 16 246 27T321 68T394 147T473 271Q507 331 539 380T604 470T672 543T748 601Q725 617 698 627T643 644T588 654T538 657Q469 657 403 639T284 586T199 504T166 396Q166 350 195 320T277 290Q318
290 355 309T420 363T465 449T486 561H506Q506 501 490 447T444 351T371 285T272 260Q242 260 216 269T169 295T137 340T125 403Q125 449 143 488T194 559T267 615T354 655T447 679T536 687Q564 687 595 684T659 672T722 651T780 620Q800 632 821 641T867 660L874
641Z" />
<glyph unicode="C" glyph-name="C" horiz-adv-x="756" d="M408 626Q366 649 332 653T272 657Q234 657 195 647T123 618T70 569T49 501Q49 468 61 443T95 401T143 374T200 361Q240 423 297 479T416 577T541 644T656 669Q703 669 727 650T752 594Q752 549 713 501T608
414T458 349T283 324Q240 261 227 212T214 125Q214 77 244 46T331 15Q372 15 409 29T473 65T517 116T533 173Q533 212 512 229T462 247Q436 247 410 234T362 196T324 137T304 63L282 65Q282 111 298 151T341 223T403 272T479 290Q533 290 565 265T597 187Q597 143
569 105T501 39Q462 12 418 -1T327 -15Q286 -15 250 -4T188 30T146 84T130 158Q130 202 142 244T178 329Q146 334 116 347T61 381T23 431T8 499Q8 535 26 568T77 628T157 671T264 687Q296 687 336 680T420 645L408 626ZM303 354Q362 354 426 370T547 416Q583 434
613 455T664 500T698 546T711 592Q711 632 661 632Q625 632 580 611T487 553T392 465T302 355L303 354Z" />
<glyph unicode="D" glyph-name="D" horiz-adv-x="803" d="M251 39Q214 59 184 69T119 79Q112 79 101 78T79 75T60 67T52 54Q52 21 139 21Q171 21 198 25T251 39ZM731 336Q731 412 694 480Q664 440 639 394T591 302Q556 230 508 171T395 68Q381 59 369 51T342 36Q368
27 396 22T453 16Q507 16 557 37T646 100T708 201T731 336ZM793 567Q779 561 771 557T755 547T740 534T722 514Q749 472 764 424T779 324Q779 252 752 191T679 83T576 11T457 -15Q413 -15 375 -6T301 18Q226 -9 140 -9Q78 -9 45 8T11 54Q11 79 40 94T118 109Q160
109 201 95T288 57Q312 72 335 93T382 145T433 214T491 303Q533 370 576 423T670 519Q648 550 617 575T549 618T472 645T390 655Q316 655 260 638T164 590T105 516T85 422Q85 393 96 367T129 320T181 289T249 277Q294 277 333 292T401 338T448 419T465 538H484Q486
527 486 517T486 495Q486 429 463 382T404 305T327 261T251 247Q207 247 170 260T104 297T60 354T44 430Q44 485 70 532T142 613T249 667T383 687Q482 687 564 648T700 543Q713 552 722 558T741 569T760 578T785 587L793 567Z" />
<glyph unicode="E" glyph-name="E" horiz-adv-x="650" d="M607 588Q607 603 592 612T555 621Q519 621 480 604T406 560T347 498T317 430Q378 434 431 450T523 489T584 538T607 588ZM325 640Q310 646 299 649T276 654T250 656T215 657Q142 657 99 626T55 546Q55
518 70 497T112 462T172 440T246 432Q250 483 280 524T355 596T450 642T548 658Q596 658 622 640T648 585Q648 555 623 525T552 468T447 424T317 400Q318 395 318 393T321 388Q356 386 376 379T396 357Q396 343 384 336T354 329Q338 329 326 332T301 343Q256 331
220 309T159 259T120 199T106 134Q106 111 115 90T143 52T188 25T250 15Q301 15 338 32T399 75Q417 95 425 116T434 160Q434 195 410 214T347 234Q321 234 296 224T248 195T209 150T183 92L162 98Q172 138 191 171T236 227T295 263T364 276Q433 276 465 244T498
161Q498 127 477 96T421 40T338 0T240 -15Q197 -15 158 -4T89 28T42 80T24 154Q24 193 40 228T86 293T160 345T261 379V381Q257 385 256 393T250 401Q197 402 154 412T80 442T31 488T14 549Q14 577 27 602T65 646T125 676T203 687Q240 687 269 682T335 658L325
640Z" />
<glyph unicode="F" glyph-name="F" horiz-adv-x="873" d="M637 554Q600 518 577 464T530 337Q560 343 590 347T651 352Q671 381 693 395T729 409Q738 409 745 404T752 387Q752 373 733 351T680 312Q674 295 673 281T672 252Q672 247 672 240T675 226L616 206V224Q616
239 618 256T627 294Q611 293 582 291T512 282Q483 204 444 151T360 64T263 15T158 0Q132 0 106 6T58 26T23 61T9 111Q9 143 26 161T69 180Q89 180 104 166T119 131Q119 111 108 96T75 81Q69 81 60 83T46 94H44Q48 68 76 50T150 31Q186 31 218 41T280 76T340 145T403
256Q360 242 316 222T226 171L213 186Q228 204 250 221T300 253T361 283T429 310Q433 318 436 325T443 341Q459 378 478 408T519 466T567 517T623 568L637 554ZM873 647Q839 619 793 597T697 574Q656 574 610 583T517 604T427 624T348 634Q254 634 200 595T145
491Q145 461 154 440T179 405T213 385T252 379Q326 379 368 424T438 555L458 554Q419 349 249 349Q221 349 195 358T149 384T116 427T104 484Q104 524 121 557T168 616Q244 680 395 680Q436 680 482 671T575 652T666 633T749 624Q781 624 809 636T862 662L873 647Z"
/>
<glyph unicode="G" glyph-name="G" horiz-adv-x="674" d="M631 590Q631 611 614 621T574 632Q542 632 503 615T426 569T352 502T293 420Q357 420 418 435T526 475T602 530T631 590ZM340 635Q311 648 283 652T229 657Q190 657 158 648T104 622T69 585T56 541Q56
497 92 467T195 428Q231 485 278 530T376 605T477 652T569 669Q611 669 641 650T672 593Q672 554 638 518T548 453T421 407T275 390Q251 355 243 320T234 262Q234 234 250 215T300 195Q354 195 417 230T569 346L584 330Q560 306 547 278T518 209Q476 97 395 41T188
-15Q151 -15 120 -6T67 19T32 54T19 95Q19 124 35 144T78 164Q98 164 113 150T129 117Q129 97 118 82T85 66Q76 66 69 68T56 79H54Q56 67 67 56T94 36T132 22T178 16Q224 16 261 29T328 67T383 127T432 208L431 209Q365 165 293 165Q234 165 195 198T156 292Q156
313 162 342T182 398Q107 411 61 446T15 541Q15 571 30 598T74 644T139 675T222 687Q256 687 287 679T349 653L340 635Z" />
<glyph unicode="H" glyph-name="H" horiz-adv-x="953" d="M266 241Q218 219 178 197T108 150T62 99T45 44Q45 29 52 23T69 15Q92 15 118 37T170 92T221 166T266 241ZM917 635Q917 657 893 657Q879 657 856 639T804 591T743 520T679 434Q728 456 771 479T847 528T898
580T917 635ZM655 650Q621 624 591 593T533 523T477 440T423 340Q452 352 480 360T538 379L571 422Q676 553 762 620T893 687Q916 687 933 676T950 637Q950 596 924 560T854 493T756 436T646 387Q611 337 580 287T524 192T486 111T472 53Q472 37 482 28T506 18Q535
18 577 51T673 147L694 134Q637 65 588 27T492 -12Q453 -12 429 11T405 77Q405 106 413 139T436 205T469 273T509 339L402 298Q374 243 341 194T271 106T198 38T125 -4Q95 -15 69 -15Q44 -15 28 1T12 45Q12 84 35 119T98 184T189 242T295 292Q313 321 331 351T373
415T429 483T506 558Q501 557 496 557T486 557Q456 557 429 568T362 601Q334 616 308 625T260 635Q236 635 215 627T178 604T153 572T144 534Q144 495 164 468T232 440Q272 440 300 463T353 526L371 517Q346 468 314 439T230 410Q170 410 137 445T103 536Q103 564
115 591T151 639T207 674T278 687Q293 687 307 685T338 676T374 661T420 638Q446 624 467 616T506 607Q522 607 539 609T586 626Q604 635 623 650T661 678L673 664L655 650Z" />
<glyph unicode="I" glyph-name="I" horiz-adv-x="862" d="M35 95Q35 85 44 72T68 46T106 25T155 16Q202 16 243 26T323 65T396 142T467 271Q474 287 480 301T494 330Q440 341 405 376T370 471Q370 520 395 556T456 616Q497 641 545 648T639 656Q679 656 708 653T757
648Q783 665 804 670T833 675Q845 675 853 670T862 655Q862 636 849 626T818 610T782 604T753 603Q733 588 714 564T677 508T642 441T607 368Q643 378 674 401T732 467L748 457Q722 406 682 375T591 333Q560 267 528 207T458 106Q394 40 322 13T173 -15Q133 -15
101 -5T47 21T12 60T0 107Q0 139 17 159T59 179Q80 179 95 166T110 131Q110 112 99 98T67 83Q61 83 52 85T37 95H35ZM703 603Q692 604 679 604T650 604Q612 604 571 600T496 580Q462 565 437 535T411 462Q411 447 416 431T434 401T464 376T510 362Q532 404 553
439T598 503T647 557T703 601V603Z" />
<glyph unicode="J" glyph-name="J" horiz-adv-x="784" d="M294 43Q248 28 206 16T131 -13Q103 -27 86 -40T60 -66T47 -90T43 -110Q43 -124 52 -135T79 -147Q143 -147 194 -96T294 43ZM631 606Q621 607 610 607T588 608Q553 608 517 604T458 591Q436 583 415 570T377
540T350 501T339 454Q339 434 347 418T368 389T398 370T435 363Q473 437 519 497T631 605V606ZM559 177Q526 148 488 124T408 85Q384 39 348 -7T269 -91T177 -153T79 -177Q43 -177 22 -159T1 -112Q1 -77 31 -43T126 22Q165 40 215 55T316 86Q330 113 342 144T367
207T392 270T419 331Q366 342 332 374T298 464Q298 516 324 553T389 614T476 649T567 660Q592 660 609 660T640 658T666 656T694 654Q721 669 735 671T760 674Q768 674 776 669T784 654Q784 638 774 629T749 614T715 608T680 606Q659 591 640 567T601 510T564 442T528
366Q566 375 598 399T659 467L675 456Q648 403 606 373T513 332L426 124Q456 135 485 151T544 193L559 177Z" />
<glyph unicode="K" glyph-name="K" horiz-adv-x="976" d="M751 653Q711 623 681 588T625 516T579 439T534 360Q545 360 555 358T576 346Q592 349 606 357T635 379T668 416T708 471Q778 574 829 630T920 687Q941 687 956 677T971 646Q971 627 961 614T929 601Q915
601 900 611T884 646H883Q876 640 869 627T853 597T835 560T816 522Q791 477 767 444T717 388T664 349T605 323V321Q631 295 642 275T653 232Q653 206 641 181T615 132T589 88T577 52Q577 18 609 18Q666 18 778 147L797 132Q741 63 691 26T595 -12Q577 -12 561
-6T531 10T510 36T502 70Q502 100 515 126T544 178T573 227T587 275Q587 278 586 283T582 294T570 302T547 306Q532 306 525 309T513 321Q465 216 419 151T328 49T239 -1T150 -15Q117 -15 91 -6T46 18T17 52T7 91Q7 120 23 142T70 165Q90 165 103 151T117 115Q117
96 106 81T73 66Q66 66 58 68T44 79H42Q45 56 74 36T148 16Q179 16 205 27T255 63T304 123T358 210Q389 266 413 312T464 398T522 475T600 550L599 553Q592 551 582 550T563 548Q533 548 506 559T439 592Q411 607 385 616T337 626Q313 626 292 618T254 595T229
563T219 525Q219 486 245 459T319 431Q359 431 392 454T450 517L468 508Q443 459 406 430T317 401Q287 401 262 410T218 436T189 476T178 527Q178 555 191 582T227 630T283 665T355 678Q370 678 384 676T415 667T451 652T497 629Q523 615 544 607T583 598Q616 598
658 616T738 669L751 653Z" />
<glyph unicode="L" glyph-name="L" horiz-adv-x="909" d="M239 36Q196 61 167 70T114 79Q107 79 96 78T74 75T55 67T47 54Q47 21 134 21Q163 21 189 24T239 35V36ZM863 588Q863 608 851 620T814 632Q784 632 755 607T700 544T653 459T616 369Q642 376 668 388T720
414Q748 430 774 449T820 491T851 538T863 588ZM569 624Q527 649 489 653T424 657Q385 657 345 647T274 617T222 568T202 500Q202 462 220 433T270 383T346 353T444 342Q458 342 471 343T507 347Q533 395 552 434T593 506Q612 534 638 563T695 616T758 654T821
669Q866 669 885 646T904 587Q904 554 882 517T819 445T723 381T600 333Q577 283 546 236T482 149T413 81T345 39Q374 29 401 23T448 16Q520 16 585 51T713 155L732 141Q666 62 595 24T451 -15Q394 -15 356 -6T287 15Q252 3 214 -3T132 -9Q70 -9 38 7T6 52Q6 75
34 92T114 109Q159 109 201 93T287 59Q307 72 332 96T384 154T439 229T491 315Q465 312 438 312Q391 312 342 322T253 354T187 413T161 504Q161 543 180 576T234 634T315 673T416 687Q448 687 493 680T581 643L569 624Z" />
<glyph unicode="M" glyph-name="M" horiz-adv-x="1027" d="M1018 659Q946 546 888 446T787 265T722 130T699 53Q699 34 708 26T732 18Q762 18 805 52T902 150L921 134Q864 65 815 27T718 -12Q682 -12 657 9T632 70Q632 152 711 292T940 633L939 635Q907 623 872
595T796 518T710 398T609 231Q576 173 551 129T501 56T452 11T396 -4Q370 -4 355 15T340 66Q340 95 354 134T389 214T435 297T483 373Q503 404 526 439T573 510T624 580T675 643L674 644Q646 633 615 609T553 551T492 479T435 397Q373 298 326 221T239 92T162 12T80
-15Q45 -15 23 8T0 63Q0 92 17 110T59 128Q82 128 96 112T111 76Q111 59 100 46T68 32Q60 32 53 36H50Q52 25 61 20T81 15Q106 15 130 27T180 68T237 140T306 250Q381 376 440 458T549 588T641 655T724 674Q727 674 730 674T741 672L756 660Q703 585 653 507T560
355T485 221T434 118Q433 115 430 108T424 93T419 75T417 57Q417 49 419 44T430 39Q450 39 470 66T516 134Q544 180 576 236T643 349T717 462T798 563T886 637T982 674Q988 674 994 674T1010 672L1018 659Z" />
<glyph unicode="N" glyph-name="N" horiz-adv-x="919" d="M532 131Q545 151 559 180T590 243T622 316T654 394Q670 432 686 469T720 540T756 602T792 650Q809 669 826 678T866 687Q889 687 903 675T918 641Q918 620 906 608T875 595Q861 595 845 605T828 640H825Q799
626 763 560T674 363Q653 311 630 257T580 152T523 59T458 -13H438Q452 44 459 119T470 297Q472 375 478 445T497 562L496 563Q471 529 433 463T353 315Q309 228 274 166T206 64T144 4T80 -15Q45 -15 23 7T0 62Q0 91 17 109T59 128Q82 128 96 113T111 77Q111 60
100 46T69 32Q60 32 53 36H50Q52 25 61 20T81 14Q109 14 137 35T194 94T254 188T319 312Q397 470 460 559T571 669L584 658Q574 626 569 559T558 391Q554 316 548 251T531 131H532Z" />
<glyph unicode="O" glyph-name="O" horiz-adv-x="595" d="M568 547Q554 589 526 617T442 645Q400 645 356 621T270 557T191 466T127 359T83 250T67 150Q67 123 74 99T95 56T130 26T181 15Q246 15 297 43T394 118Q409 133 429 160T467 223T498 303T511 396Q511
424 503 444T482 478T453 499T419 506Q395 506 372 496T331 465T302 415T291 347Q291 328 295 303T318 242L296 232Q272 271 267 305T261 362Q261 402 274 435T310 492T362 529T422 542Q446 542 471 534T516 509T549 464T562 396Q562 324 532 251T451 118T330 22T183
-15Q139 -15 107 1T52 46T18 110T7 188Q7 284 42 373T137 530T277 639T446 680Q479 680 505 670T549 642T578 600T588 549L568 547Z" />
<glyph unicode="P" glyph-name="P" horiz-adv-x="856" d="M831 650Q811 642 795 633T765 612Q805 582 829 541T854 447Q854 414 843 383T811 327T764 287T705 272Q668 272 651 292T633 338Q633 360 649 381T691 417L701 399Q676 385 671 370T665 345Q665 332 674
324T699 316Q720 316 737 327T767 359T786 407T793 465Q793 505 778 535T738 588Q713 563 694 533T656 467T620 390T578 302Q535 215 490 155T395 57T292 2T179 -15Q139 -15 107 -5T53 22T18 61T6 108Q6 140 23 159T65 179Q86 179 101 166T116 131Q116 112 105
98T73 83Q67 83 58 85T43 95H41Q41 82 50 68T74 43T112 24T161 16Q208 16 245 27T316 68T386 147T463 271Q496 331 525 381T583 473T642 548T710 609Q669 635 619 646T518 657Q441 657 377 636T266 580T193 501T167 408Q167 366 197 339T270 312Q354 312 403 378T475
561H495Q491 510 476 461T432 371T363 307T268 282Q205 282 166 317T126 412Q126 463 154 512T233 600T357 663T519 687Q579 687 636 672T740 628Q776 651 824 669L831 650Z" />
<glyph unicode="Q" glyph-name="Q" horiz-adv-x="599" d="M568 547Q554 589 526 617T442 645Q400 645 356 621T270 557T191 466T127 359T83 250T67 150Q67 123 74 99T95 56T130 26T181 15Q219 15 252 25T315 53Q304 71 291 83T255 96Q236 96 219 90T179 67L166
84Q198 113 222 127T274 142Q309 142 328 125T360 86Q368 94 377 101T394 118Q409 133 429 160T467 223T498 303T511 396Q511 424 503 444T482 478T453 499T419 506Q395 506 372 496T331 465T302 415T291 347Q291 328 295 303T318 242L296 232Q272 271 267 305T261
362Q261 402 274 435T310 492T362 529T422 542Q446 542 471 534T516 509T549 464T562 396Q562 348 549 300T512 206T454 122T379 52Q390 34 404 22T441 10Q461 10 488 21T543 58L558 44Q521 -1 486 -19T425 -38Q388 -38 368 -19T333 23Q298 5 261 -5T183 -15Q139
-15 107 1T52 46T18 110T7 188Q7 284 42 373T137 530T277 639T446 680Q478 680 504 670T549 642T578 600T588 549L568 547Z" />
<glyph unicode="R" glyph-name="R" horiz-adv-x="861" d="M786 486Q786 515 775 541T738 588Q716 567 699 542T665 487T632 424T598 354Q632 354 658 337Q688 340 711 354T751 388T777 434T786 486ZM831 650Q811 642 795 633T765 612Q807 586 827 549T848 473Q848
443 836 415T802 364T745 328T668 312V310Q691 293 706 271T722 226Q722 200 710 176T684 129T658 87T646 52Q646 18 678 18Q730 18 823 119L840 103Q792 48 749 18T664 -12Q646 -12 630 -6T600 10T579 36T571 70Q571 100 584 122T613 163T642 202T655 245Q655
248 654 256T650 272T641 287T622 293Q614 293 599 296T575 304Q533 217 488 157T394 58T292 3T179 -15Q139 -15 107 -5T53 22T18 61T6 108Q6 140 23 159T65 179Q86 179 101 166T116 131Q116 112 105 98T73 83Q67 83 58 85T43 95H41Q41 82 50 68T74 43T112 24T161
16Q208 16 244 27T314 68T382 147T458 271Q491 331 521 381T580 473T641 548T710 609Q669 635 619 646T518 657Q441 657 377 636T266 580T193 501T167 408Q167 366 197 339T270 312Q354 312 403 376T475 557H495Q492 508 476 459T430 371T361 307T268 282Q205 282
166 317T126 412Q126 463 154 512T233 600T357 663T519 687Q579 687 636 672T740 628Q776 651 824 669L831 650Z" />
<glyph unicode="S" glyph-name="S" horiz-adv-x="638" d="M311 139Q299 178 284 201T252 237T215 252T175 256Q157 256 137 248T101 225T74 187T63 137Q63 111 74 89T104 50T150 24T206 15Q241 15 275 26T337 59T382 114T399 191Q399 217 388 239T359 281T321
322T283 364T254 412T242 472Q242 526 266 565T328 629T410 667T495 680Q520 680 545 674T590 654T622 618T635 564Q635 537 623 513T590 472T544 445T493 435V456Q539 461 570 488T602 563Q602 586 593 601T568 626T534 640T494 644Q465 644 434 633T378 602T336
553T319 491Q319 464 331 441T361 397T400 356T439 313T469 264T481 204Q481 153 459 113T398 44T308 0T198 -15Q162 -15 127 -7T63 21T18 70T1 142Q1 179 15 208T53 258T107 288T168 299Q196 299 223 290T272 262T310 214T331 143L311 139Z" />
<glyph unicode="T" glyph-name="T" horiz-adv-x="874" d="M638 539Q598 500 573 443T524 304Q501 224 455 156T345 45Q302 16 257 1T158 -15Q128 -15 101 -7T54 15T22 49T10 91Q10 127 27 146T71 165Q91 165 105 151T120 116Q120 96 108 82T75 67Q69 67 61 69T47
79H45Q48 53 75 35T151 16Q193 16 227 29T293 73T356 153T421 277Q446 332 470 372T518 444T569 501T625 553L638 539ZM874 657Q840 629 794 607T698 584Q657 584 611 593T518 612T428 632T349 641Q302 641 263 628T196 593T152 542T136 480Q136 450 145 428T171
390T208 367T253 359Q327 359 371 407T443 541H463Q443 439 387 384T246 329Q215 329 188 339T140 367T107 412T95 473Q95 521 118 560T183 628T281 671T406 687Q447 687 492 679T582 661T669 643T750 634Q782 634 810 646T863 675L874 657Z" />
<glyph unicode="U" glyph-name="U" horiz-adv-x="783" d="M482 108Q470 85 468 72T465 53Q465 34 474 26T498 18Q528 18 570 51T666 147L687 134Q630 65 581 27T484 -12Q448 -12 423 9T398 66Q398 79 401 96T415 137L412 138Q358 65 304 25T207 -15Q171 -15 149
8T126 73Q126 87 129 103T141 139T162 183T196 240L341 467Q363 501 370 524T377 568Q377 587 366 602T338 629T299 646T256 652Q215 652 178 640T113 604T67 547T50 474Q50 438 69 414T123 390Q179 390 211 423T262 509H282Q277 484 264 458T231 410T184 374T124
360Q73 360 41 391T9 474Q9 520 31 559T89 626T171 671T265 687Q299 687 331 678T389 651T429 605T444 541Q444 515 437 484T406 417L220 130Q199 97 190 76T181 43Q181 32 187 24T210 15Q238 15 271 38T339 97T408 179T472 268T525 352T562 415L692 658H778L482
108Z" />
<glyph unicode="V" glyph-name="V" horiz-adv-x="896" d="M190 19Q245 31 294 62T389 141T483 254T581 397Q624 463 661 516T730 608T791 666T846 687Q867 687 881 674T896 640Q896 621 883 609T853 597Q833 597 821 609T809 646H808Q783 632 736 571T608 385Q533
268 471 192T359 77Q303 33 254 9T155 -15Q150 -15 142 -15T108 -9Q129 10 145 31T178 83T212 156T255 262Q273 308 293 345T336 417T387 482T448 545L445 548Q438 546 428 545T409 543Q373 543 341 556T278 584T221 613T168 626Q144 626 123 618T85 595T60 563T50
525Q50 486 76 459T150 431Q190 431 223 454T281 517L297 508Q272 459 236 430T148 401Q118 401 93 410T49 436T20 476T9 527Q9 555 24 582T64 630T122 665T192 678Q207 678 220 676T249 667T283 652T328 629Q354 615 375 607T414 598Q441 598 474 609T538 647L565
669L580 654Q541 612 514 575T465 501T428 427T395 347Q353 244 300 159T188 21L190 19Z" />
<glyph unicode="W" glyph-name="W" horiz-adv-x="1047" d="M434 22Q470 36 503 62T568 125T633 212T701 323Q762 428 805 498T881 610T942 669T997 687Q1017 687 1032 675T1047 640Q1047 622 1035 610T1004 597Q984 597 973 609T961 647H960Q945 643 924 619T874
551T805 440T714 286Q675 220 636 165T556 69T475 7T395 -15Q381 -15 370 -15T349 -11Q398 35 431 92T490 222Q512 283 536 335T589 435T652 527T727 615L726 616Q694 610 660 580T592 506T525 408T464 304Q423 232 382 173T300 72T218 8T138 -15Q128 -15 115 -13T91
-9Q140 33 173 103T238 259Q254 303 274 340T317 412T369 480T430 546L428 548Q421 546 411 545T392 543Q358 543 327 556T268 584T213 613T161 626Q137 626 117 618T83 595T61 563T53 525Q53 486 76 459T143 431Q183 431 211 454T264 517L280 508Q255 459 222
430T141 401Q84 401 48 436T12 527Q12 555 24 582T57 630T109 665T175 678Q205 678 237 667T321 629Q347 615 363 607T397 598Q424 598 457 609T521 647L548 669L563 653Q505 596 458 520T367 332Q331 238 281 157T171 22L173 19Q213 34 251 67T322 144T386 235T440
327Q532 490 607 570T749 651Q757 651 769 649T800 640Q773 620 751 589T708 517T669 431T627 334Q585 238 540 163T432 24L434 22Z" />
<glyph unicode="X" glyph-name="X" horiz-adv-x="849" d="M545 489Q605 596 662 641T771 687Q801 687 823 673T845 624Q845 597 828 583T791 568Q772 568 757 579T741 614Q741 623 745 634T758 654Q731 654 700 630T637 563T571 458T504 323Q494 300 482 271T460
211T444 150T437 95Q437 66 448 48T487 30Q515 30 551 59T643 154L663 139Q637 106 614 78T566 30T515 -2T458 -14Q410 -14 384 11T357 86Q357 95 359 112T366 141H364Q313 68 256 27T122 -15Q93 -15 72 -6T37 19T15 53T8 91Q8 120 24 141T66 163Q86 163 101 149T117
116Q117 96 104 80T70 63Q65 63 57 65T45 69Q58 40 80 28T139 15Q168 15 199 34T262 85T322 160T379 249Q417 317 442 385T467 506Q467 579 437 616T343 654Q310 654 281 643T229 611T195 561T182 497Q182 457 203 430T269 402Q322 402 350 433T395 508L414 503Q397
442 358 407T266 372Q209 372 175 406T141 498Q141 538 157 572T200 632T265 672T346 687Q391 687 427 672T489 629T529 566T543 489H545Z" />
<glyph unicode="Y" glyph-name="Y" horiz-adv-x="839" d="M342 -2Q288 -20 242 -36T162 -70T108 -109T88 -159Q88 -173 99 -184T127 -196Q159 -196 187 -182T242 -143T293 -81T342 -2ZM839 658Q776 573 723 498T625 352T542 214T469 77Q501 89 537 109T606 157L621
142Q596 119 575 104T533 77T494 56T454 38Q431 -7 396 -54T317 -139T225 -201T127 -226Q91 -226 69 -208T46 -161Q46 -115 79 -84T160 -31T263 6T361 36Q376 66 388 90T411 136T435 180T464 232L461 236Q435 200 407 171T352 123T300 93T253 82Q214 82 191 106T168
175Q168 193 173 212T192 255T225 308T275 375Q312 423 334 454T369 507T385 542T389 569Q389 586 378 601T348 627T308 645T263 652Q218 652 180 641T115 608T71 555T55 485Q55 453 77 432T134 410Q237 410 283 535H303Q292 493 274 464T232 416T182 389T128 380Q104
380 83 388T47 410T23 444T14 487Q14 532 36 569T94 632T176 672T270 687Q307 687 339 676T396 646T435 600T449 541Q449 518 442 495T419 443T375 378T309 292Q283 259 266 235T240 193T227 163T223 141Q223 130 230 121T252 112Q304 112 379 183T565 407L748
658H839Z" />
<glyph unicode="Z" glyph-name="Z" horiz-adv-x="866" d="M233 51Q215 58 200 63T172 71T145 77T115 79Q87 79 69 71T50 51Q50 39 65 30T121 21Q186 21 233 51ZM821 598Q821 610 806 619T750 628Q719 628 693 620T644 595Q675 584 702 577T756 570Q784 570 802
578T821 598ZM375 511Q364 489 351 471T322 440T285 420T237 413Q213 413 190 421T149 444T120 480T109 528Q109 553 121 581T157 633T219 671T306 687Q346 687 385 680T462 662T533 638T600 612Q639 637 677 647T750 658Q811 658 836 640T862 598Q862 575 830
558T746 540Q712 540 680 547T613 566Q583 531 555 474T497 330Q501 329 503 329T508 329Q532 330 557 336T601 356L615 339Q592 314 563 297T497 280Q494 280 488 280T479 281Q453 212 413 156T321 60Q363 46 403 35T478 24Q559 24 611 60T682 163L702 162Q688
77 631 31T480 -15Q461 -15 442 -12T400 -3T349 12T283 34Q208 -9 121 -9Q59 -9 34 8T9 51Q9 74 41 91T125 109Q157 109 193 100T267 78Q303 113 331 167T387 293Q383 294 375 294Q353 294 331 289T280 262L263 278Q289 306 321 324T389 343Q393 343 397 343T406
342Q442 430 481 488T563 583Q532 595 500 606T434 627T362 642T285 648Q249 648 224 636T182 605T158 566T150 528Q150 486 176 465T237 443Q280 443 306 460T357 519L375 511Z" />
<glyph unicode="a" glyph-name="a" horiz-adv-x="733" d="M729 177Q588 -8 482 -8Q444 -8 425 17T406 77Q406 96 410 109L409 110Q358 53 311 21T212 -11Q167 -11 144 18T120 98Q120 143 142 193Q126 184 109 179T71 173Q53 173 36 177T1 190L11 216Q42 203 68
203Q89 203 107 210T141 228T171 253T197 282V281Q224 315 257 344T326 394T398 428T469 441Q480 441 496 440T529 432T561 411T587 370L566 360Q549 390 527 400T482 411Q447 411 410 393T339 341Q306 307 277 268T225 190T191 118T178 64Q178 48 186 34T217 19Q245
19 272 33T326 68T376 114T420 164Q423 183 432 209T455 260T487 300T530 317Q542 317 549 312T557 289Q557 276 548 259T523 223T488 183T447 143Q439 114 438 102T436 80Q436 62 441 51T454 33T472 25T491 22Q504 22 524 30T571 57T633 110T708 194L729 177Z"
/>
<glyph unicode="b" glyph-name="b" horiz-adv-x="515" d="M483 624Q483 655 448 655Q416 655 372 605T265 462Q310 462 350 477T419 516T466 568T483 624ZM101 515Q121 492 142 482T186 468Q214 507 246 546T314 616T384 667T452 687Q482 687 497 671T513 632Q513
596 494 561T439 497T354 450T245 432Q231 411 212 381T172 317T131 246T95 175T69 111T59 62Q59 44 67 31T95 18Q154 18 217 72T341 226Q334 245 333 254T331 282Q331 312 339 337T360 381T388 409T417 419Q425 419 433 411T441 390Q441 365 432 328T386 232Q397
213 414 207T449 200Q467 200 479 205L486 179Q478 174 467 172T448 170Q422 170 403 177T364 202H363Q296 96 227 42T94 -12Q53 -12 27 13T1 81Q1 114 15 159T52 252T105 350T167 441Q144 447 122 459T81 493L101 515Z" />
<glyph unicode="c" glyph-name="c" horiz-adv-x="565" d="M559 208Q466 93 383 41T231 -11Q183 -11 156 20T128 106Q128 152 146 197Q116 173 70 173Q52 173 35 177T0 190L10 216Q41 203 67 203Q105 203 134 224T187 272Q212 308 245 338T314 392T386 428T457
441Q495 441 520 423T545 362Q545 336 527 317T484 297Q466 297 455 305T444 330Q444 347 453 354T475 366T496 374T506 390Q506 398 498 404T472 411Q443 411 410 393T346 344T285 277T234 203T199 131T186 74Q186 48 201 34T240 19Q262 19 294 30T364 65T446
128T537 225L559 208Z" />
<glyph unicode="d" glyph-name="d" horiz-adv-x="804" d="M514 365Q514 387 501 396T466 406Q426 406 370 365T262 249Q212 178 194 133T175 60Q175 45 184 32T216 19H219Q254 19 287 37T359 92Q390 121 418 157T467 229T501 301T514 365ZM476 97Q470 86 466 73T462
49Q462 38 469 30T490 22Q505 22 524 30T569 57T627 110T702 194L725 177Q652 84 595 38T483 -8Q444 -8 427 13T410 63Q410 86 419 110H417Q363 54 314 22T208 -11Q164 -11 141 17T117 94Q117 118 123 143T141 193Q110 173 70 173Q52 173 35 177T0 190L10 216Q41
203 67 203Q88 203 106 210T140 228T170 253T196 282V281Q223 315 256 344T324 394T396 428T466 441Q501 441 522 423T544 363H546L718 687H797L476 97Z" />
<glyph unicode="e" glyph-name="e" horiz-adv-x="530" d="M216 226Q271 234 318 252T400 292T454 339T474 384Q474 399 463 405T438 411Q393 411 335 367T215 227L216 226ZM524 176Q436 88 358 39T200 -11Q146 -11 120 19T94 100Q94 145 112 192Q78 196 48 215T0
264L23 281Q39 250 65 236T124 219Q145 264 179 304T255 374T342 423T433 441Q464 441 484 428T504 386Q504 360 484 331T423 274T326 225T194 192Q176 160 164 128T152 74Q152 48 167 34T206 19Q272 19 345 65T504 196L524 176Z" />
<glyph unicode="f" glyph-name="f" horiz-adv-x="646" d="M616 606Q616 637 604 646T574 655Q554 655 537 641T504 607T476 565T454 525L392 405Q428 418 467 439T540 486T594 542T616 606ZM194 165Q181 190 181 223Q181 267 212 304T298 370Q335 442 367 501T431
601T497 664T572 687Q591 687 605 681T628 664T641 641T646 617Q646 568 619 529T550 458T462 404T375 365L260 144Q278 134 297 130T341 126Q370 126 404 138T470 180L487 157Q445 122 408 109T334 96Q283 96 245 115L79 -209H0L194 165Z" />
<glyph unicode="g" glyph-name="g" horiz-adv-x="650" d="M307 -85Q292 -78 267 -75T223 -72Q166 -72 132 -92T97 -144Q97 -162 112 -173T153 -185Q167 -185 185 -182T224 -169T265 -139T308 -86L307 -85ZM521 364Q521 389 505 397T467 406Q425 406 372 368T262
247Q215 179 196 133T176 60Q176 40 188 30T217 19Q250 19 285 37T353 85T417 152T471 228T507 302T521 364ZM380 -74Q400 -85 424 -91T471 -97Q494 -97 521 -91T571 -67L583 -93Q548 -115 520 -121T466 -127Q440 -127 412 -122T364 -105Q322 -166 272 -192T161
-219Q111 -219 87 -197T63 -148Q63 -120 80 -100T117 -68Q145 -51 174 -47T232 -42Q239 -42 251 -43T277 -45T303 -49T323 -55L410 101L409 102Q356 45 308 17T202 -11Q164 -11 141 17T118 94Q118 142 141 193Q111 173 71 173Q53 173 36 177T1 190L11 216Q42 203
68 203Q89 203 107 210T141 228T171 253T197 282Q225 316 259 345T328 395T398 429T463 441Q498 441 522 425T551 376H553L581 424H649L380 -74Z" />
<glyph unicode="h" glyph-name="h" horiz-adv-x="657" d="M323 470Q346 470 377 481T437 511T486 559T506 620Q506 634 497 644T470 655Q455 655 440 646T408 616T369 559T322 472L323 470ZM653 178Q575 85 508 37T389 -11Q357 -11 338 7T319 61Q319 87 332 123T365
189L471 346Q479 357 483 367T488 385Q488 395 483 403T463 411Q430 411 386 385T294 312T197 199T106 53L78 0H1L238 440Q203 446 173 459T112 509L132 530Q158 499 189 486T254 469Q288 529 315 571T368 638T419 675T473 687Q490 687 502 681T521 665T532 644T536
622Q536 577 510 543T447 486T371 450T305 438L227 285L230 283Q301 367 359 404T467 441Q500 441 520 425T540 379Q540 356 529 326T498 264L395 100Q387 86 379 70T371 40Q371 31 377 25T394 19Q432 19 492 60T632 195L653 178Z" />
<glyph unicode="i" glyph-name="i" horiz-adv-x="402" d="M355 171Q279 78 225 34T125 -11Q90 -11 68 9T45 71Q45 101 59 142T102 236L162 345Q124 315 73 315Q55 315 36 319T0 332L10 358Q41 345 70 345Q91 345 110 352T146 370T179 395T206 424H279L119 129Q110
112 104 91T97 51Q97 37 106 28T130 19Q167 19 214 61T334 188L355 171ZM401 608Q401 588 387 573T350 558Q330 558 317 571T304 601Q304 621 320 637T359 653Q373 653 387 639T401 608Z" />
<glyph unicode="j" glyph-name="j" horiz-adv-x="709" d="M244 -85Q229 -78 204 -75T160 -72Q103 -72 69 -92T34 -144Q34 -162 49 -173T90 -185Q104 -185 122 -182T161 -169T202 -139T245 -86L244 -85ZM323 -75Q343 -86 364 -91T408 -97Q431 -97 458 -91T508 -67L520
-93Q485 -115 458 -121T403 -127Q377 -127 350 -121T303 -105Q258 -170 208 -194T98 -219Q48 -219 24 -197T0 -148Q0 -120 17 -100T54 -68Q82 -51 112 -47T169 -42Q176 -42 188 -43T214 -45T240 -49T260 -55L469 339Q446 316 416 306T355 296Q340 296 321 300T287
312L297 338Q310 332 327 329T357 326Q382 326 404 335T446 359T483 390T514 424H587L323 -75ZM709 608Q709 588 695 573T658 558Q638 558 625 571T612 601Q612 621 628 637T667 653Q681 653 695 639T709 608Z" />
<glyph unicode="k" glyph-name="k" horiz-adv-x="632" d="M322 470Q345 470 376 481T436 511T485 559T505 620Q505 634 496 644T469 655Q454 655 439 646T407 616T368 559T321 472L322 470ZM626 170Q551 77 493 33T384 -11Q368 -11 353 -8T326 4T307 23T300 52Q300
74 306 90T321 119T336 145T343 172Q343 187 330 203T282 219L293 249Q331 251 368 263T435 294T483 334T502 377Q502 398 491 404T469 411Q439 411 394 386T298 313T196 200T104 53L77 0H0L237 440Q202 446 172 459T111 509L131 530Q157 499 188 486T253 469Q287
529 314 571T367 638T418 675T472 687Q489 687 501 681T520 665T531 644T535 622Q535 577 509 543T446 485T370 450T304 438L216 270L218 269Q291 354 356 397T486 441Q517 441 535 423T554 380Q554 356 536 332T489 287T421 253T342 233L341 230Q370 213 382 194T395
148Q395 129 390 115T379 90T367 68T362 46Q362 34 369 27T393 19Q422 19 475 56T603 187L626 170Z" />
<glyph unicode="l" glyph-name="l" horiz-adv-x="524" d="M222 395Q281 408 331 432T417 486T473 552T494 624Q494 655 459 655Q438 655 417 642T377 608Q340 570 300 514T221 396L222 395ZM44 415Q69 398 92 394T138 390Q177 448 221 501T307 596T389 662T460
687Q524 687 524 620Q524 581 499 539T429 461T327 397T202 360Q182 328 158 287T111 205T74 125T59 62Q59 44 67 32T95 19Q130 19 175 60T294 186L315 169Q276 123 245 89T186 33T136 0T88 -11Q53 -11 27 10T1 76Q1 118 22 175T78 294Q87 311 97 327T118 360Q95
361 73 368T30 389L44 415Z" />
<glyph unicode="m" glyph-name="m" horiz-adv-x="946" d="M938 179Q863 85 797 37T673 -11Q644 -11 624 7T604 61Q604 124 649 189L753 341Q765 359 768 368T772 385Q772 397 765 404T745 411Q709 411 661 381T561 296T458 166T361 0H286L476 337Q484 351 490
362T496 384Q496 396 489 403T468 411Q432 411 384 380T285 295T181 165T86 0H9L193 342Q166 318 133 307T68 296Q36 296 10 312L20 338Q45 326 70 326Q95 326 118 335T164 359T204 390T237 424H305L235 285L238 283Q309 367 367 404T476 441Q505 441 526 426T548
379Q548 344 531 305L533 304Q590 372 646 406T752 441Q786 441 805 425T824 379Q824 356 813 325T775 252L679 100Q671 86 664 70T656 41Q656 32 660 26T679 19Q717 19 776 60T917 195L938 179Z" />
<glyph unicode="n" glyph-name="n" horiz-adv-x="661" d="M657 178Q581 85 514 37T393 -11Q363 -11 343 7T323 61Q323 87 336 123T369 189L475 346Q483 357 487 367T492 385Q492 395 485 403T464 411Q431 411 388 385T297 312T201 199T110 53L82 0H5L188 342Q161
318 128 307T63 296Q31 296 5 312L15 338Q40 326 65 326Q90 326 113 335T159 359T199 390T232 424H304L231 285L234 283Q305 367 363 404T471 441Q504 441 524 425T544 379Q544 356 533 326T502 264L399 100Q391 86 383 70T375 40Q375 31 381 25T398 19Q436 19
496 60T636 195L657 178Z" />
<glyph unicode="o" glyph-name="o" horiz-adv-x="651" d="M524 355Q522 378 509 392T469 406Q441 406 409 388T345 342T285 277T234 206T199 138T186 83Q186 58 199 39T242 19Q267 19 296 29T355 61T416 120T476 211Q467 225 464 240T460 270Q460 299 479 324T524
355ZM650 198Q633 187 616 182T575 177Q559 177 541 180T506 195Q447 93 380 41T237 -11Q187 -11 158 17T128 106Q128 152 146 197Q129 183 108 178T64 173Q46 173 32 177T0 190L10 216Q41 203 67 203Q107 203 137 224T190 275Q216 309 249 339T318 392T392 428T467
441Q507 441 530 417T554 354Q554 325 546 293T520 224Q532 216 548 212T579 207Q598 207 611 210T638 223L650 198Z" />
<glyph unicode="p" glyph-name="p" horiz-adv-x="673" d="M343 283Q414 367 472 404T580 441Q596 441 612 436T642 420T664 389T672 342Q672 307 658 265T620 183T565 106T498 46Q528 34 555 16T603 -29L581 -49Q546 -18 521 -2T457 17Q434 4 411 -3T364 -11Q326
-11 309 -2T292 21Q292 38 316 53T382 69Q396 69 409 69T439 65Q461 77 490 113T545 195T590 288T609 371Q609 389 601 400T573 411Q540 411 497 385T407 312T311 199T219 53L78 -209H1L297 342Q270 314 237 305T172 296Q140 296 114 312L124 338Q149 326 174 326Q199
326 222 335T268 358T308 390T341 423L413 424L340 285L343 283Z" />
<glyph unicode="q" glyph-name="q" horiz-adv-x="714" d="M520 364Q520 389 504 397T466 406Q424 406 371 368T261 247Q214 179 195 133T175 60Q175 40 187 30T216 19Q248 19 283 37T352 85T416 152T470 228T506 302T520 364ZM713 184Q682 152 627 99T494 -25Q455
-61 424 -92T370 -148T335 -189T319 -209H241L410 101L408 102Q355 45 307 17T201 -11Q163 -11 140 17T117 94Q117 142 140 193Q110 173 70 173Q52 173 35 177T0 190L10 216Q41 203 67 203Q88 203 106 210T140 228T170 253T196 282Q224 316 258 345T327 395T397
429T462 441Q497 441 521 425T550 376H552L580 424H648L367 -101L370 -103Q384 -88 409 -64T466 -10T531 50T597 110T654 163T695 202L713 184Z" />
<glyph unicode="r" glyph-name="r" horiz-adv-x="527" d="M527 284Q513 277 495 277Q465 277 442 289T408 325L148 133L77 0H4L187 346Q161 321 127 309T61 296Q29 296 3 312L13 338Q38 326 63 326Q88 326 111 335T157 359T197 390T230 424H302L182 196L184 195L398
355Q398 397 420 420T475 444Q496 444 506 435T517 417L433 343Q449 307 495 307Q508 307 524 311L527 284Z" />
<glyph unicode="s" glyph-name="s" horiz-adv-x="360" d="M58 270Q104 286 156 321T258 419Q253 434 253 446Q253 467 259 482T273 509T290 525T306 531Q315 531 324 524T334 499Q334 482 325 457T292 409Q319 364 334 319T350 228Q350 181 332 138T273 56Q203
-11 100 -11Q81 -11 63 -7T31 7T9 31T0 64Q0 96 18 117T60 139Q77 139 89 131T102 102Q102 83 93 76T73 66T53 60T44 46Q44 35 61 27T98 19Q134 19 167 37T227 90T268 171T284 278Q284 304 280 331T268 384H266Q240 354 216 332T167 294T119 266T67 243L58 270Z"
/>
<glyph unicode="t" glyph-name="t" horiz-adv-x="502" d="M489 496H343L134 109Q126 93 123 78T120 51Q120 37 129 28T153 19Q172 19 193 30T239 63T293 117T360 192L381 175Q306 81 251 35T144 -11Q112 -11 90 9T68 70Q68 104 84 146T125 234L175 326Q120 276
58 276Q26 276 0 292L10 318Q23 312 39 309T68 306Q92 306 115 318T158 347T196 385T226 423L265 496H163L176 526H279L350 658H429L357 526H502L489 496Z" />
<glyph unicode="u" glyph-name="u" horiz-adv-x="674" d="M668 173Q596 84 539 38T427 -8Q389 -8 373 12T357 63Q357 67 358 75T360 92T362 109T365 122L362 123Q305 58 254 24T151 -11Q119 -11 97 10T74 77Q74 106 86 140T120 216L188 342Q161 320 128 308T63
296Q31 296 5 312L15 338Q40 326 65 326Q90 326 113 335T159 359T199 390T232 424H307L148 129Q138 112 132 91T126 51Q126 38 135 29T159 19Q195 19 239 49T330 134T424 262T514 424H592L432 127Q418 101 414 83T409 53Q409 39 415 31T438 22Q472 22 520 61T645
190L668 173Z" />
<glyph unicode="v" glyph-name="v" horiz-adv-x="555" d="M554 183Q533 174 507 174Q464 174 432 203Q367 99 304 44T165 -11Q148 -11 132 -5T103 13T82 43T74 86Q74 121 90 163T131 248L182 340Q156 318 124 307T60 296Q28 296 2 312L12 338Q37 326 62 326Q87
326 110 335T156 359T196 390T229 424H304L146 129Q139 117 133 97T126 59Q126 42 139 31T174 19Q197 19 225 30T284 67T346 132T408 228Q402 242 397 261T392 300Q392 327 398 352T414 397T438 429T469 441Q485 441 491 427T498 391Q498 372 494 350T483 306T468
265T451 233Q465 217 480 211T513 204Q530 204 547 210L554 183Z" />
<glyph unicode="w" glyph-name="w" horiz-adv-x="833" d="M828 183Q807 174 781 174Q738 174 706 203Q641 99 578 44T439 -11Q422 -11 406 -5T377 13T356 43T348 86Q348 91 348 95T349 104H347Q305 50 263 20T169 -11Q152 -11 136 -5T107 13T86 43T78 86Q78 121
94 163T135 248L186 340Q160 319 128 308T64 296Q32 296 6 312L16 338Q41 326 66 326Q91 326 114 335T160 359T200 390T233 424H308L150 129Q143 117 137 97T130 59Q130 42 143 31T178 19Q277 19 405 248L503 424H578L420 129Q413 117 407 97T400 59Q400 42 413
31T448 19Q471 19 499 30T558 67T620 132T682 228Q676 242 671 261T666 300Q666 327 672 352T688 397T712 429T743 441Q759 441 765 427T772 391Q772 372 768 350T757 306T742 265T725 233Q739 217 754 211T787 204Q803 204 821 210L828 183Z" />
<glyph unicode="x" glyph-name="x" horiz-adv-x="627" d="M618 186Q547 95 480 44T346 -8Q329 -8 313 -4T285 11T264 37T256 77H254Q206 29 168 9T94 -11Q56 -11 32 7T8 64Q8 93 26 114T68 136Q85 136 97 128T110 100Q110 82 101 75T81 63T61 55T52 40Q52 29 62
24T88 19Q118 19 148 40T206 94T257 167T298 244T325 313T335 360Q335 382 327 395T298 408Q280 408 256 400T202 371T135 318T56 233L34 250Q78 303 116 339T187 397T250 428T305 438Q343 438 368 417T393 354H395Q424 392 460 416T531 441Q569 441 591 424T613
365Q613 339 595 318T552 297Q533 297 523 306T512 330Q512 348 521 355T540 366T560 373T569 389Q569 397 562 404T535 411Q515 411 491 392T443 341T395 272T354 195T325 122T314 66Q314 46 326 34T356 22Q404 22 464 69T596 203L618 186Z" />
<glyph unicode="y" glyph-name="y" horiz-adv-x="595" d="M253 -85Q238 -78 213 -75T169 -72Q112 -72 78 -92T43 -144Q43 -162 58 -173T99 -185Q113 -185 131 -182T170 -169T211 -139T254 -86L253 -85ZM424 96Q400 49 377 7T327 -74Q347 -85 370 -91T417 -97Q440
-97 467 -91T517 -67L529 -93Q494 -115 467 -121T412 -127Q386 -127 358 -121T310 -105Q268 -166 218 -192T107 -219Q57 -219 33 -197T9 -148Q9 -120 26 -100T63 -68Q91 -51 121 -47T178 -42Q185 -42 197 -43T223 -45T249 -49T269 -55L368 122L365 123Q308 58 257
24T154 -11Q122 -11 100 10T77 77Q77 106 89 140T123 216L191 342Q162 318 130 307T66 296Q34 296 8 312L18 338Q43 326 68 326Q93 326 116 335T162 359T202 390T235 424H310L151 129Q141 112 135 91T129 51Q129 37 137 28T162 19Q198 19 242 49T333 134T427 262T517
424H595L424 96Z" />
<glyph unicode="z" glyph-name="z" horiz-adv-x="574" d="M570 162Q530 106 496 72T430 20T372 -5T320 -11Q288 -11 274 1T260 35Q260 46 263 54T270 70T277 85T280 101Q280 112 271 120T251 128Q219 128 189 113T124 57Q92 20 69 7T27 -6Q16 -6 11 0T5 14Q5 35
32 61T132 122L363 310L362 312Q344 305 319 305Q291 305 266 314T220 339Q196 313 162 299T97 284Q82 284 66 288T36 300L48 326Q73 314 96 314Q129 314 153 326T198 358Q186 372 179 388T172 421Q172 444 185 461T219 478Q239 478 249 463T259 428Q259 413 254
397T241 367Q255 349 276 342T318 335Q337 335 356 339T394 352Q432 403 464 422T515 441Q527 441 536 436T546 418Q546 393 515 371T426 329L203 143L204 142Q227 154 245 156T276 158Q314 158 332 141T350 102Q350 91 348 84T342 70T336 57T333 42Q333 36 338
32T350 28Q366 28 387 35T433 59T486 105T547 178L570 162Z" />
<glyph unicode="&#xa0;" glyph-name="space" horiz-adv-x="500" />
</font>
</defs>
</svg>
