<?xml version="1.0" standalone="no"?> <!DOCTYPE svg PUBLIC "-//W3C//DTD SVG 1.0//EN" "http://www.w3.org/TR/2001/REC-SVG-20010904/DTD/svg10.dtd" > <svg xmlns="http://www.w3.org/2000/svg" width="100%" height="100%">
<defs >
<font horiz-adv-x="465" ><font-face
    font-family="STIXSansSerifRegular"
    units-per-em="1000"
    panose-1="0 0 0 0 0 0 0 0 0 0"
    ascent="693"
    descent="-218"
    alphabetic="0" />
<missing-glyph horiz-adv-x="500" />
<glyph unicode=" " glyph-name="space" horiz-adv-x="500" />
<glyph unicode="0" glyph-name="zero" horiz-adv-x="468" d="M461 330Q461 265 449 204T409 94T339 16T234 -14Q169 -14 126 17T56 99T19 212T7 336Q7 402 20 463T62 572T133 648T238 676Q287 676 328 651T398 580T444 471T461 330ZM382 330Q382 391 372 441T342
528T296 585T236 605Q197 605 169 583T122 523T95 436T86 334Q86 286 93 237T117 147T163 82T234 57Q274 57 302 80T348 142T374 230T382 330Z" />
<glyph unicode="1" glyph-name="one" horiz-adv-x="209" d="M115 0V570Q87 557 57 542T0 512V585L180 677L194 672V0H115Z" />
<glyph unicode="2" glyph-name="two" horiz-adv-x="444" d="M411 0H6V21L181 235V234L237 302Q283 356 310 395T338 475Q338 538 304 571T213 605Q192 605 171 596T131 569T99 524T80 459L8 476Q16 521 35 557T83 620T146 661T220 676Q265 676 301 661T363 621T403
562T417 491Q417 461 412 438T394 390T360 338T308 270L148 71H440L411 0Z" />
<glyph unicode="3" glyph-name="three" horiz-adv-x="421" d="M16 509Q37 585 87 630T217 676Q252 676 282 664T335 631T371 582T384 519Q384 483 365 443T298 370Q328 359 350 341T386 300T408 255T415 210Q415 164 398 122T352 50Q318 16 273 1T179 -14Q132
-14 88 -1T5 56L52 112Q78 83 110 70T174 57Q208 57 238 65T290 93Q310 110 323 136T336 191Q336 243 299 278T196 322H132V343L180 394Q201 394 223 402T263 427T293 464T305 512Q305 556 278 580T214 605Q177 605 142 579T87 492L16 509Z" />
<glyph unicode="4" glyph-name="four" horiz-adv-x="479" d="M445 165H362V0H283V165H0V233L312 676H362V236H478L445 165ZM283 510L89 236H283V510Z" />
<glyph unicode="5" glyph-name="five" horiz-adv-x="429" d="M393 605H216L152 478Q205 470 252 451T335 401T392 327T413 226Q413 177 396 134T347 57T272 5T177 -14Q130 -14 86 -1T3 56L50 112Q76 83 108 70T172 57Q211 57 241 71T291 109T323 163T334 226Q334
300 268 352Q234 380 184 393T61 407L47 424L163 676H425L393 605Z" />
<glyph unicode="6" glyph-name="six" horiz-adv-x="448" d="M402 615Q290 607 210 551T94 388Q125 411 159 421T231 431Q272 431 310 417T377 375T424 308T442 220Q442 172 427 130T383 55T315 5T229 -14Q168 -14 126 9T56 71T17 160T4 264Q4 306 12 348T34 430T68
503T115 562Q151 597 183 618T249 652T325 672T419 684L420 668L402 615ZM362 207Q362 245 350 273T319 321T274 350T223 360Q174 360 134 331T84 240Q84 200 94 167T123 109T169 71T232 57Q259 57 283 68T324 99T352 146T362 207Z" />
<glyph unicode="7" glyph-name="seven" horiz-adv-x="413" d="M192 -8H110L316 591H0L31 662H413V642L192 -8Z" />
<glyph unicode="8" glyph-name="eight" horiz-adv-x="412" d="M405 161Q405 126 392 95T354 39T292 1T206 -14Q163 -14 127 -1T64 34T22 87T7 154Q7 179 13 203T34 250T73 296T135 345Q101 365 79 385T43 427T24 469T18 514Q18 550 33 580T74 631T136 664T214
676Q251 676 282 663T337 628T372 578T385 520Q385 492 379 469T359 427T323 389T269 353Q335 313 370 267T405 161ZM313 515Q313 556 282 580T202 605Q178 605 159 598T126 578T105 550T97 518Q97 474 122 448T207 394Q255 420 284 449T313 515ZM199 305Q145 286
116 246T86 163Q86 121 116 89T210 57Q231 57 252 64T289 83T316 115T326 158Q326 200 306 229T234 286L199 305Z" />
<glyph unicode="9" glyph-name="nine" horiz-adv-x="448" d="M46 47Q158 55 238 111T354 275Q323 252 289 242T217 231Q176 231 138 245T71 287T24 354T6 442Q6 490 21 532T65 607T133 657T220 676Q281 676 323 653T393 592T432 503T444 398Q444 356 436 314T414
233T379 160T333 101Q298 66 267 45T201 11T127 -9T35 -21L33 -2L46 47ZM364 422Q364 461 354 494T324 552T278 591T217 605Q190 605 166 594T124 563T96 516T86 456Q86 418 98 389T129 341T174 313T225 303Q274 303 314 331T364 422Z" />
<glyph unicode="A" glyph-name="A" horiz-adv-x="606" d="M509 0L427 200H178L97 0H1L290 674H316L605 0H509ZM303 503L209 274H397L303 503Z" />
<glyph unicode="B" glyph-name="B" horiz-adv-x="494" d="M219 662Q335 662 393 623T451 499Q451 457 429 423T359 366Q427 344 457 299T487 193Q487 141 458 96T381 26Q355 13 323 7T254 0H14V662H219ZM191 394Q280 394 321 419T362 499Q362 546 331 567T231
588H101V394H191ZM227 74Q273 74 305 84T358 111T388 152T398 202Q398 238 379 265T325 304Q299 312 265 314T180 317H101V74H227Z" />
<glyph unicode="C" glyph-name="C" horiz-adv-x="623" d="M617 119Q567 55 498 21T344 -14Q264 -14 202 12T96 84T30 194T7 333Q7 406 31 469T99 578T206 650T343 676Q376 676 411 670T481 649T545 612T597 554V453H578Q560 497 533 525T475 570T409 593T344 600Q287
600 242 580T164 524T114 440T96 335Q96 273 113 223T162 137T241 82T347 62Q413 62 465 88T566 170L617 119Z" />
<glyph unicode="D" glyph-name="D" horiz-adv-x="602" d="M180 662Q288 662 366 640T496 574T571 469T596 327Q596 263 574 204T505 100T391 27T229 0H14V662H180ZM150 74Q193 74 227 75T290 81T344 93T394 114Q453 145 480 199T507 328Q507 397 486 446T411 532Q387
549 361 560T304 577T238 585T161 588H101V74H150Z" />
<glyph unicode="E" glyph-name="E" horiz-adv-x="481" d="M463 0H14V662H453V588H101V386H406V311H101V74H480L463 0Z" />
<glyph unicode="F" glyph-name="F" horiz-adv-x="463" d="M101 588V386H397V311H101V0H14V662H454L463 588H101Z" />
<glyph unicode="G" glyph-name="G" horiz-adv-x="617" d="M606 59Q585 45 564 32T514 9T447 -8T354 -14Q274 -14 210 12T101 84T31 194T6 333Q6 406 32 469T104 578T213 650T352 676Q385 676 418 671T484 652T544 618T594 565V462H575Q556 502 531 528T478 571T417
593T352 600Q288 600 240 578T160 518T111 434T95 336Q95 285 112 236T162 148T244 86T358 62Q403 62 434 67T484 82T511 101T519 123V281H433L411 357H606V59Z" />
<glyph unicode="H" glyph-name="H" horiz-adv-x="538" d="M437 0V301H101V0H14V662H101V375H437V662H524V0H437Z" />
<glyph unicode="I" glyph-name="I" horiz-adv-x="324" d="M308 0H20L6 74H117V588H6L20 662H308L317 588H206V74H317L308 0Z" />
<glyph unicode="J" glyph-name="J" horiz-adv-x="306" d="M293 212Q293 165 286 124T261 52T212 4T131 -14Q98 -14 66 -3T0 42L19 118H36Q55 96 82 79T134 62Q161 62 175 76T196 111T204 157T206 206V662H293V212Z" />
<glyph unicode="K" glyph-name="K" horiz-adv-x="574" d="M451 0L135 302L101 269V0H14V662H101V375L409 662H504V645L197 357L570 0H451Z" />
<glyph unicode="L" glyph-name="L" horiz-adv-x="486" d="M468 0H14V662H101V74H486L468 0Z" />
<glyph unicode="M" glyph-name="M" horiz-adv-x="721" d="M622 0V543L371 0H350L99 541V0H14V662H137L362 180L584 662H707V0H622Z" />
<glyph unicode="N" glyph-name="N" horiz-adv-x="555" d="M472 0L101 564V0H14V662H135L454 178V662H541V-14L472 0Z" />
<glyph unicode="O" glyph-name="O" horiz-adv-x="668" d="M661 331Q661 254 636 191T568 82T464 11T334 -14Q264 -14 204 11T101 81T32 190T7 331Q7 408 32 471T100 580T204 651T334 676Q404 676 464 651T567 581T636 472T661 331ZM572 331Q572 393 556 442T508
527T433 581T334 600Q279 600 235 581T160 527T113 443T96 331Q96 269 112 220T160 135T235 81T334 62Q389 62 433 81T508 135T555 219T572 331Z" />
<glyph unicode="P" glyph-name="P" horiz-adv-x="452" d="M198 662Q329 662 390 615T452 478Q452 435 437 400T392 339T319 299T221 285H101V0H14V662H198ZM189 359Q284 359 324 389T364 479Q364 533 323 560T184 588H101V359H189Z" />
<glyph unicode="Q" glyph-name="Q" horiz-adv-x="670" d="M664 -175Q605 -175 550 -173T443 -154T348 -105T267 -8Q210 2 162 31T78 104T23 205T3 331Q3 408 28 471T96 580T200 651T330 676Q400 676 460 651T563 581T632 472T657 331Q657 261 636 203T578 100T489
27T377 -10Q397 -42 421 -60T473 -87T528 -98T585 -101L664 -157V-175ZM568 331Q568 393 552 442T504 527T429 581T330 600Q275 600 231 581T156 527T109 443T92 331Q92 269 108 220T156 135T231 81T330 62Q385 62 429 81T504 135T551 219T568 331Z" />
<glyph unicode="R" glyph-name="R" horiz-adv-x="525" d="M418 0L171 299H101V0H14V662H199Q327 662 390 616T453 485Q453 414 406 365T275 303L521 0H418ZM190 373Q285 373 324 400T364 486Q364 540 323 564T184 588H101V373H190Z" />
<glyph unicode="S" glyph-name="S" horiz-adv-x="462" d="M404 477Q379 540 331 570T226 600Q178 600 149 572T120 505Q120 482 133 463T167 428T213 400T261 378Q315 356 352 334T412 287T445 233T455 168Q455 131 439 98T398 41Q337 -14 232 -14Q168 -14 112
5T19 70L6 205H24Q42 166 66 139T118 94T174 70T228 62Q292 62 329 89T366 158Q366 204 336 234T238 291Q185 313 147 335T83 382T47 436T35 501Q35 541 49 573T90 628T153 663T231 676Q297 676 345 653T423 596V477H404Z" />
<glyph unicode="T" glyph-name="T" horiz-adv-x="578" d="M333 588V0H245V588H0L10 662H568L578 588H333Z" />
<glyph unicode="U" glyph-name="U" horiz-adv-x="547" d="M535 243Q535 116 469 51T273 -14Q143 -14 78 50T12 243V662H99V256Q99 233 100 216T103 186T109 162T118 141Q138 103 178 83T273 62Q329 62 370 83T431 141Q443 163 445 193T448 269V662H535V243Z" />
<glyph unicode="V" glyph-name="V" horiz-adv-x="594" d="M310 -11H284L1 662H97L298 164L497 662H593L310 -11Z" />
<glyph unicode="W" glyph-name="W" horiz-adv-x="873" d="M640 -11H612L434 435L261 -11H233L5 662H100L253 186V188L435 662L619 186V188L773 662H868L640 -11Z" />
<glyph unicode="X" glyph-name="X" horiz-adv-x="654" d="M541 0L326 283L113 0H8L273 349L33 662H139L326 414L511 662H618L379 349L646 0H541Z" />
<glyph unicode="Y" glyph-name="Y" horiz-adv-x="590" d="M339 288V0H251V288L1 662H96L295 362L494 662H589L339 288Z" />
<glyph unicode="Z" glyph-name="Z" horiz-adv-x="585" d="M572 0H5V25L431 588H39L47 662H575V641L147 74H580L572 0Z" />
<glyph unicode="a" glyph-name="a" horiz-adv-x="373" d="M278 0L273 44Q241 15 202 3T124 -10Q72 -10 40 17T7 101Q7 136 22 165T69 219T152 261T274 294V327Q274 356 251 374T189 392Q165 392 148 385T118 365T96 337T81 302H66L17 333Q24 369 41 394T81 434T133
456T191 463Q264 463 308 428T353 326V76Q353 59 355 40T363 0H278ZM274 222Q229 214 194 203T136 179Q109 165 98 150T86 112Q86 88 100 75T144 61Q173 61 206 77T274 132V222Z" />
<glyph unicode="b" glyph-name="b" horiz-adv-x="417" d="M93 414Q120 438 153 450T221 463Q264 463 300 447T362 402T402 333T417 244Q417 190 400 144T351 63T275 10T179 -10Q135 -10 92 2T14 47V660L84 684L93 679V414ZM93 94Q132 61 184 61Q212 61 239 72T289
104T324 157T338 230Q338 302 304 347T206 392Q171 392 140 370T93 302V94Z" />
<glyph unicode="c" glyph-name="c" horiz-adv-x="420" d="M416 132Q399 94 378 68T331 24Q304 5 275 -2T216 -10Q179 -10 149 -1T91 30Q54 59 31 106T7 216Q7 271 24 316T70 394T139 445T226 463Q279 463 324 441T395 371L351 317H335Q326 339 313 353T285 376T254
388T222 392Q195 392 171 381T127 349T97 296T86 222Q86 184 97 154T126 104T169 72T222 61Q256 61 290 85T351 166L416 132Z" />
<glyph unicode="d" glyph-name="d" horiz-adv-x="422" d="M337 -11L328 -6L326 44Q298 17 261 4T189 -10Q167 -10 143 -5T98 13Q56 39 28 91T0 209Q0 262 17 308T63 389T132 443T217 463Q243 463 270 455T324 426V660L394 684L403 679V128Q403 103 404 71T409
13L337 -11ZM324 329Q304 359 277 375T221 392Q195 392 170 380T124 346T92 292T79 222Q79 180 94 143T135 85Q152 72 170 67T209 61Q244 61 275 87T324 158V329Z" />
<glyph unicode="e" glyph-name="e" horiz-adv-x="418" d="M412 132Q394 95 375 69T332 25T280 -1T214 -10Q170 -10 132 5T67 51T23 125T7 226Q7 286 27 332T79 409Q108 437 144 450T222 463Q262 463 294 450T348 411T383 352T395 277V222H86Q86 183 97 153T126
102T169 72T222 61Q301 61 346 167L412 132ZM314 293Q313 325 304 344T280 374T248 388T214 392Q196 392 178 387T144 369T116 339T99 293H314Z" />
<glyph unicode="f" glyph-name="f" horiz-adv-x="350" d="M326 574L310 573Q284 592 267 602T230 612Q201 612 181 589T161 509V453H275V382H161V0H82V382H1V453H82V494Q82 547 94 583T129 643Q147 661 172 672T223 683Q258 683 287 672T350 633L326 574Z" />
<glyph unicode="g" glyph-name="g" horiz-adv-x="459" d="M374 369Q390 338 390 299Q390 263 378 234T343 183T290 150T223 138Q207 138 193 139T162 146Q145 136 133 125T121 102Q121 88 130 77T169 64Q195 63 221 62T274 60Q352 57 397 29T443 -59Q443 -103
420 -132T359 -181T274 -208T178 -216Q142 -216 111 -209T56 -188T19 -153T6 -103Q6 -68 23 -39T76 10Q56 24 48 40T39 73Q39 90 49 113T83 159Q88 164 91 168T100 178Q77 198 63 227T48 296Q48 330 61 360T98 413T155 449T227 463Q252 463 267 460T302 449Q338
436 384 436H452V369H374ZM311 297Q311 343 288 367T221 392Q200 392 183 385T154 365T134 336T127 302Q127 260 153 235T224 210Q265 210 288 236T311 297ZM166 -15Q128 -26 107 -44T85 -86Q85 -117 113 -130T186 -144Q217 -144 249 -142T309 -129Q333 -119 348
-103T363 -67Q363 -52 357 -42T330 -27Q315 -23 296 -21T258 -17T220 -16T186 -15H166Z" />
<glyph unicode="h" glyph-name="h" horiz-adv-x="376" d="M296 0V304Q296 352 274 372T214 392Q202 392 185 386T149 369T116 341T93 302V0H14V660L84 684L93 679V405Q112 424 129 435T165 453T202 461T241 463Q300 463 337 427T375 321V0H296Z" />
<glyph unicode="i" glyph-name="i" horiz-adv-x="110" d="M8 586V679H100V586H8ZM13 0V440L87 464L96 459V0H13Z" />
<glyph unicode="j" glyph-name="j" horiz-adv-x="267" d="M166 586V679H259V586H166ZM254 -26Q254 -132 207 -179Q188 -198 162 -207T109 -216Q85 -216 57 -207T0 -180L27 -116H43Q63 -129 77 -136T108 -144Q137 -144 154 -120T172 -42V439L245 464L254 459V-26Z" />
<glyph unicode="k" glyph-name="k" horiz-adv-x="403" d="M300 0L93 207V0H14V660L84 684L93 679V303L291 453H395V439L149 255L403 0H300Z" />
<glyph unicode="l" glyph-name="l" horiz-adv-x="113" d="M14 0V660L88 684L97 679V0H14Z" />
<glyph unicode="m" glyph-name="m" horiz-adv-x="653" d="M563 0V293Q563 347 543 369T484 392Q473 392 456 386T422 369T389 341T366 302V0H288V290Q288 344 269 368T211 392Q200 392 183 386T148 369T114 341T91 302V0H14V440L79 464L88 459V402Q113 433 150
448T227 463Q267 463 302 447T358 398Q387 430 425 446T500 463Q528 463 553 454T597 427T628 380T640 315V0H563Z" />
<glyph unicode="n" glyph-name="n" horiz-adv-x="388" d="M296 0V304Q296 353 274 372T214 392Q202 392 185 386T149 369T116 341T93 302V0H14V440L79 464L88 459L90 402Q129 440 164 451T241 463Q271 463 301 449T348 418Q375 382 375 321V0H296Z" />
<glyph unicode="o" glyph-name="o" horiz-adv-x="457" d="M450 229Q450 192 437 150T396 73T326 14T227 -10Q178 -10 138 8T68 59T23 134T7 229Q7 275 22 317T65 392T133 444T224 463Q273 463 314 447T386 401T433 328T450 229ZM371 228Q371 305 331 348T225 392Q192
392 167 379T123 343T96 291T86 228Q86 192 96 162T125 109T170 74T228 61Q265 61 292 77T336 118T362 172T371 228Z" />
<glyph unicode="p" glyph-name="p" horiz-adv-x="417" d="M91 409Q119 436 156 449T228 463Q251 463 275 458T319 440Q361 414 389 362T417 244Q417 191 400 145T354 64T285 10T200 -10Q174 -10 147 -2T93 26V-192L23 -216L14 -211V440L81 464L89 459L91 409ZM93
123Q113 91 140 76T196 61Q229 61 255 74T300 110T328 164T338 230Q338 263 330 292T305 344T264 379T208 392Q173 392 142 366T93 295V123Z" />
<glyph unicode="q" glyph-name="q" horiz-adv-x="421" d="M398 -216L328 -192V42Q301 16 265 3T193 -10Q170 -10 146 -5T102 13Q81 26 62 45T30 90T8 146T0 209Q0 262 17 308T63 389T132 443T217 463Q244 463 274 456T331 428L396 464L407 458V-211L398 -216ZM328
329Q308 360 279 376T221 392Q195 392 170 380T124 346T92 292T79 222Q79 189 87 160T112 109T153 74T209 61Q244 61 277 87T328 158V329Z" />
<glyph unicode="r" glyph-name="r" horiz-adv-x="279" d="M259 377Q254 385 240 388T220 392Q177 392 144 350T93 234V0H14V440L84 464L93 459L95 395Q121 433 156 448T222 463Q234 463 249 461T279 447V377H259Z" />
<glyph unicode="s" glyph-name="s" horiz-adv-x="317" d="M275 321Q260 345 245 359T215 380T185 390T152 393Q117 393 103 376T88 342Q88 314 112 297T172 265Q213 248 239 233T282 202T304 165T310 118Q310 87 294 60T249 14Q229 1 204 -4T149 -10Q101 -10 71
4T10 45V148H25Q47 100 80 81T155 61Q185 61 208 75T231 118Q231 138 212 153T145 189Q107 206 81 222T39 256T16 293T9 338Q9 363 19 385T48 425T94 453T154 463Q202 463 234 449T290 410V321H275Z" />
<glyph unicode="t" glyph-name="t" horiz-adv-x="288" d="M275 12Q256 -2 234 -6T187 -10Q135 -10 108 21T80 104V382H0V399L45 453H80V517L141 580H159V453H263V382H159V137Q159 114 162 99T173 76T189 64T210 61Q225 61 240 65T274 87H286L275 12Z" />
<glyph unicode="u" glyph-name="u" horiz-adv-x="392" d="M308 -11L299 -6L297 59Q268 27 226 9T146 -10Q116 -10 87 4T39 35Q25 52 19 77T12 131V453H91V149Q91 100 113 81T173 61Q185 61 202 68T238 89T271 120T294 161V453H373V128Q373 103 374 71T379 13L308 -11Z" />
<glyph unicode="v" glyph-name="v" horiz-adv-x="414" d="M218 -14H196L1 453H86L208 154L328 453H413L218 -14Z" />
<glyph unicode="w" glyph-name="w" horiz-adv-x="655" d="M455 -14H433L335 230L213 -14H192L4 453H88L210 149L295 325Q284 357 271 389T245 453H329L450 159L566 453H651L455 -14Z" />
<glyph unicode="x" glyph-name="x" horiz-adv-x="438" d="M336 0L214 175L102 0H8L169 239L20 453H114L219 302L316 453H410L264 236L430 0H336Z" />
<glyph unicode="y" glyph-name="y" horiz-adv-x="435" d="M257 -44Q228 -127 190 -171T85 -216Q65 -216 45 -211T10 -192V-120H27Q47 -135 61 -139T87 -144Q104 -144 119 -133T147 -103T172 -59T193 -6Q195 2 198 10T204 27L16 453H102L241 130L350 453H435L257 -44Z" />
<glyph unicode="z" glyph-name="z" horiz-adv-x="412" d="M391 0H9V20L260 382H33L45 453H389V433L137 71H401L391 0Z" />
<glyph unicode="&#xa0;" glyph-name="space" horiz-adv-x="500" />
</font>
</defs>
</svg>
