<?xml version="1.0" standalone="no"?> <!DOCTYPE svg PUBLIC "-//W3C//DTD SVG 1.0//EN" "http://www.w3.org/TR/2001/REC-SVG-20010904/DTD/svg10.dtd" > <svg xmlns="http://www.w3.org/2000/svg" width="100%" height="100%">
<defs >
<font horiz-adv-x="532" ><font-face
    font-family="STIXSansSerifBold"
    units-per-em="1000"
    panose-1="0 0 0 0 0 0 0 0 0 0"
    ascent="693"
    descent="-218"
    alphabetic="0" />
<missing-glyph horiz-adv-x="500" />
<glyph unicode=" " glyph-name="space" horiz-adv-x="500" />
<glyph unicode="0" glyph-name="zero" horiz-adv-x="468" d="M335 341Q335 393 330 438T314 518T283 573T234 593Q205 593 186 573T155 519T138 439T133 341Q133 289 138 242T154 160T185 103T234 82Q263 82 282 103T313 159T330 242T335 341ZM460 337Q460 259
443 195T396 84T325 13T234 -13Q185 -13 144 12T72 84T25 194T8 337Q8 415 25 479T72 590T143 662T234 688Q283 688 324 663T396 591T443 480T460 337Z" />
<glyph unicode="1" glyph-name="one" horiz-adv-x="268" d="M132 0V542L0 492V582L233 688H252V0H132Z" />
<glyph unicode="2" glyph-name="two" horiz-adv-x="466" d="M427 0H6V23L248 323Q277 359 297 402T317 490Q317 509 311 527T292 560T263 584T223 593Q188 593 158 568T113 482H18Q27 528 45 566T92 631T158 673T241 688Q287 688 323 673T385 631T424 571T437
498Q437 467 432 441T415 390T383 337T333 273L186 95H460L427 0Z" />
<glyph unicode="3" glyph-name="three" horiz-adv-x="473" d="M367 373Q386 364 404 349T436 314T458 270T466 219Q466 140 425 87T321 7Q292 -4 260 -8T195 -13Q171 -13 147 -11T98 0T51 22T5 60L63 137Q89 108 127 95T202 82Q235 82 263 89T312 114Q328 128
337 150T346 198Q346 222 333 244T298 282Q270 301 230 308T152 315V331L211 410Q235 410 255 418T291 439T315 470T324 505Q324 550 298 571T231 593Q200 593 170 572T125 499L35 530Q61 601 115 644T249 688Q287 688 321 676T382 642T423 589T439 519Q439 500
435 480T421 440T399 404T367 375V373Z" />
<glyph unicode="4" glyph-name="four" horiz-adv-x="470" d="M273 474L103 240H273V474ZM443 145H393V0H273V145H0V257L313 688H393V240H465L443 145Z" />
<glyph unicode="5" glyph-name="five" horiz-adv-x="480" d="M436 571H211L175 455Q218 453 262 445T344 415Q392 388 422 342T452 232Q452 157 416 100T321 13Q292 -1 261 -7T195 -13Q170 -13 146 -11T97 0T50 22T4 60L62 137Q91 109 126 96T198 82Q226 82 249
91T290 117T317 155T327 203Q327 241 312 265T258 309Q239 319 214 324T163 331T112 334T67 335L52 346L145 676H474L436 571Z" />
<glyph unicode="6" glyph-name="six" horiz-adv-x="461" d="M333 201Q333 255 311 292T239 329Q207 329 176 309T124 243Q124 209 131 180T152 129T188 95T237 82Q263 82 281 92T311 120T328 158T333 201ZM139 388Q165 408 195 416T257 424Q292 424 327 412T390
373T435 306T453 212Q453 161 436 120T389 48Q360 19 322 3T235 -13Q177 -13 134 10T62 73T19 163T4 268Q4 358 36 428T120 550Q156 585 191 608T264 646T344 670T440 688L447 679L403 593Q366 590 324 574T244 531T177 468T137 389L139 388Z" />
<glyph unicode="7" glyph-name="seven" horiz-adv-x="441" d="M206 0H90L300 561H5L28 676H441L206 0Z" />
<glyph unicode="8" glyph-name="eight" horiz-adv-x="460" d="M332 168Q332 186 326 201T306 232T270 262T217 295Q169 269 149 239T128 173Q128 161 133 146T151 116T182 92T230 82Q250 82 268 88T301 106T323 133T332 168ZM324 522Q324 554 297 573T227 593Q182
593 160 572T138 523Q138 497 160 473T237 424Q285 446 304 471T324 522ZM452 166Q452 130 438 98T396 41T327 2T231 -13Q187 -13 150 -6T84 21Q44 46 26 84T8 165Q8 219 38 267T130 350Q97 370 77 390T44 431T28 471T23 510Q23 548 39 580T83 637T151 674T237
688Q279 688 316 676T380 642T423 590T439 524Q439 469 413 433T322 364Q360 338 385 315T425 268T446 219T452 166Z" />
<glyph unicode="9" glyph-name="nine" horiz-adv-x="462" d="M338 432Q338 466 331 495T309 546T274 580T225 593Q199 593 181 583T151 555T134 517T129 474Q129 420 151 383T223 346Q255 346 286 366T338 432ZM323 287Q297 267 267 259T205 251Q170 251 135 263T72
302T27 369T9 463Q9 514 26 555T73 627Q102 656 140 672T227 688Q285 688 328 665T400 602T443 512T458 407Q458 317 426 247T342 125Q306 90 271 67T198 28T116 3T19 -13L12 -4L56 82Q93 85 135 101T216 144T284 207T325 286L323 287Z" />
<glyph unicode="A" glyph-name="A" horiz-adv-x="642" d="M321 468L238 264H404L321 468ZM511 0L445 162H197L131 0H1L307 690H335L641 0H511Z" />
<glyph unicode="B" glyph-name="B" horiz-adv-x="536" d="M246 102Q289 102 316 110T359 134T381 168T387 211Q387 239 372 258T333 289T279 306T218 311H143V102H246ZM215 413Q257 413 284 420T327 440T349 468T356 502Q356 539 334 556T256 574H143V413H215ZM399
369Q439 350 464 329T504 286T523 239T529 188Q529 147 510 113T456 54T376 14T275 0H15V676H252Q370 676 432 633T494 508Q494 468 470 432T398 373L399 369Z" />
<glyph unicode="C" glyph-name="C" horiz-adv-x="652" d="M646 125Q590 55 521 18T361 -19Q277 -19 211 8T100 84T31 197T7 340Q7 415 32 479T103 590T215 664T360 691Q395 691 429 688T494 674T553 645T607 597V448H596Q558 522 503 555T378 589Q329 589 287
573T213 525T163 447T145 342Q145 294 158 248T198 165T266 106T363 83Q395 83 422 89T475 109T526 143T577 193L646 125Z" />
<glyph unicode="D" glyph-name="D" horiz-adv-x="616" d="M212 102Q271 102 319 114T400 155T452 227T471 336Q471 400 453 445T402 518T324 560T223 574H145V102H212ZM194 676Q310 676 389 652T517 583T587 475T609 335Q609 277 590 218T527 110T414 31T244 0H15V676H194Z"
/>
<glyph unicode="E" glyph-name="E" horiz-adv-x="540" d="M505 0H15V676H495V574H145V407H386V304H145V102H532L505 0Z" />
<glyph unicode="F" glyph-name="F" horiz-adv-x="505" d="M145 574V405H358V303H145V0H15V676H492L505 574H145Z" />
<glyph unicode="G" glyph-name="G" horiz-adv-x="651" d="M641 78Q619 61 595 44T539 13T464 -10T364 -19Q278 -19 212 8T100 83T31 197T7 340Q7 414 32 478T103 589T215 664T361 691Q433 691 494 673T607 597V448H596Q558 523 502 556T373 589Q326 589 285 573T212
525T163 447T145 342Q145 295 158 249T198 166T268 106T368 83Q412 83 447 93T523 126V255H416L385 357H641V78Z" />
<glyph unicode="H" glyph-name="H" horiz-adv-x="585" d="M440 0V297H145V0H15V676H145V399H440V676H570V0H440Z" />
<glyph unicode="I" glyph-name="I" horiz-adv-x="335" d="M313 0H26L12 102H102V574H12L26 676H313L322 574H232V102H322L313 0Z" />
<glyph unicode="J" glyph-name="J" horiz-adv-x="404" d="M391 131Q391 61 366 8T289 -72Q262 -86 234 -91T179 -96Q131 -96 89 -74T0 2L49 100H67Q95 59 121 33T189 6Q214 6 228 16T249 42T259 78T261 118V676H391V131Z" />
<glyph unicode="K" glyph-name="K" horiz-adv-x="648" d="M472 0L176 306L143 277V0H15V676H143V413L438 676H583V662L265 384L642 0H472Z" />
<glyph unicode="L" glyph-name="L" horiz-adv-x="522" d="M503 0H15V676H145V102H522L503 0Z" />
<glyph unicode="M" glyph-name="M" horiz-adv-x="783" d="M640 0V467L405 0H378L143 467V0H15V676H176L390 236H393L607 676H768V0H640Z" />
<glyph unicode="N" glyph-name="N" horiz-adv-x="594" d="M474 2L143 502V0H15V676H172L451 252V676H579V-18L474 2Z" />
<glyph unicode="O" glyph-name="O" horiz-adv-x="724" d="M578 337Q578 394 564 440T523 520T455 571T362 590Q310 590 270 572T202 520T160 441T146 337Q146 280 160 234T202 154T270 102T363 84Q415 84 455 102T522 153T564 233T578 337ZM716 337Q716 258 690
193T616 81T505 8T363 -18Q286 -18 221 8T109 80T35 192T8 337Q8 416 34 481T108 593T220 666T362 692Q438 692 503 666T615 593T689 481T716 337Z" />
<glyph unicode="P" glyph-name="P" horiz-adv-x="504" d="M216 380Q301 380 336 405T372 482Q372 527 335 550T210 574H145V380H216ZM224 676Q365 676 434 626T504 481Q504 436 486 399T435 334T355 293T248 278H145V0H15V676H224Z" />
<glyph unicode="Q" glyph-name="Q" horiz-adv-x="729" d="M573 336Q573 393 559 439T518 519T450 570T357 589Q305 589 265 571T197 519T155 440T141 336Q141 279 155 233T197 153T265 101T358 83Q410 83 450 101T517 152T559 232T573 336ZM722 -176Q656 -176
593 -174T474 -156T368 -107T279 -13Q218 0 167 30T80 104T23 207T3 334Q3 414 29 479T103 592T215 665T357 691Q434 691 499 665T611 592T684 480T711 334Q711 265 691 208T635 106T549 32T437 -12Q456 -34 479 -46T526 -64T577 -72T629 -74L722 -160V-176Z" />
<glyph unicode="R" glyph-name="R" horiz-adv-x="596" d="M216 393Q302 393 337 416T373 489Q373 533 336 553T210 574H145V393H216ZM433 0L186 291H145V0H15V676H231Q370 676 437 627T505 488Q505 419 461 369T338 300L592 0H433Z" />
<glyph unicode="S" glyph-name="S" horiz-adv-x="492" d="M442 466Q430 496 409 519T363 557T309 581T256 589Q236 589 218 585T184 570T160 545T151 507Q151 486 162 470T190 441T230 418T275 399Q335 376 375 354T440 306T474 252T484 183Q484 163 479 142T464
101T443 63T417 33Q385 5 342 -7T239 -19Q170 -19 115 4T24 62L8 224H22Q40 186 68 159T127 115T188 91T241 83Q276 83 298 92T334 115T352 144T357 174Q357 194 351 208T331 235T294 257T238 281Q179 303 139 326T74 376T37 434T26 504Q26 546 43 580T89 639T159
677T246 691Q318 691 373 670T456 620V466H442Z" />
<glyph unicode="T" glyph-name="T" horiz-adv-x="616" d="M374 574V0H244V574H1L15 676H604L614 574H374Z" />
<glyph unicode="U" glyph-name="U" horiz-adv-x="575" d="M562 246Q562 115 495 48T288 -19Q146 -19 80 47T13 246V676H141V257Q141 213 143 191T155 153Q173 119 205 101T288 83Q339 83 369 101T420 153Q431 170 432 197T434 269V676H562V246Z" />
<glyph unicode="V" glyph-name="V" horiz-adv-x="642" d="M335 -18H307L1 676H131L321 211L511 676H641L335 -18Z" />
<glyph unicode="W" glyph-name="W" horiz-adv-x="947" d="M687 -15L659 -14L475 394H472L288 -15H260L5 676H136L282 237L477 676L665 237L811 676H942L687 -15Z" />
<glyph unicode="X" glyph-name="X" horiz-adv-x="679" d="M516 0L337 239L164 0H10L259 343L11 676H165L335 448L501 676H655L413 343L670 0H516Z" />
<glyph unicode="Y" glyph-name="Y" horiz-adv-x="656" d="M393 282V0H263V282L1 676H146L328 393L510 676H655L393 282Z" />
<glyph unicode="Z" glyph-name="Z" horiz-adv-x="617" d="M592 0H9V16L381 574H47L60 676H585V660L211 102H607L592 0Z" />
<glyph unicode="a" glyph-name="a" horiz-adv-x="424" d="M284 213Q260 213 233 210T184 198T148 173T133 131Q133 116 139 106T153 91T172 83T190 81Q219 81 244 100T284 152V213ZM288 0L282 44Q249 9 214 -2T131 -14Q107 -14 85 -6T46 20T19 63T8 122Q8 171
23 197T62 244Q97 275 149 289T284 308V324Q284 349 266 363T210 378Q166 378 141 362T102 308H90L14 352Q36 416 92 444T222 473Q259 473 292 465T350 439T389 397T404 339V76Q404 58 406 39T413 0H288Z" />
<glyph unicode="b" glyph-name="b" horiz-adv-x="448" d="M135 143Q153 116 176 99T229 82Q252 82 269 93T298 125T316 172T322 231Q322 299 295 338T231 378Q202 378 177 361T135 301V143ZM137 425Q163 451 194 462T262 473Q285 473 307 468T350 450Q396 423
421 369T447 245Q447 182 429 126T373 34Q344 6 309 -3T233 -13Q203 -13 171 -1T123 30H120L28 -13H15V676H135V426H137V425Z" />
<glyph unicode="c" glyph-name="c" horiz-adv-x="430" d="M424 78Q401 51 381 33T339 5T290 -10T227 -14Q179 -14 139 3T70 52T24 127T7 221Q7 278 25 324T75 404T149 455T238 473Q268 473 297 467T350 447T391 414T415 368L338 311H321Q315 333 306 346T285 366T261
375T236 378Q216 378 197 368T164 339T141 291T132 226Q132 199 140 174T163 130T199 100T247 88Q279 88 306 100T355 145L424 78Z" />
<glyph unicode="d" glyph-name="d" horiz-adv-x="453" d="M313 309Q292 344 273 361T221 378Q197 378 180 366T150 333T132 285T126 230Q126 200 132 173T151 126T180 93T220 81Q258 81 278 106T313 169V309ZM324 -14L317 -11V34H315Q286 4 255 -5T193 -14Q148
-14 113 3T53 51T15 126T1 227Q1 282 15 327T57 405T122 455T208 473Q237 473 261 465T313 434V676H433V126Q433 102 434 69T439 8L324 -14Z" />
<glyph unicode="e" glyph-name="e" horiz-adv-x="423" d="M285 300Q285 344 265 361T216 378Q204 378 191 373T168 357T150 332T142 300H285ZM416 77Q392 50 372 33T331 5T286 -9T229 -13Q180 -13 140 3T70 51T24 125T8 222Q8 295 26 339T76 416Q108 449 144 461T223
473Q267 473 301 455T358 405T393 329T405 233V205H133Q133 174 142 152T166 116T201 95T243 88Q266 88 295 99T346 143L416 77Z" />
<glyph unicode="f" glyph-name="f" horiz-adv-x="364" d="M342 548L325 547Q306 579 285 587T241 596Q209 596 196 573T182 512V461H272V366H182V0H62V366H4V461H62V503Q62 551 75 586T112 645T166 679T231 691Q256 691 274 689T308 680T336 663T364 638L342 548Z" />
<glyph unicode="g" glyph-name="g" horiz-adv-x="480" d="M190 -19Q157 -23 146 -37T134 -63Q134 -89 160 -100T223 -111Q249 -111 271 -109T311 -99Q327 -93 336 -82T346 -53Q346 -40 335 -30T295 -19H190ZM313 304Q313 335 293 356T226 378Q181 378 160 355T139
306Q139 269 163 252T226 235Q268 235 290 254T313 304ZM284 76Q323 76 357 70T416 49T456 10T471 -52Q471 -99 442 -131T367 -181Q347 -189 327 -194T285 -201T238 -205T183 -206Q146 -206 115 -199T60 -178T23 -142T9 -91Q9 -67 24 -44T70 -6Q45 5 37 24T28 61Q28
89 43 112T106 165V167Q66 193 46 223T25 301Q25 338 40 369T83 424T149 460T234 473Q251 473 272 470T314 459Q322 456 327 455T341 452T361 451T396 451H468V356H412Q416 353 419 347T424 332T427 315T428 300Q428 259 410 229T364 179T299 150T226 140H201Q153
135 153 107Q153 76 200 76H284Z" />
<glyph unicode="h" glyph-name="h" horiz-adv-x="417" d="M295 0V309Q295 349 275 363T229 378Q220 378 207 374T181 359T156 333T135 293V0H15V676H135V415H137Q166 444 196 458T266 473Q343 473 379 434T415 322V0H295Z" />
<glyph unicode="i" glyph-name="i" horiz-adv-x="169" d="M21 0V461H146V0H21ZM12 543V688H157V543H12Z" />
<glyph unicode="j" glyph-name="j" horiz-adv-x="337" d="M315 -17Q315 -76 293 -116T234 -179Q212 -192 188 -197T136 -203Q98 -203 67 -189T0 -136L43 -51H61Q72 -70 87 -85T121 -101Q136 -101 148 -97T170 -81T185 -52T190 -6V461H315V-17ZM181 543V688H326V543H181Z" />
<glyph unicode="k" glyph-name="k" horiz-adv-x="466" d="M324 0L155 205L135 189V0H15V676H135V311L311 461H445V443L236 272L466 0H324Z" />
<glyph unicode="l" glyph-name="l" horiz-adv-x="156" d="M14 0V625L122 676H139V0H14Z" />
<glyph unicode="m" glyph-name="m" horiz-adv-x="695" d="M563 0V309Q563 349 543 363T497 378Q475 378 450 359T407 293V0H289V309Q289 349 269 363T223 378Q214 378 202 374T178 359T154 333T133 293V0H15V461H129V411H131Q161 441 190 457T260 473Q354 473
388 411H389Q419 441 456 457T534 473Q611 473 646 434T681 322V0H563Z" />
<glyph unicode="n" glyph-name="n" horiz-adv-x="429" d="M295 0V309Q295 349 275 363T229 378Q220 378 207 374T181 359T156 333T135 293V0H15V461H131V411H133Q163 441 194 457T266 473Q343 473 379 434T415 322V0H295Z" />
<glyph unicode="o" glyph-name="o" horiz-adv-x="466" d="M333 232Q333 300 307 339T229 378Q203 378 185 366T155 334T138 288T132 232Q132 200 138 173T156 125T188 93T232 81Q261 81 280 96T311 133T328 182T333 232ZM458 229Q458 176 441 132T394 55T322 4T232
-14Q185 -14 144 4T73 54T25 130T7 228Q7 283 24 328T72 405T144 455T236 473Q283 473 323 455T394 405T441 327T458 229Z" />
<glyph unicode="p" glyph-name="p" horiz-adv-x="447" d="M135 150Q156 115 175 98T227 81Q251 81 268 93T298 127T316 174T322 230Q322 378 233 378Q195 378 173 353T135 290V150ZM133 415Q159 444 194 458T266 473Q313 473 354 449Q400 422 423 370T447 248Q447
185 429 129T373 38Q344 10 309 -2T233 -14Q204 -14 181 -4T135 27V-168L32 -205H15V461H131V415H133Z" />
<glyph unicode="q" glyph-name="q" horiz-adv-x="447" d="M312 316Q290 348 267 363T220 378Q181 378 153 339T125 228Q125 159 149 120T218 81Q279 81 312 158V316ZM329 -205H312V26H310V27Q284 1 256 -6T193 -14Q149 -14 113 4T52 52T14 124T0 214Q0 277 19
327T75 413Q102 439 137 456T219 473Q249 473 278 462T324 434H327L415 473H432V-168L329 -205Z" />
<glyph unicode="r" glyph-name="r" horiz-adv-x="366" d="M350 356Q340 366 326 372T291 378Q268 378 244 364T199 325T161 266T135 189V0H15V461H135V373H137Q154 401 174 420T214 451T254 468T290 473Q339 473 366 454V356H350Z" />
<glyph unicode="s" glyph-name="s" horiz-adv-x="349" d="M309 306Q295 329 279 343T247 365T214 375T184 378Q160 378 148 366T135 342Q135 319 155 305T205 278Q248 260 275 245T316 212T336 175T341 125Q341 92 323 62T272 12Q248 -2 221 -7T162 -13Q136 -13
116 -9T78 2T44 22T9 50V170H24Q34 146 51 130T88 103T128 87T165 82Q186 82 203 94T221 126Q221 142 209 153T155 183Q112 202 86 218T45 253T25 292T20 340Q20 367 31 391T62 434T112 462T180 473Q233 473 264 457T324 412V306H309Z" />
<glyph unicode="t" glyph-name="t" horiz-adv-x="366" d="M353 21Q332 2 303 -5T237 -12Q211 -12 187 -4T143 21T111 64T99 126V366H0V383L63 461H99V522L199 630H219V461H326V366H219V149Q219 129 224 117T238 97T257 86T277 83Q290 83 309 89T346 115H364L353 21Z" />
<glyph unicode="u" glyph-name="u" horiz-adv-x="435" d="M298 -15V55H296Q269 25 231 6T153 -14Q80 -14 47 26T14 138V461H134V151Q134 111 154 96T200 81Q209 81 222 86T248 103T273 132T294 173V461H414V110Q414 84 415 57T422 10L298 -15Z" />
<glyph unicode="v" glyph-name="v" horiz-adv-x="434" d="M230 -14H204L1 461H132L216 209H218L302 461H433L230 -14Z" />
<glyph unicode="w" glyph-name="w" horiz-adv-x="675" d="M476 -14H450L341 238L225 -14H199L4 461H135L216 205H218L280 378L245 461H376L462 217H464L540 461H671L476 -14Z" />
<glyph unicode="x" glyph-name="x" horiz-adv-x="485" d="M338 0L238 143L148 0H10L169 243L21 461H158L241 340L320 461H458L311 238L476 0H338Z" />
<glyph unicode="y" glyph-name="y" horiz-adv-x="450" d="M270 -35Q238 -124 197 -164T86 -205Q67 -205 47 -200T13 -183V-85H29Q46 -101 61 -105T88 -110Q120 -110 142 -87T182 -7L13 461H144L237 186H239L319 461H450L270 -35Z" />
<glyph unicode="z" glyph-name="z" horiz-adv-x="421" d="M398 0H11V25L244 366H37L45 461H406V435L173 95H407L398 0Z" />
<glyph unicode="&#xa0;" glyph-name="space" horiz-adv-x="500" />
<glyph unicode="&#x391;" glyph-name="u0391" horiz-adv-x="642" d="M321 468L238 264H404L321 468ZM511 0L445 162H197L131 0H1L307 690H335L641 0H511Z" />
<glyph unicode="&#x392;" glyph-name="u0392" horiz-adv-x="536" d="M246 102Q289 102 316 110T359 134T381 168T387 211Q387 239 372 258T333 289T279 306T218 311H143V102H246ZM215 413Q257 413 284 420T327 440T349 468T356 502Q356 539 334 556T256 574H143V413H215ZM399
369Q439 350 464 329T504 286T523 239T529 188Q529 147 510 113T456 54T376 14T275 0H15V676H252Q370 676 432 633T494 508Q494 468 470 432T398 373L399 369Z" />
<glyph unicode="&#x393;" glyph-name="u0393" horiz-adv-x="504" d="M145 574V0H15V676H492L504 574H145Z" />
<glyph unicode="&#x394;" glyph-name="u0394" horiz-adv-x="642" d="M321 468L173 102H469L321 468ZM1 0L307 690H335L641 0H1Z" />
<glyph unicode="&#x395;" glyph-name="u0395" horiz-adv-x="540" d="M505 0H15V676H495V574H145V407H386V304H145V102H532L505 0Z" />
<glyph unicode="&#x396;" glyph-name="u0396" horiz-adv-x="617" d="M592 0H9V16L381 574H47L60 676H585V660L211 102H607L592 0Z" />
<glyph unicode="&#x397;" glyph-name="u0397" horiz-adv-x="585" d="M440 0V297H145V0H15V676H145V399H440V676H570V0H440Z" />
<glyph unicode="&#x398;" glyph-name="u0398" horiz-adv-x="724" d="M578 336Q578 393 564 439T523 519T455 570T362 589Q310 589 270 571T202 519T160 440T146 336Q146 279 160 233T202 153T270 101T363 83Q415 83 455 101T522 152T564 232T578 336ZM716 336Q716
257 690 192T616 80T505 7T363 -19Q286 -19 221 7T109 79T35 191T8 336Q8 415 34 480T108 592T220 665T362 691Q438 691 503 665T615 592T689 480T716 336ZM222 296L234 398H490L504 296H222Z" />
<glyph unicode="&#x399;" glyph-name="u0399" horiz-adv-x="334" d="M313 0H26L12 102H102V574H12L26 676H313L322 574H232V102H322L313 0Z" />
<glyph unicode="&#x39a;" glyph-name="u039A" horiz-adv-x="647" d="M472 0L176 306L143 277V0H15V676H143V413L438 676H583V662L265 384L642 0H472Z" />
<glyph unicode="&#x39b;" glyph-name="u039B" horiz-adv-x="628" d="M497 0L314 468L131 0H1L300 690H328L627 0H497Z" />
<glyph unicode="&#x39c;" glyph-name="u039C" horiz-adv-x="783" d="M640 0V467L405 0H378L143 467V0H15V676H176L390 236H393L607 676H768V0H640Z" />
<glyph unicode="&#x39d;" glyph-name="u039D" horiz-adv-x="594" d="M474 2L143 502V0H15V676H172L451 252V676H579V-18L474 2Z" />
<glyph unicode="&#x39e;" glyph-name="u039E" horiz-adv-x="582" d="M564 0H18L6 102H576L564 0ZM108 299V401H474V299H108ZM29 584L42 676H540L553 584H29Z" />
<glyph unicode="&#x39f;" glyph-name="u039F" horiz-adv-x="723" d="M577 337Q577 394 563 440T522 520T454 571T361 590Q309 590 269 572T201 520T159 441T145 337Q145 280 159 234T201 154T269 102T362 84Q414 84 454 102T521 153T563 233T577 337ZM715 337Q715
258 689 193T615 81T504 8T362 -18Q285 -18 220 8T108 80T34 192T7 337Q7 416 33 481T107 593T219 666T361 692Q437 692 502 666T614 593T688 481T715 337Z" />
<glyph unicode="&#x3a0;" glyph-name="u03A0" horiz-adv-x="585" d="M440 0V574H145V0H15V676H570V0H440Z" />
<glyph unicode="&#x3a1;" glyph-name="u03A1" horiz-adv-x="504" d="M216 380Q301 380 336 405T372 482Q372 527 335 550T210 574H145V380H216ZM224 676Q365 676 434 626T504 481Q504 436 486 399T435 334T355 293T248 278H145V0H15V676H224Z" />
<glyph unicode="&#x3a3;" glyph-name="u03A3" horiz-adv-x="623" d="M599 0H13V16L294 346L10 660V676H572V574H242L447 348L237 102H614L599 0Z" />
<glyph unicode="&#x3a4;" glyph-name="u03A4" horiz-adv-x="616" d="M374 574V0H244V574H1L15 676H604L614 574H374Z" />
<glyph unicode="&#x3a5;" glyph-name="u03A5" horiz-adv-x="710" d="M676 577Q640 589 624 589Q608 589 584 583T532 546T475 454T420 282V0H290V282Q264 392 235 454T178 546T126 582T86 589Q74 589 33 578L1 675Q27 683 46 687T89 691Q109 691 146 682T223 645T299
567T354 433Q375 515 411 565T487 644T563 681T621 691Q644 691 663 687T709 675L676 577Z" />
<glyph unicode="&#x3a6;" glyph-name="u03A6" horiz-adv-x="754" d="M313 472Q264 469 231 457T178 427T149 385T140 339Q140 315 148 292T177 250T231 217T313 201V472ZM441 201Q489 204 522 217T576 249T605 292T614 339Q614 362 605 385T576 426T523 457T441
472V201ZM442 574Q499 572 555 557T654 512T725 440T752 339Q752 281 725 237T655 163T555 117T442 99V0H312V99Q254 101 198 117T99 163T29 237T2 339Q2 396 28 439T98 512T198 556T312 574V676H442V574Z" />
<glyph unicode="&#x3a7;" glyph-name="u03A7" horiz-adv-x="679" d="M516 0L337 239L164 0H10L259 343L11 676H165L335 448L501 676H655L413 343L670 0H516Z" />
<glyph unicode="&#x3a8;" glyph-name="u03A8" horiz-adv-x="780" d="M747 589Q728 586 718 573T704 541T698 504T697 468Q697 418 676 380T621 316T543 276T455 259V0H325V259Q281 262 238 276T160 318T104 383T83 472Q83 488 82 507T77 543T62 573T33 589L2 691H41Q75
691 106 681T161 646T199 580T213 479Q213 431 242 400T325 362V676H455V362Q508 368 537 399T567 479Q567 539 581 580T619 645T674 680T739 691H778L747 589Z" />
<glyph unicode="&#x3a9;" glyph-name="u03A9" horiz-adv-x="706" d="M682 0H387L398 207Q429 214 458 229T510 267T547 322T561 397Q561 441 546 476T502 537T436 575T353 589Q306 589 268 573T203 529T160 468T145 397Q145 355 158 324T193 269T244 231T308 206L319
0H24L9 102H211L207 131Q175 139 142 160T81 213T35 288T17 385Q17 440 38 495T102 593T207 664T353 691Q434 691 496 665T601 595T666 497T689 385Q689 331 671 288T625 213T564 160T499 131L495 102H697L682 0Z" />
<glyph unicode="&#x3b1;" glyph-name="u03B1" horiz-adv-x="608" d="M352 209Q344 288 313 333T238 378Q213 378 194 366T162 334T141 288T134 232Q134 200 141 173T161 125T194 93T239 81Q262 81 280 93T313 124T336 165T352 209ZM482 216Q487 202 491 189T502
161Q508 147 515 133T534 108T560 89T594 81V65L559 -14Q539 -14 516 -13T472 -1Q452 8 436 26T407 77H405Q393 60 379 44T341 13Q321 0 293 -7T226 -14Q179 -14 139 4T70 55T25 131T9 227Q9 271 25 315T71 394T144 451T244 473Q311 473 353 446T425 375L469 461H598L482
216Z" />
<glyph unicode="&#x3b2;" glyph-name="u03B2" horiz-adv-x="459" d="M146 150Q167 115 186 98T238 81Q253 81 270 91T301 120T324 167T333 231Q333 277 323 302T293 340T246 356T185 359V375L227 454Q266 454 282 474T298 530Q298 542 295 553T285 575T266 591T237
597Q210 597 193 584T165 549T150 499T146 442V150ZM345 415Q371 409 392 392T427 353T450 303T458 248Q458 188 439 132T383 38Q354 10 316 -2T243 -14Q214 -14 192 -5T146 24V-111Q146 -172 129 -205H10Q18 -188 22 -165T26 -117V410Q26 462 35 512T69 603T136
667T244 692Q275 692 305 682T360 652T398 603T413 538Q413 493 395 463T343 416L345 415Z" />
<glyph unicode="&#x3b3;" glyph-name="u03B3" horiz-adv-x="469" d="M294 50V-195L281 -205L174 -181Q175 -158 176 -130T179 -72T181 -12T182 46Q182 149 149 244Q142 263 130 286T98 330T55 364T1 378V394L51 473Q91 473 126 447T189 382T233 296T253 208H255L338
461H468L294 50Z" />
<glyph unicode="&#x3b4;" glyph-name="u03B4" horiz-adv-x="464" d="M333 208Q333 267 313 301T249 354Q192 351 162 311T131 208Q131 184 138 161T159 120T190 92T231 81Q257 81 276 92T308 120T327 161T333 208ZM344 539Q334 549 323 559T298 577T269 591T237
597Q219 597 201 586T182 551Q182 532 205 513T273 471Q314 451 348 428T406 375T444 305T458 213Q458 174 445 134T404 61T333 7T232 -14Q173 -14 131 7T61 60T20 133T6 213Q6 287 40 343T143 428Q106 448 84 478T62 551Q62 588 77 614T116 658T173 683T241 692Q266
692 290 689T336 678T378 656T415 618L361 539H344Z" />
<glyph unicode="&#x3b5;" glyph-name="u03B5" horiz-adv-x="423" d="M417 79Q394 46 370 28T320 0T266 -11T205 -14Q146 -14 107 0T43 39Q25 58 17 81T8 130Q8 161 26 192T88 239V242Q62 256 45 279T28 332Q28 367 44 393T89 437T152 464T225 473Q289 473 334
455T403 383L350 322H334Q323 339 313 350T292 367T266 375T231 378Q195 378 172 367T148 334Q148 313 165 303T220 293H277L317 211L306 198H210Q170 198 152 181T133 143Q133 120 156 101T222 81Q264 81 300 95T356 140H372L417 79Z" />
<glyph unicode="&#x3b6;" glyph-name="u03B6" horiz-adv-x="466" d="M312 81Q336 81 363 75T412 53T448 14T463 -46Q463 -82 451 -111T417 -161T364 -193T295 -205Q276 -205 255 -201T219 -184V-86H235Q253 -103 268 -106T296 -110Q328 -110 348 -100T368 -60Q368
-46 361 -37T343 -23T317 -16T289 -14H199Q187 -14 171 -12T137 -6T103 6T73 24Q44 50 24 96T3 214Q3 294 34 369T126 501V504Q95 524 79 550T62 611Q62 628 67 651T86 692H102L178 675Q172 662 168 649T164 621Q164 604 171 590T197 568Q221 582 239 592T275 609T312
622T359 634H376L393 539Q345 534 297 510T211 447Q176 412 152 354T128 228Q128 202 133 178T152 132Q170 104 194 93T256 81H312Z" />
<glyph unicode="&#x3b7;" glyph-name="u03B7" horiz-adv-x="450" d="M313 -205Q304 -187 303 -165T301 -110V309Q301 349 282 363T236 378Q226 378 214 374T188 359T162 333T141 293V0H21V349Q21 376 16 397T1 438L102 473H111Q117 466 124 451T137 411H139Q168
441 199 457T272 473Q347 473 384 434T421 321V-116Q421 -141 425 -164T440 -205H313Z" />
<glyph unicode="&#x3b8;" glyph-name="u03B8" horiz-adv-x="468" d="M132 293Q132 249 139 211T160 143T192 98T234 81Q257 81 275 98T307 144T328 211T336 293H132ZM336 388Q336 427 329 464T308 531T275 577T234 595Q209 595 190 578T158 531T139 465T132 388H336ZM461
341Q461 278 446 215T403 100T332 18T234 -14Q179 -14 137 17T66 100T22 214T7 341Q7 404 22 467T65 580T136 661T234 692Q289 692 331 661T402 580T446 467T461 341Z" />
<glyph unicode="&#x3b9;" glyph-name="u03B9" horiz-adv-x="256" d="M242 8Q203 -14 152 -14Q121 -14 96 -7T51 18Q34 35 24 60T13 116V461H133V163Q133 137 137 121T149 96T165 84T186 81Q214 81 240 108H256L242 8Z" />
<glyph unicode="&#x3ba;" glyph-name="u03BA" horiz-adv-x="481" d="M317 0L154 187L135 167V0H15V461H135V298H137Q160 325 189 353T255 407T333 450T423 473L461 394V378Q417 374 386 365T329 341T283 307T237 266L472 0H317Z" />
<glyph unicode="&#x3bb;" glyph-name="u03BB" horiz-adv-x="507" d="M461 -14Q436 -14 412 -8T366 17T325 70T290 161L254 298L136 0H5L211 459Q200 504 184 531T147 573T103 592T54 597V613L104 692Q135 692 164 682T218 648T266 582T308 478L384 222Q395 184
406 157T432 113T464 89T507 81V65L461 -14Z" />
<glyph unicode="&#x3bc;" glyph-name="u03BC" horiz-adv-x="491" d="M456 -14Q436 -14 416 -12T376 -2T342 19T320 56H318Q301 21 273 4T218 -14Q195 -14 179 -11T147 10H145V-111Q145 -172 128 -205H13Q20 -188 24 -165T29 -117V461H149V149Q149 110 169 96T215
81Q242 81 268 101T309 164V461H429V155Q429 140 431 127T439 103T458 87T491 81V65L456 -14Z" />
<glyph unicode="&#x3bd;" glyph-name="u03BD" horiz-adv-x="435" d="M415 473Q432 442 432 364Q432 298 400 231T314 109T189 21T41 -14H15V461H135V130H137Q174 142 205 166T259 221T294 290T307 367Q307 387 305 406T294 443L299 453L415 473Z" />
<glyph unicode="&#x3be;" glyph-name="u03BE" horiz-adv-x="465" d="M311 81Q335 81 362 75T411 53T447 14T462 -46Q462 -82 450 -111T416 -161T363 -193T294 -205Q275 -205 254 -201T218 -184V-86H234Q252 -103 267 -106T295 -110Q327 -110 347 -100T367 -60Q367
-46 360 -37T342 -23T316 -16T288 -14H199Q158 -14 122 -1T59 35T17 92T1 168Q1 231 35 285T138 374V377Q107 391 93 412T79 465Q79 516 123 554Q101 569 89 584T77 630Q77 647 82 661T100 692H116L193 675Q185 665 182 658T179 640Q179 631 185 621T207 602Q242
616 276 625T350 634L361 631L369 539Q335 539 305 534T251 518T213 493T199 459Q199 429 235 418Q274 432 315 435T393 439L401 434L393 344Q340 344 292 333T207 300T148 248T126 181Q126 81 250 81H311Z" />
<glyph unicode="&#x3bf;" glyph-name="u03BF" horiz-adv-x="466" d="M333 232Q333 300 307 339T229 378Q203 378 185 366T155 334T138 288T132 232Q132 200 138 173T156 125T188 93T232 81Q261 81 280 96T311 133T328 182T333 232ZM458 229Q458 176 441 132T394
55T322 4T232 -14Q185 -14 144 4T73 54T25 130T7 228Q7 283 24 328T72 405T144 455T236 473Q283 473 323 455T394 405T441 327T458 229Z" />
<glyph unicode="&#x3c0;" glyph-name="u03C0" horiz-adv-x="581" d="M470 366Q468 349 466 328T462 283T459 236T458 191Q458 165 461 146T475 114T505 93T554 81V64L514 -14Q485 -14 453 -9T395 12T351 61T333 150Q333 173 335 205T340 268T345 327T350 366H274Q274
278 270 209T246 92T188 17T76 -14L63 81Q94 90 112 98T140 132T151 209T154 354Q141 354 122 337T92 280L7 318Q32 395 79 428T196 461H569V366H470Z" />
<glyph unicode="&#x3c1;" glyph-name="u03C1" horiz-adv-x="458" d="M332 230Q332 378 243 378Q230 378 217 374T191 360T169 332T153 286Q147 261 146 228T145 150Q166 115 185 98T237 81Q261 81 278 93T308 127T326 174T332 230ZM25 125Q25 167 26 201T32 265T46
322T71 377Q90 410 113 429T160 457T209 470T253 473Q298 473 335 457T400 410T442 339T457 247Q457 181 438 127T382 37Q355 11 319 -1T243 -14Q214 -14 191 -4T145 27V-111Q145 -172 128 -205H9Q17 -188 21 -165T25 -117V125Z" />
<glyph unicode="&#x3c2;" glyph-name="u03C2" horiz-adv-x="471" d="M311 81Q335 81 362 75T411 53T447 14T462 -46Q462 -82 450 -111T416 -161T363 -193T294 -205Q275 -205 254 -201T218 -184V-86H234Q252 -103 267 -106T295 -110Q327 -110 347 -100T367 -60Q367
-46 360 -37T342 -23T316 -16T288 -14H208Q165 -14 128 1T62 45T18 112T2 198Q2 257 22 307T79 394T164 452T273 473Q300 473 329 467T383 449T428 416T455 368L383 311H366Q360 333 349 346T325 366T297 375T271 378Q236 378 209 365T164 331T137 283T127 226Q127
204 130 179T148 132Q166 104 196 93T255 81H311Z" />
<glyph unicode="&#x3c3;" glyph-name="u03C3" horiz-adv-x="539" d="M333 210Q333 242 323 267T298 312T264 344T230 366Q184 366 159 328T133 229Q133 198 139 171T158 124T190 93T235 81Q261 81 279 93T310 125T327 167T333 210ZM370 366V364Q412 331 435 287T458
199Q458 169 445 132T404 63T334 8T235 -14Q187 -14 146 3T74 53T26 128T8 225Q8 290 31 335T88 408T161 448T234 461H535V366H370Z" />
<glyph unicode="&#x3c4;" glyph-name="u03C4" horiz-adv-x="474" d="M313 366Q311 349 309 328T305 283T302 236T301 191Q301 139 324 114T408 81V64L368 -14Q339 -14 306 -9T244 12T196 61T176 150Q176 173 178 204T184 266T191 324T197 366Q170 366 151 358T119
335T98 303T85 265L0 303Q12 341 27 370T62 420T108 450T169 461H466V366H313Z" />
<glyph unicode="&#x3c5;" glyph-name="u03C5" horiz-adv-x="471" d="M221 473Q270 473 314 459T391 415T443 339T463 229Q463 176 446 132T398 55T326 4T237 -14Q134 -14 82 36T29 177V324Q29 340 29 357T26 389T19 417T9 437L111 473H127Q133 462 141 443T149
400V207Q149 184 153 162T168 121T196 92T239 81Q266 81 284 95T315 131T332 178T338 223Q338 268 329 298T304 346T267 371T221 378V473Z" />
<glyph unicode="&#x3c6;" glyph-name="u03C6" horiz-adv-x="592" d="M355 81Q407 81 435 118T463 231Q463 306 452 342T404 378Q386 378 376 365T362 329T356 276T355 212V81ZM237 183Q237 237 240 289T258 382T308 448T404 473Q434 473 466 457T526 410T570 332T588
224Q588 180 576 137T535 61T463 7T356 -14V-205H236V-14Q173 -14 129 6T57 60T17 136T4 224Q4 258 13 295T38 366T79 424T134 461L203 403V391Q178 378 164 357T142 314T132 270T129 233Q129 155 156 118T237 81V183Z" />
<glyph unicode="&#x3c7;" glyph-name="u03C7" horiz-adv-x="557" d="M336 121Q338 83 347 44T376 -28T424 -83T497 -110V-126L449 -205Q407 -205 375 -185T319 -134T280 -66T256 4L255 8L145 -195H7L217 138Q215 178 206 219T177 295T125 352T44 378V394L94 473Q135
473 168 456T226 410T269 341T298 257L299 253L413 461H551L336 121Z" />
<glyph unicode="&#x3c8;" glyph-name="u03C8" horiz-adv-x="678" d="M654 378Q643 374 634 365T619 338T609 293T605 226Q605 176 595 135T560 64T496 13T399 -14V-205H279V-14Q222 -7 183 12T119 63T84 135T73 226Q73 266 70 293T60 338T44 365T24 378L2 473Q47
473 83 458T145 417T184 354T198 275Q198 222 200 187T211 131T236 98T279 81V461H399V81Q424 88 440 99T465 131T477 187T480 275Q480 317 493 353T532 416T594 458T676 473L654 378Z" />
<glyph unicode="&#x3c9;" glyph-name="u03C9" horiz-adv-x="669" d="M505 461Q541 451 569 427T617 369T647 297T658 220Q658 151 639 104T588 27Q563 5 533 -4T471 -14Q428 -14 391 7T335 69H333Q316 28 279 7T198 -14Q165 -14 133 -4T78 29Q46 58 29 104T11
220Q11 258 21 297T51 369T99 426T162 461L245 410V394Q215 382 194 363T161 319T142 268T136 214Q136 187 139 163T149 121T168 92T198 81Q214 81 227 88T251 113T267 158T273 226V318L380 347L393 337V226Q393 146 416 114T471 81Q488 81 500 91T519 120T530
163T533 214Q533 241 528 268T509 319T475 362T424 394V410L505 461Z" />
<glyph unicode="&#x3d1;" glyph-name="u03D1" horiz-adv-x="496" d="M321 431Q318 511 294 553T233 596Q217 596 207 586T196 548Q196 534 204 517T229 483T268 452T321 431ZM492 285Q474 285 449 290V259Q449 192 433 141T388 56T319 4T231 -14Q129 -14 77 36T25
177V242Q25 274 22 302T5 345L107 381H123Q129 370 137 351T145 308V207Q145 184 149 162T163 121T190 92T233 81Q260 81 277 96T305 135T320 190T324 253Q324 274 324 288T323 321Q280 335 240 355T169 404T120 471T101 558Q101 594 113 619T144 661T187 684T234
692Q274 692 308 674T370 619T415 524T442 389Q466 383 492 380V285Z" />
<glyph unicode="&#x3d5;" glyph-name="u03D5" horiz-adv-x="586" d="M234 378Q189 378 158 344T126 231Q126 152 153 117T234 81V378ZM352 81Q403 81 431 116T460 231Q460 310 429 344T352 378V81ZM353 473Q418 473 462 453T534 399T573 321T585 229Q585 181 572
137T532 60T460 6T353 -14V-205H233V-14Q170 -14 126 6T55 59T14 137T1 229Q1 277 12 321T51 399T122 453T233 473V692H353V473Z" />
<glyph unicode="&#x3d6;" glyph-name="u03D6" horiz-adv-x="847" d="M520 226Q520 146 543 114T598 81Q615 81 627 91T646 120T657 163T660 214Q660 256 646 296T598 366H325Q291 337 277 297T263 214Q263 187 267 163T278 121T297 92T325 81Q341 81 354 88T378
113T394 158T400 226V288L507 317L520 307V226ZM746 366Q765 333 775 296T785 220Q785 151 767 103T715 27Q665 -14 598 -14Q555 -14 519 6T462 69H460Q440 27 404 7T325 -14Q292 -14 260 -4T205 29Q173 58 156 104T138 213Q138 250 150 292T183 365Q160 363 145
354T119 331T102 300T90 265L5 303Q17 341 32 370T67 420T113 450T174 461H838V366H746Z" />
<glyph unicode="&#x3f0;" glyph-name="u03F0" horiz-adv-x="561" d="M550 -3Q531 -8 511 -11T479 -14Q421 -14 381 33T332 188L107 -14L10 77L131 185V197Q131 298 112 338Q92 377 44 377Q35 377 23 374V462Q62 473 84 473Q144 473 176 423T211 258L451 473L548
382L412 260Q412 224 418 192T439 135T475 97T529 82Q538 82 550 85V-3Z" />
<glyph unicode="&#x3f1;" glyph-name="u03F1" horiz-adv-x="455" d="M325 232Q325 300 302 339T226 378Q200 378 182 365T153 329T137 279T131 222Q131 159 154 120T229 81Q258 81 277 96T306 133T321 182T325 232ZM263 -205Q258 -192 245 -185T210 -168T162 -143T103
-97Q76 -72 58 -39T28 31T11 106T6 182Q6 248 21 307T78 409Q108 439 147 456T233 473Q280 473 320 455T389 405T434 327T450 229Q450 176 434 132T388 55T318 4T229 -14Q201 -14 182 -7T139 19L136 17Q146 -10 166 -26T211 -53T262 -73T309 -95T344 -128T358 -181L280
-205H263Z" />
<glyph unicode="&#x3f4;" glyph-name="u03F4" horiz-adv-x="724" d="M148 296Q157 198 211 141T363 83Q458 83 512 140T576 296H148ZM573 398Q559 486 506 537T362 589Q272 589 218 538T150 398H573ZM716 336Q716 257 690 192T616 80T505 7T363 -19Q286 -19 221
7T109 79T35 191T8 336Q8 415 34 480T108 592T220 665T362 691Q438 691 503 665T615 592T689 480T716 336Z" />
<glyph unicode="&#x2202;" glyph-name="u2202" horiz-adv-x="462" d="M331 232Q331 300 305 339T227 378Q201 378 183 366T153 334T136 288T130 232Q130 200 136 173T154 125T186 93T230 81Q259 81 278 96T309 133T326 182T331 232ZM113 691Q212 685 277 650T383
558T439 429T456 277Q456 211 441 152T384 50Q354 20 316 3T230 -14Q183 -14 142 4T71 54T23 130T5 228Q5 281 21 326T68 403T139 454T228 473Q256 473 275 466T318 440L321 442Q292 523 234 559T99 596L83 608L113 691Z" />
<glyph unicode="&#x2207;" glyph-name="u2207" horiz-adv-x="642" d="M174 560L321 199L468 560H174ZM335 -30H307L1 664H641L335 -30Z" />
<glyph unicode="&#x220a;" glyph-name="u220A" horiz-adv-x="427" d="M422 80Q399 53 379 35T337 6T289 -9T227 -14Q179 -14 139 3T70 52T24 127T7 221Q7 278 25 324T75 404T149 455T238 473Q270 473 306 468T368 443V319H352Q339 341 325 353T295 370T266 377T239
378Q224 378 207 373T176 358T150 330T134 290H283V195H133Q138 147 169 118T247 88Q279 88 306 100T355 145L422 80Z" />
</font>
</defs>
</svg>
