<?xml version="1.0" standalone="no"?> <!DOCTYPE svg PUBLIC "-//W3C//DTD SVG 1.0//EN" "http://www.w3.org/TR/2001/REC-SVG-20010904/DTD/svg10.dtd" > <svg xmlns="http://www.w3.org/2000/svg" width="100%" height="100%">
<defs >
<font horiz-adv-x="464" ><font-face
    font-family="STIXGeneralRegular"
    units-per-em="1000"
    panose-1="0 0 0 0 0 0 0 0 0 0"
    ascent="1055"
    descent="-455"
    alphabetic="0" />
<missing-glyph horiz-adv-x="250" />
<glyph unicode=" " glyph-name="space" horiz-adv-x="250" />
<glyph unicode="!" glyph-name="exclam" horiz-adv-x="132" d="M16 557Q14 572 14 582T13 600Q13 632 25 654T66 676Q92 676 105 654T119 595Q119 586 119 576T117 557L72 176H58L16 557ZM119 42Q119 20 104 6T65 -9Q42 -9 28 5T13 43Q13 66 28 81T66 97Q88 97
103 81T119 42Z" />
<glyph unicode="&quot;" glyph-name="quotedbl" horiz-adv-x="282" d="M215 431Q208 468 203 501T193 562T186 608T183 633Q183 652 195 664T226 676Q244 676 256 664T268 635Q268 612 258 559T236 431H215ZM46 431Q39 468 34 501T24 562T17 608T14 633Q14 653
26 664T57 676Q75 676 87 665T99 635Q99 612 91 558T67 431H46Z" />
<glyph unicode="#" glyph-name="numbersign" horiz-adv-x="503" d="M392 405L372 271H471V216H363L332 0H274L305 216H171L138 0H80L113 216H7V271H122L143 405H34V460H151L182 662H240L209 460H342L372 662H430L400 460H496V405H392ZM201 405L180 271H314L334 405H201Z" />
<glyph unicode="$" glyph-name="dollar" horiz-adv-x="429" d="M228 391Q273 367 302 349T349 317T379 289T401 260Q422 228 422 170Q422 126 408 97T369 48T307 17T228 0V-87H194V0Q161 0 136 3T89 12T48 27T8 51V181H23Q39 106 83 67T194 28V310Q142 339 108
362T54 409T25 456T16 513Q16 550 30 577T70 623T127 652T194 664V727H228V664Q289 660 327 647T389 611V500H374Q359 563 324 596T228 637V391ZM194 637Q140 626 115 598T90 532Q90 515 94 502T110 474T142 444T194 407V637ZM228 28Q289 41 315 67T342 147Q342
170 337 188T319 222T284 256T228 293V28Z" />
<glyph unicode="%" glyph-name="percent" horiz-adv-x="646" d="M634 213Q634 168 621 126T585 52T532 0T470 -19Q444 -19 422 -9T384 20T359 64T349 119Q349 159 365 197T407 264T468 312T538 330Q584 330 609 300T634 213ZM611 215Q611 254 594 278T548 302Q536
302 522 296T499 279Q482 261 468 237T444 186T427 130T421 76Q421 47 437 28T477 8Q503 8 527 25T570 72T600 138T611 215ZM139 -18H92L486 640Q458 608 432 596T365 583Q345 583 329 586T289 597Q291 584 292 575T293 553Q293 500 271 449T213 363Q193 343 173
335T127 326Q102 326 81 336T43 365T18 409T9 463Q9 505 25 544T67 612T129 658T202 676Q218 676 230 671T262 648Q288 626 309 618T358 609Q381 609 397 611T430 624T468 653T525 706H569L139 -18ZM269 569Q269 591 265 599T244 615Q233 620 223 627T200 649Q185
641 175 635T156 623T142 607T128 586Q105 549 93 507T80 423Q80 391 95 372T137 353Q164 353 188 370T230 418T258 487T269 569Z" />
<glyph unicode="&amp;" glyph-name="ampersand" horiz-adv-x="725" d="M718 100Q696 45 657 16T567 -13Q523 -13 484 8T397 78Q369 53 343 36T291 8T238 -8T181 -13Q100 -13 55 24T10 137Q10 198 50 254T167 355L205 377Q194 402 188 422T177 460T172 493T170
526Q170 560 182 587T214 634T262 665T322 676Q382 676 420 644T459 552Q459 525 451 503T425 460T378 422T304 384Q319 351 334 324T364 272T397 225T436 178Q460 210 477 236T506 283T523 322T528 358Q528 381 515 391T463 405V426H679V405Q660 405 647 402T623
391T603 372T585 346Q568 319 554 295T526 248T496 202T459 150Q494 104 529 81T611 58Q640 58 659 69T703 111L718 100ZM406 556Q406 593 385 618T328 644Q293 644 271 622T249 561Q249 542 250 526T256 493T269 458T289 416Q354 445 380 478T406 556ZM372 104Q350
129 331 154T294 206T258 267T220 343Q187 322 165 303T128 263T108 222T102 174Q102 110 137 75T226 40Q258 40 292 54T372 104Z" />
<glyph unicode="&apos;" glyph-name="quotesingle" horiz-adv-x="105" d="M42 431Q28 505 19 559T10 634Q10 653 22 664T53 676Q73 676 84 665T95 636Q95 613 87 560T63 431H42Z" />
<glyph unicode="(" glyph-name="parenleft" horiz-adv-x="268" d="M249 -177Q190 -143 145 -96T68 7T21 126T5 252Q5 392 68 498T252 676L261 660Q209 615 176 574T124 486T98 383T91 255Q91 185 98 128T123 22T175 -72T261 -161L249 -177Z" />
<glyph unicode=")" glyph-name="parenright" horiz-adv-x="268" d="M19 676Q76 641 121 594T198 491T246 373T263 247Q263 107 200 2T16 -177L7 -161Q60 -117 93 -76T145 12T170 115T177 244Q177 314 171 372T147 479T95 573T7 660L19 676Z" />
<glyph unicode="*" glyph-name="asterisk" horiz-adv-x="375" d="M214 465Q234 451 258 444T310 431Q343 426 356 417T370 388Q370 371 360 360T334 349Q320 349 307 359T274 393Q254 418 237 429T205 451L197 456V447Q197 391 217 337Q221 326 223 318T226 304Q226
289 214 277T186 265Q172 265 161 276T150 301Q150 310 153 322T162 348Q171 372 174 393T178 447V456Q152 439 143 433T126 420Q122 416 120 414T113 407T103 395T85 375Q72 361 63 356T42 350Q25 350 15 360T5 386Q5 406 19 415T68 431Q85 434 97 437T121 445T144
455T171 471Q142 488 121 495T74 508Q37 516 22 525T7 554Q7 570 16 580T40 591Q52 591 62 584T89 559Q101 545 111 535T131 517T152 502T178 486V499Q178 540 163 590Q152 623 152 642Q152 656 162 666T188 676Q203 676 214 666T225 640Q225 624 214 593Q205 569
201 549T197 510V486Q218 498 229 506T255 528Q264 537 274 548T294 569T314 586T332 593Q349 593 359 583T369 555Q369 535 358 526T317 512Q300 509 288 507T263 500T237 488T205 471L214 465Z" />
<glyph unicode="+" glyph-name="plus" horiz-adv-x="590" d="M328 220V-41H262V220H1V286H262V547H328V286H589V220H328Z" />
<glyph unicode="," glyph-name="comma" horiz-adv-x="159" d="M29 -122Q112 -66 112 -15Q112 -2 98 -2Q92 -2 85 -4T69 -6Q11 -6 11 45Q11 71 27 86T71 102Q105 102 128 78T151 15Q151 -30 121 -73T39 -141L29 -122Z" />
<glyph unicode="-" glyph-name="hyphen" horiz-adv-x="281" d="M17 194V257H263V194H17Z" />
<glyph unicode="." glyph-name="period" horiz-adv-x="135" d="M123 43Q123 21 107 5T67 -11Q44 -11 28 5T12 44Q12 67 28 83T68 100Q90 100 106 83T123 43Z" />
<glyph unicode="/" glyph-name="slash" horiz-adv-x="300" d="M70 -14H2L231 676H298L70 -14Z" />
<glyph unicode="0" glyph-name="zero" horiz-adv-x="476" d="M464 330Q464 265 452 204T412 94T342 16T238 -14Q174 -14 131 17T61 99T24 212T12 336Q12 402 25 463T67 572T138 648T242 676Q291 676 332 651T402 580T447 471T464 330ZM368 325Q368 482 335 566T236
650Q173 650 141 566T108 329Q108 176 140 94T238 12Q302 12 335 94T368 325Z" />
<glyph unicode="1" glyph-name="one" horiz-adv-x="292" d="M12 0V15Q67 18 87 36T107 95V544Q107 593 77 593Q69 593 58 590T32 581L5 571V585L184 676L193 673V76Q193 44 212 30T288 15V0H12Z" />
<glyph unicode="2" glyph-name="two" horiz-adv-x="466" d="M402 0H11V12L189 201Q224 238 249 271T289 336T312 398T319 461Q319 530 282 566T180 602Q153 602 133 596T95 574T63 534T33 472L12 477Q20 521 36 557T77 620T138 661T220 676Q262 676 296 663T355
625T392 569T405 500Q405 440 375 382T277 252L112 76H346Q362 76 374 78T397 88T419 109T442 143L456 137L402 0Z" />
<glyph unicode="3" glyph-name="three" horiz-adv-x="411" d="M14 514Q25 550 42 579T84 630T139 664T210 676Q280 676 323 639T366 539Q366 503 345 467T273 401Q306 387 323 376T356 348Q377 325 388 292T400 219Q400 179 388 144T354 79Q336 55 310 38T254
9T189 -8T122 -14Q67 -14 39 1T10 43Q10 59 22 69T51 79Q64 79 77 74T112 53Q140 33 158 28T198 22Q226 22 249 34T290 66T318 115T328 175Q328 290 224 320Q207 325 186 327T122 330V344Q178 363 206 380Q243 401 265 434T287 514Q287 565 258 590T179 616Q132
616 97 591T30 510L14 514Z" />
<glyph unicode="4" glyph-name="four" horiz-adv-x="470" d="M360 167V0H282V167H2V231L316 676H360V231H463V167H360ZM282 574L42 231H282V574Z" />
<glyph unicode="5" glyph-name="five" horiz-adv-x="425" d="M378 596Q376 591 370 587T351 583H157L117 498Q171 488 208 478T274 454T324 420T367 370Q387 343 394 313T402 243Q402 171 379 122T304 35Q269 9 227 -2T134 -14Q77 -14 42 2T7 48Q7 67 19 76T52
86Q69 86 85 81T126 55Q147 38 164 31T197 23Q223 23 247 37T290 75T320 129T332 192Q332 288 265 342Q230 371 177 391T52 412Q40 412 40 420V423Q40 424 41 425L150 662H357Q374 662 383 667T405 688L414 681L378 596Z" />
<glyph unicode="6" glyph-name="six" horiz-adv-x="453" d="M423 668Q364 658 314 634T226 573T163 488T127 383Q164 411 192 419T254 428Q342 428 392 372T443 219Q443 121 392 59Q364 24 324 5T233 -14Q173 -14 128 12T56 87Q35 125 22 175T9 279Q9 360 36 430T118
555Q150 589 182 611T250 647T327 670T421 684L423 668ZM353 188Q353 285 321 333T218 382Q197 382 176 377T139 359T112 323T102 266Q102 209 111 163T138 83T182 32T244 14Q271 14 291 27T325 63T346 118T353 188Z" />
<glyph unicode="7" glyph-name="seven" horiz-adv-x="441" d="M223 -8H158L356 588H141Q119 588 104 585T77 572T52 547T24 506L6 515L66 662H435V646L223 -8Z" />
<glyph unicode="8" glyph-name="eight" horiz-adv-x="414" d="M402 155Q402 77 349 32T205 -14Q163 -14 128 -2T67 32T27 84T13 149Q13 175 18 196T38 238T77 281T143 332Q104 364 80 388T43 433T24 475T19 520Q19 556 33 585T74 634T135 665T213 676Q250 676
281 665T334 634T368 588T381 533Q381 505 374 484T351 444T310 408T247 371Q293 340 323 314T370 263T395 211T402 155ZM312 533Q312 585 283 616T203 648Q152 648 123 622T93 549Q93 502 122 465T218 389Q269 419 290 452T312 533ZM169 312Q125 276 107 242T89
158Q89 89 124 52T216 14Q265 14 295 44T326 124Q326 171 303 204T228 272L169 312Z" />
<glyph unicode="9" glyph-name="nine" horiz-adv-x="448" d="M36 -2Q151 18 230 94T340 294Q308 262 272 250T190 237Q149 237 116 251T60 292T23 356T10 440Q10 491 26 534T69 608T135 658T218 676Q266 676 306 656T375 600Q405 562 422 510T439 394Q439 307
409 230T319 97Q287 68 258 49T196 16T126 -6T39 -22L36 -2ZM342 394Q342 648 210 648Q163 648 137 614Q129 604 123 589T112 554T105 515T102 474Q102 384 135 332T225 280Q241 280 261 284T300 298T330 321T342 355V394Z" />
<glyph unicode=":" glyph-name="colon" horiz-adv-x="139" d="M125 403Q125 380 109 364T70 348Q47 348 31 364T14 403Q14 427 30 443T70 459Q93 459 109 443T125 403ZM125 44Q125 21 109 5T70 -11Q47 -11 31 5T14 44Q14 68 30 84T70 100Q93 100 109 84T125 44Z" />
<glyph unicode=";" glyph-name="semicolon" horiz-adv-x="153" d="M119 403Q119 380 103 364T64 348Q41 348 25 364T8 403Q8 427 24 443T64 459Q87 459 103 443T119 403ZM25 -122Q108 -68 108 -16Q108 -11 104 -7T94 -2Q89 -2 81 -4T66 -6Q8 -6 8 46Q8 71 25 86T67
102Q101 102 124 78T147 13Q147 -35 118 -75T35 -141L25 -122Z" />
<glyph unicode="&lt;" glyph-name="less" horiz-adv-x="582" d="M0 249V259L565 534V469L133 254L565 39V-24L0 249Z" />
<glyph unicode="=" glyph-name="equal" horiz-adv-x="611" d="M17 320V386H606V320H17ZM17 120V186H606V120H17Z" />
<glyph unicode="&gt;" glyph-name="greater" horiz-adv-x="581" d="M16 -24V39L448 254L16 469V534L581 259V249L16 -24Z" />
<glyph unicode="?" glyph-name="question" horiz-adv-x="358" d="M165 164Q166 194 174 235T209 341Q229 389 244 436T260 528Q260 580 229 613T151 646Q133 646 116 641T86 627T65 607T57 584Q57 570 63 562T76 546T89 530T95 510Q95 491 84 479T54 467Q33 467
20 484T6 533Q6 564 18 590T52 636T104 665T170 676Q206 676 239 665T297 634T337 584T352 518Q352 495 348 476T332 435T300 386T247 321Q220 289 205 252T182 164H165ZM228 45Q228 23 214 8T176 -8Q150 -8 136 8T122 45Q122 68 137 83T176 98Q197 98 212 82T228
45Z" />
<glyph unicode="@" glyph-name="at" horiz-adv-x="716" d="M596 43Q561 26 533 16T479 -2T429 -11T378 -14Q300 -14 233 11T117 82T40 190T12 327Q12 413 51 486T153 607Q246 676 377 676Q446 676 506 654T610 592T680 499T705 383Q705 335 690 292T650 215T592
163T521 143Q488 143 462 163T432 216H430Q407 182 374 163T305 144Q268 144 243 174T217 256Q217 305 235 352T283 438Q309 473 340 490T411 508Q465 508 484 456H486L495 494H564L499 240Q498 236 498 232T497 223Q497 176 539 176Q564 176 586 192T626 236T654
299T665 373Q665 429 642 478T580 565T489 623T378 645Q306 645 251 615T158 530Q129 488 113 433T96 322Q96 257 117 203T175 109T266 47T383 25Q434 25 482 36T584 73L596 43ZM468 404Q468 464 422 464Q400 464 374 447T324 394Q307 369 298 338T288 274Q288
233 304 210T348 187Q368 187 388 202T424 245Q444 282 456 326T468 404Z" />
<glyph unicode="A" glyph-name="A" horiz-adv-x="702" d="M442 0V19Q469 19 478 21T497 28Q503 31 507 38T511 52Q511 63 506 82T492 122L451 216H189L143 102Q139 92 137 81T134 60Q134 37 151 28T204 19V0H5V19Q27 21 41 28T67 52T94 101T131 186L337 674H357L603
111Q613 87 622 70T641 43T664 27T697 19V0H442ZM321 532L206 257H437L321 532Z" />
<glyph unicode="B" glyph-name="B" horiz-adv-x="599" d="M416 348Q441 344 459 339T491 326T516 311T538 293Q562 271 574 241T587 178Q587 136 570 103T522 47T447 12T348 0H11V19Q41 20 59 24T88 38T103 66T107 113V550Q107 580 104 597T90 624T60 637T11 643V662H291Q422
662 487 619T553 495Q553 464 542 436T512 391Q494 375 475 367T416 349V348ZM301 366Q451 366 451 490Q451 553 408 589T274 625H233Q209 625 209 593V366H301ZM209 82Q209 56 222 47T271 37Q302 37 325 38T367 43T401 56T434 80Q472 113 472 179Q472 215 461
242T425 286Q402 301 383 308T339 319T284 323T209 326V82Z" />
<glyph unicode="C" glyph-name="C" horiz-adv-x="630" d="M617 113Q573 50 503 18T344 -14Q275 -14 214 9T108 75Q62 120 37 185T12 325Q12 400 35 462T102 572Q150 626 212 651T345 676Q374 676 404 673T464 661Q480 656 500 650T533 643Q547 643 558 651T575
676H595L604 449H581Q572 491 560 515T529 560Q496 595 457 615T368 636Q311 636 267 614T192 553T145 460T128 341Q128 258 146 199T200 102Q233 67 279 49T378 30Q412 30 440 36T493 54T544 85T598 131L617 113Z" />
<glyph unicode="D" glyph-name="D" horiz-adv-x="693" d="M282 662Q379 662 455 639T582 571Q681 486 681 334Q681 244 647 176T545 64Q498 34 434 17T293 0H12V19Q41 21 58 25T85 39T97 68T100 115V550Q100 580 97 597T85 624T58 637T12 643V662H282ZM202 84Q202
58 211 48T250 37Q289 37 319 39T375 48T423 64T468 89Q572 159 572 328Q572 406 549 460T477 556Q433 595 382 610T255 625Q226 625 214 617T202 583V84Z" />
<glyph unicode="E" glyph-name="E" horiz-adv-x="609" d="M550 0H11V19Q40 21 57 25T83 39T95 67T98 114V550Q98 578 95 595T83 623T56 637T11 643V662H541L545 519H520Q514 553 506 573T481 605T437 620T366 624H235Q214 624 207 618T200 588V368H351Q383 368
403 372T435 386T453 415T464 464H487V230H464Q459 261 453 280T435 310T403 323T351 327H200V84Q200 68 205 59T223 45T254 39T301 37H337Q391 37 427 42T489 63T533 103T568 169H596L550 0Z" />
<glyph unicode="F" glyph-name="F" horiz-adv-x="550" d="M520 519Q514 552 507 573T483 605T439 620T366 624H234Q212 624 206 616T200 585V368H342Q373 368 393 372T426 386T445 415T455 463H478V230H455Q452 261 446 280T428 309T395 323T342 327H200V112Q200
83 203 66T216 39T244 25T291 19V0H10V19Q38 21 55 25T82 40T95 70T98 123V551Q98 578 95 595T83 622T57 636T11 643V662H540L545 519H520Z" />
<glyph unicode="G" glyph-name="G" horiz-adv-x="698" d="M688 336Q666 334 653 331T632 319T621 295T618 256V56Q576 22 509 4T364 -14Q287 -14 216 13T94 93Q11 180 11 327Q11 410 39 477T118 590Q163 632 223 654T357 676Q398 676 427 670T490 653Q517 643
534 643Q550 643 562 652T579 676H601L609 465H586Q577 488 569 505T553 535T535 559T515 581Q486 608 449 622T369 636Q317 636 276 618T202 567Q162 527 144 463T125 324Q125 254 144 199T197 106T280 47T388 26Q446 26 483 44T521 87V244Q521 273 518 290T506
317T480 330T432 336V354H688V336Z" />
<glyph unicode="H" glyph-name="H" horiz-adv-x="708" d="M417 0V19Q446 21 463 26T490 42T502 72T505 124V315H202V113Q202 86 205 69T217 41T244 25T289 19L290 0H11V19Q40 21 57 25T84 40T97 70T100 122V548Q100 577 97 595T85 622T58 636T11 643V662H291V643Q264
641 247 637T219 623T206 595T202 548V359H505V548Q505 578 502 595T489 623T462 637T416 643V662H696V643Q668 641 651 637T624 622T611 595T607 548V111Q607 84 610 68T623 41T650 26T696 19V0H417Z" />
<glyph unicode="I" glyph-name="I" horiz-adv-x="309" d="M6 0V19Q37 20 56 24T86 37T99 65T103 112V551Q103 581 100 598T87 624T57 637T6 643V662H303V643Q271 641 252 638T223 624T209 597T205 551V112Q205 84 209 67T223 39T253 24T303 19V0H6Z" />
<glyph unicode="J" glyph-name="J" horiz-adv-x="372" d="M367 643Q337 641 319 637T291 623T278 596T275 549V185Q275 82 232 34T108 -14Q63 -14 35 4T7 58Q7 78 21 94T56 110Q88 110 105 68Q113 49 117 37T136 24Q159 24 166 40T173 94V550Q173 580 170 597T157
624T129 636T80 643V662H367V643Z" />
<glyph unicode="K" glyph-name="K" horiz-adv-x="710" d="M398 0V19L425 20Q467 21 467 44Q467 64 428 108T330 214L230 317L204 296V111Q204 82 207 65T221 39T248 25T293 19V0H11V19Q41 20 58 25T86 41T99 72T102 125V549Q102 577 99 594T87 622T60 636T12 643V662H294V643Q263
641 245 637T218 622T207 595T204 548V348L382 512Q418 546 439 569T460 611Q460 626 452 633T419 642L394 643V662H653V643Q627 641 610 638T576 626T541 602T497 562L311 384L545 128Q576 94 598 73T637 39T669 23T701 19V0H398Z" />
<glyph unicode="L" glyph-name="L" horiz-adv-x="600" d="M549 0H11V19Q39 20 56 24T82 39T95 68T98 115V546Q98 575 96 593T84 621T58 636T11 643V662H294V643Q263 641 245 637T216 623T203 595T200 548V84Q200 70 204 61T218 47T245 41T290 39H360Q421 39 462
53T529 100Q539 113 549 130T571 174H597L549 0Z" />
<glyph unicode="M" glyph-name="M" horiz-adv-x="876" d="M584 0V19Q614 21 631 25T658 41T671 72T674 123V572L419 0H405L153 549V151Q153 110 156 85T170 45T199 26T246 19V0H12V19Q43 21 62 26T91 45T105 84T109 151V549Q109 577 106 595T92 623T64 637T14
643V662H212L443 160L664 662H863V643Q836 643 819 639T793 625T780 596T776 550V112Q776 85 779 68T792 41T819 26T864 19V0H584Z" />
<glyph unicode="N" glyph-name="N" horiz-adv-x="715" d="M705 643Q676 640 663 637T639 625Q632 619 627 611T618 589T612 557T610 507V-11H592L151 538V150Q151 111 154 88T168 50T197 30T244 19V0H10V19Q41 22 60 28T89 47T103 85T107 150V590Q95 605 85 615T65
632T41 640T10 643V662H180L566 179V519Q566 557 562 580T547 617Q534 631 518 635T468 643V662H705V643Z" />
<glyph unicode="O" glyph-name="O" horiz-adv-x="676" d="M665 331Q665 254 641 191T574 82T470 11T338 -14Q265 -14 205 11T102 82T35 192T11 334Q11 410 34 473T101 581T204 651T338 676Q411 676 471 650T575 578T641 469T665 331ZM551 337Q551 423 527 490T460
593Q433 616 403 628T337 640Q296 640 260 624T194 573Q178 555 165 528T143 470T130 403T125 332Q125 242 147 176T215 67Q241 44 272 33T339 22Q377 22 409 33T468 70Q510 110 530 178T551 337Z" />
<glyph unicode="P" glyph-name="P" horiz-adv-x="541" d="M269 662Q344 662 398 645T486 599Q536 557 536 480Q536 400 479 349Q457 329 436 318T391 299T336 290T265 288Q245 288 231 288T196 291V112Q196 83 199 66T213 39T241 25T290 19V0H10V19Q39 21 56 25T81
40T92 70T94 122V551Q94 579 92 596T80 622T55 636T10 643V662H269ZM196 331Q213 329 227 329T257 328Q340 328 383 367T427 475Q427 557 380 591T231 625Q209 625 203 617T196 589V331Z" />
<glyph unicode="Q" glyph-name="Q" horiz-adv-x="685" d="M627 -177Q509 -177 420 -148T280 -53L239 -1Q210 9 188 19T147 40T113 66T84 100Q48 148 28 206T8 332Q8 411 33 475T101 583T205 652T335 676Q407 676 467 652T570 582T638 474T662 333Q662 243 636
180T554 64Q521 32 486 18T400 -7Q455 -85 522 -119T675 -159V-177H627ZM548 338Q548 425 524 492T457 595Q403 640 332 640Q291 640 254 622T188 569Q173 551 161 526T140 470T127 405T122 335Q122 263 136 202T180 100Q205 64 248 43T335 22Q382 22 419 42T484
94Q499 111 511 137T531 196T543 264T548 338Z" />
<glyph unicode="R" glyph-name="R" horiz-adv-x="661" d="M492 0L254 308L198 306V112Q198 83 201 66T213 39T240 25T287 19V0H11V19Q39 21 56 25T82 41T93 71T96 124V551Q96 579 94 596T83 622T57 636T11 643V662H283Q355 662 407 646T492 603Q517 583 529 550T541
483Q541 417 498 375T360 319L560 66Q571 52 581 44T601 30T624 23T654 19V0H492ZM198 343Q234 344 259 346T305 351T341 361T375 377Q402 392 417 422T432 491Q432 559 388 592T249 625Q223 625 211 617T198 583V343Z" />
<glyph unicode="S" glyph-name="S" horiz-adv-x="472" d="M413 463Q404 496 395 517T372 557Q346 591 309 613T227 635Q180 635 153 609T126 540Q126 514 139 493T176 452T233 412T305 369Q385 322 422 276T460 173Q460 131 445 97T402 38T337 0T256 -14Q191 -14
138 9Q124 15 112 17T91 20Q80 20 72 12T63 -13H41L12 199H34Q69 108 118 65T240 22Q293 22 326 53T359 134Q359 160 352 178T330 213Q317 227 298 242T257 272T211 301T162 329Q94 365 67 409T40 501Q40 542 53 574T90 629T145 664T214 676Q245 676 267 671T319
654Q346 642 363 642Q389 642 395 676H416L438 463H413Z" />
<glyph unicode="T" glyph-name="T" horiz-adv-x="592" d="M560 492Q552 533 542 558T515 597T472 615T406 620H347V111Q347 82 350 65T364 38T393 24T443 19V0H151V19Q182 21 200 25T229 40T242 70T245 123V620H185Q145 620 119 616T76 598T49 559T32 492H8L15
662H577L584 492H560Z" />
<glyph unicode="U" glyph-name="U" horiz-adv-x="709" d="M700 643Q668 640 650 633T622 612T609 575T606 516V261Q606 225 604 196T596 143T580 99T552 59Q488 -14 350 -14Q241 -14 180 32Q99 92 99 249V559Q99 584 96 599T84 624T57 637T9 643V662H292V643Q262
640 244 636T217 622T204 595T201 549V237Q201 208 202 185T207 142T221 106T245 75Q267 54 298 42T373 30Q421 30 461 45T525 89Q537 104 544 119T556 154T561 196T562 250V513Q562 552 559 576T545 614T517 635T468 643V662H700V643Z" />
<glyph unicode="V" glyph-name="V" horiz-adv-x="690" d="M685 643Q670 643 658 639T635 625T614 598T593 552L371 -11H356L112 533Q96 569 84 591T61 624T36 639T4 643V662H269V643L241 641Q217 639 207 632T196 610Q196 598 204 576T235 503L387 161L534 530Q553
577 553 602Q553 617 548 624T532 635T509 640T481 643V662H685V643Z" />
<glyph unicode="W" glyph-name="W" horiz-adv-x="942" d="M934 643Q914 639 902 635T880 624T865 604T851 573Q824 499 804 446T769 349T740 269T714 191T684 103T647 -11H632Q594 96 553 204T472 412L318 -11H303Q257 125 207 260T111 523Q99 559 88 582T66 618T40
637T7 643V662H251V643Q213 642 200 635T187 612Q187 595 198 565L342 189L446 472L418 547Q406 580 397 599T376 627T351 640T316 643V662H581V643Q504 641 504 608Q504 600 509 584T521 550L664 186L790 525Q807 573 807 602Q807 622 791 632T737 643V662H934V643Z"
/>
<glyph unicode="X" glyph-name="X" horiz-adv-x="715" d="M409 0V19L435 21Q485 24 485 50Q485 62 473 86T434 148L339 289L220 140Q192 105 180 84T167 51Q167 37 183 30T243 19V0H11V19Q30 21 44 25T74 41T108 75T156 133L312 328L206 483Q170 536 146 566T103
613T66 634T23 643V662H324V643L295 642Q274 641 262 636T249 613Q249 591 270 559T332 468L376 404L488 544Q511 572 519 586T528 611Q528 628 514 634T460 643V662H697V643Q673 641 655 637T621 621T587 592T545 544L402 367L594 93Q609 72 620 59T644 37T670
25T705 19V0H409Z" />
<glyph unicode="Y" glyph-name="Y" horiz-adv-x="691" d="M686 643Q664 641 648 636T616 618T585 584T548 531L400 303V111Q400 82 404 65T420 38T451 24T503 19V0H197V19Q230 21 250 25T280 39T294 70T298 123V294L167 486Q132 537 110 567T70 614T38 636T5 643V662H284V643L260
642Q213 641 213 616Q213 595 231 569L377 348L522 570Q530 581 533 592T536 612Q535 629 521 635T468 643V662H686V643Z" />
<glyph unicode="Z" glyph-name="Z" horiz-adv-x="614" d="M576 0H13V15L450 624H236Q182 624 151 616T102 589Q93 579 87 571T76 551T68 526T61 491H35L56 662H581V647L149 38H401Q443 38 471 45T518 66Q530 75 538 85T553 107T565 137T578 176H601L576 0Z" />
<glyph unicode="[" glyph-name="bracketleft" horiz-adv-x="227" d="M16 -156V662H227V637H144Q118 637 105 627T92 589V-77Q92 -107 105 -119T144 -131H227V-156H16Z" />
<glyph unicode="\" glyph-name="backslash" horiz-adv-x="300" d="M230 -14L2 676H69L298 -14H230Z" />
<glyph unicode="]" glyph-name="bracketright" horiz-adv-x="228" d="M0 -156V-131H88Q114 -131 124 -120T135 -85V583Q135 609 124 623T84 637H0V662H211V-156H0Z" />
<glyph unicode="^" glyph-name="asciicircum" horiz-adv-x="435" d="M360 297L217 586L74 297H6L187 662H247L428 297H360Z" />
<glyph unicode="_" glyph-name="underscore" horiz-adv-x="532" d="M16 -125V-75H516V-125H16Z" />
<glyph unicode="`" glyph-name="grave" horiz-adv-x="230" d="M188 507L34 603Q4 622 4 646Q4 662 13 670T40 678Q51 678 60 674T83 655L228 507H188Z" />
<glyph unicode="a" glyph-name="a" horiz-adv-x="426" d="M417 38Q394 9 374 0T327 -10Q299 -10 283 6T263 63H262Q222 18 186 4T117 -10Q70 -10 41 17T12 94Q12 133 32 162T82 211Q93 218 107 226T141 243T190 264T262 292V346Q262 393 240 414T184 436Q154 436
134 422T114 387Q114 373 117 367T120 345Q120 331 107 318T74 304Q58 304 45 317T31 350Q31 370 43 391T82 430Q103 444 133 452T197 460Q239 460 268 449T315 415Q324 404 329 394T338 372T342 343T343 304V113Q343 78 351 63T374 47Q386 47 395 51T417 66V38ZM262
268Q170 236 134 202Q100 171 100 125Q100 85 120 67T169 48Q184 48 199 52T227 64Q249 79 255 92T262 127V268Z" />
<glyph unicode="b" glyph-name="b" horiz-adv-x="479" d="M159 376Q175 414 211 437T294 460Q334 460 367 443T424 397T461 327T474 240Q474 184 456 138T407 59T332 8T240 -10Q210 -10 180 -5T127 10T90 31T75 56V566Q75 585 73 596T66 614T51 622T26 624Q21
624 17 624T9 622V639L39 648Q57 653 71 657T98 665T125 673T154 683L159 681V376ZM159 74Q159 50 188 36T256 22Q315 22 349 65Q386 111 386 197Q386 242 376 283T347 350Q314 397 258 397Q238 397 220 391T189 373T167 348T159 318V74Z" />
<glyph unicode="c" glyph-name="c" horiz-adv-x="407" d="M398 147Q374 100 357 75T316 32Q265 -10 201 -10Q159 -10 125 6T65 52T25 123T11 212Q11 275 32 325T95 409Q157 460 230 460Q261 460 289 452T338 430T371 397T384 357Q384 340 371 328T337 315Q302
315 289 361L283 383Q275 411 263 421T224 431Q194 431 169 419T126 383T98 328T88 257Q88 214 99 178T131 117T179 77T243 62Q264 62 282 67T316 83T349 112T384 156L398 147Z" />
<glyph unicode="d" glyph-name="d" horiz-adv-x="479" d="M322 -10L318 -7V57Q292 22 262 6T190 -10Q148 -10 114 5T56 49T19 117T5 205Q5 258 21 304T66 385T132 440T213 460Q243 460 266 451T318 417V573Q318 604 309 614T272 624Q266 624 261 624T250 623V639Q274
645 293 650T329 661T363 671T397 683L402 681V114Q402 79 410 68T446 57Q450 57 453 57T469 58V42L322 -10ZM318 332Q318 352 310 370T287 402T255 424T216 432Q159 432 125 381T91 245Q91 199 100 162T128 98T171 57T229 42Q276 42 303 74Q318 91 318 102V332Z"
/>
<glyph unicode="e" glyph-name="e" horiz-adv-x="420" d="M411 157Q382 75 330 33T202 -10Q158 -10 123 6T63 51T25 123T12 217Q12 270 26 314T68 391T133 442T219 460Q266 460 300 443T358 391Q373 370 381 344T392 277H84Q86 248 88 226T95 185T108 149T130
114Q172 59 241 59Q266 59 286 65T325 83T360 116T395 164L411 157ZM290 309Q282 370 262 397T192 424Q150 424 122 395T86 309H290Z" />
<glyph unicode="f" glyph-name="f" horiz-adv-x="373" d="M89 450Q89 480 91 502T97 543T107 578T124 611Q144 645 180 664T265 683Q310 683 339 666T369 621Q369 604 357 592T327 580Q314 580 304 588T282 616Q268 638 257 646T229 655Q173 655 173 566V450H295V418H173V104Q173
76 176 59T188 33T216 20T266 15V0H6V15Q33 16 49 20T74 33T86 60T89 104V418H7V450H89Z" />
<glyph unicode="g" glyph-name="g" horiz-adv-x="462" d="M370 388Q381 364 385 345T389 304Q389 227 337 188Q313 170 286 160T233 149Q222 149 195 152L176 154Q166 151 156 144T136 127T122 108T116 91Q116 79 134 73T194 64L323 58Q379 56 411 27T444 -49Q444
-107 384 -154Q345 -184 292 -201T184 -218Q148 -218 117 -211T62 -190T25 -159T11 -121Q11 -93 33 -66T109 1Q77 16 67 26T56 54Q56 69 66 85T102 123Q124 142 145 163Q94 188 73 218T52 297Q52 331 65 361T100 413T153 447T219 460Q258 460 299 445L321 437Q336
432 348 430T376 427H453V388H370ZM135 335Q135 263 163 219T238 174Q272 174 292 198T312 264Q312 295 304 327T282 385Q257 432 209 432Q174 432 155 408T135 338V335ZM416 -64Q416 -36 389 -26T292 -15Q274 -15 251 -14T206 -11T163 -7T130 -2Q115 -20 106 -32T91
-54T83 -71T81 -88Q81 -121 120 -141T226 -161Q312 -161 364 -135T416 -64Z" />
<glyph unicode="h" glyph-name="h" horiz-adv-x="493" d="M277 0V15Q299 17 312 21T332 35T342 60T345 102V300Q345 406 271 406Q241 406 216 392T159 343V102Q159 76 161 60T171 35T192 22T227 15V0H11V15Q33 18 45 22T64 35T73 60T75 102V573Q75 605 66 614T24
624Q21 624 18 624T12 623V639L39 647Q60 653 76 658T105 667T129 674T154 683L159 680V376Q194 421 227 440T306 460Q429 460 429 301V102Q429 76 431 61T439 36T457 23T489 15V0H277Z" />
<glyph unicode="i" glyph-name="i" horiz-adv-x="244" d="M168 632Q168 610 154 596T116 581Q95 581 81 595T66 632Q66 653 81 668T117 683Q139 683 153 668T168 632ZM4 0V15Q30 16 45 19T69 32T80 58T83 104V331Q83 366 76 380T50 394Q43 394 33 394T8 389V405L163
460L167 456V105Q167 77 169 61T179 35T201 21T241 15V0H4Z" />
<glyph unicode="j" glyph-name="j" horiz-adv-x="276" d="M264 632Q264 610 250 596T212 581Q191 581 177 595T162 632Q162 653 177 668T213 683Q234 683 249 668T264 632ZM263 0Q263 -107 220 -162T93 -218Q52 -218 26 -203T0 -163Q0 -146 12 -135T41 -124Q53
-124 64 -131T89 -156Q102 -172 111 -178T131 -184Q142 -184 151 -179T165 -166Q169 -159 172 -150T176 -127T178 -94T179 -45V334Q179 366 172 380T147 394Q139 394 129 394T107 391L102 390V406Q146 419 180 431T258 460L263 457V0Z" />
<glyph unicode="k" glyph-name="k" horiz-adv-x="510" d="M290 0V15H309Q318 15 324 19T330 30Q330 39 319 53L169 251V67Q169 41 181 30T224 16L244 15V0H10V15Q37 19 52 23T74 33T83 51T85 82V564Q85 600 77 612T42 625Q34 625 27 625T10 623V639L40 647Q62
653 79 657T110 666T137 674T165 683L169 681V261L306 383Q329 404 329 418Q329 428 319 431T279 436V450H483V435Q459 435 440 432T397 415T344 377T267 309L238 282L391 88Q422 49 448 33T508 15V0H290Z" />
<glyph unicode="l" glyph-name="l" horiz-adv-x="247" d="M7 0V15Q54 19 69 35T84 92V561Q84 597 75 611T42 625Q36 625 27 625T5 623V639Q31 645 51 650T90 661T126 671T163 683L168 679V87Q168 66 170 53T181 32T204 20T243 15V0H7Z" />
<glyph unicode="m" glyph-name="m" horiz-adv-x="783" d="M554 0V15Q575 17 588 21T607 33T616 54T619 90V296Q619 356 602 382T542 408Q507 408 483 394T435 347V95Q435 71 438 56T449 31T472 19T507 15V0H283V15Q304 16 317 19T338 29T348 49T351 86V297Q351
349 335 378T286 408Q258 408 227 396T180 365Q175 359 171 355T167 348V70Q167 38 181 27T235 15V0H13V15Q34 15 47 18T69 30T80 52T83 88V336Q83 373 76 387T48 402Q33 402 16 398V415Q57 426 87 436T155 460L163 457V383H165Q190 408 210 423T249 447T284 457T318
460Q397 460 424 376Q465 420 504 440T587 460Q648 460 675 415T703 280V77Q703 43 713 31T746 17L772 15V0H554Z" />
<glyph unicode="n" glyph-name="n" horiz-adv-x="489" d="M272 0L273 15Q292 16 304 21T323 36T332 63T335 105V304Q335 358 317 381T262 405Q237 405 215 394T159 348V72Q159 43 172 31T224 15V0H13V15Q51 18 63 34T75 94V337Q75 374 68 388T40 402Q32 402 24
401T11 398V415Q32 421 49 426T82 436T114 447T148 460L156 457V379H157Q196 424 231 442T301 460Q358 460 388 421T419 306V85Q419 65 421 52T431 32T450 21T480 15V0H272Z" />
<glyph unicode="o" glyph-name="o" horiz-adv-x="463" d="M452 231Q452 179 436 135T391 59T320 8T227 -10Q182 -10 143 7T74 56T28 132T11 228Q11 280 27 323T72 396T143 443T236 460Q282 460 321 444T390 397T435 325T452 231ZM362 204Q362 255 349 303T312
382Q294 405 272 418T217 432Q165 432 133 390T101 273Q101 213 113 161T154 68Q188 18 244 18Q300 18 331 67T362 204Z" />
<glyph unicode="p" glyph-name="p" horiz-adv-x="481" d="M164 381Q197 423 231 441T308 460Q344 460 375 444T428 400T462 333T475 247Q475 193 459 146T415 65T348 10T265 -10Q249 -10 237 -8T213 -1T189 12T164 33V-124Q164 -148 167 -162T179 -185T206 -196T252
-199V-217H10V-200Q32 -198 46 -194T67 -183T77 -163T80 -131V337Q80 372 73 383T39 394Q32 394 27 394T14 393V409Q35 415 52 421T87 433T121 445T158 460L164 458V381ZM164 88Q164 77 173 65T198 44T231 28T268 22Q295 22 317 35T355 73T380 132T389 207Q389
295 356 347T266 400Q249 400 231 394T198 379T174 357T164 334V88Z" />
<glyph unicode="q" glyph-name="q" horiz-adv-x="480" d="M234 -217V-200Q261 -198 278 -194T305 -182T319 -159T323 -124V64Q290 28 250 9T166 -10Q131 -10 102 6T51 50T18 118T6 205Q6 259 23 305T69 386T139 440T226 460Q256 460 281 453T342 425L396 457H407V-141Q407
-157 409 -167T418 -184T437 -194T470 -200V-217H234ZM323 333Q323 431 230 431Q166 431 129 381T92 241Q92 189 107 145T148 78Q178 51 223 51Q247 51 270 59T311 83Q323 93 323 127V333Z" />
<glyph unicode="r" glyph-name="r" horiz-adv-x="345" d="M164 366Q183 393 198 411T227 440T254 455T284 460Q310 460 324 446T339 407Q339 386 329 374T300 362Q290 362 281 366T260 382Q243 397 234 397Q223 397 211 389T189 368T171 342T164 315V90Q164 69
167 55T181 33T207 20T249 15V0H9V15Q33 19 47 23T68 35T78 53T80 84V334Q80 367 73 380T46 394Q30 394 11 390V406Q33 413 51 419T87 432T121 445T159 460L164 458V366Z" />
<glyph unicode="s" glyph-name="s" horiz-adv-x="322" d="M223 238Q247 223 263 210T290 183T306 153T311 115Q311 90 300 68T270 28T225 0T171 -10Q155 -10 135 -9T98 -1Q80 5 70 6T52 8Q43 8 38 6T28 -4H15V153H31Q47 80 76 46T158 12Q196 12 218 33T241 86Q241
109 227 128T188 161L134 191Q71 226 43 262T14 336Q14 396 52 427T152 459Q170 459 186 458T219 448Q237 440 247 440Q250 440 253 441T263 450H274L279 314H264Q247 382 222 409T151 437Q119 437 98 421T76 369Q76 352 87 333T119 301L223 238Z" />
<glyph unicode="t" glyph-name="t" horiz-adv-x="275" d="M271 66Q223 -10 150 -10Q62 -10 62 117V418H9Q5 421 5 425Q5 433 22 444Q42 455 66 482T119 551Q124 558 129 564T139 579Q146 579 146 566V450H247V418H146V132Q146 84 158 63T198 42Q215 42 228 49T258
77L271 66Z" />
<glyph unicode="u" glyph-name="u" horiz-adv-x="490" d="M480 36Q442 25 412 16T343 -9L338 -6V76H336Q299 26 260 8T193 -10Q135 -10 103 25T71 118V369Q71 407 58 420T9 436V450H155V127Q155 92 176 70T226 48Q248 48 269 55T310 79Q322 90 327 100T333 137V368Q333
388 330 400T319 419T296 428T259 433V450H417V107Q417 72 428 61T474 50H480V36Z" />
<glyph unicode="v" glyph-name="v" horiz-adv-x="467" d="M462 435Q451 434 443 431T429 420T415 397T397 357L269 36Q258 8 252 -3T241 -14Q233 -14 223 12Q221 16 220 21T215 33L95 320Q79 359 68 381T48 415T28 430T4 435V450H200V435Q174 433 164 427T154
408Q154 392 163 370L265 114L364 373Q370 388 370 403Q370 431 323 435V450H462V435Z" />
<glyph unicode="w" glyph-name="w" horiz-adv-x="689" d="M681 435Q666 430 659 421T640 381L502 35Q490 5 485 -4T474 -14Q469 -14 465 -7T450 29L359 265L247 25Q229 -14 222 -14Q213 -14 196 30L61 372Q53 392 47 404T35 423T23 432T8 435V450H188V435Q162
432 152 425T142 402Q142 387 148 372L247 111L338 310L318 366Q311 386 305 399T291 419T273 430T249 435V450H452V435Q417 430 406 423T394 400Q394 387 398 375T411 340L495 116L585 338Q602 380 602 405Q602 417 593 423T558 435V450H681V435Z" />
<glyph unicode="x" glyph-name="x" horiz-adv-x="482" d="M272 0V15Q297 17 304 21T312 39Q312 48 306 57L215 197L136 74Q116 43 116 33Q116 23 125 19T156 15V0H11V15Q23 16 32 18T49 26T65 41T84 66L198 231L104 375Q81 410 65 422T27 435H18V450H225V435Q182
434 182 413Q182 403 194 380T228 324Q232 319 235 314T242 304Q250 314 257 325T272 348Q289 374 299 389T309 413Q309 424 301 428T269 435V450H427V435Q403 434 382 423T346 391L263 271L391 75Q412 43 431 29T473 15V0H272Z" />
<glyph unicode="y" glyph-name="y" horiz-adv-x="476" d="M473 435Q455 433 445 423T423 384L273 -25Q253 -78 234 -115T195 -175T150 -208T98 -218Q66 -218 47 -202T28 -160Q28 -141 40 -128T71 -114Q85 -114 97 -116T123 -127Q131 -132 137 -133T149 -134Q160
-134 173 -121T199 -90Q206 -79 213 -63T226 -31T235 -2T239 18Q239 24 235 34T225 59T212 88T197 119L65 401Q57 418 45 425T12 436V450H217V435Q185 433 173 428T160 408Q160 400 164 389T173 367L285 117L382 393Q384 398 385 403T386 411Q386 435 340 435V450H473V435Z"
/>
<glyph unicode="z" glyph-name="z" horiz-adv-x="418" d="M389 0H13V15L279 420H144Q120 420 105 417T81 404T66 377T57 332H39L43 450H389V435L120 30H253Q297 30 322 37T359 57Q364 63 367 70T374 86T379 108T386 140L404 136L389 0Z" />
<glyph unicode="{" glyph-name="braceleft" horiz-adv-x="257" d="M252 -181Q227 -181 209 -180T177 -175T152 -168T131 -156Q110 -142 99 -113T87 -41V136Q87 162 83 180T70 211T44 233T2 250Q27 257 43 266T69 287T83 318T87 363V541Q87 628 131 655Q142 662
153 666T177 674T209 678T252 680V669Q226 662 209 653T181 629T166 595T161 546V378Q161 347 157 326T143 290T114 266T67 249Q95 242 113 233T142 209T157 174T161 121V-47Q161 -103 180 -130T252 -170V-181Z" />
<glyph unicode="|" glyph-name="bar" horiz-adv-x="100" d="M16 -14V676H82V-14H16Z" />
<glyph unicode="}" glyph-name="braceright" horiz-adv-x="257" d="M170 363Q170 337 174 319T187 288T213 266T255 250Q230 242 214 233T188 212T174 181T170 136V-42Q170 -129 126 -156Q115 -163 104 -167T80 -175T48 -179T5 -181V-170Q57 -157 76 -130T96 -47V121Q96
152 100 173T114 209T143 233T190 250Q162 257 144 266T115 289T100 325T96 378V546Q96 574 92 594T77 629T49 652T5 669V680Q30 680 48 679T80 674T104 667T126 655Q147 641 158 612T170 540V363Z" />
<glyph unicode="~" glyph-name="asciitilde" horiz-adv-x="486" d="M474 274Q442 226 413 207T349 188Q332 188 319 190T294 198T266 211T229 231Q215 238 190 247T132 256Q106 256 84 237T48 183L12 233Q38 284 70 302T137 320Q149 320 159 319T182 314T212 304T254
286Q261 283 272 278T296 266T324 256T350 252Q384 252 402 273T438 325L474 274Z" />
<glyph unicode="&#xa0;" glyph-name="space" horiz-adv-x="250" />
</font>
</defs>
</svg>
