<?xml version="1.0" standalone="no"?> <!DOCTYPE svg PUBLIC "-//W3C//DTD SVG 1.0//EN" "http://www.w3.org/TR/2001/REC-SVG-20010904/DTD/svg10.dtd" > <svg xmlns="http://www.w3.org/2000/svg" width="100%" height="100%">
<defs >
<font horiz-adv-x="627" ><font-face
    font-family="STIXGeneralUnicodeRegular"
    units-per-em="1000"
    panose-1="0 0 0 0 0 0 0 0 0 0"
    ascent="1055"
    descent="-455"
    alphabetic="0" />
<missing-glyph horiz-adv-x="250" />
<glyph unicode=" " glyph-name="space" horiz-adv-x="250" />
<glyph unicode="&#xa0;" glyph-name="uni00A0" horiz-adv-x="250" />
<glyph unicode="&#xa1;" glyph-name="exclamdown" horiz-adv-x="148" d="M127 417Q127 394 112 378T73 362Q50 362 36 378T21 417Q21 440 36 454T74 468Q97 468 112 454T127 417ZM125 -99Q127 -113 127 -120T127 -138Q127 -173 113 -195T74 -218Q21 -218 21 -139Q21
-129 21 -120T23 -101L68 282H81L125 -99Z" />
<glyph unicode="&#xa2;" glyph-name="cent" horiz-adv-x="422" d="M410 156Q397 130 387 111T366 78T346 52T322 29Q301 11 275 1T220 -9Q206 -9 194 -7T163 0L114 -138H80L131 12Q102 29 87 42T57 76Q37 105 26 142T15 219Q15 270 32 314T78 390T148 441T235
460Q246 460 257 459T286 455L330 579H365L318 444Q354 430 373 408T393 360Q393 340 381 328T350 315Q331 315 319 326T292 367L191 76Q208 69 221 67T250 64Q294 64 326 86T397 164L410 156ZM275 421Q261 426 251 428T228 430Q166 430 129 384T92 260Q92 206
107 169T160 98L275 421Z" />
<glyph unicode="&#xa3;" glyph-name="sterling" horiz-adv-x="514" d="M228 328Q229 313 229 298T229 267Q229 256 229 247T226 223T218 182T204 111Q228 101 247 94T284 83T318 78T353 76Q421 76 466 125Q481 141 489 141Q495 141 495 136Q495 129 491 118T481
94T466 69T450 48Q425 22 394 8T328 -7Q311 -7 296 -4T265 6T228 24T183 54Q153 18 132 5T85 -8Q53 -8 35 8T17 54Q17 89 41 109T108 130Q119 130 129 129T154 125Q157 137 157 146Q157 160 153 201T141 295L136 328H28V373H135Q131 393 130 408T128 442Q128 496
141 539T180 612T242 659T323 676Q351 676 375 669T416 650T443 620T453 583Q453 560 439 545T403 530Q380 530 373 543T364 597Q363 649 308 649Q263 649 238 613T213 512Q213 497 213 484T215 454T219 419T224 373H349V328H228ZM147 76Q147 83 130 88T93 94Q43
94 43 57Q43 40 54 30T85 20Q113 20 132 45Q147 63 147 76Z" />
<glyph unicode="&#xa4;" glyph-name="currency" horiz-adv-x="588" d="M518 -10L420 88Q390 67 360 57T295 47Q260 47 230 56T168 88L72 -10L22 40L120 136Q98 168 89 197T79 262Q79 298 88 328T120 388L22 486L72 534L168 438Q201 459 230 468T295 477Q332 477
361 468T420 438L518 534L566 486L470 388Q492 356 500 328T509 263Q509 227 501 199T470 136L566 40L518 -10ZM441 264Q441 295 430 322T398 369T351 401T293 413Q263 413 237 401T190 369T159 321T147 263Q147 231 158 204T190 156T237 123T295 111Q326 111 352
123T398 155T429 204T441 264Z" />
<glyph unicode="&#xa5;" glyph-name="yen" horiz-adv-x="595" d="M580 643Q542 635 515 612T462 536L370 352H516V312H350L343 298V222H516V182H343V109Q343 83 346 66T359 39T383 24T423 19V0H179V19Q204 20 219 24T243 39T255 69T258 120V182H84V222H258V298L251
312H84V352H228L133 525Q112 562 98 584T71 620T45 637T15 643V662H258V643Q223 642 208 636T193 615Q193 595 206 569L324 348L436 568Q450 594 450 613Q450 626 436 634T399 643H385V662H580V643Z" />
<glyph unicode="&#xa6;" glyph-name="brokenbar" horiz-adv-x="111" d="M24 400V676H90V400H24ZM24 -14V262H90V-14H24Z" />
<glyph unicode="&#xa7;" glyph-name="section" horiz-adv-x="393" d="M286 400Q330 364 352 325T375 245Q375 190 342 158T253 125H241Q269 101 287 83T316 48T331 15T335 -21Q335 -78 296 -113T191 -148Q162 -148 137 -141T93 -120T64 -88T53 -48Q53 -25 68 -10T107
6Q127 6 141 -6T155 -36Q155 -58 132 -77Q121 -86 121 -92Q121 -106 142 -116T192 -127Q232 -127 255 -106T279 -50Q279 -21 259 5T190 65Q144 96 112 124T59 179T29 232T19 286Q19 311 27 333T51 371T88 396T133 405Q138 405 144 405T159 404Q129 429 110 448T79
483T64 517T59 554Q59 609 97 642T198 676Q225 676 248 669T289 648T316 617T326 578Q326 553 313 539T275 525Q254 525 241 537T228 568Q228 594 254 612Q262 619 262 623Q262 637 244 646T200 655Q162 655 139 636T115 584Q115 564 124 545T149 513L286 400ZM323
211Q323 252 270 305Q234 340 199 361T139 383Q110 383 91 365T72 317Q72 293 82 274T118 229Q164 184 194 165T254 146Q281 146 302 165T323 211Z" />
<glyph unicode="&#xa8;" glyph-name="dieresis" horiz-adv-x="344" d="M321 572Q321 552 306 538T270 523Q250 523 236 537T222 573Q222 593 236 607T271 622Q291 622 306 607T321 572ZM122 572Q122 552 107 538T71 523Q51 523 37 537T23 573Q23 593 37 607T72
622Q92 622 107 607T122 572Z" />
<glyph unicode="&#xa9;" glyph-name="copyright" horiz-adv-x="724" d="M512 172Q511 167 496 162T460 152T412 144T364 141Q320 141 285 154T224 192T186 252T172 329Q172 375 188 412T233 476T302 517T393 532Q418 532 447 526T500 510Q513 503 513 493V422H496Q490
467 462 489T392 512Q359 512 333 499T288 463T259 407T249 337Q249 253 290 207T397 161Q439 161 466 181T513 248H529L512 172ZM704 330Q704 258 678 195T605 86T497 13T363 -14Q291 -14 229 12T120 85T47 195T20 330Q20 403 47 466T120 576T230 649T368 676Q437
676 498 649T605 575T677 465T704 330ZM649 334Q649 396 626 450T564 546T472 610T359 634Q302 634 251 610T160 544T98 447T75 331Q75 269 98 214T160 117T251 52T363 28Q422 28 474 52T565 118T626 215T649 334Z" />
<glyph unicode="&#xaa;" glyph-name="ordfeminine" horiz-adv-x="305" d="M287 424Q269 407 257 401T228 394Q208 394 198 404T183 438Q158 415 137 405T92 394Q61 394 41 413T21 462Q21 494 43 513Q53 522 62 528T84 540T119 555T174 576V606Q174 648 138 648Q121
648 107 641T93 625Q93 622 93 619T95 611Q96 608 96 603Q96 593 87 586T65 578Q51 578 42 586T33 609Q33 638 63 657T141 676Q246 676 246 580V465Q246 444 248 437T259 430Q274 430 287 442V424ZM175 551Q149 542 132 534T104 519T89 503T84 485Q84 467 95 454T122
441Q141 441 164 452Q175 462 175 474V551Z" />
<glyph unicode="&#xab;" glyph-name="guillemotleft" horiz-adv-x="451" d="M287 300Q303 314 324 334T364 372T399 403T417 416Q424 416 426 413T428 405Q428 398 415 381T378 333L294 227Q318 199 339 171T378 120Q401 90 414 71T428 44Q428 39 425 36T416 33Q413
33 398 46T364 79T323 119T287 154L206 227L287 300ZM95 300Q111 314 132 334T172 372T207 403T225 416Q232 416 234 413T236 405Q236 398 223 381T186 333L102 227Q126 199 147 171T186 120Q209 90 222 71T236 44Q236 39 233 36T224 33Q221 33 206 46T172 79T131
119T95 154L14 227L95 300Z" />
<glyph unicode="&#xac;" glyph-name="logicalnot" horiz-adv-x="536" d="M446 115V327H8V393H512V115H446Z" />
<glyph unicode="&#xad;" glyph-name="uni00AD" horiz-adv-x="294" d="M24 194V257H270V194H24Z" />
<glyph unicode="&#xae;" glyph-name="registered" horiz-adv-x="724" d="M485 152Q457 152 414 231Q409 239 406 245T398 259T385 280T362 314H314V222Q314 205 315 195T320 179T334 171T361 167V152H201L202 167Q220 168 230 170T244 178T249 194T250 222V452Q250
468 249 477T244 492T230 500T203 505V520H375Q432 520 462 494T493 422Q493 392 474 365T414 324L471 245Q491 219 511 197T549 160V152H485ZM357 333Q390 333 408 357T426 418Q426 453 410 477T352 501H314V333H357ZM704 329Q704 257 678 195T605 86T497 13T363
-14Q291 -14 228 13T119 86T47 196T20 332Q20 404 47 467T121 576T231 649T367 676Q437 676 498 649T605 575T677 464T704 329ZM649 330Q649 393 627 448T565 545T473 610T360 634Q302 634 251 610T160 544T98 447T75 331Q75 269 98 214T160 117T251 52T363 28Q421
28 473 52T564 117T626 213T649 330Z" />
<glyph unicode="&#xaf;" glyph-name="overscore" horiz-adv-x="359" d="M24 547V601H335V547H24Z" />
<glyph unicode="&#xb0;" glyph-name="degree" horiz-adv-x="326" d="M306 533Q306 503 295 477T265 432T219 401T163 390Q133 390 107 401T61 431T31 477T20 534Q20 564 31 590T61 635T107 665T165 676Q194 676 220 665T265 635T295 589T306 533ZM267 534Q267
556 259 575T236 610T202 633T161 642Q140 642 122 634T89 610T67 575T59 533Q59 510 67 491T89 456T123 433T163 424Q184 424 203 432T236 456T259 491T267 534Z" />
<glyph unicode="&#xb1;" glyph-name="plusminus" horiz-adv-x="613" d="M339 242V33H273V242H12V308H273V502H339V308H601V242H339ZM12 -87V-21H601V-87H12Z" />
<glyph unicode="&#xb2;" glyph-name="twosuperior" horiz-adv-x="334" d="M276 270H25V294L126 402Q164 444 184 480T204 540Q204 572 184 594T133 616Q79 616 45 542L20 557Q41 619 73 647T170 676Q229 676 262 646T296 567Q296 549 292 532T277 497T251 460T210
416L126 335H239Q259 335 272 340T297 362L315 355L276 270Z" />
<glyph unicode="&#xb3;" glyph-name="threesuperior" horiz-adv-x="316" d="M210 509Q255 498 276 467T297 399Q297 369 284 344T245 301T186 273T110 262Q70 262 45 278T19 318Q19 334 30 341T56 349Q64 349 73 345T97 330Q114 318 124 314T148 310Q179 310 197
330T216 381Q216 420 193 441T127 463Q125 463 121 463T99 460V489Q152 507 173 526T194 573Q194 596 179 608T138 620Q111 620 92 608T52 562L27 581Q54 632 85 654T162 676Q185 676 204 670T238 652T261 626T270 593Q270 572 258 551T210 511V509Z" />
<glyph unicode="&#xb4;" glyph-name="acute" horiz-adv-x="246" d="M157 655Q171 669 179 673T199 678Q234 678 234 646Q234 623 204 604L50 507H10L157 655Z" />
<glyph unicode="&#xb5;" glyph-name="mu" horiz-adv-x="510" d="M417 96Q417 61 424 44T448 27Q459 27 470 33T499 56V47Q487 31 477 20T456 3T435 -7T410 -10Q382 -10 359 12T334 80H332Q283 -10 201 -10Q157 -10 129 8T78 64Q79 45 84 18T97 -37T109 -93T115
-141Q115 -218 67 -218Q45 -218 34 -196T23 -141Q23 -122 26 -93T34 -34T43 19T47 54V450H135V155Q135 103 157 78T219 52Q298 52 329 115V450H417V96Z" />
<glyph unicode="&#xb6;" glyph-name="paragraph" horiz-adv-x="506" d="M334 -154V640H276V-154H121V-132Q150 -130 167 -126T194 -110T207 -80T210 -29V273Q163 277 127 288T66 323T29 382T16 471Q16 569 65 615T225 662H488V643Q459 640 442 635T415 618T403
588T400 542V-41Q400 -68 403 -84T415 -111T442 -125T488 -132V-154H334ZM210 640Q174 637 152 626T116 595T97 545T92 473Q92 386 118 344T210 295V640Z" />
<glyph unicode="&#xb7;" glyph-name="middot" horiz-adv-x="151" d="M131 253Q131 231 115 215T75 199Q52 199 36 215T20 254Q20 277 36 293T76 310Q98 310 114 293T131 253Z" />
<glyph unicode="&#xb8;" glyph-name="cedilla" horiz-adv-x="242" d="M113 -65Q121 -63 126 -63T139 -62Q180 -62 202 -80T225 -131Q225 -170 192 -192T100 -215Q77 -215 58 -212T16 -199L30 -168Q50 -175 64 -177T95 -180Q121 -180 135 -168T150 -136Q150 -116
138 -108T97 -100Q80 -100 69 -104L62 -99L103 0H138L113 -65Z" />
<glyph unicode="&#xb9;" glyph-name="onesuperior" horiz-adv-x="223" d="M17 270V294Q49 296 59 303T70 327V581Q70 598 68 604T61 611Q56 611 48 609T19 597V621L137 676L151 672V333Q151 313 163 304T208 294V270H17Z" />
<glyph unicode="&#xba;" glyph-name="ordmasculine" horiz-adv-x="338" d="M318 542Q318 510 307 483T275 437T226 406T165 394Q133 394 107 404T61 433T31 477T20 533Q20 598 62 637T173 676Q205 676 231 666T277 639T307 597T318 542ZM245 516Q245 573 222 608T162
643Q131 643 112 623T93 569Q93 540 99 512T118 461Q137 427 174 427Q245 427 245 516Z" />
<glyph unicode="&#xbb;" glyph-name="guillemotright" horiz-adv-x="452" d="M357 149Q341 135 320 115T280 77T245 46T227 33Q220 33 218 36T216 44Q216 51 229 68T266 116L350 222Q326 250 305 278T266 329Q243 359 230 378T216 405Q216 410 219 413T228 416Q231
416 246 403T280 370T321 330T357 295L438 222L357 149ZM164 149Q148 135 127 115T87 77T52 46T34 33Q27 33 25 36T23 44Q23 51 36 68T73 116L157 222Q133 250 112 278T73 329Q50 359 37 378T23 405Q23 410 26 413T35 416Q38 416 53 403T87 370T128 330T164 295L245
222L164 149Z" />
<glyph unicode="&#xbc;" glyph-name="onequarter" horiz-adv-x="709" d="M635 90V0H565V90H385V139L588 405H635V147H690V90H635ZM565 326L430 147H565V326ZM159 -14H110L563 676H609L159 -14ZM19 270V294Q51 296 61 303T72 327V581Q72 598 70 604T63 611Q58 611
50 609T21 597V621L129 676L143 672V333Q143 313 155 304T200 294V270H19Z" />
<glyph unicode="&#xbd;" glyph-name="onehalf" horiz-adv-x="743" d="M686 0H435V24L536 132Q574 174 594 210T614 270Q614 302 594 324T543 346Q489 346 455 272L430 287Q451 349 483 377T580 406Q639 406 672 376T706 297Q706 279 702 262T687 227T661 190T620
146L536 65H649Q669 65 682 70T707 92L725 85L686 0ZM129 -14H80L533 676H579L129 -14ZM20 270V294Q52 296 62 303T73 327V581Q73 598 71 604T64 611Q59 611 51 609T22 597V621L130 676L144 672V333Q144 313 156 304T201 294V270H20Z" />
<glyph unicode="&#xbe;" glyph-name="threequarters" horiz-adv-x="743" d="M669 90V0H599V90H419V139L622 405H669V147H724V90H669ZM599 326L464 147H599V326ZM193 -14H144L597 676H643L193 -14ZM210 509Q255 498 276 467T297 399Q297 369 284 344T245 301T186
273T110 262Q70 262 45 278T19 318Q19 334 30 341T56 349Q64 349 73 345T97 330Q114 318 124 314T148 310Q179 310 197 330T216 381Q216 420 193 441T127 463Q125 463 121 463T99 460V489Q152 507 173 526T194 573Q194 596 179 608T138 620Q111 620 92 608T52 562L27
581Q54 632 85 654T162 676Q185 676 204 670T238 652T261 626T270 593Q270 572 258 551T210 511V509Z" />
<glyph unicode="&#xbf;" glyph-name="questiondown" horiz-adv-x="376" d="M245 416Q245 393 230 377T191 361Q168 361 154 377T139 416Q139 439 154 453T192 467Q215 467 230 453T245 416ZM202 294Q202 277 200 259T193 218T176 163T144 88Q124 46 116 6T107
-69Q107 -94 115 -115T138 -153T173 -178T216 -188Q234 -188 251 -183T281 -169T302 -149T310 -126Q310 -115 293 -95Q282 -82 277 -73T272 -52Q272 -33 283 -22T313 -11Q361 -11 361 -73Q361 -104 349 -130T315 -176T263 -207T199 -218Q157 -218 117 -202T51 -160Q34
-143 25 -118T15 -63Q15 -40 19 -21T36 21T68 72T120 140Q134 158 144 174T162 209T175 247T185 294H202Z" />
<glyph unicode="&#xc0;" glyph-name="Agrave" horiz-adv-x="718" d="M410 757L256 853Q226 872 226 896Q226 912 235 920T262 928Q273 928 282 924T305 905L450 757H410ZM451 0V19Q478 19 487 21T506 28Q512 31 516 38T520 52Q520 63 515 82T501 122L460 216H198L152
102Q148 92 146 81T143 60Q143 37 160 28T213 19V0H14V19Q36 21 50 28T76 52T103 101T140 186L346 674H366L612 111Q622 87 631 70T650 43T673 27T706 19V0H451ZM330 532L215 257H446L330 532Z" />
<glyph unicode="&#xc1;" glyph-name="Aacute" horiz-adv-x="718" d="M420 905Q434 919 442 923T462 928Q497 928 497 896Q497 873 467 854L313 757H273L420 905ZM449 0V19Q476 19 485 21T504 28Q510 31 514 38T518 52Q518 63 513 82T499 122L458 216H196L150 102Q146
92 144 81T141 60Q141 37 158 28T211 19V0H12V19Q34 21 48 28T74 52T101 101T138 186L344 674H364L610 111Q620 87 629 70T648 43T671 27T704 19V0H449ZM328 532L213 257H444L328 532Z" />
<glyph unicode="&#xc2;" glyph-name="Acircumflex" horiz-adv-x="721" d="M479 757L357 860L236 757H202L326 924H388L513 757H479ZM452 0V19Q479 19 488 21T507 28Q513 31 517 38T521 52Q521 63 516 82T502 122L461 216H199L153 102Q149 92 147 81T144 60Q144
37 161 28T214 19V0H15V19Q37 21 51 28T77 52T104 101T141 186L347 674H367L613 111Q623 87 632 70T651 43T674 27T707 19V0H452ZM331 532L216 257H447L331 532Z" />
<glyph unicode="&#xc3;" glyph-name="Atilde" horiz-adv-x="718" d="M522 888Q506 831 483 807T417 782Q398 782 383 786T336 806L313 817Q289 828 272 828Q237 828 221 782H192Q203 831 229 857T293 883Q327 883 363 865L387 853Q415 838 440 838Q457 838 468
849T493 888H522ZM450 0V19Q477 19 486 21T505 28Q511 31 515 38T519 52Q519 63 514 82T500 122L459 216H197L151 102Q147 92 145 81T142 60Q142 37 159 28T212 19V0H13V19Q35 21 49 28T75 52T102 101T139 186L345 674H365L611 111Q621 87 630 70T649 43T672 27T705
19V0H450ZM329 532L214 257H445L329 532Z" />
<glyph unicode="&#xc4;" glyph-name="Adieresis" horiz-adv-x="718" d="M506 822Q506 802 491 788T455 773Q435 773 421 787T407 823Q407 843 421 857T456 872Q476 872 491 857T506 822ZM307 822Q307 802 292 788T256 773Q236 773 222 787T208 823Q208 843 222
857T257 872Q277 872 292 857T307 822ZM450 0V19Q477 19 486 21T505 28Q511 31 515 38T519 52Q519 63 514 82T500 122L459 216H197L151 102Q147 92 145 81T142 60Q142 37 159 28T212 19V0H13V19Q35 21 49 28T75 52T102 101T139 186L345 674H365L611 111Q621 87
630 70T649 43T672 27T705 19V0H450ZM329 532L214 257H445L329 532Z" />
<glyph unicode="&#xc5;" glyph-name="Aring" horiz-adv-x="720" d="M458 861Q458 840 450 822T429 791T397 770T357 762Q336 762 319 769T288 790T267 822T259 862Q259 883 267 901T288 932T320 953T360 961Q380 961 397 953T428 932T450 900T458 861ZM424 862Q424
889 405 908T357 927Q331 927 312 908T293 862Q293 834 312 815T357 796Q386 796 405 815T424 862ZM451 0V19Q478 19 487 21T506 28Q512 31 516 38T520 52Q520 63 515 82T501 122L460 216H198L152 102Q148 92 146 81T143 60Q143 37 160 28T213 19V0H14V19Q36 21
50 28T76 52T103 101T140 186L346 674H366L612 111Q622 87 631 70T650 43T673 27T706 19V0H451ZM330 532L215 257H446L330 532Z" />
<glyph unicode="&#xc6;" glyph-name="AE" horiz-adv-x="900" d="M834 0H325V19L342 21Q365 24 379 29T400 44T410 71T413 112V260H237Q185 162 165 114T145 48Q145 25 212 19H213V0H15V19Q31 21 42 25T64 38T83 61T103 97L348 581Q353 589 355 596T357 609Q357
626 336 634T267 642V662H831V521H808Q803 555 794 575T766 607T713 622T624 626H540Q526 626 519 616T512 589V366H616Q653 366 679 370T721 384T746 414T755 464H776V229H755Q752 259 745 278T727 308T697 324T653 329H512V94Q512 75 514 64T523 47T544 40T582
38H655Q697 38 726 43T776 62T816 101T854 168H878L834 0ZM413 618L255 299H413V618Z" />
<glyph unicode="&#xc7;" glyph-name="Ccedilla" horiz-adv-x="639" d="M622 113Q578 50 506 18T349 -14Q343 -14 338 -14T325 -13L305 -65Q313 -63 318 -63T331 -62Q372 -62 394 -80T417 -131Q417 -170 384 -192T292 -215Q269 -215 250 -212T208 -199L222 -168Q242
-175 256 -177T287 -180Q313 -180 327 -168T342 -136Q342 -116 330 -108T289 -100Q272 -100 261 -104L254 -99L291 -10Q234 -2 187 21T105 81Q63 126 40 188T17 329Q17 423 52 495T156 616Q199 646 249 661T351 676Q388 676 424 671T498 652Q510 648 520 646T538
643Q552 643 563 651T579 676H600L609 450H586Q580 489 561 523T512 582T447 621T371 636Q317 636 273 615T198 556T150 465T133 346Q133 274 149 211T200 108Q233 69 280 50T381 30Q444 30 495 53T603 131L622 113Z" />
<glyph unicode="&#xc8;" glyph-name="Egrave" horiz-adv-x="616" d="M366 757L212 853Q182 872 182 896Q182 912 191 920T218 928Q229 928 238 924T261 905L406 757H366ZM555 0H16V19Q45 21 62 25T88 39T100 67T103 114V550Q103 578 100 595T88 623T61 637T16
643V662H546L550 519H525Q519 553 511 573T486 605T442 620T371 624H240Q219 624 212 618T205 588V368H356Q388 368 408 372T440 386T458 415T469 464H492V230H469Q464 261 458 280T440 310T408 323T356 327H205V84Q205 68 210 59T228 45T259 39T306 37H342Q396
37 432 42T494 63T538 103T573 169H601L555 0Z" />
<glyph unicode="&#xc9;" glyph-name="Eacute" horiz-adv-x="617" d="M394 905Q408 919 416 923T436 928Q471 928 471 896Q471 873 441 854L287 757H247L394 905ZM553 0H14V19Q43 21 60 25T86 39T98 67T101 114V550Q101 578 98 595T86 623T59 637T14 643V662H544L548
519H523Q517 553 509 573T484 605T440 620T369 624H238Q217 624 210 618T203 588V368H354Q386 368 406 372T438 386T456 415T467 464H490V230H467Q462 261 456 280T438 310T406 323T354 327H203V84Q203 68 208 59T226 45T257 39T304 37H340Q394 37 430 42T492 63T536
103T571 169H599L553 0Z" />
<glyph unicode="&#xca;" glyph-name="Ecircumflex" horiz-adv-x="618" d="M453 757L331 860L210 757H176L300 924H362L487 757H453ZM555 0H16V19Q45 21 62 25T88 39T100 67T103 114V550Q103 578 100 595T88 623T61 637T16 643V662H546L550 519H525Q519 553 511
573T486 605T442 620T371 624H240Q219 624 212 618T205 588V368H356Q388 368 408 372T440 386T458 415T469 464H492V230H469Q464 261 458 280T440 310T408 323T356 327H205V84Q205 68 210 59T228 45T259 39T306 37H342Q396 37 432 42T494 63T538 103T573 169H601L555
0Z" />
<glyph unicode="&#xcb;" glyph-name="Edieresis" horiz-adv-x="618" d="M479 822Q479 802 464 788T428 773Q408 773 394 787T380 823Q380 843 394 857T429 872Q449 872 464 857T479 822ZM280 822Q280 802 265 788T229 773Q209 773 195 787T181 823Q181 843 195
857T230 872Q250 872 265 857T280 822ZM555 0H16V19Q45 21 62 25T88 39T100 67T103 114V550Q103 578 100 595T88 623T61 637T16 643V662H546L550 519H525Q519 553 511 573T486 605T442 620T371 624H240Q219 624 212 618T205 588V368H356Q388 368 408 372T440 386T458
415T469 464H492V230H469Q464 261 458 280T440 310T408 323T356 327H205V84Q205 68 210 59T228 45T259 39T306 37H342Q396 37 432 42T494 63T538 103T573 169H601L555 0Z" />
<glyph unicode="&#xcc;" glyph-name="Igrave" horiz-adv-x="322" d="M225 757L71 853Q41 872 41 896Q41 912 50 920T77 928Q88 928 97 924T120 905L265 757H225ZM14 0V19Q45 20 64 24T94 37T107 65T111 112V551Q111 581 108 598T95 624T65 637T14 643V662H311V643Q279
641 260 638T231 624T217 597T213 551V112Q213 84 217 67T231 39T261 24T311 19V0H14Z" />
<glyph unicode="&#xcd;" glyph-name="Iacute" horiz-adv-x="322" d="M204 905Q218 919 226 923T246 928Q281 928 281 896Q281 873 251 854L97 757H57L204 905ZM11 0V19Q42 20 61 24T91 37T104 65T108 112V551Q108 581 105 598T92 624T62 637T11 643V662H308V643Q276
641 257 638T228 624T214 597T210 551V112Q210 84 214 67T228 39T258 24T308 19V0H11Z" />
<glyph unicode="&#xce;" glyph-name="Icircumflex" horiz-adv-x="340" d="M292 757L170 860L49 757H15L139 924H201L326 757H292ZM15 0V19Q46 20 65 24T95 37T108 65T112 112V551Q112 581 109 598T96 624T66 637T15 643V662H312V643Q280 641 261 638T232 624T218
597T214 551V112Q214 84 218 67T232 39T262 24T312 19V0H15Z" />
<glyph unicode="&#xcf;" glyph-name="Idieresis" horiz-adv-x="326" d="M312 822Q312 802 297 788T261 773Q241 773 227 787T213 823Q213 843 227 857T262 872Q282 872 297 857T312 822ZM113 822Q113 802 98 788T62 773Q42 773 28 787T14 823Q14 843 28 857T63
872Q83 872 98 857T113 822ZM14 0V19Q45 20 64 24T94 37T107 65T111 112V551Q111 581 108 598T95 624T65 637T14 643V662H311V643Q279 641 260 638T231 624T217 597T213 551V112Q213 84 217 67T231 39T261 24T311 19V0H14Z" />
<glyph unicode="&#xd0;" glyph-name="Eth" horiz-adv-x="709" d="M290 662Q384 662 458 640T583 576T662 473T689 334Q689 258 661 192T579 82Q532 44 460 22T304 0H20V19Q48 21 65 25T92 39T105 65T108 109V315H25V359H108V553Q108 581 106 597T94 623T68 636T20
643V662H290ZM210 78Q210 54 221 46T261 37Q327 37 373 46T458 78Q580 149 580 327Q580 409 549 473T458 577Q422 602 374 613T259 625Q230 625 220 617T210 586V359H356V315H210V78Z" />
<glyph unicode="&#xd1;" glyph-name="Ntilde" horiz-adv-x="727" d="M522 888Q506 831 483 807T417 782Q398 782 383 786T336 806L313 817Q289 828 272 828Q237 828 221 782H192Q203 831 229 857T293 883Q327 883 363 865L387 853Q415 838 440 838Q457 838 468
849T493 888H522ZM711 643Q682 640 669 637T645 625Q638 619 633 611T624 589T618 557T616 507V-11H598L157 538V150Q157 111 160 88T174 50T203 30T250 19V0H16V19Q47 22 66 28T95 47T109 85T113 150V590Q101 605 91 615T71 632T47 640T16 643V662H186L572 179V519Q572
557 568 580T553 617Q540 631 524 635T474 643V662H711V643Z" />
<glyph unicode="&#xd2;" glyph-name="Ograve" horiz-adv-x="687" d="M393 757L239 853Q209 872 209 896Q209 912 218 920T245 928Q256 928 265 924T288 905L433 757H393ZM671 331Q671 254 647 191T580 82T476 11T344 -14Q271 -14 211 11T108 82T41 192T17 334Q17
410 40 473T107 581T210 651T344 676Q417 676 477 650T581 578T647 469T671 331ZM557 337Q557 423 533 490T466 593Q439 616 409 628T343 640Q302 640 266 624T200 573Q184 555 171 528T149 470T136 403T131 332Q131 242 153 176T221 67Q247 44 278 33T345 22Q383
22 415 33T474 70Q516 110 536 178T557 337Z" />
<glyph unicode="&#xd3;" glyph-name="Oacute" horiz-adv-x="687" d="M388 905Q402 919 410 923T430 928Q465 928 465 896Q465 873 435 854L281 757H241L388 905ZM670 331Q670 254 646 191T579 82T475 11T343 -14Q270 -14 210 11T107 82T40 192T16 334Q16 410 39
473T106 581T209 651T343 676Q416 676 476 650T580 578T646 469T670 331ZM556 337Q556 423 532 490T465 593Q438 616 408 628T342 640Q301 640 265 624T199 573Q183 555 170 528T148 470T135 403T130 332Q130 242 152 176T220 67Q246 44 277 33T344 22Q382 22 414
33T473 70Q515 110 535 178T556 337Z" />
<glyph unicode="&#xd4;" glyph-name="Ocircumflex" horiz-adv-x="688" d="M459 757L337 860L216 757H182L306 924H368L493 757H459ZM671 331Q671 254 647 191T580 82T476 11T344 -14Q271 -14 211 11T108 82T41 192T17 334Q17 410 40 473T107 581T210 651T344 676Q417
676 477 650T581 578T647 469T671 331ZM557 337Q557 423 533 490T466 593Q439 616 409 628T343 640Q302 640 266 624T200 573Q184 555 171 528T149 470T136 403T131 332Q131 242 153 176T221 67Q247 44 278 33T345 22Q383 22 415 33T474 70Q516 110 536 178T557
337Z" />
<glyph unicode="&#xd5;" glyph-name="Otilde" horiz-adv-x="688" d="M501 888Q485 831 462 807T396 782Q377 782 362 786T315 806L292 817Q268 828 251 828Q216 828 200 782H171Q182 831 208 857T272 883Q306 883 342 865L366 853Q394 838 419 838Q436 838 447
849T472 888H501ZM671 331Q671 254 647 191T580 82T476 11T344 -14Q271 -14 211 11T108 82T41 192T17 334Q17 410 40 473T107 581T210 651T344 676Q417 676 477 650T581 578T647 469T671 331ZM557 337Q557 423 533 490T466 593Q439 616 409 628T343 640Q302 640
266 624T200 573Q184 555 171 528T149 470T136 403T131 332Q131 242 153 176T221 67Q247 44 278 33T345 22Q383 22 415 33T474 70Q516 110 536 178T557 337Z" />
<glyph unicode="&#xd6;" glyph-name="Odieresis" horiz-adv-x="688" d="M486 822Q486 802 471 788T435 773Q415 773 401 787T387 823Q387 843 401 857T436 872Q456 872 471 857T486 822ZM287 822Q287 802 272 788T236 773Q216 773 202 787T188 823Q188 843 202
857T237 872Q257 872 272 857T287 822ZM671 331Q671 254 647 191T580 82T476 11T344 -14Q271 -14 211 11T108 82T41 192T17 334Q17 410 40 473T107 581T210 651T344 676Q417 676 477 650T581 578T647 469T671 331ZM557 337Q557 423 533 490T466 593Q439 616 409
628T343 640Q302 640 266 624T200 573Q184 555 171 528T149 470T136 403T131 332Q131 242 153 176T221 67Q247 44 278 33T345 22Q383 22 415 33T474 70Q516 110 536 178T557 337Z" />
<glyph unicode="&#xd7;" glyph-name="multiply" horiz-adv-x="598" d="M530 -25L299 205L68 -25L22 21L252 252L22 483L69 529L299 299L530 529L576 484L346 252L576 22L530 -25Z" />
<glyph unicode="&#xd8;" glyph-name="Oslash" horiz-adv-x="691" d="M555 604Q571 589 583 577T604 554T620 531T634 505Q651 469 662 424T673 332Q673 255 649 192T582 82T478 11T344 -14Q294 -14 255 -3T169 36L90 -80H41L136 59Q119 74 108 86T87 109T71 132T57
158Q39 195 29 239T19 330Q19 406 43 469T110 579T214 650T347 676Q396 676 435 665T522 627L594 734H643L555 604ZM487 575Q454 610 421 625T346 640Q297 640 258 619T191 557T148 459T133 330Q133 297 135 270T143 218T157 170T179 123L487 575ZM204 88Q236 53
269 38T346 22Q395 22 434 43T502 104T544 201T559 330Q559 363 557 391T549 444T534 492T512 540L204 88Z" />
<glyph unicode="&#xd9;" glyph-name="Ugrave" horiz-adv-x="720" d="M414 757L260 853Q230 872 230 896Q230 912 239 920T266 928Q277 928 286 924T309 905L454 757H414ZM706 643Q674 640 656 633T628 612T615 575T612 516V261Q612 225 610 196T602 143T586 99T558
59Q494 -14 356 -14Q247 -14 186 32Q105 92 105 249V559Q105 584 102 599T90 624T63 637T15 643V662H298V643Q268 640 250 636T223 622T210 595T207 549V237Q207 208 208 185T213 142T227 106T251 75Q273 54 304 42T379 30Q427 30 467 45T531 89Q543 104 550 119T562
154T567 196T568 250V513Q568 552 565 576T551 614T523 635T474 643V662H706V643Z" />
<glyph unicode="&#xda;" glyph-name="Uacute" horiz-adv-x="720" d="M411 905Q425 919 433 923T453 928Q488 928 488 896Q488 873 458 854L304 757H264L411 905ZM705 643Q673 640 655 633T627 612T614 575T611 516V261Q611 225 609 196T601 143T585 99T557 59Q493
-14 355 -14Q246 -14 185 32Q104 92 104 249V559Q104 584 101 599T89 624T62 637T14 643V662H297V643Q267 640 249 636T222 622T209 595T206 549V237Q206 208 207 185T212 142T226 106T250 75Q272 54 303 42T378 30Q426 30 466 45T530 89Q542 104 549 119T561 154T566
196T567 250V513Q567 552 564 576T550 614T522 635T473 643V662H705V643Z" />
<glyph unicode="&#xdb;" glyph-name="Ucircumflex" horiz-adv-x="722" d="M479 757L357 860L236 757H202L326 924H388L513 757H479ZM707 643Q675 640 657 633T629 612T616 575T613 516V261Q613 225 611 196T603 143T587 99T559 59Q495 -14 357 -14Q248 -14 187
32Q106 92 106 249V559Q106 584 103 599T91 624T64 637T16 643V662H299V643Q269 640 251 636T224 622T211 595T208 549V237Q208 208 209 185T214 142T228 106T252 75Q274 54 305 42T380 30Q428 30 468 45T532 89Q544 104 551 119T563 154T568 196T569 250V513Q569
552 566 576T552 614T524 635T475 643V662H707V643Z" />
<glyph unicode="&#xdc;" glyph-name="Udieresis" horiz-adv-x="722" d="M505 822Q505 802 490 788T454 773Q434 773 420 787T406 823Q406 843 420 857T455 872Q475 872 490 857T505 822ZM306 822Q306 802 291 788T255 773Q235 773 221 787T207 823Q207 843 221
857T256 872Q276 872 291 857T306 822ZM707 643Q675 640 657 633T629 612T616 575T613 516V261Q613 225 611 196T603 143T587 99T559 59Q495 -14 357 -14Q248 -14 187 32Q106 92 106 249V559Q106 584 103 599T91 624T64 637T16 643V662H299V643Q269 640 251 636T224
622T211 595T208 549V237Q208 208 209 185T214 142T228 106T252 75Q274 54 305 42T380 30Q428 30 468 45T532 89Q544 104 551 119T563 154T568 196T569 250V513Q569 552 566 576T552 614T524 635T475 643V662H707V643Z" />
<glyph unicode="&#xdd;" glyph-name="Yacute" horiz-adv-x="702" d="M401 905Q415 919 423 923T443 928Q478 928 478 896Q478 873 448 854L294 757H254L401 905ZM691 643Q669 641 653 636T621 618T590 584T553 531L405 303V111Q405 82 409 65T425 38T456 24T508
19V0H202V19Q235 21 255 25T285 39T299 70T303 123V294L172 486Q137 537 115 567T75 614T43 636T10 643V662H289V643L265 642Q218 641 218 616Q218 595 236 569L382 348L527 570Q535 581 538 592T541 612Q540 629 526 635T473 643V662H691V643Z" />
<glyph unicode="&#xde;" glyph-name="Thorn" horiz-adv-x="557" d="M285 532Q345 532 393 520T475 484T527 427T545 351Q545 301 520 259T449 192Q417 174 376 166T274 158Q254 158 240 158T205 161V109Q205 82 208 65T222 38T251 24T299 19V0H19V19Q47 22 64
26T89 40T100 69T103 120V553Q103 580 101 596T89 622T64 635T19 643V662H296V643Q265 640 247 636T220 619T208 587T205 532H285ZM205 201Q222 199 234 199T262 198Q436 198 436 345Q436 423 389 458T237 494Q217 494 211 488T205 461V201Z" />
<glyph unicode="&#xdf;" glyph-name="germandbls" horiz-adv-x="493" d="M79 454Q79 571 122 627T257 683Q335 683 381 642T427 531Q427 504 421 484T399 446T357 412T290 377Q336 368 362 358T412 326Q442 300 458 265T474 186Q474 145 460 109T422 47T366 6T295
-9Q252 -9 225 11T198 64Q198 84 210 98T243 112Q260 112 271 101T285 72L287 50Q289 33 295 27T316 20Q328 20 338 24T356 38Q366 52 373 84T380 150Q380 352 248 357Q216 358 216 374Q216 386 245 389Q340 399 340 516Q340 582 316 619T249 656Q209 656 186 628T163
549V0H18V15Q37 16 49 20T67 31T76 51T79 84V454Z" />
<glyph unicode="&#xe0;" glyph-name="agrave" horiz-adv-x="438" d="M260 507L106 603Q76 622 76 646Q76 662 85 670T112 678Q123 678 132 674T155 655L300 507H260ZM425 38Q402 9 382 0T335 -10Q307 -10 291 6T271 63H270Q230 18 194 4T125 -10Q78 -10 49 17T20
94Q20 133 40 162T90 211Q101 218 115 226T149 243T198 264T270 292V346Q270 393 248 414T192 436Q162 436 142 422T122 387Q122 373 125 367T128 345Q128 331 115 318T82 304Q66 304 53 317T39 350Q39 370 51 391T90 430Q111 444 141 452T205 460Q247 460 276
449T323 415Q332 404 337 394T346 372T350 343T351 304V113Q351 78 359 63T382 47Q394 47 403 51T425 66V38ZM270 268Q178 236 142 202Q108 171 108 125Q108 85 128 67T177 48Q192 48 207 52T235 64Q257 79 263 92T270 127V268Z" />
<glyph unicode="&#xe1;" glyph-name="aacute" horiz-adv-x="437" d="M245 655Q259 669 267 673T287 678Q322 678 322 646Q322 623 292 604L138 507H98L245 655ZM421 38Q398 9 378 0T331 -10Q303 -10 287 6T267 63H266Q226 18 190 4T121 -10Q74 -10 45 17T16 94Q16
133 36 162T86 211Q97 218 111 226T145 243T194 264T266 292V346Q266 393 244 414T188 436Q158 436 138 422T118 387Q118 373 121 367T124 345Q124 331 111 318T78 304Q62 304 49 317T35 350Q35 370 47 391T86 430Q107 444 137 452T201 460Q243 460 272 449T319
415Q328 404 333 394T342 372T346 343T347 304V113Q347 78 355 63T378 47Q390 47 399 51T421 66V38ZM266 268Q174 236 138 202Q104 171 104 125Q104 85 124 67T173 48Q188 48 203 52T231 64Q253 79 259 92T266 127V268Z" />
<glyph unicode="&#xe2;" glyph-name="acircumflex" horiz-adv-x="440" d="M329 507L207 610L86 507H52L176 674H238L363 507H329ZM424 38Q401 9 381 0T334 -10Q306 -10 290 6T270 63H269Q229 18 193 4T124 -10Q77 -10 48 17T19 94Q19 133 39 162T89 211Q100 218
114 226T148 243T197 264T269 292V346Q269 393 247 414T191 436Q161 436 141 422T121 387Q121 373 124 367T127 345Q127 331 114 318T81 304Q65 304 52 317T38 350Q38 370 50 391T89 430Q110 444 140 452T204 460Q246 460 275 449T322 415Q331 404 336 394T345
372T349 343T350 304V113Q350 78 358 63T381 47Q393 47 402 51T424 66V38ZM269 268Q177 236 141 202Q107 171 107 125Q107 85 127 67T176 48Q191 48 206 52T234 64Q256 79 262 92T269 127V268Z" />
<glyph unicode="&#xe3;" glyph-name="atilde" horiz-adv-x="444" d="M373 638Q357 581 334 557T268 532Q249 532 234 536T187 556L164 567Q140 578 123 578Q88 578 72 532H43Q54 581 80 607T144 633Q178 633 214 615L238 603Q266 588 291 588Q308 588 319 599T344
638H373ZM426 38Q403 9 383 0T336 -10Q308 -10 292 6T272 63H271Q231 18 195 4T126 -10Q79 -10 50 17T21 94Q21 133 41 162T91 211Q102 218 116 226T150 243T199 264T271 292V346Q271 393 249 414T193 436Q163 436 143 422T123 387Q123 373 126 367T129 345Q129
331 116 318T83 304Q67 304 54 317T40 350Q40 370 52 391T91 430Q112 444 142 452T206 460Q248 460 277 449T324 415Q333 404 338 394T347 372T351 343T352 304V113Q352 78 360 63T383 47Q395 47 404 51T426 66V38ZM271 268Q179 236 143 202Q109 171 109 125Q109
85 129 67T178 48Q193 48 208 52T236 64Q258 79 264 92T271 127V268Z" />
<glyph unicode="&#xe4;" glyph-name="adieresis" horiz-adv-x="444" d="M357 572Q357 552 342 538T306 523Q286 523 272 537T258 573Q258 593 272 607T307 622Q327 622 342 607T357 572ZM158 572Q158 552 143 538T107 523Q87 523 73 537T59 573Q59 593 73 607T108
622Q128 622 143 607T158 572ZM426 38Q403 9 383 0T336 -10Q308 -10 292 6T272 63H271Q231 18 195 4T126 -10Q79 -10 50 17T21 94Q21 133 41 162T91 211Q102 218 116 226T150 243T199 264T271 292V346Q271 393 249 414T193 436Q163 436 143 422T123 387Q123 373
126 367T129 345Q129 331 116 318T83 304Q67 304 54 317T40 350Q40 370 52 391T91 430Q112 444 142 452T206 460Q248 460 277 449T324 415Q333 404 338 394T347 372T351 343T352 304V113Q352 78 360 63T383 47Q395 47 404 51T426 66V38ZM271 268Q179 236 143 202Q109
171 109 125Q109 85 129 67T178 48Q193 48 208 52T236 64Q258 79 264 92T271 127V268Z" />
<glyph unicode="&#xe5;" glyph-name="aring" horiz-adv-x="440" d="M306 613Q306 592 298 574T277 543T245 522T205 514Q184 514 167 521T136 542T115 574T107 614Q107 635 115 653T136 684T168 705T208 713Q228 713 245 705T276 684T298 652T306 613ZM272 614Q272
641 253 660T205 679Q179 679 160 660T141 614Q141 586 160 567T205 548Q234 548 253 567T272 614ZM424 38Q401 9 381 0T334 -10Q306 -10 290 6T270 63H269Q229 18 193 4T124 -10Q77 -10 48 17T19 94Q19 133 39 162T89 211Q100 218 114 226T148 243T197 264T269
292V346Q269 393 247 414T191 436Q161 436 141 422T121 387Q121 373 124 367T127 345Q127 331 114 318T81 304Q65 304 52 317T38 350Q38 370 50 391T89 430Q110 444 140 452T204 460Q246 460 275 449T322 415Q331 404 336 394T345 372T349 343T350 304V113Q350
78 358 63T381 47Q393 47 402 51T424 66V38ZM269 268Q177 236 141 202Q107 171 107 125Q107 85 127 67T176 48Q191 48 206 52T234 64Q256 79 262 92T269 127V268Z" />
<glyph unicode="&#xe6;" glyph-name="ae" horiz-adv-x="636" d="M616 149Q605 126 596 109T577 78T559 53T537 33Q511 11 482 2T419 -7Q376 -7 346 8T290 63Q264 42 245 28T208 7T174 -4T138 -7Q87 -7 55 22T22 100Q22 122 25 144T38 184T70 218T129 245L258 281V344Q258
392 245 413T197 434Q168 434 149 422T129 392Q129 381 130 373T132 350Q132 329 120 317T88 304Q68 304 56 316T44 352Q44 375 56 394T89 428T140 451T203 460Q241 460 266 450T321 413Q338 426 352 435T379 449T407 457T440 460Q517 460 554 417T600 277H338Q338
239 339 214T344 169T352 136T365 107Q378 84 403 71T460 57Q503 57 535 78T604 154L616 149ZM505 307Q503 373 485 401T426 429Q383 429 363 401T339 307H505ZM258 253Q213 236 184 223T139 195T116 164T109 125Q109 90 124 64T175 38Q189 38 206 43T240 56T266
72T277 88Q277 89 277 89T276 91Q258 149 258 201V253Z" />
<glyph unicode="&#xe7;" glyph-name="ccedilla" horiz-adv-x="421" d="M404 147Q365 68 322 32T218 -10L197 -65Q205 -63 210 -63T223 -62Q264 -62 286 -80T309 -131Q309 -170 276 -192T184 -215Q161 -215 142 -212T100 -199L114 -168Q134 -175 148 -177T179 -180Q205
-180 219 -168T234 -136Q234 -116 222 -108T181 -100Q164 -100 153 -104L146 -99L184 -8Q146 -3 115 15T63 62T29 129T17 212Q17 275 38 325T101 409Q163 460 236 460Q267 460 295 452T344 430T377 397T390 357Q390 340 377 328T343 315Q308 315 295 361L289 383Q281
411 269 421T230 431Q200 431 175 419T132 383T104 328T94 257Q94 214 105 178T137 117T185 77T249 62Q270 62 288 67T322 83T355 112T390 156L404 147Z" />
<glyph unicode="&#xe8;" glyph-name="egrave" horiz-adv-x="431" d="M264 507L110 603Q80 622 80 646Q80 662 89 670T116 678Q127 678 136 674T159 655L304 507H264ZM418 157Q389 75 337 33T209 -10Q165 -10 130 6T70 51T32 123T19 217Q19 270 33 314T75 391T140
442T226 460Q273 460 307 443T365 391Q380 370 388 344T399 277H91Q93 248 95 226T102 185T115 149T137 114Q179 59 248 59Q273 59 293 65T332 83T367 116T402 164L418 157ZM297 309Q289 370 269 397T199 424Q157 424 129 395T93 309H297Z" />
<glyph unicode="&#xe9;" glyph-name="eacute" horiz-adv-x="431" d="M254 655Q268 669 276 673T296 678Q331 678 331 646Q331 623 301 604L147 507H107L254 655ZM415 157Q386 75 334 33T206 -10Q162 -10 127 6T67 51T29 123T16 217Q16 270 30 314T72 391T137 442T223
460Q270 460 304 443T362 391Q377 370 385 344T396 277H88Q90 248 92 226T99 185T112 149T134 114Q176 59 245 59Q270 59 290 65T329 83T364 116T399 164L415 157ZM294 309Q286 370 266 397T196 424Q154 424 126 395T90 309H294Z" />
<glyph unicode="&#xea;" glyph-name="ecircumflex" horiz-adv-x="433" d="M339 507L217 610L96 507H62L186 674H248L373 507H339ZM417 157Q388 75 336 33T208 -10Q164 -10 129 6T69 51T31 123T18 217Q18 270 32 314T74 391T139 442T225 460Q272 460 306 443T364
391Q379 370 387 344T398 277H90Q92 248 94 226T101 185T114 149T136 114Q178 59 247 59Q272 59 292 65T331 83T366 116T401 164L417 157ZM296 309Q288 370 268 397T198 424Q156 424 128 395T92 309H296Z" />
<glyph unicode="&#xeb;" glyph-name="edieresis" horiz-adv-x="437" d="M367 572Q367 552 352 538T316 523Q296 523 282 537T268 573Q268 593 282 607T317 622Q337 622 352 607T367 572ZM168 572Q168 552 153 538T117 523Q97 523 83 537T69 573Q69 593 83 607T118
622Q138 622 153 607T168 572ZM419 157Q390 75 338 33T210 -10Q166 -10 131 6T71 51T33 123T20 217Q20 270 34 314T76 391T141 442T227 460Q274 460 308 443T366 391Q381 370 389 344T400 277H92Q94 248 96 226T103 185T116 149T138 114Q180 59 249 59Q274 59 294
65T333 83T368 116T403 164L419 157ZM298 309Q290 370 270 397T200 424Q158 424 130 395T94 309H298Z" />
<glyph unicode="&#xec;" glyph-name="igrave" horiz-adv-x="265" d="M201 507L47 603Q17 622 17 646Q17 662 26 670T53 678Q64 678 73 674T96 655L241 507H201ZM17 0V15Q43 16 58 19T82 32T93 58T96 104V331Q96 366 89 380T63 394Q56 394 46 394T21 389V405L175
460L180 456V105Q180 77 182 61T192 35T214 21T254 15V0H17Z" />
<glyph unicode="&#xed;" glyph-name="iacute" horiz-adv-x="284" d="M191 655Q205 669 213 673T233 678Q268 678 268 646Q268 623 238 604L84 507H44L191 655ZM11 0V15Q37 16 52 19T76 32T87 58T90 104V331Q90 366 83 380T57 394Q50 394 40 394T15 389V405L169
460L174 456V105Q174 77 176 61T186 35T208 21T248 15V0H11Z" />
<glyph unicode="&#xee;" glyph-name="icircumflex" horiz-adv-x="338" d="M293 507L171 610L50 507H16L140 674H202L327 507H293ZM16 0V15Q42 16 57 19T81 32T92 58T95 104V331Q95 366 88 380T62 394Q55 394 45 394T20 389V405L174 460L179 456V105Q179 77 181
61T191 35T213 21T253 15V0H16Z" />
<glyph unicode="&#xef;" glyph-name="idieresis" horiz-adv-x="333" d="M317 572Q317 552 302 538T266 523Q246 523 232 537T218 573Q218 593 232 607T267 622Q287 622 302 607T317 572ZM118 572Q118 552 103 538T67 523Q47 523 33 537T19 573Q19 593 33 607T68
622Q88 622 103 607T118 572ZM19 0V15Q45 16 60 19T84 32T95 58T98 104V331Q98 366 91 380T65 394Q58 394 48 394T23 389V405L177 460L182 456V105Q182 77 184 61T194 35T216 21T256 15V0H19Z" />
<glyph unicode="&#xf0;" glyph-name="eth" horiz-adv-x="479" d="M321 608Q393 547 426 464T459 285Q459 229 445 178T406 87Q376 39 335 15T233 -10Q186 -10 147 6T78 51T33 122T17 217Q17 270 34 314T80 391T149 442T234 460Q252 460 266 458T294 448T322 430T355
400Q350 427 342 450T323 495T296 535T258 575L135 510L102 540L223 604Q191 630 161 641T89 659L131 683Q181 680 217 670T284 636L379 686L412 656L321 608ZM369 202Q369 253 359 295T329 368T283 415T223 432Q197 432 176 420T140 388T116 340T107 281Q107 243
114 198T139 112T183 45T251 18Q303 18 336 66T369 202Z" />
<glyph unicode="&#xf1;" glyph-name="ntilde" horiz-adv-x="505" d="M423 638Q407 581 384 557T318 532Q299 532 284 536T237 556L214 567Q190 578 173 578Q138 578 122 532H93Q104 581 130 607T194 633Q228 633 264 615L288 603Q316 588 341 588Q358 588 369
599T394 638H423ZM279 0L280 15Q299 16 311 21T330 36T339 63T342 105V304Q342 358 324 381T269 405Q244 405 222 394T166 348V72Q166 43 179 31T231 15V0H20V15Q58 18 70 34T82 94V337Q82 374 75 388T47 402Q39 402 31 401T18 398V415Q39 421 56 426T89 436T121
447T155 460L163 457V379H164Q203 424 238 442T308 460Q365 460 395 421T426 306V85Q426 65 428 52T438 32T457 21T487 15V0H279Z" />
<glyph unicode="&#xf2;" glyph-name="ograve" horiz-adv-x="474" d="M281 507L127 603Q97 622 97 646Q97 662 106 670T133 678Q144 678 153 674T176 655L321 507H281ZM459 231Q459 179 443 135T398 59T327 8T234 -10Q189 -10 150 7T81 56T35 132T18 228Q18 280
34 323T79 396T150 443T243 460Q289 460 328 444T397 397T442 325T459 231ZM369 204Q369 255 356 303T319 382Q301 405 279 418T224 432Q172 432 140 390T108 273Q108 213 120 161T161 68Q195 18 251 18Q307 18 338 67T369 204Z" />
<glyph unicode="&#xf3;" glyph-name="oacute" horiz-adv-x="474" d="M287 655Q301 669 309 673T329 678Q364 678 364 646Q364 623 334 604L180 507H140L287 655ZM456 231Q456 179 440 135T395 59T324 8T231 -10Q186 -10 147 7T78 56T32 132T15 228Q15 280 31 323T76
396T147 443T240 460Q286 460 325 444T394 397T439 325T456 231ZM366 204Q366 255 353 303T316 382Q298 405 276 418T221 432Q169 432 137 390T105 273Q105 213 117 161T158 68Q192 18 248 18Q304 18 335 67T366 204Z" />
<glyph unicode="&#xf4;" glyph-name="ocircumflex" horiz-adv-x="476" d="M356 507L234 610L113 507H79L203 674H265L390 507H356ZM459 231Q459 179 443 135T398 59T327 8T234 -10Q189 -10 150 7T81 56T35 132T18 228Q18 280 34 323T79 396T150 443T243 460Q289
460 328 444T397 397T442 325T459 231ZM369 204Q369 255 356 303T319 382Q301 405 279 418T224 432Q172 432 140 390T108 273Q108 213 120 161T161 68Q195 18 251 18Q307 18 338 67T369 204Z" />
<glyph unicode="&#xf5;" glyph-name="otilde" horiz-adv-x="479" d="M400 638Q384 581 361 557T295 532Q276 532 261 536T214 556L191 567Q167 578 150 578Q115 578 99 532H70Q81 581 107 607T171 633Q205 633 241 615L265 603Q293 588 318 588Q335 588 346 599T371
638H400ZM460 231Q460 179 444 135T399 59T328 8T235 -10Q190 -10 151 7T82 56T36 132T19 228Q19 280 35 323T80 396T151 443T244 460Q290 460 329 444T398 397T443 325T460 231ZM370 204Q370 255 357 303T320 382Q302 405 280 418T225 432Q173 432 141 390T109
273Q109 213 121 161T162 68Q196 18 252 18Q308 18 339 67T370 204Z" />
<glyph unicode="&#xf6;" glyph-name="odieresis" horiz-adv-x="479" d="M384 572Q384 552 369 538T333 523Q313 523 299 537T285 573Q285 593 299 607T334 622Q354 622 369 607T384 572ZM185 572Q185 552 170 538T134 523Q114 523 100 537T86 573Q86 593 100 607T135
622Q155 622 170 607T185 572ZM460 231Q460 179 444 135T399 59T328 8T235 -10Q190 -10 151 7T82 56T36 132T19 228Q19 280 35 323T80 396T151 443T244 460Q290 460 329 444T398 397T443 325T460 231ZM370 204Q370 255 357 303T320 382Q302 405 280 418T225 432Q173
432 141 390T109 273Q109 213 121 161T162 68Q196 18 252 18Q308 18 339 67T370 204Z" />
<glyph unicode="&#xf7;" glyph-name="divide" horiz-adv-x="524" d="M318 459Q318 437 302 421T262 405Q239 405 223 421T207 460Q207 483 223 499T263 516Q285 516 301 499T318 459ZM10 220V286H514V220H10ZM318 44Q318 22 302 6T262 -10Q239 -10 223 6T207 45Q207
68 223 84T263 101Q285 101 301 84T318 44Z" />
<glyph unicode="&#xf8;" glyph-name="oslash" horiz-adv-x="474" d="M360 426Q411 391 434 344T458 234Q458 182 441 138T394 60T324 9T235 -10Q209 -10 189 -6T142 11L77 -112H40L113 28Q86 50 73 64T48 101Q33 129 25 161T17 227Q17 278 33 321T78 394T148 442T237
460Q262 460 282 456T329 442L386 551H425L360 426ZM305 396Q285 416 267 424T225 432Q171 432 139 390T107 277Q107 224 116 180T146 92L305 396ZM167 60Q186 37 204 28T249 18Q306 18 337 66T368 203Q368 251 359 288T328 366L167 60Z" />
<glyph unicode="&#xf9;" glyph-name="ugrave" horiz-adv-x="502" d="M307 507L153 603Q123 622 123 646Q123 662 132 670T159 678Q170 678 179 674T202 655L347 507H307ZM488 36Q450 25 420 16T351 -9L346 -6V76H344Q307 26 268 8T201 -10Q143 -10 111 25T79 118V369Q79
407 66 420T17 436V450H163V127Q163 92 184 70T234 48Q256 48 277 55T318 79Q330 90 335 100T341 137V368Q341 388 338 400T327 419T304 428T267 433V450H425V107Q425 72 436 61T482 50H488V36Z" />
<glyph unicode="&#xfa;" glyph-name="uacute" horiz-adv-x="502" d="M308 655Q322 669 330 673T350 678Q385 678 385 646Q385 623 355 604L201 507H161L308 655ZM485 36Q447 25 417 16T348 -9L343 -6V76H341Q304 26 265 8T198 -10Q140 -10 108 25T76 118V369Q76
407 63 420T14 436V450H160V127Q160 92 181 70T231 48Q253 48 274 55T315 79Q327 90 332 100T338 137V368Q338 388 335 400T324 419T301 428T264 433V450H422V107Q422 72 433 61T479 50H485V36Z" />
<glyph unicode="&#xfb;" glyph-name="ucircumflex" horiz-adv-x="503" d="M374 507L252 610L131 507H97L221 674H283L408 507H374ZM487 36Q449 25 419 16T350 -9L345 -6V76H343Q306 26 267 8T200 -10Q142 -10 110 25T78 118V369Q78 407 65 420T16 436V450H162V127Q162
92 183 70T233 48Q255 48 276 55T317 79Q329 90 334 100T340 137V368Q340 388 337 400T326 419T303 428T266 433V450H424V107Q424 72 435 61T481 50H487V36Z" />
<glyph unicode="&#xfc;" glyph-name="udieresis" horiz-adv-x="506" d="M401 572Q401 552 386 538T350 523Q330 523 316 537T302 573Q302 593 316 607T351 622Q371 622 386 607T401 572ZM202 572Q202 552 187 538T151 523Q131 523 117 537T103 573Q103 593 117
607T152 622Q172 622 187 607T202 572ZM488 36Q450 25 420 16T351 -9L346 -6V76H344Q307 26 268 8T201 -10Q143 -10 111 25T79 118V369Q79 407 66 420T17 436V450H163V127Q163 92 184 70T234 48Q256 48 277 55T318 79Q330 90 335 100T341 137V368Q341 388 338 400T327
419T304 428T267 433V450H425V107Q425 72 436 61T482 50H488V36Z" />
<glyph unicode="&#xfd;" glyph-name="yacute" horiz-adv-x="485" d="M289 655Q303 669 311 673T331 678Q366 678 366 646Q366 623 336 604L182 507H142L289 655ZM474 435Q456 433 446 423T424 384L274 -25Q254 -78 235 -115T196 -175T151 -208T99 -218Q67 -218
48 -202T29 -160Q29 -141 41 -128T72 -114Q86 -114 98 -116T124 -127Q132 -132 138 -133T150 -134Q161 -134 174 -121T200 -90Q207 -79 214 -63T227 -31T236 -2T240 18Q240 24 236 34T226 59T213 88T198 119L66 401Q58 418 46 425T13 436V450H218V435Q186 433 174
428T161 408Q161 400 165 389T174 367L286 117L383 393Q385 398 386 403T387 411Q387 435 341 435V450H474V435Z" />
<glyph unicode="&#xfe;" glyph-name="thorn" horiz-adv-x="494" d="M173 380Q205 423 240 441T317 460Q396 460 440 404T484 247Q484 193 468 146T424 65T357 10T274 -10Q258 -10 246 -8T222 -1T198 12T173 33V-121Q173 -145 176 -160T188 -183T214 -195T259 -199V-217H19V-199Q41
-197 55 -193T76 -181T86 -161T89 -128V568Q89 600 80 612T40 624Q35 624 31 624T23 622V639Q49 646 68 651T103 662T134 672T167 683L173 679V380ZM173 90Q173 79 182 67T207 45T240 29T276 22Q304 22 327 36T365 76T389 137T398 213Q398 400 275 400Q259 400
241 394T208 377T183 355T173 332V90Z" />
<glyph unicode="&#xff;" glyph-name="ydieresis" horiz-adv-x="487" d="M397 572Q397 552 382 538T346 523Q326 523 312 537T298 573Q298 593 312 607T347 622Q367 622 382 607T397 572ZM198 572Q198 552 183 538T147 523Q127 523 113 537T99 573Q99 593 113 607T148
622Q168 622 183 607T198 572ZM476 435Q458 433 448 423T426 384L276 -25Q256 -78 237 -115T198 -175T153 -208T101 -218Q69 -218 50 -202T31 -160Q31 -141 43 -128T74 -114Q88 -114 100 -116T126 -127Q134 -132 140 -133T152 -134Q163 -134 176 -121T202 -90Q209
-79 216 -63T229 -31T238 -2T242 18Q242 24 238 34T228 59T215 88T200 119L68 401Q60 418 48 425T15 436V450H220V435Q188 433 176 428T163 408Q163 400 167 389T176 367L288 117L385 393Q387 398 388 403T389 411Q389 435 343 435V450H476V435Z" />
<glyph unicode="&#x100;" glyph-name="uni0100" horiz-adv-x="716" d="M197 719V773H508V719H197ZM449 0V19Q476 19 485 21T504 28Q510 31 514 38T518 52Q518 63 513 82T499 122L458 216H196L150 102Q146 92 144 81T141 60Q141 37 158 28T211 19V0H12V19Q34 21
48 28T74 52T101 101T138 186L344 674H364L610 111Q620 87 629 70T648 43T671 27T704 19V0H449ZM328 532L213 257H444L328 532Z" />
<glyph unicode="&#x101;" glyph-name="uni0101" horiz-adv-x="439" d="M50 507V561H361V507H50ZM423 38Q400 9 380 0T333 -10Q305 -10 289 6T269 63H268Q228 18 192 4T123 -10Q76 -10 47 17T18 94Q18 133 38 162T88 211Q99 218 113 226T147 243T196 264T268 292V346Q268
393 246 414T190 436Q160 436 140 422T120 387Q120 373 123 367T126 345Q126 331 113 318T80 304Q64 304 51 317T37 350Q37 370 49 391T88 430Q109 444 139 452T203 460Q245 460 274 449T321 415Q330 404 335 394T344 372T348 343T349 304V113Q349 78 357 63T380
47Q392 47 401 51T423 66V38ZM268 268Q176 236 140 202Q106 171 106 125Q106 85 126 67T175 48Q190 48 205 52T233 64Q255 79 261 92T268 127V268Z" />
<glyph unicode="&#x102;" glyph-name="uni0102" horiz-adv-x="722" d="M499 876Q481 719 357 719Q286 719 252 761T218 876H247Q267 779 359 779Q399 779 423 801T470 876H499ZM452 0V19Q479 19 488 21T507 28Q513 31 517 38T521 52Q521 63 516 82T502 122L461
216H199L153 102Q149 92 147 81T144 60Q144 37 161 28T214 19V0H15V19Q37 21 51 28T77 52T104 101T141 186L347 674H367L613 111Q623 87 632 70T651 43T674 27T707 19V0H452ZM331 532L216 257H447L331 532Z" />
<glyph unicode="&#x103;" glyph-name="uni0103" horiz-adv-x="443" d="M355 664Q337 507 213 507Q142 507 108 549T74 664H103Q123 567 215 567Q255 567 279 589T326 664H355ZM425 38Q402 9 382 0T335 -10Q307 -10 291 6T271 63H270Q230 18 194 4T125 -10Q78 -10
49 17T20 94Q20 133 40 162T90 211Q101 218 115 226T149 243T198 264T270 292V346Q270 393 248 414T192 436Q162 436 142 422T122 387Q122 373 125 367T128 345Q128 331 115 318T82 304Q66 304 53 317T39 350Q39 370 51 391T90 430Q111 444 141 452T205 460Q247
460 276 449T323 415Q332 404 337 394T346 372T350 343T351 304V113Q351 78 359 63T382 47Q394 47 403 51T425 66V38ZM270 268Q178 236 142 202Q108 171 108 125Q108 85 128 67T177 48Q192 48 207 52T235 64Q257 79 263 92T270 127V268Z" />
<glyph unicode="&#x104;" glyph-name="uni0104" horiz-adv-x="716" d="M447 0V19Q474 19 483 21T502 28Q508 31 512 38T516 52Q516 63 511 82T497 122L456 216H194L148 102Q144 92 142 81T139 60Q139 37 156 28T209 19V0H10V19Q32 21 46 28T72 52T99 101T136 186L342
674H362L608 111Q618 87 627 70T646 43T669 27T702 19V0H602Q579 -19 569 -36T558 -70Q558 -91 568 -100T596 -109Q612 -109 628 -101T667 -73L687 -89Q660 -130 636 -147T576 -165Q544 -165 523 -146T502 -91Q502 -64 514 -42T556 0H447ZM326 532L211 257H442L326
532Z" />
<glyph unicode="&#x105;" glyph-name="uni0105" horiz-adv-x="466" d="M450 -89Q423 -130 399 -147T339 -165Q307 -165 286 -146T265 -91Q265 -66 275 -46T309 -7Q291 -2 280 14T266 63H265Q225 18 189 4T120 -10Q73 -10 44 17T15 94Q15 133 35 162T85 211Q96
218 110 226T144 243T193 264T265 292V346Q265 393 243 414T187 436Q157 436 137 422T117 387Q117 373 120 367T123 345Q123 331 110 318T77 304Q61 304 48 317T34 350Q34 370 46 391T85 430Q106 444 136 452T200 460Q242 460 271 449T318 415Q327 404 332 394T341
372T345 343T346 304V113Q346 78 354 63T377 47Q389 47 398 51T420 66V38Q403 17 388 7T356 -7Q321 -39 321 -70Q321 -91 331 -100T359 -109Q375 -109 391 -101T430 -73L450 -89ZM265 268Q173 236 137 202Q103 171 103 125Q103 85 123 67T172 48Q187 48 202 52T230
64Q252 79 258 92T265 127V268Z" />
<glyph unicode="&#x106;" glyph-name="uni0106" horiz-adv-x="638" d="M427 867Q441 881 449 885T469 890Q504 890 504 858Q504 835 474 816L320 719H280L427 867ZM620 113Q576 50 506 18T347 -14Q278 -14 217 9T111 75Q65 120 40 185T15 325Q15 400 38 462T105
572Q153 626 215 651T348 676Q377 676 407 673T467 661Q483 656 503 650T536 643Q550 643 561 651T578 676H598L607 449H584Q575 491 563 515T532 560Q499 595 460 615T371 636Q314 636 270 614T195 553T148 460T131 341Q131 258 149 199T203 102Q236 67 282 49T381
30Q415 30 443 36T496 54T547 85T601 131L620 113Z" />
<glyph unicode="&#x107;" glyph-name="uni0107" horiz-adv-x="420" d="M313 655Q327 669 335 673T355 678Q390 678 390 646Q390 623 360 604L206 507H166L313 655ZM401 147Q377 100 360 75T319 32Q268 -10 204 -10Q162 -10 128 6T68 52T28 123T14 212Q14 275 35
325T98 409Q160 460 233 460Q264 460 292 452T341 430T374 397T387 357Q387 340 374 328T340 315Q305 315 292 361L286 383Q278 411 266 421T227 431Q197 431 172 419T129 383T101 328T91 257Q91 214 102 178T134 117T182 77T246 62Q267 62 285 67T319 83T352 112T387
156L401 147Z" />
<glyph unicode="&#x108;" glyph-name="uni0108" horiz-adv-x="639" d="M465 719L343 822L222 719H188L312 886H374L499 719H465ZM622 113Q578 50 508 18T349 -14Q280 -14 219 9T113 75Q67 120 42 185T17 325Q17 400 40 462T107 572Q155 626 217 651T350 676Q379
676 409 673T469 661Q485 656 505 650T538 643Q552 643 563 651T580 676H600L609 449H586Q577 491 565 515T534 560Q501 595 462 615T373 636Q316 636 272 614T197 553T150 460T133 341Q133 258 151 199T205 102Q238 67 284 49T383 30Q417 30 445 36T498 54T549
85T603 131L622 113Z" />
<glyph unicode="&#x109;" glyph-name="uni0109" horiz-adv-x="421" d="M335 507L213 610L92 507H58L182 674H244L369 507H335ZM405 147Q381 100 364 75T323 32Q272 -10 208 -10Q166 -10 132 6T72 52T32 123T18 212Q18 275 39 325T102 409Q164 460 237 460Q268
460 296 452T345 430T378 397T391 357Q391 340 378 328T344 315Q309 315 296 361L290 383Q282 411 270 421T231 431Q201 431 176 419T133 383T105 328T95 257Q95 214 106 178T138 117T186 77T250 62Q271 62 289 67T323 83T356 112T391 156L405 147Z" />
<glyph unicode="&#x10a;" glyph-name="uni010A" horiz-adv-x="637" d="M438 784Q438 762 423 749T388 735Q368 735 354 749T339 784Q339 804 352 819T388 834Q411 834 424 820T438 784ZM621 113Q577 50 507 18T348 -14Q279 -14 218 9T112 75Q66 120 41 185T16
325Q16 400 39 462T106 572Q154 626 216 651T349 676Q378 676 408 673T468 661Q484 656 504 650T537 643Q551 643 562 651T579 676H599L608 449H585Q576 491 564 515T533 560Q500 595 461 615T372 636Q315 636 271 614T196 553T149 460T132 341Q132 258 150 199T204
102Q237 67 283 49T382 30Q416 30 444 36T497 54T548 85T602 131L621 113Z" />
<glyph unicode="&#x10b;" glyph-name="uni010B" horiz-adv-x="419" d="M292 572Q292 550 277 537T242 523Q222 523 208 537T193 572Q193 592 206 607T242 622Q265 622 278 608T292 572ZM403 147Q379 100 362 75T321 32Q270 -10 206 -10Q164 -10 130 6T70 52T30
123T16 212Q16 275 37 325T100 409Q162 460 235 460Q266 460 294 452T343 430T376 397T389 357Q389 340 376 328T342 315Q307 315 294 361L288 383Q280 411 268 421T229 431Q199 431 174 419T131 383T103 328T93 257Q93 214 104 178T136 117T184 77T248 62Q269
62 287 67T321 83T354 112T389 156L403 147Z" />
<glyph unicode="&#x10c;" glyph-name="uni010C" horiz-adv-x="640" d="M408 719H344L221 886H256L376 783L497 886H532L408 719ZM622 113Q578 50 508 18T349 -14Q280 -14 219 9T113 75Q67 120 42 185T17 325Q17 400 40 462T107 572Q155 626 217 651T350 676Q379
676 409 673T469 661Q485 656 505 650T538 643Q552 643 563 651T580 676H600L609 449H586Q577 491 565 515T534 560Q501 595 462 615T373 636Q316 636 272 614T197 553T150 460T133 341Q133 258 151 199T205 102Q238 67 284 49T383 30Q417 30 445 36T498 54T549
85T603 131L622 113Z" />
<glyph unicode="&#x10d;" glyph-name="uni010D" horiz-adv-x="423" d="M265 507H201L78 674H113L233 571L354 674H389L265 507ZM405 147Q381 100 364 75T323 32Q272 -10 208 -10Q166 -10 132 6T72 52T32 123T18 212Q18 275 39 325T102 409Q164 460 237 460Q268
460 296 452T345 430T378 397T391 357Q391 340 378 328T344 315Q309 315 296 361L290 383Q282 411 270 421T231 431Q201 431 176 419T133 383T105 328T95 257Q95 214 106 178T138 117T186 77T250 62Q271 62 289 67T323 83T356 112T391 156L405 147Z" />
<glyph unicode="&#x10e;" glyph-name="uni010E" horiz-adv-x="703" d="M373 719H309L186 886H221L341 783L462 886H497L373 719ZM287 662Q384 662 460 639T587 571Q686 486 686 334Q686 244 652 176T550 64Q503 34 439 17T298 0H17V19Q46 21 63 25T90 39T102 68T105
115V550Q105 580 102 597T90 624T63 637T17 643V662H287ZM207 84Q207 58 216 48T255 37Q294 37 324 39T380 48T428 64T473 89Q577 159 577 328Q577 406 554 460T482 556Q438 595 387 610T260 625Q231 625 219 617T207 583V84Z" />
<glyph unicode="&#x10f;" glyph-name="uni010F" horiz-adv-x="610" d="M471 477Q553 533 553 584Q553 597 539 597H537Q536 597 532 595Q527 594 522 594T512 593Q484 593 469 606T453 644Q453 670 469 685T512 701Q546 701 569 676T592 612Q592 567 562 525T480
458L471 477ZM332 -10L328 -7V57Q302 22 272 6T200 -10Q158 -10 124 5T66 49T29 117T15 205Q15 258 31 304T76 385T142 440T223 460Q253 460 276 451T328 417V573Q328 604 319 614T282 624Q276 624 271 624T260 623V639Q284 645 303 650T339 661T373 671T407 683L412
681V114Q412 79 420 68T456 57Q460 57 463 57T479 58V42L332 -10ZM328 332Q328 352 320 370T297 402T265 424T226 432Q169 432 135 381T101 245Q101 199 110 162T138 98T181 57T239 42Q286 42 313 74Q328 91 328 102V332Z" />
<glyph unicode="&#x110;" glyph-name="uni0110" horiz-adv-x="709" d="M290 662Q384 662 458 640T583 576T662 473T689 334Q689 258 661 192T579 82Q532 44 460 22T304 0H20V19Q48 21 65 25T92 39T105 65T108 109V315H25V359H108V553Q108 581 106 597T94 623T68
636T20 643V662H290ZM210 78Q210 54 221 46T261 37Q327 37 373 46T458 78Q580 149 580 327Q580 409 549 473T458 577Q422 602 374 613T259 625Q230 625 220 617T210 586V359H356V315H210V78Z" />
<glyph unicode="&#x111;" glyph-name="uni0111" horiz-adv-x="512" d="M412 522V114Q412 79 420 68T456 57Q460 57 463 57T479 58V42L332 -10L328 -7V57Q302 22 272 6T200 -10Q158 -10 124 5T66 49T29 117T15 205Q15 258 31 304T76 385T142 440T223 460Q253 460
276 451T328 417V522H153V561H328V573Q328 604 319 614T282 624Q276 624 271 624T260 623V639Q284 645 303 650T339 661T373 671T407 683L412 681V561H495V522H412ZM328 332Q328 352 320 370T297 402T265 424T226 432Q169 432 135 381T101 245Q101 199 110 162T138
98T181 57T239 42Q286 42 313 74Q328 91 328 102V332Z" />
<glyph unicode="&#x112;" glyph-name="uni0112" horiz-adv-x="619" d="M155 719V773H466V719H155ZM556 0H17V19Q46 21 63 25T89 39T101 67T104 114V550Q104 578 101 595T89 623T62 637T17 643V662H547L551 519H526Q520 553 512 573T487 605T443 620T372 624H241Q220
624 213 618T206 588V368H357Q389 368 409 372T441 386T459 415T470 464H493V230H470Q465 261 459 280T441 310T409 323T357 327H206V84Q206 68 211 59T229 45T260 39T307 37H343Q397 37 433 42T495 63T539 103T574 169H602L556 0Z" />
<glyph unicode="&#x113;" glyph-name="uni0113" horiz-adv-x="434" d="M64 507V561H375V507H64ZM418 157Q389 75 337 33T209 -10Q165 -10 130 6T70 51T32 123T19 217Q19 270 33 314T75 391T140 442T226 460Q273 460 307 443T365 391Q380 370 388 344T399 277H91Q93
248 95 226T102 185T115 149T137 114Q179 59 248 59Q273 59 293 65T332 83T367 116T402 164L418 157ZM297 309Q289 370 269 397T199 424Q157 424 129 395T93 309H297Z" />
<glyph unicode="&#x114;" glyph-name="uni0114" horiz-adv-x="620" d="M457 876Q439 719 315 719Q244 719 210 761T176 876H205Q225 779 317 779Q357 779 381 801T428 876H457ZM556 0H17V19Q46 21 63 25T89 39T101 67T104 114V550Q104 578 101 595T89 623T62 637T17
643V662H547L551 519H526Q520 553 512 573T487 605T443 620T372 624H241Q220 624 213 618T206 588V368H357Q389 368 409 372T441 386T459 415T470 464H493V230H470Q465 261 459 280T441 310T409 323T357 327H206V84Q206 68 211 59T229 45T260 39T307 37H343Q397
37 433 42T495 63T539 103T574 169H602L556 0Z" />
<glyph unicode="&#x115;" glyph-name="uni0115" horiz-adv-x="437" d="M357 664Q339 507 215 507Q144 507 110 549T76 664H105Q125 567 217 567Q257 567 281 589T328 664H357ZM419 157Q390 75 338 33T210 -10Q166 -10 131 6T71 51T33 123T20 217Q20 270 34 314T76
391T141 442T227 460Q274 460 308 443T366 391Q381 370 389 344T400 277H92Q94 248 96 226T103 185T116 149T138 114Q180 59 249 59Q274 59 294 65T333 83T368 116T403 164L419 157ZM298 309Q290 370 270 397T200 424Q158 424 130 395T94 309H298Z" />
<glyph unicode="&#x116;" glyph-name="uni0116" horiz-adv-x="615" d="M353 784Q353 762 338 749T303 735Q283 735 269 749T254 784Q254 804 267 819T303 834Q326 834 339 820T353 784ZM554 0H15V19Q44 21 61 25T87 39T99 67T102 114V550Q102 578 99 595T87 623T60
637T15 643V662H545L549 519H524Q518 553 510 573T485 605T441 620T370 624H239Q218 624 211 618T204 588V368H355Q387 368 407 372T439 386T457 415T468 464H491V230H468Q463 261 457 280T439 310T407 323T355 327H204V84Q204 68 209 59T227 45T258 39T305 37H341Q395
37 431 42T493 63T537 103T572 169H600L554 0Z" />
<glyph unicode="&#x117;" glyph-name="uni0117" horiz-adv-x="431" d="M282 572Q282 550 267 537T232 523Q212 523 198 537T183 572Q183 592 196 607T232 622Q255 622 268 608T282 572ZM416 157Q387 75 335 33T207 -10Q163 -10 128 6T68 51T30 123T17 217Q17 270
31 314T73 391T138 442T224 460Q271 460 305 443T363 391Q378 370 386 344T397 277H89Q91 248 93 226T100 185T113 149T135 114Q177 59 246 59Q271 59 291 65T330 83T365 116T400 164L416 157ZM295 309Q287 370 267 397T197 424Q155 424 127 395T91 309H295Z" />
<glyph unicode="&#x118;" glyph-name="uni0118" horiz-adv-x="618" d="M15 0V19Q44 21 61 25T87 39T99 67T102 114V550Q102 578 99 595T87 623T60 637T15 643V662H545L549 519H524Q518 553 510 573T485 605T441 620T370 624H239Q218 624 211 618T204 588V368H355Q387
368 407 372T439 386T457 415T468 464H491V230H468Q463 261 457 280T439 310T407 323T355 327H204V84Q204 68 209 59T227 45T258 39T305 37H341Q395 37 431 42T493 63T537 103T572 169H600L554 0H431Q408 -19 398 -36T387 -70Q387 -91 397 -100T425 -109Q441 -109
457 -101T496 -73L516 -89Q489 -130 465 -147T405 -165Q373 -165 352 -146T331 -91Q331 -64 343 -42T385 0H15Z" />
<glyph unicode="&#x119;" glyph-name="uni0119" horiz-adv-x="433" d="M358 -89Q331 -130 307 -147T247 -165Q215 -165 194 -146T173 -91Q173 -67 182 -48T214 -10H207Q163 -10 128 6T68 51T30 123T17 217Q17 270 31 314T73 391T138 442T224 460Q271 460 305 443T363
391Q378 370 386 344T397 277H89Q91 248 93 226T100 185T113 149T135 114Q177 59 246 59Q271 59 291 65T330 83T365 116T400 164L416 157Q370 30 272 0Q229 -36 229 -70Q229 -91 239 -100T267 -109Q283 -109 299 -101T338 -73L358 -89ZM295 309Q287 370 267 397T197
424Q155 424 127 395T91 309H295Z" />
<glyph unicode="&#x11a;" glyph-name="uni011A" horiz-adv-x="619" d="M349 719H285L162 886H197L317 783L438 886H473L349 719ZM555 0H16V19Q45 21 62 25T88 39T100 67T103 114V550Q103 578 100 595T88 623T61 637T16 643V662H546L550 519H525Q519 553 511 573T486
605T442 620T371 624H240Q219 624 212 618T205 588V368H356Q388 368 408 372T440 386T458 415T469 464H492V230H469Q464 261 458 280T440 310T408 323T356 327H205V84Q205 68 210 59T228 45T259 39T306 37H342Q396 37 432 42T494 63T538 103T573 169H601L555 0Z"
/>
<glyph unicode="&#x11b;" glyph-name="uni011B" horiz-adv-x="435" d="M265 507H201L78 674H113L233 571L354 674H389L265 507ZM417 157Q388 75 336 33T208 -10Q164 -10 129 6T69 51T31 123T18 217Q18 270 32 314T74 391T139 442T225 460Q272 460 306 443T364
391Q379 370 387 344T398 277H90Q92 248 94 226T101 185T114 149T136 114Q178 59 247 59Q272 59 292 65T331 83T366 116T401 164L417 157ZM296 309Q288 370 268 397T198 424Q156 424 128 395T92 309H296Z" />
<glyph unicode="&#x11c;" glyph-name="uni011C" horiz-adv-x="711" d="M461 719L339 822L218 719H184L308 886H370L495 719H461ZM695 336Q673 334 660 331T639 319T628 295T625 256V56Q583 22 516 4T371 -14Q294 -14 223 13T101 93Q18 180 18 327Q18 410 46 477T125
590Q170 632 230 654T364 676Q405 676 434 670T497 653Q524 643 541 643Q557 643 569 652T586 676H608L616 465H593Q584 488 576 505T560 535T542 559T522 581Q493 608 456 622T376 636Q324 636 283 618T209 567Q169 527 151 463T132 324Q132 254 151 199T204 106T287
47T395 26Q453 26 490 44T528 87V244Q528 273 525 290T513 317T487 330T439 336V354H695V336Z" />
<glyph unicode="&#x11d;" glyph-name="uni011D" horiz-adv-x="477" d="M361 507L239 610L118 507H84L208 674H270L395 507H361ZM377 388Q388 364 392 345T396 304Q396 227 344 188Q320 170 293 160T240 149Q229 149 202 152L183 154Q173 151 163 144T143 127T129
108T123 91Q123 79 141 73T201 64L330 58Q386 56 418 27T451 -49Q451 -107 391 -154Q352 -184 299 -201T191 -218Q155 -218 124 -211T69 -190T32 -159T18 -121Q18 -93 40 -66T116 1Q84 16 74 26T63 54Q63 69 73 85T109 123Q131 142 152 163Q101 188 80 218T59 297Q59
331 72 361T107 413T160 447T226 460Q265 460 306 445L328 437Q343 432 355 430T383 427H460V388H377ZM142 335Q142 263 170 219T245 174Q279 174 299 198T319 264Q319 295 311 327T289 385Q264 432 216 432Q181 432 162 408T142 338V335ZM423 -64Q423 -36 396
-26T299 -15Q281 -15 258 -14T213 -11T170 -7T137 -2Q122 -20 113 -32T98 -54T90 -71T88 -88Q88 -121 127 -141T233 -161Q319 -161 371 -135T423 -64Z" />
<glyph unicode="&#x11e;" glyph-name="uni011E" horiz-adv-x="712" d="M510 876Q492 719 368 719Q297 719 263 761T229 876H258Q278 779 370 779Q410 779 434 801T481 876H510ZM695 336Q673 334 660 331T639 319T628 295T625 256V56Q583 22 516 4T371 -14Q294
-14 223 13T101 93Q18 180 18 327Q18 410 46 477T125 590Q170 632 230 654T364 676Q405 676 434 670T497 653Q524 643 541 643Q557 643 569 652T586 676H608L616 465H593Q584 488 576 505T560 535T542 559T522 581Q493 608 456 622T376 636Q324 636 283 618T209
567Q169 527 151 463T132 324Q132 254 151 199T204 106T287 47T395 26Q453 26 490 44T528 87V244Q528 273 525 290T513 317T487 330T439 336V354H695V336Z" />
<glyph unicode="&#x11f;" glyph-name="uni011F" horiz-adv-x="478" d="M371 664Q353 507 229 507Q158 507 124 549T90 664H119Q139 567 231 567Q271 567 295 589T342 664H371ZM378 388Q389 364 393 345T397 304Q397 227 345 188Q321 170 294 160T241 149Q230 149
203 152L184 154Q174 151 164 144T144 127T130 108T124 91Q124 79 142 73T202 64L331 58Q387 56 419 27T452 -49Q452 -107 392 -154Q353 -184 300 -201T192 -218Q156 -218 125 -211T70 -190T33 -159T19 -121Q19 -93 41 -66T117 1Q85 16 75 26T64 54Q64 69 74 85T110
123Q132 142 153 163Q102 188 81 218T60 297Q60 331 73 361T108 413T161 447T227 460Q266 460 307 445L329 437Q344 432 356 430T384 427H461V388H378ZM143 335Q143 263 171 219T246 174Q280 174 300 198T320 264Q320 295 312 327T290 385Q265 432 217 432Q182
432 163 408T143 338V335ZM424 -64Q424 -36 397 -26T300 -15Q282 -15 259 -14T214 -11T171 -7T138 -2Q123 -20 114 -32T99 -54T91 -71T89 -88Q89 -121 128 -141T234 -161Q320 -161 372 -135T424 -64Z" />
<glyph unicode="&#x120;" glyph-name="uni0120" horiz-adv-x="709" d="M405 784Q405 762 390 749T355 735Q335 735 321 749T306 784Q306 804 319 819T355 834Q378 834 391 820T405 784ZM694 336Q672 334 659 331T638 319T627 295T624 256V56Q582 22 515 4T370
-14Q293 -14 222 13T100 93Q17 180 17 327Q17 410 45 477T124 590Q169 632 229 654T363 676Q404 676 433 670T496 653Q523 643 540 643Q556 643 568 652T585 676H607L615 465H592Q583 488 575 505T559 535T541 559T521 581Q492 608 455 622T375 636Q323 636 282
618T208 567Q168 527 150 463T131 324Q131 254 150 199T203 106T286 47T394 26Q452 26 489 44T527 87V244Q527 273 524 290T512 317T486 330T438 336V354H694V336Z" />
<glyph unicode="&#x121;" glyph-name="uni0121" horiz-adv-x="473" d="M288 572Q288 550 273 537T238 523Q218 523 204 537T189 572Q189 592 202 607T238 622Q261 622 274 608T288 572ZM375 388Q386 364 390 345T394 304Q394 227 342 188Q318 170 291 160T238
149Q227 149 200 152L181 154Q171 151 161 144T141 127T127 108T121 91Q121 79 139 73T199 64L328 58Q384 56 416 27T449 -49Q449 -107 389 -154Q350 -184 297 -201T189 -218Q153 -218 122 -211T67 -190T30 -159T16 -121Q16 -93 38 -66T114 1Q82 16 72 26T61 54Q61
69 71 85T107 123Q129 142 150 163Q99 188 78 218T57 297Q57 331 70 361T105 413T158 447T224 460Q263 460 304 445L326 437Q341 432 353 430T381 427H458V388H375ZM140 335Q140 263 168 219T243 174Q277 174 297 198T317 264Q317 295 309 327T287 385Q262 432
214 432Q179 432 160 408T140 338V335ZM421 -64Q421 -36 394 -26T297 -15Q279 -15 256 -14T211 -11T168 -7T135 -2Q120 -20 111 -32T96 -54T88 -71T86 -88Q86 -121 125 -141T231 -161Q317 -161 369 -135T421 -64Z" />
<glyph unicode="&#x122;" glyph-name="uni0122" horiz-adv-x="708" d="M692 336Q670 334 657 331T636 319T625 295T622 256V56Q580 22 513 4T368 -14Q291 -14 220 13T98 93Q15 180 15 327Q15 410 43 477T122 590Q167 632 227 654T361 676Q402 676 431 670T494
653Q521 643 538 643Q554 643 566 652T583 676H605L613 465H590Q581 488 573 505T557 535T539 559T519 581Q490 608 453 622T373 636Q321 636 280 618T206 567Q166 527 148 463T129 324Q129 254 148 199T201 106T284 47T392 26Q450 26 487 44T525 87V244Q525 273
522 290T510 317T484 330T436 336V354H692V336ZM331 -261Q414 -205 414 -154Q414 -141 400 -141Q394 -141 387 -143T371 -145Q313 -145 313 -94Q313 -68 329 -53T373 -37Q407 -37 430 -61T453 -124Q453 -169 423 -212T341 -280L331 -261Z" />
<glyph unicode="&#x123;" glyph-name="uni0123" horiz-adv-x="472" d="M290 747Q208 690 208 641Q208 627 222 627H224Q223 627 229 629Q234 630 239 630T249 631Q277 631 292 618T308 580Q308 554 292 539T249 523Q214 523 192 548T169 612Q169 657 199 699T281
766L290 747ZM375 388Q386 364 390 345T394 304Q394 227 342 188Q318 170 291 160T238 149Q227 149 200 152L181 154Q171 151 161 144T141 127T127 108T121 91Q121 79 139 73T199 64L328 58Q384 56 416 27T449 -49Q449 -107 389 -154Q350 -184 297 -201T189 -218Q153
-218 122 -211T67 -190T30 -159T16 -121Q16 -93 38 -66T114 1Q82 16 72 26T61 54Q61 69 71 85T107 123Q129 142 150 163Q99 188 78 218T57 297Q57 331 70 361T105 413T158 447T224 460Q263 460 304 445L326 437Q341 432 353 430T381 427H458V388H375ZM140 335Q140
263 168 219T243 174Q277 174 297 198T317 264Q317 295 309 327T287 385Q262 432 214 432Q179 432 160 408T140 338V335ZM421 -64Q421 -36 394 -26T297 -15Q279 -15 256 -14T211 -11T168 -7T135 -2Q120 -20 111 -32T96 -54T88 -71T86 -88Q86 -121 125 -141T231
-161Q317 -161 369 -135T421 -64Z" />
<glyph unicode="&#x124;" glyph-name="uni0124" horiz-adv-x="719" d="M483 719L361 822L240 719H206L330 886H392L517 719H483ZM423 0V19Q452 21 469 26T496 42T508 72T511 124V315H208V113Q208 86 211 69T223 41T250 25T295 19L296 0H17V19Q46 21 63 25T90 40T103
70T106 122V548Q106 577 103 595T91 622T64 636T17 643V662H297V643Q270 641 253 637T225 623T212 595T208 548V359H511V548Q511 578 508 595T495 623T468 637T422 643V662H702V643Q674 641 657 637T630 622T617 595T613 548V111Q613 84 616 68T629 41T656 26T702
19V0H423Z" />
<glyph unicode="&#x125;" glyph-name="uni0125" horiz-adv-x="511" d="M351 719L229 822L108 719H74L198 886H260L385 719H351ZM284 0V15Q306 17 319 21T339 35T349 60T352 102V300Q352 406 278 406Q248 406 223 392T166 343V102Q166 76 168 60T178 35T199 22T234
15V0H18V15Q40 18 52 22T71 35T80 60T82 102V573Q82 605 73 614T31 624Q28 624 25 624T19 623V639L46 647Q67 653 83 658T112 667T136 674T161 683L166 680V376Q201 421 234 440T313 460Q436 460 436 301V102Q436 76 438 61T446 36T464 23T496 15V0H284Z" />
<glyph unicode="&#x126;" glyph-name="uni0126" horiz-adv-x="725" d="M426 0V19Q455 21 472 26T499 42T511 72T514 124V315H211V113Q211 86 214 69T227 41T254 25T299 19V0H20V19Q49 21 66 25T93 40T106 70T109 122V476H20V520H109V548Q109 577 106 595T94 622T67
636T20 643V662H300V643Q273 641 256 637T228 623T215 595T211 548V520H514V548Q514 578 511 595T498 623T471 637T425 643V662H705V643Q677 641 660 637T633 622T620 595T616 548V520H704V476H616V111Q616 84 619 68T632 41T659 26T705 19V0H426ZM514 476H211V359H514V476Z"
/>
<glyph unicode="&#x127;" glyph-name="uni0127" horiz-adv-x="512" d="M287 0V15Q309 17 322 21T342 35T352 60T355 102V300Q355 406 281 406Q251 406 226 392T169 343V102Q169 76 171 60T181 35T202 22T237 15V0H21V15Q43 18 55 22T74 35T83 60T85 102V512H20V566H85V573Q85
605 76 614T34 624Q31 624 28 624T22 623V639L49 647Q70 653 86 658T115 667T139 674T164 683L169 680V566H331V512H169V376Q204 421 237 440T316 460Q439 460 439 301V102Q439 76 441 61T449 36T467 23T499 15V0H287Z" />
<glyph unicode="&#x128;" glyph-name="uni0128" horiz-adv-x="357" d="M343 850Q327 793 304 769T238 744Q219 744 204 748T157 768L134 779Q110 790 93 790Q58 790 42 744H13Q24 793 50 819T114 845Q148 845 184 827L208 815Q236 800 261 800Q278 800 289 811T314
850H343ZM30 0V19Q61 20 80 24T110 37T123 65T127 112V551Q127 581 124 598T111 624T81 637T30 643V662H327V643Q295 641 276 638T247 624T233 597T229 551V112Q229 84 233 67T247 39T277 24T327 19V0H30Z" />
<glyph unicode="&#x129;" glyph-name="uni0129" horiz-adv-x="362" d="M346 638Q330 581 307 557T241 532Q222 532 207 536T160 556L137 567Q113 578 96 578Q61 578 45 532H16Q27 581 53 607T117 633Q151 633 187 615L211 603Q239 588 264 588Q281 588 292 599T317
638H346ZM57 0V15Q83 16 98 19T122 32T133 58T136 104V331Q136 366 129 380T103 394Q96 394 86 394T61 389V405L215 460L220 456V105Q220 77 222 61T232 35T254 21T294 15V0H57Z" />
<glyph unicode="&#x12a;" glyph-name="uni012A" horiz-adv-x="336" d="M12 719V773H323V719H12ZM19 0V19Q50 20 69 24T99 37T112 65T116 112V551Q116 581 113 598T100 624T70 637T19 643V662H316V643Q284 641 265 638T236 624T222 597T218 551V112Q218 84 222
67T236 39T266 24T316 19V0H19Z" />
<glyph unicode="&#x12b;" glyph-name="uni012B" horiz-adv-x="335" d="M12 507V561H323V507H12ZM49 0V15Q75 16 90 19T114 32T125 58T128 104V331Q128 366 121 380T95 394Q88 394 78 394T53 389V405L207 460L212 456V105Q212 77 214 61T224 35T246 21T286 15V0H49Z" />
<glyph unicode="&#x12c;" glyph-name="uni012C" horiz-adv-x="331" d="M304 876Q286 719 162 719Q91 719 57 761T23 876H52Q72 779 164 779Q204 779 228 801T275 876H304ZM17 0V19Q48 20 67 24T97 37T110 65T114 112V551Q114 581 111 598T98 624T68 637T17 643V662H314V643Q282
641 263 638T234 624T220 597T216 551V112Q216 84 220 67T234 39T264 24T314 19V0H17Z" />
<glyph unicode="&#x12d;" glyph-name="uni012D" horiz-adv-x="316" d="M299 664Q281 507 157 507Q86 507 52 549T18 664H47Q67 567 159 567Q199 567 223 589T270 664H299ZM35 0V15Q61 16 76 19T100 32T111 58T114 104V331Q114 366 107 380T81 394Q74 394 64 394T39
389V405L193 460L198 456V105Q198 77 200 61T210 35T232 21T272 15V0H35Z" />
<glyph unicode="&#x12e;" glyph-name="uni012E" horiz-adv-x="324" d="M12 0V19Q43 20 62 24T92 37T105 65T109 112V551Q109 581 106 598T93 624T63 637T12 643V662H309V643Q277 641 258 638T229 624T215 597T211 551V112Q211 84 215 67T229 39T259 24T309 19V0H214Q191
-19 181 -36T170 -70Q170 -91 180 -100T208 -109Q224 -109 240 -101T279 -73L299 -89Q272 -130 248 -147T188 -165Q156 -165 135 -146T114 -91Q114 -64 126 -42T168 0H12Z" />
<glyph unicode="&#x12f;" glyph-name="uni012F" horiz-adv-x="283" d="M12 0V15Q38 16 53 19T77 32T88 58T91 104V331Q91 366 84 380T58 394Q51 394 41 394T16 389V405L171 460L175 456V105Q175 77 177 61T187 35T209 21T249 15V0H188Q165 -19 155 -36T144 -70Q144
-91 154 -100T182 -109Q198 -109 214 -101T253 -73L273 -89Q246 -130 222 -147T162 -165Q130 -165 109 -146T88 -91Q88 -64 100 -42T142 0H12ZM176 632Q176 610 162 596T124 581Q103 581 89 595T74 632Q74 653 89 668T125 683Q147 683 161 668T176 632Z" />
<glyph unicode="&#x130;" glyph-name="uni0130" horiz-adv-x="319" d="M208 784Q208 762 193 749T158 735Q138 735 124 749T109 784Q109 804 122 819T158 834Q181 834 194 820T208 784ZM11 0V19Q42 20 61 24T91 37T104 65T108 112V551Q108 581 105 598T92 624T62
637T11 643V662H308V643Q276 641 257 638T228 624T214 597T210 551V112Q210 84 214 67T228 39T258 24T308 19V0H11Z" />
<glyph unicode="&#x131;" glyph-name="dotlessi" horiz-adv-x="266" d="M15 0V15Q41 16 56 19T80 32T91 58T94 104V331Q94 366 87 380T61 394Q54 394 44 394T19 389V405L173 460L178 456V105Q178 77 180 61T190 35T212 21T252 15V0H15Z" />
<glyph unicode="&#x132;" glyph-name="uni0132" horiz-adv-x="747" d="M729 643Q699 641 681 637T653 623T640 596T637 549V185Q637 82 594 34T470 -14Q425 -14 397 4T369 58Q369 78 383 94T418 110Q450 110 467 68Q475 49 479 37T498 24Q521 24 528 40T535 94V550Q535
580 532 597T519 624T491 636T442 643V662H729V643ZM19 0V19Q50 20 69 24T99 37T112 65T116 112V551Q116 581 113 598T100 624T70 637T19 643V662H316V643Q284 641 265 638T236 624T222 597T218 551V112Q218 84 222 67T236 39T266 24T316 19V0H19Z" />
<glyph unicode="&#x133;" glyph-name="uni0133" horiz-adv-x="472" d="M451 632Q451 610 437 596T399 581Q378 581 364 595T349 632Q349 653 364 668T400 683Q421 683 436 668T451 632ZM177 632Q177 610 163 596T125 581Q104 581 90 595T75 632Q75 653 90 668T126
683Q148 683 162 668T177 632ZM450 0Q450 -107 407 -162T280 -218Q239 -218 213 -203T187 -163Q187 -146 199 -135T228 -124Q240 -124 251 -131T276 -156Q289 -172 298 -178T318 -184Q329 -184 338 -179T352 -166Q356 -159 359 -150T363 -127T365 -94T366 -45V334Q366
366 359 380T334 394Q326 394 316 394T294 391L289 390V406Q333 419 367 431T445 460L450 457V0ZM13 0V15Q39 16 54 19T78 32T89 58T92 104V331Q92 366 85 380T59 394Q52 394 42 394T17 389V405L172 460L176 456V105Q176 77 178 61T188 35T210 21T250 15V0H13Z"
/>
<glyph unicode="&#x134;" glyph-name="uni0134" horiz-adv-x="402" d="M354 719L232 822L111 719H77L201 886H263L388 719H354ZM375 643Q345 641 327 637T299 623T286 596T283 549V185Q283 82 240 34T116 -14Q71 -14 43 4T15 58Q15 78 29 94T64 110Q96 110 113
68Q121 49 125 37T144 24Q167 24 174 40T181 94V550Q181 580 178 597T165 624T137 636T88 643V662H375V643Z" />
<glyph unicode="&#x135;" glyph-name="uni0135" horiz-adv-x="392" d="M345 507L223 610L102 507H68L192 674H254L379 507H345ZM277 0Q277 -107 234 -162T107 -218Q66 -218 40 -203T14 -163Q14 -146 26 -135T55 -124Q67 -124 78 -131T103 -156Q116 -172 125 -178T145
-184Q156 -184 165 -179T179 -166Q183 -159 186 -150T190 -127T192 -94T193 -45V334Q193 366 186 380T161 394Q153 394 143 394T121 391L116 390V406Q160 419 194 431T272 460L277 457V0Z" />
<glyph unicode="&#x136;" glyph-name="uni0136" horiz-adv-x="717" d="M402 0V19L429 20Q471 21 471 44Q471 64 432 108T334 214L234 317L208 296V111Q208 82 211 65T225 39T252 25T297 19V0H15V19Q45 20 62 25T90 41T103 72T106 125V549Q106 577 103 594T91 622T64
636T16 643V662H298V643Q267 641 249 637T222 622T211 595T208 548V348L386 512Q422 546 443 569T464 611Q464 626 456 633T423 642L398 643V662H657V643Q631 641 614 638T580 626T545 602T501 562L315 384L549 128Q580 94 602 73T641 39T673 23T705 19V0H402ZM300
-261Q383 -205 383 -154Q383 -141 369 -141Q363 -141 356 -143T340 -145Q282 -145 282 -94Q282 -68 298 -53T342 -37Q376 -37 399 -61T422 -124Q422 -169 392 -212T310 -280L300 -261Z" />
<glyph unicode="&#x137;" glyph-name="uni0137" horiz-adv-x="521" d="M295 0V15H314Q323 15 329 19T335 30Q335 39 324 53L174 251V67Q174 41 186 30T229 16L249 15V0H15V15Q42 19 57 23T79 33T88 51T90 82V564Q90 600 82 612T47 625Q39 625 32 625T15 623V639L45
647Q67 653 84 657T115 666T142 674T170 683L174 681V261L311 383Q334 404 334 418Q334 428 324 431T284 436V450H488V435Q464 435 445 432T402 415T349 377T272 309L243 282L396 88Q427 49 453 33T513 15V0H295ZM186 -261Q269 -205 269 -154Q269 -141 255 -141Q249
-141 242 -143T226 -145Q168 -145 168 -94Q168 -68 184 -53T228 -37Q262 -37 285 -61T308 -124Q308 -169 278 -212T196 -280L186 -261Z" />
<glyph unicode="&#x138;" glyph-name="uni0138" horiz-adv-x="567" d="M417 0Q397 11 380 25T341 72Q322 101 309 128T277 188Q266 208 256 223T239 242Q224 241 211 241T185 240V78Q185 41 202 30Q218 16 261 16V0H20V16Q68 16 80 27Q97 38 97 77V382Q97 421
81 432Q67 442 20 443V459H261V443Q215 441 202 432Q185 421 185 381V276L230 280Q247 282 261 289T287 308Q304 322 316 344T339 396Q351 431 373 445T433 459Q462 459 486 446T510 407Q510 388 495 377T462 366Q445 366 436 372T420 385T410 399T397 405Q384
405 379 398T368 375Q346 302 299 266Q307 263 313 260T330 244Q339 234 351 214T375 172T399 129T418 98Q442 63 478 43T547 15V0H417Z" />
<glyph unicode="&#x139;" glyph-name="uni0139" horiz-adv-x="615" d="M282 867Q296 881 304 885T324 890Q359 890 359 858Q359 835 329 816L175 719H135L282 867ZM554 0H16V19Q44 20 61 24T87 39T100 68T103 115V546Q103 575 101 593T89 621T63 636T16 643V662H299V643Q268
641 250 637T221 623T208 595T205 548V84Q205 70 209 61T223 47T250 41T295 39H365Q426 39 467 53T534 100Q544 113 554 130T576 174H602L554 0Z" />
<glyph unicode="&#x13a;" glyph-name="uni013A" horiz-adv-x="264" d="M168 867Q182 881 190 885T210 890Q245 890 245 858Q245 835 215 816L61 719H21L168 867ZM13 0V15Q60 19 75 35T90 92V561Q90 597 81 611T48 625Q42 625 33 625T11 623V639Q37 645 57 650T96
661T132 671T169 683L174 679V87Q174 66 176 53T187 32T210 20T249 15V0H13Z" />
<glyph unicode="&#x13b;" glyph-name="uni013B" horiz-adv-x="609" d="M553 0H15V19Q43 20 60 24T86 39T99 68T102 115V546Q102 575 100 593T88 621T62 636T15 643V662H298V643Q267 641 249 637T220 623T207 595T204 548V84Q204 70 208 61T222 47T249 41T294 39H364Q425
39 466 53T533 100Q543 113 553 130T575 174H601L553 0ZM251 -261Q334 -205 334 -154Q334 -141 320 -141Q314 -141 307 -143T291 -145Q233 -145 233 -94Q233 -68 249 -53T293 -37Q327 -37 350 -61T373 -124Q373 -169 343 -212T261 -280L251 -261Z" />
<glyph unicode="&#x13c;" glyph-name="uni013C" horiz-adv-x="261" d="M13 0V15Q60 19 75 35T90 92V561Q90 597 81 611T48 625Q42 625 33 625T11 623V639Q37 645 57 650T96 661T132 671T169 683L174 679V87Q174 66 176 53T187 32T210 20T249 15V0H13ZM80 -261Q163
-205 163 -154Q163 -141 149 -141Q143 -141 136 -143T120 -145Q62 -145 62 -94Q62 -68 78 -53T122 -37Q156 -37 179 -61T202 -124Q202 -169 172 -212T90 -280L80 -261Z" />
<glyph unicode="&#x13d;" glyph-name="uni013D" horiz-adv-x="623" d="M375 459Q457 515 457 566Q457 579 443 579H441Q440 579 436 577Q431 576 426 576T416 575Q388 575 373 588T357 626Q357 652 373 667T416 683Q450 683 473 658T496 594Q496 549 466 507T384
440L375 459ZM556 0H18V19Q46 20 63 24T89 39T102 68T105 115V546Q105 575 103 593T91 621T65 636T18 643V662H301V643Q270 641 252 637T223 623T210 595T207 548V84Q207 70 211 61T225 47T252 41T297 39H367Q428 39 469 53T536 100Q546 113 556 130T578 174H604L556
0Z" />
<glyph unicode="&#x13e;" glyph-name="uni013E" horiz-adv-x="372" d="M237 478Q319 534 319 585Q319 598 305 598H303Q302 598 298 596Q293 595 288 595T278 594Q250 594 235 607T219 645Q219 671 235 686T278 702Q312 702 335 677T358 613Q358 568 328 526T246
459L237 478ZM17 0V15Q64 19 79 35T94 92V561Q94 597 85 611T52 625Q46 625 37 625T15 623V639Q41 645 61 650T100 661T136 671T173 683L178 679V87Q178 66 180 53T191 32T214 20T253 15V0H17Z" />
<glyph unicode="&#x13f;" glyph-name="uni013F" horiz-adv-x="618" d="M447 345Q447 323 431 307T391 291Q368 291 352 307T336 346Q336 369 352 385T392 402Q414 402 430 385T447 345ZM558 0H20V19Q48 20 65 24T91 39T104 68T107 115V546Q107 575 105 593T93
621T67 636T20 643V662H303V643Q272 641 254 637T225 623T212 595T209 548V84Q209 70 213 61T227 47T254 41T299 39H369Q430 39 471 53T538 100Q548 113 558 130T580 174H606L558 0Z" />
<glyph unicode="&#x140;" glyph-name="uni0140" horiz-adv-x="360" d="M351 342Q351 320 335 304T295 288Q272 288 256 304T240 343Q240 366 256 382T296 399Q318 399 334 382T351 342ZM18 0V15Q65 19 80 35T95 92V561Q95 597 86 611T53 625Q47 625 38 625T16
623V639Q42 645 62 650T101 661T137 671T174 683L179 679V87Q179 66 181 53T192 32T215 20T254 15V0H18Z" />
<glyph unicode="&#x141;" glyph-name="Lslash" horiz-adv-x="618" d="M558 0H20V19Q48 20 65 25T91 41T104 69T108 111V280L21 227V276L108 330V551Q108 579 105 596T92 623T65 637T21 643V662H303V643Q275 641 257 637T229 624T214 597T210 551V379L365 474V425L210
331V82Q210 69 213 61T226 48T253 41T298 39H361Q415 39 449 47T509 72Q532 89 548 114T581 174H607L558 0Z" />
<glyph unicode="&#x142;" glyph-name="lslash" horiz-adv-x="269" d="M178 376V86Q178 64 180 52T191 32T214 21T254 15V0H16V15Q41 17 56 20T80 32T91 53T94 89V319L16 265V309L94 363V562Q94 601 85 613T52 625Q40 625 15 620V639Q41 645 61 650T100 661T136
671T173 683L178 680V420L255 473V429L178 376Z" />
<glyph unicode="&#x143;" glyph-name="uni0143" horiz-adv-x="726" d="M429 867Q443 881 451 885T471 890Q506 890 506 858Q506 835 476 816L322 719H282L429 867ZM710 643Q681 640 668 637T644 625Q637 619 632 611T623 589T617 557T615 507V-11H597L156 538V150Q156
111 159 88T173 50T202 30T249 19V0H15V19Q46 22 65 28T94 47T108 85T112 150V590Q100 605 90 615T70 632T46 640T15 643V662H185L571 179V519Q571 557 567 580T552 617Q539 631 523 635T473 643V662H710V643Z" />
<glyph unicode="&#x144;" glyph-name="uni0144" horiz-adv-x="501" d="M336 655Q350 669 358 673T378 678Q413 678 413 646Q413 623 383 604L229 507H189L336 655ZM275 0L276 15Q295 16 307 21T326 36T335 63T338 105V304Q338 358 320 381T265 405Q240 405 218
394T162 348V72Q162 43 175 31T227 15V0H16V15Q54 18 66 34T78 94V337Q78 374 71 388T43 402Q35 402 27 401T14 398V415Q35 421 52 426T85 436T117 447T151 460L159 457V379H160Q199 424 234 442T304 460Q361 460 391 421T422 306V85Q422 65 424 52T434 32T453
21T483 15V0H275Z" />
<glyph unicode="&#x145;" glyph-name="uni0145" horiz-adv-x="725" d="M710 643Q681 640 668 637T644 625Q637 619 632 611T623 589T617 557T615 507V-11H597L156 538V150Q156 111 159 88T173 50T202 30T249 19V0H15V19Q46 22 65 28T94 47T108 85T112 150V590Q100
605 90 615T70 632T46 640T15 643V662H185L571 179V519Q571 557 567 580T552 617Q539 631 523 635T473 643V662H710V643ZM311 -261Q394 -205 394 -154Q394 -141 380 -141Q374 -141 367 -143T351 -145Q293 -145 293 -94Q293 -68 309 -53T353 -37Q387 -37 410 -61T433
-124Q433 -169 403 -212T321 -280L311 -261Z" />
<glyph unicode="&#x146;" glyph-name="uni0146" horiz-adv-x="497" d="M275 0L276 15Q295 16 307 21T326 36T335 63T338 105V304Q338 358 320 381T265 405Q240 405 218 394T162 348V72Q162 43 175 31T227 15V0H16V15Q54 18 66 34T78 94V337Q78 374 71 388T43 402Q35
402 27 401T14 398V415Q35 421 52 426T85 436T117 447T151 460L159 457V379H160Q199 424 234 442T304 460Q361 460 391 421T422 306V85Q422 65 424 52T434 32T453 21T483 15V0H275ZM201 -261Q284 -205 284 -154Q284 -141 270 -141Q264 -141 257 -143T241 -145Q183
-145 183 -94Q183 -68 199 -53T243 -37Q277 -37 300 -61T323 -124Q323 -169 293 -212T211 -280L201 -261Z" />
<glyph unicode="&#x147;" glyph-name="uni0147" horiz-adv-x="727" d="M399 719H335L212 886H247L367 783L488 886H523L399 719ZM711 643Q682 640 669 637T645 625Q638 619 633 611T624 589T618 557T616 507V-11H598L157 538V150Q157 111 160 88T174 50T203 30T250
19V0H16V19Q47 22 66 28T95 47T109 85T113 150V590Q101 605 91 615T71 632T47 640T16 643V662H186L572 179V519Q572 557 568 580T553 617Q540 631 524 635T474 643V662H711V643Z" />
<glyph unicode="&#x148;" glyph-name="uni0148" horiz-adv-x="503" d="M283 507H219L96 674H131L251 571L372 674H407L283 507ZM278 0L279 15Q298 16 310 21T329 36T338 63T341 105V304Q341 358 323 381T268 405Q243 405 221 394T165 348V72Q165 43 178 31T230
15V0H19V15Q57 18 69 34T81 94V337Q81 374 74 388T46 402Q38 402 30 401T17 398V415Q38 421 55 426T88 436T120 447T154 460L162 457V379H163Q202 424 237 442T307 460Q364 460 394 421T425 306V85Q425 65 427 52T437 32T456 21T486 15V0H278Z" />
<glyph unicode="&#x149;" glyph-name="uni0149" horiz-adv-x="577" d="M37 478Q119 534 119 585Q119 598 105 598H103Q102 598 98 596Q93 595 88 595T78 594Q50 594 35 607T19 645Q19 671 35 686T78 702Q112 702 135 677T158 613Q158 568 128 526T46 459L37 478ZM357
0L358 15Q377 16 389 21T408 36T417 63T420 105V304Q420 358 402 381T347 405Q322 405 300 394T244 348V72Q244 43 257 31T309 15V0H98V15Q136 18 148 34T160 94V337Q160 374 153 388T125 402Q117 402 109 401T96 398V415Q117 421 134 426T167 436T199 447T233
460L241 457V379H242Q281 424 316 442T386 460Q443 460 473 421T504 306V85Q504 65 506 52T516 32T535 21T565 15V0H357Z" />
<glyph unicode="&#x14a;" glyph-name="uni014A" horiz-adv-x="697" d="M193 542Q231 620 280 649T387 678Q460 678 514 649T605 573T658 464T676 339Q676 282 660 219T610 104T527 17T407 -18Q359 -18 329 7T299 75Q299 88 303 101T315 126T335 144T362 151Q394
151 410 131T426 86Q426 78 422 64T418 43Q418 33 423 26T440 19Q467 19 490 39T531 98T557 190T567 311Q567 383 554 442T516 543T455 609T371 632Q315 632 266 585T197 442V111Q197 94 199 78T208 47T223 25T247 16H261V0H38V16Q57 16 68 22T86 38T93 62T95 92V547Q95
592 83 618T33 645H19V662H193V542Z" />
<glyph unicode="&#x14b;" glyph-name="uni014B" horiz-adv-x="446" d="M423 0Q423 -107 380 -162T253 -218Q212 -218 186 -203T160 -163Q160 -146 172 -135T201 -124Q213 -124 224 -131T249 -156Q262 -172 271 -178T291 -184Q302 -184 311 -179T325 -166Q329 -159
332 -150T336 -127T338 -94T339 -45V304Q339 358 321 381T266 405Q241 405 219 394T163 348V72Q163 43 176 31T228 15V0H17V15Q55 18 67 34T79 94V337Q79 374 72 388T44 402Q36 402 28 401T15 398V415Q36 421 53 426T86 436T118 447T152 460L160 457V379H161Q200
424 235 442T305 460Q362 460 392 421T423 306V0Z" />
<glyph unicode="&#x14c;" glyph-name="uni014C" horiz-adv-x="690" d="M189 719V773H500V719H189ZM672 331Q672 254 648 191T581 82T477 11T345 -14Q272 -14 212 11T109 82T42 192T18 334Q18 410 41 473T108 581T211 651T345 676Q418 676 478 650T582 578T648
469T672 331ZM558 337Q558 423 534 490T467 593Q440 616 410 628T344 640Q303 640 267 624T201 573Q185 555 172 528T150 470T137 403T132 332Q132 242 154 176T222 67Q248 44 279 33T346 22Q384 22 416 33T475 70Q517 110 537 178T558 337Z" />
<glyph unicode="&#x14d;" glyph-name="uni014D" horiz-adv-x="477" d="M82 507V561H393V507H82ZM459 231Q459 179 443 135T398 59T327 8T234 -10Q189 -10 150 7T81 56T35 132T18 228Q18 280 34 323T79 396T150 443T243 460Q289 460 328 444T397 397T442 325T459
231ZM369 204Q369 255 356 303T319 382Q301 405 279 418T224 432Q172 432 140 390T108 273Q108 213 120 161T161 68Q195 18 251 18Q307 18 338 67T369 204Z" />
<glyph unicode="&#x14e;" glyph-name="uni014E" horiz-adv-x="690" d="M484 876Q466 719 342 719Q271 719 237 761T203 876H232Q252 779 344 779Q384 779 408 801T455 876H484ZM672 331Q672 254 648 191T581 82T477 11T345 -14Q272 -14 212 11T109 82T42 192T18
334Q18 410 41 473T108 581T211 651T345 676Q418 676 478 650T582 578T648 469T672 331ZM558 337Q558 423 534 490T467 593Q440 616 410 628T344 640Q303 640 267 624T201 573Q185 555 172 528T150 470T137 403T132 332Q132 242 154 176T222 67Q248 44 279 33T346
22Q384 22 416 33T475 70Q517 110 537 178T558 337Z" />
<glyph unicode="&#x14f;" glyph-name="uni014F" horiz-adv-x="479" d="M381 664Q363 507 239 507Q168 507 134 549T100 664H129Q149 567 241 567Q281 567 305 589T352 664H381ZM460 231Q460 179 444 135T399 59T328 8T235 -10Q190 -10 151 7T82 56T36 132T19 228Q19
280 35 323T80 396T151 443T244 460Q290 460 329 444T398 397T443 325T460 231ZM370 204Q370 255 357 303T320 382Q302 405 280 418T225 432Q173 432 141 390T109 273Q109 213 121 161T162 68Q196 18 252 18Q308 18 339 67T370 204Z" />
<glyph unicode="&#x150;" glyph-name="uni0150" horiz-adv-x="690" d="M457 867Q472 882 481 886T500 890Q515 890 524 882T534 860Q534 846 528 836T505 815L351 719H311L457 867ZM301 867Q316 882 325 886T344 890Q359 890 368 882T378 860Q378 846 372 836T349
815L195 719H155L301 867ZM672 331Q672 254 648 191T581 82T477 11T345 -14Q272 -14 212 11T109 82T42 192T18 334Q18 410 41 473T108 581T211 651T345 676Q418 676 478 650T582 578T648 469T672 331ZM558 337Q558 423 534 490T467 593Q440 616 410 628T344 640Q303
640 267 624T201 573Q185 555 172 528T150 470T137 403T132 332Q132 242 154 176T222 67Q248 44 279 33T346 22Q384 22 416 33T475 70Q517 110 537 178T558 337Z" />
<glyph unicode="&#x151;" glyph-name="uni0151" horiz-adv-x="478" d="M364 655Q379 670 388 674T407 678Q422 678 431 670T441 648Q441 634 435 624T412 603L258 507H218L364 655ZM208 655Q223 670 232 674T251 678Q266 678 275 670T285 648Q285 634 279 624T256
603L102 507H62L208 655ZM458 231Q458 179 442 135T397 59T326 8T233 -10Q188 -10 149 7T80 56T34 132T17 228Q17 280 33 323T78 396T149 443T242 460Q288 460 327 444T396 397T441 325T458 231ZM368 204Q368 255 355 303T318 382Q300 405 278 418T223 432Q171
432 139 390T107 273Q107 213 119 161T160 68Q194 18 250 18Q306 18 337 67T368 204Z" />
<glyph unicode="&#x152;" glyph-name="OE" horiz-adv-x="897" d="M832 0H489Q467 0 443 -1T394 -3T346 -5T305 -6Q275 -6 246 0T188 19T137 49T95 88Q58 133 40 194T21 329Q21 426 54 497T150 614Q188 641 234 654T333 668Q339 668 343 668T353 668T369 667T398
665Q405 665 420 665T453 664T487 663T511 662H829V521H806Q801 554 793 575T767 607T720 622T645 626H592Q550 626 536 618T522 591V366H623Q661 366 685 370T725 384T747 414T758 464H779V230H758Q755 260 748 279T729 309T699 324T655 329H522V93Q522 65 533
52T582 38H695Q743 38 780 67T852 168H876L832 0ZM422 525Q422 580 401 606T328 632Q237 632 185 554T133 329Q133 193 175 118Q224 31 322 31Q376 31 399 55T422 133V525Z" />
<glyph unicode="&#x153;" glyph-name="oe" horiz-adv-x="701" d="M681 139Q642 58 601 24T502 -10Q455 -10 426 12T374 85Q345 33 312 12T227 -10Q182 -10 144 7T79 54T36 126T21 218Q21 278 42 331T101 416Q151 460 223 460Q270 460 303 443T375 384Q406 426
435 443T505 460Q543 460 576 444T631 398Q648 375 655 349T665 277H411Q416 163 447 110T540 57Q576 57 605 77T670 145L681 139ZM570 334Q570 376 548 403T491 431Q411 431 410 307H570V334ZM334 195Q334 431 217 431Q197 431 177 422T143 395Q128 378 120 341T111
255Q111 198 121 148T148 67Q178 16 231 16Q282 16 308 61T334 195Z" />
<glyph unicode="&#x154;" glyph-name="uni0154" horiz-adv-x="673" d="M361 867Q375 881 383 885T403 890Q438 890 438 858Q438 835 408 816L254 719H214L361 867ZM497 0L259 308L203 306V112Q203 83 206 66T218 39T245 25T292 19V0H16V19Q44 21 61 25T87 41T98
71T101 124V551Q101 579 99 596T88 622T62 636T16 643V662H288Q360 662 412 646T497 603Q522 583 534 550T546 483Q546 417 503 375T365 319L565 66Q576 52 586 44T606 30T629 23T659 19V0H497ZM203 343Q239 344 264 346T310 351T346 361T380 377Q407 392 422 422T437
491Q437 559 393 592T254 625Q228 625 216 617T203 583V343Z" />
<glyph unicode="&#x155;" glyph-name="uni0155" horiz-adv-x="355" d="M221 655Q235 669 243 673T263 678Q298 678 298 646Q298 623 268 604L114 507H74L221 655ZM168 366Q187 393 202 411T231 440T258 455T288 460Q314 460 328 446T343 407Q343 386 333 374T304
362Q294 362 285 366T264 382Q247 397 238 397Q227 397 215 389T193 368T175 342T168 315V90Q168 69 171 55T185 33T211 20T253 15V0H13V15Q37 19 51 23T72 35T82 53T84 84V334Q84 367 77 380T50 394Q34 394 15 390V406Q37 413 55 419T91 432T125 445T163 460L168
458V366Z" />
<glyph unicode="&#x156;" glyph-name="uni0156" horiz-adv-x="671" d="M496 0L258 308L202 306V112Q202 83 205 66T217 39T244 25T291 19V0H15V19Q43 21 60 25T86 41T97 71T100 124V551Q100 579 98 596T87 622T61 636T15 643V662H287Q359 662 411 646T496 603Q521
583 533 550T545 483Q545 417 502 375T364 319L564 66Q575 52 585 44T605 30T628 23T658 19V0H496ZM202 343Q238 344 263 346T309 351T345 361T379 377Q406 392 421 422T436 491Q436 559 392 592T253 625Q227 625 215 617T202 583V343ZM296 -261Q379 -205 379 -154Q379
-141 365 -141Q359 -141 352 -143T336 -145Q278 -145 278 -94Q278 -68 294 -53T338 -37Q372 -37 395 -61T418 -124Q418 -169 388 -212T306 -280L296 -261Z" />
<glyph unicode="&#x157;" glyph-name="uni0157" horiz-adv-x="356" d="M168 366Q187 393 202 411T231 440T258 455T288 460Q314 460 328 446T343 407Q343 386 333 374T304 362Q294 362 285 366T264 382Q247 397 238 397Q227 397 215 389T193 368T175 342T168 315V90Q168
69 171 55T185 33T211 20T253 15V0H13V15Q37 19 51 23T72 35T82 53T84 84V334Q84 367 77 380T50 394Q34 394 15 390V406Q37 413 55 419T91 432T125 445T163 460L168 458V366ZM116 -261Q199 -205 199 -154Q199 -141 185 -141Q179 -141 172 -143T156 -145Q98 -145
98 -94Q98 -68 114 -53T158 -37Q192 -37 215 -61T238 -124Q238 -169 208 -212T126 -280L116 -261Z" />
<glyph unicode="&#x158;" glyph-name="uni0158" horiz-adv-x="674" d="M322 719H258L135 886H170L290 783L411 886H446L322 719ZM498 0L260 308L204 306V112Q204 83 207 66T219 39T246 25T293 19V0H17V19Q45 21 62 25T88 41T99 71T102 124V551Q102 579 100 596T89
622T63 636T17 643V662H289Q361 662 413 646T498 603Q523 583 535 550T547 483Q547 417 504 375T366 319L566 66Q577 52 587 44T607 30T630 23T660 19V0H498ZM204 343Q240 344 265 346T311 351T347 361T381 377Q408 392 423 422T438 491Q438 559 394 592T255 625Q229
625 217 617T204 583V343Z" />
<glyph unicode="&#x159;" glyph-name="uni0159" horiz-adv-x="361" d="M210 507H146L23 674H58L178 571L299 674H334L210 507ZM173 366Q192 393 207 411T236 440T263 455T293 460Q319 460 333 446T348 407Q348 386 338 374T309 362Q299 362 290 366T269 382Q252
397 243 397Q232 397 220 389T198 368T180 342T173 315V90Q173 69 176 55T190 33T216 20T258 15V0H18V15Q42 19 56 23T77 35T87 53T89 84V334Q89 367 82 380T55 394Q39 394 20 390V406Q42 413 60 419T96 432T130 445T168 460L173 458V366Z" />
<glyph unicode="&#x15a;" glyph-name="uni015A" horiz-adv-x="482" d="M320 867Q334 881 342 885T362 890Q397 890 397 858Q397 835 367 816L213 719H173L320 867ZM416 463Q407 496 398 517T375 557Q349 591 312 613T230 635Q183 635 156 609T129 540Q129 514
142 493T179 452T236 412T308 369Q388 322 425 276T463 173Q463 131 448 97T405 38T340 0T259 -14Q194 -14 141 9Q127 15 115 17T94 20Q83 20 75 12T66 -13H44L15 199H37Q72 108 121 65T243 22Q296 22 329 53T362 134Q362 160 355 178T333 213Q320 227 301 242T260
272T214 301T165 329Q97 365 70 409T43 501Q43 542 56 574T93 629T148 664T217 676Q248 676 270 671T322 654Q349 642 366 642Q392 642 398 676H419L441 463H416Z" />
<glyph unicode="&#x15b;" glyph-name="uni015B" horiz-adv-x="333" d="M229 655Q243 669 251 673T271 678Q306 678 306 646Q306 623 276 604L122 507H82L229 655ZM225 238Q249 223 265 210T292 183T308 153T313 115Q313 90 302 68T272 28T227 0T173 -10Q157 -10
137 -9T100 -1Q82 5 72 6T54 8Q45 8 40 6T30 -4H17V153H33Q49 80 78 46T160 12Q198 12 220 33T243 86Q243 109 229 128T190 161L136 191Q73 226 45 262T16 336Q16 396 54 427T154 459Q172 459 188 458T221 448Q239 440 249 440Q252 440 255 441T265 450H276L281
314H266Q249 382 224 409T153 437Q121 437 100 421T78 369Q78 352 89 333T121 301L225 238Z" />
<glyph unicode="&#x15c;" glyph-name="uni015C" horiz-adv-x="484" d="M367 719L245 822L124 719H90L214 886H276L401 719H367ZM419 463Q410 496 401 517T378 557Q352 591 315 613T233 635Q186 635 159 609T132 540Q132 514 145 493T182 452T239 412T311 369Q391
322 428 276T466 173Q466 131 451 97T408 38T343 0T262 -14Q197 -14 144 9Q130 15 118 17T97 20Q86 20 78 12T69 -13H47L18 199H40Q75 108 124 65T246 22Q299 22 332 53T365 134Q365 160 358 178T336 213Q323 227 304 242T263 272T217 301T168 329Q100 365 73 409T46
501Q46 542 59 574T96 629T151 664T220 676Q251 676 273 671T325 654Q352 642 369 642Q395 642 401 676H422L444 463H419Z" />
<glyph unicode="&#x15d;" glyph-name="uni015D" horiz-adv-x="348" d="M296 507L174 610L53 507H19L143 674H205L330 507H296ZM239 238Q263 223 279 210T306 183T322 153T327 115Q327 90 316 68T286 28T241 0T187 -10Q171 -10 151 -9T114 -1Q96 5 86 6T68 8Q59
8 54 6T44 -4H31V153H47Q63 80 92 46T174 12Q212 12 234 33T257 86Q257 109 243 128T204 161L150 191Q87 226 59 262T30 336Q30 396 68 427T168 459Q186 459 202 458T235 448Q253 440 263 440Q266 440 269 441T279 450H290L295 314H280Q263 382 238 409T167 437Q135
437 114 421T92 369Q92 352 103 333T135 301L239 238Z" />
<glyph unicode="&#x15e;" glyph-name="uni015E" horiz-adv-x="483" d="M234 -13Q184 -10 142 9Q128 15 116 17T95 20Q84 20 76 12T67 -13H45L16 199H38Q73 108 122 65T244 22Q297 22 330 53T363 134Q363 160 356 178T334 213Q321 227 302 242T261 272T215 301T166
329Q98 365 71 409T44 501Q44 542 57 574T94 629T149 664T218 676Q249 676 271 671T323 654Q350 642 367 642Q393 642 399 676H420L442 463H417Q408 496 399 517T376 557Q350 591 313 613T231 635Q184 635 157 609T130 540Q130 514 143 493T180 452T237 412T309
369Q389 322 426 276T464 173Q464 132 449 99T408 41T347 2T269 -14L249 -65Q257 -63 262 -63T275 -62Q316 -62 338 -80T361 -131Q361 -170 328 -192T236 -215Q213 -215 194 -212T152 -199L166 -168Q186 -175 200 -177T231 -180Q257 -180 271 -168T286 -136Q286
-116 274 -108T233 -100Q216 -100 205 -104L198 -99L234 -13Z" />
<glyph unicode="&#x15f;" glyph-name="uni015F" horiz-adv-x="334" d="M149 -9Q137 -8 125 -7T102 -1Q84 5 74 6T56 8Q47 8 42 6T32 -4H19V153H35Q51 80 80 46T162 12Q200 12 222 33T245 86Q245 109 231 128T192 161L138 191Q75 226 47 262T18 336Q18 396 56 427T156
459Q174 459 190 458T223 448Q241 440 251 440Q254 440 257 441T267 450H278L283 314H268Q251 382 226 409T155 437Q123 437 102 421T80 369Q80 352 91 333T123 301L227 238Q251 223 267 210T294 183T310 153T315 115Q315 91 305 69T277 30T235 3T184 -10L163 -65Q171
-63 176 -63T189 -62Q230 -62 252 -80T275 -131Q275 -170 242 -192T150 -215Q127 -215 108 -212T66 -199L80 -168Q100 -175 114 -177T145 -180Q171 -180 185 -168T200 -136Q200 -116 188 -108T147 -100Q130 -100 119 -104L112 -99L149 -9Z" />
<glyph unicode="&#x160;" glyph-name="Scaron" horiz-adv-x="484" d="M280 757H216L93 924H128L248 821L369 924H404L280 757ZM419 463Q410 496 401 517T378 557Q352 591 315 613T233 635Q186 635 159 609T132 540Q132 514 145 493T182 452T239 412T311 369Q391
322 428 276T466 173Q466 131 451 97T408 38T343 0T262 -14Q197 -14 144 9Q130 15 118 17T97 20Q86 20 78 12T69 -13H47L18 199H40Q75 108 124 65T246 22Q299 22 332 53T365 134Q365 160 358 178T336 213Q323 227 304 242T263 272T217 301T168 329Q100 365 73 409T46
501Q46 542 59 574T96 629T151 664T220 676Q251 676 273 671T325 654Q352 642 369 642Q395 642 401 676H422L444 463H419Z" />
<glyph unicode="&#x161;" glyph-name="scaron" horiz-adv-x="352" d="M209 507H145L22 674H57L177 571L298 674H333L209 507ZM231 238Q255 223 271 210T298 183T314 153T319 115Q319 90 308 68T278 28T233 0T179 -10Q163 -10 143 -9T106 -1Q88 5 78 6T60 8Q51
8 46 6T36 -4H23V153H39Q55 80 84 46T166 12Q204 12 226 33T249 86Q249 109 235 128T196 161L142 191Q79 226 51 262T22 336Q22 396 60 427T160 459Q178 459 194 458T227 448Q245 440 255 440Q258 440 261 441T271 450H282L287 314H272Q255 382 230 409T159 437Q127
437 106 421T84 369Q84 352 95 333T127 301L231 238Z" />
<glyph unicode="&#x162;" glyph-name="uni0162" horiz-adv-x="607" d="M158 0V19Q189 21 207 25T236 40T249 70T252 123V620H192Q152 620 126 616T83 598T56 559T39 492H15L22 662H584L591 492H567Q559 533 549 558T522 597T479 615T413 620H354V111Q354 82 357
65T371 38T400 24T450 19V0H319L294 -65Q302 -63 307 -63T320 -62Q361 -62 383 -80T406 -131Q406 -170 373 -192T281 -215Q258 -215 239 -212T197 -199L211 -168Q231 -175 245 -177T276 -180Q302 -180 316 -168T331 -136Q331 -116 319 -108T278 -100Q261 -100 250
-104L243 -99L284 0H158Z" />
<glyph unicode="&#x163;" glyph-name="uni0163" horiz-adv-x="293" d="M128 -5Q71 16 71 117V418H18Q14 421 14 425Q14 433 31 444Q51 455 75 482T128 551Q133 558 138 564T148 579Q155 579 155 566V450H256V418H155V132Q155 84 167 63T207 42Q224 42 237 49T267
77L280 66Q232 -9 161 -10L140 -65Q148 -63 153 -63T166 -62Q207 -62 229 -80T252 -131Q252 -170 219 -192T127 -215Q104 -215 85 -212T43 -199L57 -168Q77 -175 91 -177T122 -180Q148 -180 162 -168T177 -136Q177 -116 165 -108T124 -100Q107 -100 96 -104L89
-99L128 -5Z" />
<glyph unicode="&#x164;" glyph-name="uni0164" horiz-adv-x="602" d="M333 719H269L146 886H181L301 783L422 886H457L333 719ZM565 492Q557 533 547 558T520 597T477 615T411 620H352V111Q352 82 355 65T369 38T398 24T448 19V0H156V19Q187 21 205 25T234 40T247
70T250 123V620H190Q150 620 124 616T81 598T54 559T37 492H13L20 662H582L589 492H565Z" />
<glyph unicode="&#x165;" glyph-name="uni0165" horiz-adv-x="350" d="M212 477Q294 533 294 584Q294 597 280 597H278Q277 597 273 595Q268 594 263 594T253 593Q225 593 210 606T194 644Q194 670 210 685T253 701Q287 701 310 676T333 612Q333 567 303 525T221
458L212 477ZM279 66Q231 -10 158 -10Q70 -10 70 117V418H17Q13 421 13 425Q13 433 30 444Q50 455 74 482T127 551Q132 558 137 564T147 579Q154 579 154 566V450H205V418H154V132Q154 84 166 63T206 42Q223 42 236 49T266 77L279 66Z" />
</font>
</defs>
</svg>
