<?xml version="1.0" standalone="no"?> <!DOCTYPE svg PUBLIC "-//W3C//DTD SVG 1.0//EN" "http://www.w3.org/TR/2001/REC-SVG-20010904/DTD/svg10.dtd" > <svg xmlns="http://www.w3.org/2000/svg" width="100%" height="100%">
<defs >
<font horiz-adv-x="558" ><font-face
    font-family="STIXGeneralUnicodeItalic"
    units-per-em="1000"
    panose-1="0 0 0 0 0 0 0 0 0 0"
    ascent="1055"
    descent="-455"
    alphabetic="0" />
<missing-glyph horiz-adv-x="250" />
<glyph unicode=" " glyph-name="space" horiz-adv-x="250" />
<glyph unicode="&#xa0;" glyph-name="uni00A0" horiz-adv-x="250" />
<glyph unicode="&#xa1;" glyph-name="exclamdown" horiz-adv-x="389" d="M321 419Q321 399 305 384T269 368Q247 368 231 384T215 422Q215 443 231 458T270 474Q293 474 307 459T321 419ZM241 281Q227 219 217 170T198 79T183 -4T169 -89Q158 -152 142 -178T99
-205Q59 -205 59 -155Q59 -131 67 -105T97 -31Q111 0 125 32T154 103T187 185T224 285L241 281Z" />
<glyph unicode="&#xa2;" glyph-name="cent" horiz-adv-x="500" d="M372 440Q398 438 413 434T442 418Q456 407 464 392T472 360Q472 340 459 326T424 312Q406 312 396 323T385 352Q385 360 387 365T394 381Q400 394 400 399Q400 419 365 420L228 29Q239 25 252
25Q290 25 322 44T397 108L413 98Q368 41 325 15T226 -11Q220 -11 215 -10L168 -143H137L185 -7Q164 -2 152 3T127 18Q103 37 90 65T77 140Q77 217 117 287T229 403Q242 411 254 417T280 427T308 434T342 440L384 560H414L372 440ZM334 417Q287 407 249 369Q228
347 212 320T185 263T169 202T163 142Q163 74 202 41L334 417Z" />
<glyph unicode="&#xa3;" glyph-name="sterling" horiz-adv-x="500" d="M191 361Q198 403 207 437T227 500T252 554T287 602Q317 638 350 654T424 670Q466 670 491 649T517 594Q517 553 478 553Q465 553 456 562T442 597Q436 641 402 641Q381 641 366 629T337 586T311
501T280 361H404L397 319H270Q260 278 254 252T240 204T222 160T197 104Q250 81 287 74T357 66Q384 66 400 73T436 94L446 101L457 92Q437 44 402 18T315 -8Q297 -8 282 -6T250 4T215 24T171 57Q157 38 145 26T122 7T100 -3T75 -6Q44 -6 27 11T10 58Q10 85 33 105T98
126Q109 126 124 125T160 115L185 319H73L82 361H191ZM146 73Q125 88 113 93T85 98Q62 98 47 86T32 53Q32 37 44 27T75 16Q95 16 115 31T146 73Z" />
<glyph unicode="&#xa4;" glyph-name="currency" horiz-adv-x="500" d="M474 -10L376 88Q346 67 316 57T251 47Q216 47 186 56T124 88L28 -10L-22 40L76 136Q54 168 45 197T35 262Q35 298 44 328T76 388L-22 486L28 534L124 438Q156 459 186 468T251 477Q288 477
317 468T376 438L474 534L522 486L426 388Q447 357 456 328T465 263Q465 228 456 198T426 136L522 40L474 -10ZM397 263Q397 294 386 321T355 368T309 401T253 413Q222 413 195 402T147 370T115 322T103 264Q103 232 114 204T146 156T193 123T251 111Q281 111 308
123T354 155T385 203T397 263Z" />
<glyph unicode="&#xa5;" glyph-name="yen" horiz-adv-x="500" d="M605 637Q593 632 585 628T568 617T551 601T530 576L349 352H498L486 312H318L312 304L288 222H466L454 182H276Q267 156 262 137T252 105T247 82T245 64Q245 44 256 33T299 19L335 16V0H52L56
16Q82 19 100 23T131 36T152 60T167 98L192 182H28L40 222H203L226 302L223 312H61L73 352H212L149 568Q143 587 138 599T124 618T101 630T61 637V653H298V637Q274 635 260 632T238 626T228 617T225 603Q225 591 233 555T264 447L293 347Q304 359 309 365T321 380Q363
429 393 465T443 529T473 574T483 606Q483 630 441 634L416 637V653H605V637Z" />
<glyph unicode="&#xa6;" glyph-name="brokenbar" horiz-adv-x="275" d="M105 391V666H171V391H105ZM105 -18V257H171V-18H105Z" />
<glyph unicode="&#xa7;" glyph-name="section" horiz-adv-x="500" d="M251 401Q213 447 199 477T184 541Q184 568 195 591T225 630T272 656T331 666Q388 666 424 639T461 567Q461 541 447 527T409 512Q389 512 376 524T363 557Q363 577 384 595Q397 607 397 614Q397
627 380 636T337 645Q294 645 270 623T245 562Q245 522 271 490L394 340Q414 316 424 287T435 226Q435 169 403 135T317 100Q306 100 300 101T284 107L282 104Q302 79 314 62T333 30T342 3T345 -25Q345 -54 333 -79T300 -122T251 -151T189 -162Q160 -162 136 -154T93
-131T64 -97T53 -54Q53 -28 68 -13T109 2Q156 2 156 -41Q156 -58 150 -68T129 -87Q114 -97 114 -104Q114 -119 135 -130T185 -141Q230 -141 258 -116T287 -51Q287 -28 277 -8T237 46L161 133Q90 215 90 286Q90 311 98 333T121 373T155 399T196 409Q221 409 249
398L251 401ZM377 192Q377 217 365 243T320 312Q263 388 213 388Q185 388 166 369T147 322Q147 295 164 261T207 195T261 143T312 121Q339 121 358 142T377 192Z" />
<glyph unicode="&#xa8;" glyph-name="dieresis" horiz-adv-x="333" d="M405 557Q405 537 391 523T356 508Q335 508 321 522T307 558Q307 578 321 592T357 606Q376 606 390 591T405 557ZM205 557Q205 537 191 523T156 508Q135 508 121 522T107 558Q107 578 121
592T157 606Q176 606 190 591T205 557Z" />
<glyph unicode="&#xa9;" glyph-name="copyright" horiz-adv-x="760" d="M530 172Q528 164 525 161T509 154Q490 149 476 146T449 140T424 137T398 136Q303 136 247 186T191 323Q191 368 207 404T251 467T320 508T409 523Q433 523 455 520T508 505Q529 499 529
484V415H513Q498 503 406 503Q339 503 304 459T268 331Q268 246 304 201T409 156Q452 156 480 175T529 240H545L530 172ZM719 318Q719 248 693 187T620 81T513 9T382 -18Q310 -18 248 8T140 81T68 189T41 323Q41 394 67 456T140 565T247 639T380 666Q452 666 514
640T621 567T693 456T719 318ZM664 319Q664 382 642 438T582 535T492 600T381 624Q323 624 271 600T180 535T119 439T96 323Q96 262 118 208T180 113T271 48T381 24Q438 24 489 47T580 111T641 205T664 319Z" />
<glyph unicode="&#xaa;" glyph-name="ordfeminine" horiz-adv-x="276" d="M352 675Q329 593 315 539T298 472L295 457Q294 454 294 450Q294 443 298 443Q301 443 310 450T329 467L343 482L350 472Q332 451 319 439T297 419T279 409T260 406Q229 406 229 431Q229
444 232 455T246 493Q227 467 212 451T183 424T153 410T120 406Q84 406 63 424T42 476Q42 511 59 546T103 611T164 658T231 676Q281 676 290 641L297 671L299 673L352 675ZM269 620Q269 636 264 646T250 658Q230 658 207 641T163 597T129 539T115 480Q115 464 124
452T144 440Q183 440 223 500Q243 529 256 563T269 620Z" />
<glyph unicode="&#xab;" glyph-name="guillemotleft" horiz-adv-x="500" d="M215 225Q248 251 268 267T302 293T324 311T342 326Q391 369 412 386T439 403Q445 403 445 396Q445 383 421 353T354 284Q337 269 321 252T289 217Q294 206 299 197T309 177Q337 125
354 89T371 44Q371 37 364 37Q359 37 350 48T328 74T304 105T282 132Q256 162 241 182T215 216V225ZM53 225Q86 251 106 267T140 293T162 311T180 326Q229 369 250 386T277 403Q283 403 283 396Q283 383 259 353T192 284Q174 267 158 251T127 217Q132 206 137 197T147
177Q175 125 192 89T209 44Q209 37 202 37Q196 37 186 47T165 73T142 104T120 132Q94 162 79 182T53 216V225Z" />
<glyph unicode="&#xac;" glyph-name="logicalnot" horiz-adv-x="675" d="M524 108V320H86V386H590V108H524Z" />
<glyph unicode="&#xad;" glyph-name="uni00AD" horiz-adv-x="333" d="M269 192H49L63 255H282L269 192Z" />
<glyph unicode="&#xae;" glyph-name="registered" horiz-adv-x="760" d="M500 146Q487 146 472 163T431 225Q418 247 408 263T380 307H333V210Q333 194 333 185T338 172T353 165T381 161V146H221V161Q239 163 248 165T262 171T268 185T269 210V447Q269 463 268
472T263 485T249 492T221 496V511H396Q449 511 479 487T510 420Q510 349 431 317L488 239Q512 207 529 187T563 155V146H500ZM375 325Q408 325 425 348T443 414Q443 492 374 492H333V325H375ZM719 318Q719 248 693 187T620 81T513 9T382 -18Q310 -18 248 8T140
81T68 189T41 323Q41 394 67 456T140 565T247 639T380 666Q452 666 514 640T621 567T693 456T719 318ZM664 319Q664 382 642 438T582 535T492 600T381 624Q323 624 271 600T180 535T119 439T96 323Q96 262 118 208T180 113T271 48T381 24Q438 24 489 47T580 111T641
205T664 319Z" />
<glyph unicode="&#xaf;" glyph-name="overscore" horiz-adv-x="333" d="M400 532H99L110 583H411L400 532Z" />
<glyph unicode="&#xb0;" glyph-name="degree" horiz-adv-x="400" d="M387 533Q387 503 376 477T346 431T300 401T242 390Q213 390 187 401T142 431T112 477T101 533Q101 563 112 589T142 634T188 665T244 676Q274 676 300 665T345 635T376 589T387 533ZM348 533Q348
555 340 575T318 610T284 633T244 642Q223 642 204 634T171 610T148 575T140 533Q140 511 148 491T170 456T203 433T243 424Q265 424 284 432T317 456T339 490T348 533Z" />
<glyph unicode="&#xb1;" glyph-name="plusminus" horiz-adv-x="675" d="M371 282V122H305V282H86V348H305V568H371V348H590V282H371ZM86 0V66H590V0H86Z" />
<glyph unicode="&#xb2;" glyph-name="twosuperior" horiz-adv-x="300" d="M78 580Q89 605 98 618T121 643Q160 676 213 676Q236 676 256 668T291 647T315 615T324 575Q324 562 321 551T308 526T278 491T225 439L111 329L113 324H221Q248 324 261 331T286 358L297
350L264 271H33V289L166 419Q259 510 259 558Q259 586 236 605T181 625Q154 625 134 613T91 572L78 580Z" />
<glyph unicode="&#xb3;" glyph-name="threesuperior" horiz-adv-x="300" d="M139 615Q155 644 182 660T244 676Q285 676 312 654T339 600Q339 571 318 552T238 513L242 511Q252 506 258 503T268 497T274 493T280 487Q301 463 301 425Q301 390 288 362T249 312T190
280T116 268Q43 268 43 307Q43 319 51 327T73 335Q87 335 111 318Q125 308 135 304T154 299Q190 299 214 325T238 392Q238 438 212 463T138 489H125V498Q200 512 236 535T272 592Q272 615 258 629T222 644Q202 644 187 637T149 608L139 615Z" />
<glyph unicode="&#xb4;" glyph-name="acute" horiz-adv-x="333" d="M342 654Q352 664 367 664Q382 664 392 654T403 628Q403 610 386 600L215 494H180L342 654Z" />
<glyph unicode="&#xb5;" glyph-name="mu" horiz-adv-x="500" d="M419 92Q416 78 415 72T413 58Q413 30 439 30Q452 30 464 35T495 56L492 47Q460 15 437 3T385 -10Q328 -10 328 49Q328 57 329 63T332 80Q292 33 255 12T178 -10Q138 -10 114 8T75 66Q73 50 73 41T73
18Q73 10 73 0T74 -24Q75 -37 75 -49T75 -67Q75 -133 56 -171T4 -209Q-30 -209 -30 -164Q-30 -151 -29 -139T-23 -114T-11 -84T8 -46Q22 -12 29 11T42 54L127 428H215L148 144Q146 139 146 131T145 114Q145 82 163 64T214 45Q246 45 278 63T336 115L409 428H497L419
92Z" />
<glyph unicode="&#xb6;" glyph-name="paragraph" horiz-adv-x="559" d="M615 632Q586 630 569 627T543 618T528 602T518 574L358 -26Q354 -40 351 -53T347 -76Q347 -87 358 -92T396 -100L419 -102L414 -123H266L466 632H408L208 -123H60L65 -102Q100 -99 115 -97T139
-89Q149 -83 152 -74Q155 -65 162 -41T178 16T198 90T220 171L250 283Q209 284 186 290T142 311Q97 342 97 403Q97 451 113 498T156 577Q190 618 238 635T364 653H621L615 632ZM339 632Q306 630 283 619T238 583Q224 567 213 546T193 502T179 454T174 406Q174 381
182 359T207 323Q216 314 227 310T260 304L339 632Z" />
<glyph unicode="&#xb7;" glyph-name="middot" horiz-adv-x="250" d="M181 253Q181 230 164 215T124 199Q102 199 86 215T70 253Q70 277 86 293T125 310Q148 310 164 293T181 253Z" />
<glyph unicode="&#xb8;" glyph-name="cedilla" horiz-adv-x="333" d="M75 -66Q83 -64 88 -64T100 -63Q138 -63 160 -81T182 -131Q182 -169 149 -193T63 -217Q42 -217 22 -213T-30 -196L-13 -167Q10 -175 24 -178T55 -182Q108 -182 108 -141Q108 -121 95 -109T62
-97Q54 -97 48 -98T30 -104L21 -96L81 0H119L75 -66Z" />
<glyph unicode="&#xb9;" glyph-name="onesuperior" horiz-adv-x="300" d="M279 676Q284 676 284 671Q284 666 280 655L194 381Q175 323 175 307Q175 296 185 292T224 287V271H43V287Q78 291 91 296T108 312L198 597Q201 606 202 610T203 618Q203 626 197 630T182
635H148V654Q158 655 167 657T190 661T222 666T270 676H279Z" />
<glyph unicode="&#xba;" glyph-name="ordmasculine" horiz-adv-x="310" d="M362 592Q362 557 345 524T300 465T237 422T164 406Q119 406 93 428T67 489Q67 525 83 558T128 618T191 660T265 676Q308 676 335 653T362 592ZM289 607Q289 654 258 654Q238 654 217
639T179 598T151 540T140 476Q140 455 150 443T178 430Q191 430 204 435T227 452Q240 466 251 485T271 524T284 566T289 607Z" />
<glyph unicode="&#xbb;" glyph-name="guillemotright" horiz-adv-x="500" d="M411 188Q390 172 377 162T354 144T337 129T320 114Q270 70 249 54T223 37Q217 37 217 44Q217 57 241 87T308 156Q327 173 343 189T373 223Q368 234 363 243T353 263Q325 314 308 351T291
396Q291 403 298 403Q304 403 313 393T334 367T358 336T380 308Q406 278 421 258T447 224V215L411 188ZM249 188Q228 172 215 162T192 144T175 129T158 114Q108 70 87 54T61 37Q55 37 55 44Q55 57 80 86T146 156L211 223Q206 234 201 243T191 263Q163 314 146 351T129
396Q129 403 136 403Q141 403 151 393T172 367T196 336T218 308Q244 278 259 258T285 224V215L249 188Z" />
<glyph unicode="&#xbc;" glyph-name="onequarter" horiz-adv-x="750" d="M657 147H712L703 104H645L615 0H552L584 105H416L429 147L700 406H736L657 147ZM464 147H593L653 333L464 147ZM194 -10H143L598 676H649L194 -10ZM138 654Q155 656 168 658T208 666Q231
671 247 673T268 676Q273 676 273 671Q273 664 270 655L184 381Q165 323 165 307Q165 296 175 292T214 287V271H33V287Q68 291 81 296T98 312L188 597Q191 606 192 610T193 618Q193 635 168 635H138V654Z" />
<glyph unicode="&#xbd;" glyph-name="onehalf" horiz-adv-x="750" d="M503 309Q514 334 523 347T546 372Q586 406 639 406Q661 406 681 398T716 376T740 344T749 304Q749 291 746 280T733 255T703 220T650 168L536 58L538 53H646Q673 53 686 60T711 87L722 79L689
0H458V18L591 148Q684 239 684 287Q684 315 661 334T606 354Q579 354 559 342T516 301L503 309ZM180 -10H129L584 676H635L180 -10ZM139 654Q148 655 155 656T170 658T187 662T209 666Q232 671 248 673T269 676Q274 676 274 671Q274 664 271 655L185 381Q166 321
166 307Q166 296 176 292T215 287V271H34V287Q69 291 82 296T99 312L189 597Q193 608 193 611T194 619Q194 635 170 635H139V654Z" />
<glyph unicode="&#xbe;" glyph-name="threequarters" horiz-adv-x="750" d="M657 147H712L703 104H645L615 0H552L584 105H416L429 147L700 406H736L657 147ZM464 147H593L653 333L464 147ZM195 -10H144L599 676H650L195 -10ZM119 615Q134 644 162 660T224 676Q265
676 292 654T319 600Q319 571 298 552T218 513V510Q237 505 245 500T260 487Q281 463 281 425Q281 390 268 362T229 312T170 280T96 268Q23 268 23 307Q23 319 31 327T53 335Q67 335 91 318Q105 308 115 304T134 299Q170 299 194 325T218 392Q218 438 192 463T118
489H105V498Q180 512 216 535T252 592Q252 615 238 629T202 644Q182 644 167 637T129 608L119 615Z" />
<glyph unicode="&#xbf;" glyph-name="questiondown" horiz-adv-x="500" d="M367 421Q367 398 352 383T315 368Q292 368 277 383T262 421Q262 442 277 457T314 473Q337 473 352 458T367 421ZM301 283Q294 245 288 221T270 174T239 127T189 67Q165 40 149 18T122
-23T107 -61T102 -99Q102 -140 123 -161T182 -183Q214 -183 233 -171T252 -135Q252 -122 245 -112T237 -84Q237 -67 248 -57T277 -46Q295 -46 305 -59T316 -96Q316 -120 306 -140T277 -174T232 -197T175 -205Q108 -205 68 -176T28 -84Q28 -61 33 -42T52 -2T93 44T162
105Q189 126 208 144T240 181T263 217T277 256L284 285L301 283Z" />
<glyph unicode="&#xc0;" glyph-name="Agrave" horiz-adv-x="611" d="M319 0V16Q366 18 381 30T396 69Q396 75 396 81T394 95L374 226H154L95 115Q73 74 73 49Q73 35 86 27T135 16V0H-51V16Q-34 19 -22 25T5 48T37 94T83 172L368 668H394L486 115Q491 83 496 65T510
36T531 21T564 16V0H319ZM324 525L175 262H369L324 525ZM468 742L328 848Q309 863 309 880Q309 897 319 905T345 914Q356 914 365 909T385 891L500 742H468Z" />
<glyph unicode="&#xc1;" glyph-name="Aacute" horiz-adv-x="611" d="M319 0V16Q366 18 381 30T396 69Q396 75 396 81T394 95L374 226H154L95 115Q73 74 73 49Q73 35 86 27T135 16V0H-51V16Q-34 19 -22 25T5 48T37 94T83 172L368 668H394L486 115Q491 83 496 65T510
36T531 21T564 16V0H319ZM324 525L175 262H369L324 525ZM454 904Q464 914 479 914Q494 914 504 904T515 878Q515 860 498 850L327 744H292L454 904Z" />
<glyph unicode="&#xc2;" glyph-name="Acircumflex" horiz-adv-x="611" d="M319 0V16Q366 18 381 30T396 69Q396 75 396 81T394 95L374 226H154L95 115Q73 74 73 49Q73 35 86 27T135 16V0H-51V16Q-34 19 -22 25T5 48T37 94T83 172L368 668H394L486 115Q491 83 496
65T510 36T531 21T564 16V0H319ZM324 525L175 262H369L324 525ZM512 742L430 846L293 742H254L411 911H460L548 742H512Z" />
<glyph unicode="&#xc3;" glyph-name="Atilde" horiz-adv-x="611" d="M319 0V16Q366 18 381 30T396 69Q396 75 396 81T394 95L374 226H154L95 115Q73 74 73 49Q73 35 86 27T135 16V0H-51V16Q-34 19 -22 25T5 48T37 94T83 172L368 668H394L486 115Q491 83 496 65T510
36T531 21T564 16V0H319ZM324 525L175 262H369L324 525ZM572 874Q561 823 537 797T477 770Q459 770 420 785Q379 802 359 808T325 814Q289 814 274 767H245Q260 825 283 849T345 873Q362 873 382 868T431 849Q454 838 468 834T493 830Q513 830 524 839T544 874H572Z"
/>
<glyph unicode="&#xc4;" glyph-name="Adieresis" horiz-adv-x="611" d="M319 0V16Q366 18 381 30T396 69Q396 75 396 81T394 95L374 226H154L95 115Q73 74 73 49Q73 35 86 27T135 16V0H-51V16Q-34 19 -22 25T5 48T37 94T83 172L368 668H394L486 115Q491 83 496
65T510 36T531 21T564 16V0H319ZM324 525L175 262H369L324 525ZM554 807Q554 787 540 773T505 758Q484 758 470 772T456 808Q456 828 470 842T506 856Q525 856 539 841T554 807ZM354 807Q354 787 340 773T305 758Q284 758 270 772T256 808Q256 828 270 842T306
856Q325 856 339 841T354 807Z" />
<glyph unicode="&#xc5;" glyph-name="Aring" horiz-adv-x="611" d="M319 0V16Q366 18 381 30T396 69Q396 75 396 81T394 95L374 226H154L95 115Q73 74 73 49Q73 35 86 27T135 16V0H-51V16Q-34 19 -22 25T5 48T37 94T83 172L368 668H394L486 115Q491 83 496 65T510
36T531 21T564 16V0H319ZM324 525L175 262H369L324 525ZM505 857Q505 837 497 819T476 788T444 766T405 758Q362 758 334 787T305 858Q305 878 313 896T334 927T366 949T404 957Q425 957 443 949T475 928T497 896T505 857ZM471 857Q471 885 452 904T404 923Q378
923 359 904T339 858Q339 830 357 811T404 792Q433 792 452 810T471 857Z" />
<glyph unicode="&#xc6;" glyph-name="AE" horiz-adv-x="889" d="M878 500L861 502Q862 512 862 522T862 538Q862 564 855 580T828 605T769 617T670 620Q652 620 641 619T624 614T613 603T606 583L545 361Q605 361 639 363T694 375T727 404T756 458L774 454L705
222L688 226Q691 244 692 255T694 278Q694 293 689 303T671 318T635 326T576 328H536Q513 247 499 197T478 119T468 79T465 62Q465 33 516 33H546Q602 33 642 39T713 60T771 101T826 169L844 164L780 0H282V16Q305 18 319 21T341 30T354 44T362 64L411 234H221Q215
226 209 219T196 204Q150 149 123 107T96 47Q96 32 108 26T160 16V0H-27V16Q-18 18 -11 22T6 34T27 55T57 92L426 557Q437 571 443 579T453 593T457 601T458 610Q458 633 420 636L394 638V653H911L878 500ZM249 271H422L517 613L249 271Z" />
<glyph unicode="&#xc7;" glyph-name="Ccedilla" horiz-adv-x="667" d="M652 464L634 467Q628 552 589 591T481 630Q431 630 380 604T286 532Q234 477 206 400T178 232Q178 127 223 77T353 27Q384 27 411 33T465 52T520 89T583 145L600 131Q566 91 534 63T468 17T401
-9T327 -18Q315 -18 303 -17T277 -14L242 -66Q250 -64 255 -64T267 -63Q305 -63 327 -81T349 -131Q349 -169 316 -193T230 -217Q209 -217 189 -213T137 -196L154 -167Q177 -175 191 -178T222 -182Q275 -182 275 -141Q275 -121 262 -109T229 -97Q221 -97 215 -98T197
-104L188 -96L244 -6Q203 3 170 25T114 80T79 154T66 243Q66 327 99 403T189 538T318 631T472 666Q521 666 589 649Q618 642 630 642Q645 642 653 647T668 664H689L652 464Z" />
<glyph unicode="&#xc8;" glyph-name="Egrave" horiz-adv-x="611" d="M603 499L581 501Q584 526 584 547Q584 569 576 583T547 606T489 617T392 620Q371 620 358 619T337 615T325 607T319 594L253 361H331Q365 361 385 364T420 377T445 407T470 458L488 454L420
222L400 227Q404 244 405 254T407 279Q407 303 400 310Q383 325 322 325H244L212 213Q193 147 185 112T176 67Q176 49 194 41T255 33Q328 33 374 42T458 72Q482 85 502 107T552 170L568 162L506 0H-1V16Q20 20 33 23T54 34T68 55T80 90L203 532Q208 547 211 567T214
596Q214 616 199 624T137 637V653H634L603 499ZM494 742L354 848Q335 863 335 880Q335 897 345 905T371 914Q382 914 391 909T411 891L526 742H494Z" />
<glyph unicode="&#xc9;" glyph-name="Eacute" horiz-adv-x="611" d="M603 499L581 501Q584 526 584 547Q584 569 576 583T547 606T489 617T392 620Q371 620 358 619T337 615T325 607T319 594L253 361H331Q365 361 385 364T420 377T445 407T470 458L488 454L420
222L400 227Q404 244 405 254T407 279Q407 303 400 310Q383 325 322 325H244L212 213Q193 147 185 112T176 67Q176 49 194 41T255 33Q328 33 374 42T458 72Q482 85 502 107T552 170L568 162L506 0H-1V16Q20 20 33 23T54 34T68 55T80 90L203 532Q208 547 211 567T214
596Q214 616 199 624T137 637V653H634L603 499ZM484 904Q494 914 509 914Q524 914 534 904T545 878Q545 860 528 850L357 744H322L484 904Z" />
<glyph unicode="&#xca;" glyph-name="Ecircumflex" horiz-adv-x="611" d="M603 499L581 501Q584 526 584 547Q584 569 576 583T547 606T489 617T392 620Q371 620 358 619T337 615T325 607T319 594L253 361H331Q365 361 385 364T420 377T445 407T470 458L488 454L420
222L400 227Q404 244 405 254T407 279Q407 303 400 310Q383 325 322 325H244L212 213Q193 147 185 112T176 67Q176 49 194 41T255 33Q328 33 374 42T458 72Q482 85 502 107T552 170L568 162L506 0H-1V16Q20 20 33 23T54 34T68 55T80 90L203 532Q208 547 211 567T214
596Q214 616 199 624T137 637V653H634L603 499ZM541 742L459 846L322 742H283L440 911H489L577 742H541Z" />
<glyph unicode="&#xcb;" glyph-name="Edieresis" horiz-adv-x="611" d="M603 499L581 501Q584 526 584 547Q584 569 576 583T547 606T489 617T392 620Q371 620 358 619T337 615T325 607T319 594L253 361H331Q365 361 385 364T420 377T445 407T470 458L488 454L420
222L400 227Q404 244 405 254T407 279Q407 303 400 310Q383 325 322 325H244L212 213Q193 147 185 112T176 67Q176 49 194 41T255 33Q328 33 374 42T458 72Q482 85 502 107T552 170L568 162L506 0H-1V16Q20 20 33 23T54 34T68 55T80 90L203 532Q208 547 211 567T214
596Q214 616 199 624T137 637V653H634L603 499ZM585 807Q585 787 571 773T536 758Q515 758 501 772T487 808Q487 828 501 842T537 856Q556 856 570 841T585 807ZM385 807Q385 787 371 773T336 758Q315 758 301 772T287 808Q287 828 301 842T337 856Q356 856 370
841T385 807Z" />
<glyph unicode="&#xcc;" glyph-name="Igrave" horiz-adv-x="333" d="M384 637Q363 634 350 631T329 619T314 597T302 560L182 131Q175 107 171 89T167 55Q167 34 180 28T236 16V0H-8V16Q13 20 26 24T49 36T64 57T76 91L196 532Q201 551 205 566T209 594Q209 613
194 624T137 637V653H384V637ZM366 742L226 848Q207 863 207 880Q207 897 217 905T243 914Q254 914 263 909T283 891L398 742H366Z" />
<glyph unicode="&#xcd;" glyph-name="Iacute" horiz-adv-x="333" d="M384 637Q363 634 350 631T329 619T314 597T302 560L182 131Q175 107 171 89T167 55Q167 34 180 28T236 16V0H-8V16Q13 20 26 24T49 36T64 57T76 91L196 532Q201 551 205 566T209 594Q209 613
194 624T137 637V653H384V637ZM353 904Q363 914 378 914Q393 914 403 904T414 878Q414 860 397 850L226 744H191L353 904Z" />
<glyph unicode="&#xce;" glyph-name="Icircumflex" horiz-adv-x="333" d="M384 637Q363 634 350 631T329 619T314 597T302 560L182 131Q175 107 171 89T167 55Q167 34 180 28T236 16V0H-8V16Q13 20 26 24T49 36T64 57T76 91L196 532Q201 551 205 566T209 594Q209
613 194 624T137 637V653H384V637ZM414 742L332 846L195 742H156L313 911H362L450 742H414Z" />
<glyph unicode="&#xcf;" glyph-name="Idieresis" horiz-adv-x="333" d="M384 637Q363 634 350 631T329 619T314 597T302 560L182 131Q175 107 171 89T167 55Q167 34 180 28T236 16V0H-8V16Q13 20 26 24T49 36T64 57T76 91L196 532Q201 551 205 566T209 594Q209
613 194 624T137 637V653H384V637ZM457 807Q457 787 443 773T408 758Q387 758 373 772T359 808Q359 828 373 842T409 856Q428 856 442 841T457 807ZM257 807Q257 787 243 773T208 758Q187 758 173 772T159 808Q159 828 173 842T209 856Q228 856 242 841T257 807Z"
/>
<glyph unicode="&#xd0;" glyph-name="Eth" horiz-adv-x="722" d="M406 653Q543 653 621 585T700 384Q700 295 657 217T540 83Q430 0 237 0H-8V16Q13 20 26 23T47 34T61 55T73 90L138 326H48L60 368H150L196 532Q207 571 207 596Q207 616 192 624T130 637V653H406ZM192
162Q180 118 175 98T170 67Q170 30 239 30Q312 30 373 52T479 120Q530 171 559 246T589 404Q589 513 535 568T375 623Q343 623 331 617T313 594L250 368H403L391 326H238L192 162Z" />
<glyph unicode="&#xd1;" glyph-name="Ntilde" horiz-adv-x="667" d="M727 637Q703 632 690 627T666 608T648 567T625 492L479 -15H461L231 535L117 113Q108 81 108 59Q108 38 123 29T178 16V0H-20V16Q1 19 15 25T40 47T62 91T86 168L203 583Q192 609 172 623T117
637V653H277L484 154L590 542Q595 558 596 567T598 586Q598 599 595 608T585 623T564 632T529 637V653H727V637ZM637 874Q626 823 602 797T542 770Q524 770 485 785Q444 802 424 808T390 814Q354 814 339 767H310Q325 825 348 849T410 873Q427 873 447 868T496
849Q519 838 533 834T558 830Q578 830 589 839T609 874H637Z" />
<glyph unicode="&#xd2;" glyph-name="Ograve" horiz-adv-x="722" d="M699 418Q699 363 684 311T640 211T575 123T492 53Q443 20 389 1T278 -18Q229 -18 189 -3T121 43T76 116T60 216Q60 262 73 310T109 404T165 492T237 569Q289 614 349 640T474 666Q528 666 570
649T640 600T684 521T699 418ZM594 481Q594 552 560 592T465 633Q409 633 363 600T279 516Q252 479 231 437T195 351T173 264T165 184Q165 102 198 59T295 15Q346 15 388 41T465 110Q496 149 520 197T561 296T585 394T594 481ZM555 742L415 848Q396 863 396 880Q396
897 406 905T432 914Q443 914 452 909T472 891L587 742H555Z" />
<glyph unicode="&#xd3;" glyph-name="Oacute" horiz-adv-x="722" d="M699 418Q699 363 684 311T640 211T575 123T492 53Q443 20 389 1T278 -18Q229 -18 189 -3T121 43T76 116T60 216Q60 262 73 310T109 404T165 492T237 569Q289 614 349 640T474 666Q528 666 570
649T640 600T684 521T699 418ZM594 481Q594 552 560 592T465 633Q409 633 363 600T279 516Q252 479 231 437T195 351T173 264T165 184Q165 102 198 59T295 15Q346 15 388 41T465 110Q496 149 520 197T561 296T585 394T594 481ZM545 904Q555 914 570 914Q585 914
595 904T606 878Q606 860 589 850L418 744H383L545 904Z" />
<glyph unicode="&#xd4;" glyph-name="Ocircumflex" horiz-adv-x="722" d="M699 418Q699 363 684 311T640 211T575 123T492 53Q443 20 389 1T278 -18Q229 -18 189 -3T121 43T76 116T60 216Q60 262 73 310T109 404T165 492T237 569Q289 614 349 640T474 666Q528
666 570 649T640 600T684 521T699 418ZM594 481Q594 552 560 592T465 633Q409 633 363 600T279 516Q252 479 231 437T195 351T173 264T165 184Q165 102 198 59T295 15Q346 15 388 41T465 110Q496 149 520 197T561 296T585 394T594 481ZM602 742L520 846L383 742H344L501
911H550L638 742H602Z" />
<glyph unicode="&#xd5;" glyph-name="Otilde" horiz-adv-x="722" d="M699 418Q699 363 684 311T640 211T575 123T492 53Q443 20 389 1T278 -18Q229 -18 189 -3T121 43T76 116T60 216Q60 262 73 310T109 404T165 492T237 569Q289 614 349 640T474 666Q528 666 570
649T640 600T684 521T699 418ZM594 481Q594 552 560 592T465 633Q409 633 363 600T279 516Q252 479 231 437T195 351T173 264T165 184Q165 102 198 59T295 15Q346 15 388 41T465 110Q496 149 520 197T561 296T585 394T594 481ZM662 874Q651 823 627 797T567 770Q549
770 510 785Q469 802 449 808T415 814Q379 814 364 767H335Q350 825 373 849T435 873Q452 873 472 868T521 849Q544 838 558 834T583 830Q603 830 614 839T634 874H662Z" />
<glyph unicode="&#xd6;" glyph-name="Odieresis" horiz-adv-x="722" d="M699 418Q699 363 684 311T640 211T575 123T492 53Q443 20 389 1T278 -18Q229 -18 189 -3T121 43T76 116T60 216Q60 262 73 310T109 404T165 492T237 569Q289 614 349 640T474 666Q528 666
570 649T640 600T684 521T699 418ZM594 481Q594 552 560 592T465 633Q409 633 363 600T279 516Q252 479 231 437T195 351T173 264T165 184Q165 102 198 59T295 15Q346 15 388 41T465 110Q496 149 520 197T561 296T585 394T594 481ZM643 807Q643 787 629 773T594
758Q573 758 559 772T545 808Q545 828 559 842T595 856Q614 856 628 841T643 807ZM443 807Q443 787 429 773T394 758Q373 758 359 772T345 808Q345 828 359 842T395 856Q414 856 428 841T443 807Z" />
<glyph unicode="&#xd7;" glyph-name="multiply" horiz-adv-x="675" d="M534 8L337 205L141 8L93 56L289 253L93 449L141 497L337 300L534 497L582 449L385 253L582 56L534 8Z" />
<glyph unicode="&#xd8;" glyph-name="Oslash" horiz-adv-x="722" d="M605 626Q631 606 643 592T668 557Q683 530 691 497T699 431Q699 346 663 266T569 122T435 21T281 -18Q258 -18 237 -13T187 3L113 -105H69L155 22Q105 58 83 105T60 222Q60 314 106 404T234
565Q292 614 352 640T468 666Q496 666 520 661T573 644L625 722H669L605 626ZM546 607Q527 621 509 627T464 633Q354 633 271 508Q248 474 229 432T195 346T173 258T165 176Q165 147 170 124T190 74L546 607ZM215 44Q232 28 250 22T295 15Q404 15 487 138Q510 172
529 215T563 303T586 392T594 475Q594 504 589 528T570 574L215 44Z" />
<glyph unicode="&#xd9;" glyph-name="Ugrave" horiz-adv-x="722" d="M765 637Q742 632 728 626T704 606T685 565T661 488L578 203Q561 146 537 104T481 34Q449 6 411 -6T323 -18Q274 -18 234 -6T164 28T118 80T102 146Q102 187 114 238T146 362L198 551Q202 565
204 576T207 596Q207 616 191 625T127 637V653H399V637Q373 634 357 630T329 615T310 589T295 546L232 320Q212 248 202 203T192 141Q192 114 202 93T231 56T275 32T330 23Q372 23 405 36T465 77T512 149T550 255L614 488Q626 533 631 558T637 591Q637 614 622
623T567 637V653H765V637ZM556 742L416 848Q397 863 397 880Q397 897 407 905T433 914Q444 914 453 909T473 891L588 742H556Z" />
<glyph unicode="&#xda;" glyph-name="Uacute" horiz-adv-x="722" d="M765 637Q742 632 728 626T704 606T685 565T661 488L578 203Q561 146 537 104T481 34Q449 6 411 -6T323 -18Q274 -18 234 -6T164 28T118 80T102 146Q102 187 114 238T146 362L198 551Q202 565
204 576T207 596Q207 616 191 625T127 637V653H399V637Q373 634 357 630T329 615T310 589T295 546L232 320Q212 248 202 203T192 141Q192 114 202 93T231 56T275 32T330 23Q372 23 405 36T465 77T512 149T550 255L614 488Q626 533 631 558T637 591Q637 614 622
623T567 637V653H765V637ZM545 904Q555 914 570 914Q585 914 595 904T606 878Q606 860 589 850L418 744H383L545 904Z" />
<glyph unicode="&#xdb;" glyph-name="Ucircumflex" horiz-adv-x="722" d="M765 637Q742 632 728 626T704 606T685 565T661 488L578 203Q561 146 537 104T481 34Q449 6 411 -6T323 -18Q274 -18 234 -6T164 28T118 80T102 146Q102 187 114 238T146 362L198 551Q202
565 204 576T207 596Q207 616 191 625T127 637V653H399V637Q373 634 357 630T329 615T310 589T295 546L232 320Q212 248 202 203T192 141Q192 114 202 93T231 56T275 32T330 23Q372 23 405 36T465 77T512 149T550 255L614 488Q626 533 631 558T637 591Q637 614
622 623T567 637V653H765V637ZM599 742L517 846L380 742H341L498 911H547L635 742H599Z" />
<glyph unicode="&#xdc;" glyph-name="Udieresis" horiz-adv-x="722" d="M765 637Q742 632 728 626T704 606T685 565T661 488L578 203Q561 146 537 104T481 34Q449 6 411 -6T323 -18Q274 -18 234 -6T164 28T118 80T102 146Q102 187 114 238T146 362L198 551Q202
565 204 576T207 596Q207 616 191 625T127 637V653H399V637Q373 634 357 630T329 615T310 589T295 546L232 320Q212 248 202 203T192 141Q192 114 202 93T231 56T275 32T330 23Q372 23 405 36T465 77T512 149T550 255L614 488Q626 533 631 558T637 591Q637 614
622 623T567 637V653H765V637ZM645 807Q645 787 631 773T596 758Q575 758 561 772T547 808Q547 828 561 842T597 856Q616 856 630 841T645 807ZM445 807Q445 787 431 773T396 758Q375 758 361 772T347 808Q347 828 361 842T397 856Q416 856 430 841T445 807Z" />
<glyph unicode="&#xdd;" glyph-name="Yacute" horiz-adv-x="556" d="M633 637Q622 633 615 629T600 618T584 601T563 576L344 306L308 183Q299 153 294 133T285 98T280 74T278 56Q278 37 290 29T331 19L367 16V0H78V16Q103 17 120 21T149 34T170 58T185 97L244
302L168 569Q162 588 158 600T145 619T125 630T91 637V653H330V637Q285 632 272 625T258 601Q258 590 267 556T294 457L325 347L364 393Q443 486 478 536T513 606Q513 619 504 625T473 634L444 637V653H633V637ZM463 904Q473 914 488 914Q503 914 513 904T524 878Q524
860 507 850L336 744H301L463 904Z" />
<glyph unicode="&#xde;" glyph-name="Thorn" horiz-adv-x="611" d="M358 518Q461 518 515 484T569 374Q569 329 548 286T487 216Q455 193 406 182T295 170Q263 170 244 172T206 180L189 120Q181 94 179 83T177 63Q177 50 178 42T186 30T206 22T243 16V0H0V16Q21
19 34 22T56 33T70 54T82 90L200 515Q210 551 213 567T217 595Q217 615 205 623T150 637V653H385V637Q355 633 342 625T322 591L302 518H358ZM215 211Q226 209 233 208T245 207T255 206T267 206Q313 206 350 214T412 242T452 294T466 374Q466 430 435 459T332 488Q311
488 301 482T286 459L215 211Z" />
<glyph unicode="&#xdf;" glyph-name="germandbls" horiz-adv-x="500" d="M95 315Q117 411 142 480T199 593T269 658T354 679Q417 679 455 644T493 548Q493 493 457 456T338 387L330 384V381Q354 378 368 374T397 359Q423 341 438 310T454 244Q454 192 431 138T370
44Q344 17 310 2T241 -13Q205 -13 183 5T161 53Q161 75 173 87T205 100Q222 100 232 89T243 60Q243 46 235 33Q231 25 231 22Q231 17 236 13T249 9Q289 9 320 63Q330 82 339 106T354 156T363 209T367 262Q367 366 286 369Q271 370 266 373T260 384Q260 397 277
397Q307 397 332 410T375 447T403 504T413 577Q413 656 351 656Q264 656 206 438L95 12Q68 -92 19 -149T-90 -207Q-125 -207 -146 -190T-168 -145Q-168 -125 -158 -114T-129 -103Q-112 -103 -101 -113T-89 -139Q-89 -151 -97 -165Q-101 -170 -101 -175Q-101 -183
-84 -183Q-65 -183 -51 -174T-23 -144T1 -89T23 -4L95 315Z" />
<glyph unicode="&#xe0;" glyph-name="agrave" horiz-adv-x="501" d="M476 100Q448 66 429 45T394 11T365 -5T337 -10Q297 -10 297 31Q297 40 297 48T300 67T307 97T320 146Q264 61 217 25T117 -11Q75 -11 46 18T17 105Q17 163 43 223T110 331T202 410T303 441Q370
441 383 383L394 431L397 434L458 441L465 438Q463 431 462 428T459 417Q441 353 425 291T397 179T378 95T370 54Q370 41 384 41Q391 41 402 49T436 82L463 111L476 100ZM365 361Q365 387 350 403T309 419Q241 419 178 327Q162 303 148 276T124 220T107 164T101
112Q101 70 117 54T161 38Q180 38 198 47T232 71T262 102T288 136Q323 187 344 247T365 361ZM414 492L274 598Q255 613 255 630Q255 647 265 655T291 664Q302 664 311 659T331 641L446 492H414Z" />
<glyph unicode="&#xe1;" glyph-name="aacute" horiz-adv-x="501" d="M476 100Q448 66 429 45T394 11T365 -5T337 -10Q297 -10 297 31Q297 40 297 48T300 67T307 97T320 146Q264 61 217 25T117 -11Q75 -11 46 18T17 105Q17 163 43 223T110 331T202 410T303 441Q370
441 383 383L394 431L397 434L458 441L465 438Q463 431 462 428T459 417Q441 353 425 291T397 179T378 95T370 54Q370 41 384 41Q391 41 402 49T436 82L463 111L476 100ZM365 361Q365 387 350 403T309 419Q241 419 178 327Q162 303 148 276T124 220T107 164T101
112Q101 70 117 54T161 38Q180 38 198 47T232 71T262 102T288 136Q323 187 344 247T365 361ZM405 654Q415 664 430 664Q445 664 455 654T466 628Q466 610 449 600L278 494H243L405 654Z" />
<glyph unicode="&#xe2;" glyph-name="acircumflex" horiz-adv-x="501" d="M476 100Q448 66 429 45T394 11T365 -5T337 -10Q297 -10 297 31Q297 40 297 48T300 67T307 97T320 146Q264 61 217 25T117 -11Q75 -11 46 18T17 105Q17 163 43 223T110 331T202 410T303
441Q370 441 383 383L394 431L397 434L458 441L465 438Q463 431 462 428T459 417Q441 353 425 291T397 179T378 95T370 54Q370 41 384 41Q391 41 402 49T436 82L463 111L476 100ZM365 361Q365 387 350 403T309 419Q241 419 178 327Q162 303 148 276T124 220T107
164T101 112Q101 70 117 54T161 38Q180 38 198 47T232 71T262 102T288 136Q323 187 344 247T365 361ZM461 492L379 596L242 492H203L360 661H409L497 492H461Z" />
<glyph unicode="&#xe3;" glyph-name="atilde" horiz-adv-x="501" d="M476 100Q448 66 429 45T394 11T365 -5T337 -10Q297 -10 297 31Q297 40 297 48T300 67T307 97T320 146Q264 61 217 25T117 -11Q75 -11 46 18T17 105Q17 163 43 223T110 331T202 410T303 441Q370
441 383 383L394 431L397 434L458 441L465 438Q463 431 462 428T459 417Q441 353 425 291T397 179T378 95T370 54Q370 41 384 41Q391 41 402 49T436 82L463 111L476 100ZM365 361Q365 387 350 403T309 419Q241 419 178 327Q162 303 148 276T124 220T107 164T101
112Q101 70 117 54T161 38Q180 38 198 47T232 71T262 102T288 136Q323 187 344 247T365 361ZM521 624Q510 573 486 547T426 520Q408 520 369 535Q328 552 308 558T274 564Q238 564 223 517H194Q209 575 232 599T294 623Q311 623 331 618T380 599Q403 588 417 584T442
580Q462 580 473 589T493 624H521Z" />
<glyph unicode="&#xe4;" glyph-name="adieresis" horiz-adv-x="501" d="M476 100Q448 66 429 45T394 11T365 -5T337 -10Q297 -10 297 31Q297 40 297 48T300 67T307 97T320 146Q264 61 217 25T117 -11Q75 -11 46 18T17 105Q17 163 43 223T110 331T202 410T303 441Q370
441 383 383L394 431L397 434L458 441L465 438Q463 431 462 428T459 417Q441 353 425 291T397 179T378 95T370 54Q370 41 384 41Q391 41 402 49T436 82L463 111L476 100ZM365 361Q365 387 350 403T309 419Q241 419 178 327Q162 303 148 276T124 220T107 164T101
112Q101 70 117 54T161 38Q180 38 198 47T232 71T262 102T288 136Q323 187 344 247T365 361ZM503 557Q503 537 489 523T454 508Q433 508 419 522T405 558Q405 578 419 592T455 606Q474 606 488 591T503 557ZM303 557Q303 537 289 523T254 508Q233 508 219 522T205
558Q205 578 219 592T255 606Q274 606 288 591T303 557Z" />
<glyph unicode="&#xe5;" glyph-name="aring" horiz-adv-x="501" d="M476 100Q448 66 429 45T394 11T365 -5T337 -10Q297 -10 297 31Q297 40 297 48T300 67T307 97T320 146Q264 61 217 25T117 -11Q75 -11 46 18T17 105Q17 163 43 223T110 331T202 410T303 441Q370
441 383 383L394 431L397 434L458 441L465 438Q463 431 462 428T459 417Q441 353 425 291T397 179T378 95T370 54Q370 41 384 41Q391 41 402 49T436 82L463 111L476 100ZM365 361Q365 387 350 403T309 419Q241 419 178 327Q162 303 148 276T124 220T107 164T101
112Q101 70 117 54T161 38Q180 38 198 47T232 71T262 102T288 136Q323 187 344 247T365 361ZM453 609Q453 589 445 571T424 540T392 518T353 510Q310 510 282 539T253 610Q253 630 261 648T282 679T314 701T352 709Q373 709 391 701T423 680T445 648T453 609ZM419
609Q419 637 400 656T352 675Q326 675 307 656T287 610Q287 582 305 563T352 544Q381 544 400 562T419 609Z" />
<glyph unicode="&#xe6;" glyph-name="ae" horiz-adv-x="667" d="M437 377Q472 415 500 428T559 441Q597 441 618 422T640 371Q640 313 574 270Q560 261 544 253T505 237T453 219T384 198Q379 175 378 165T376 138Q376 82 393 59T446 36Q478 36 510 53T588 113L598
101Q577 75 553 55T502 20T450 -3T400 -11Q352 -11 324 21T296 111Q296 122 297 130T302 151Q272 104 247 73T198 23T153 -3T107 -11Q70 -11 47 13T23 87Q23 128 35 170T69 251T118 325T177 385T240 426T303 441Q329 441 345 431T369 394L388 439H459L437 377ZM574
380Q574 416 539 416Q522 416 505 407T474 381Q461 367 451 353T430 321T411 280T390 223Q425 233 450 243T495 265T529 290T556 320Q567 334 570 349T574 380ZM350 370Q350 393 338 407T305 421Q277 422 249 400T192 335Q155 281 132 218T109 99Q109 70 117 55T143
39Q163 39 184 50T223 80Q250 109 273 146T313 222T340 299T350 370Z" />
<glyph unicode="&#xe7;" glyph-name="ccedilla" horiz-adv-x="444" d="M133 -6Q30 19 30 139Q30 197 54 251T118 348T211 415T320 441Q366 441 395 418T425 360Q425 340 412 327T377 314Q359 314 349 324T338 352Q338 360 340 365T347 381Q351 388 352 392T353
400Q353 420 316 420Q286 420 258 408T207 372Q165 328 141 266T116 139Q116 85 140 55T207 25Q244 25 276 43T350 106L366 96Q320 38 277 14T176 -11H168L131 -66Q139 -64 144 -64T156 -63Q194 -63 216 -81T238 -131Q238 -169 205 -193T119 -217Q98 -217 78 -213T26
-196L43 -167Q66 -175 80 -178T111 -182Q164 -182 164 -141Q164 -121 151 -109T118 -97Q110 -97 104 -98T86 -104L77 -96L133 -6Z" />
<glyph unicode="&#xe8;" glyph-name="egrave" horiz-adv-x="444" d="M370 97Q327 44 278 17T166 -11Q105 -11 68 26T31 126Q31 184 56 240T124 341T220 413T330 441Q370 441 391 423T412 373Q412 341 393 311T338 256T248 213T128 186Q120 171 119 154T118 125Q118
83 143 59T211 34Q227 34 242 37T274 49T311 72T358 109L370 97ZM135 208Q167 216 191 223T234 239T267 258T296 282Q319 305 332 330T346 379Q346 397 339 407T311 418Q290 418 267 405T223 369T184 316T152 252L135 208ZM382 492L242 598Q223 613 223 630Q223
647 233 655T259 664Q270 664 279 659T299 641L414 492H382Z" />
<glyph unicode="&#xe9;" glyph-name="eacute" horiz-adv-x="444" d="M370 97Q327 44 278 17T166 -11Q105 -11 68 26T31 126Q31 184 56 240T124 341T220 413T330 441Q370 441 391 423T412 373Q412 341 393 311T338 256T248 213T128 186Q120 171 119 154T118 125Q118
83 143 59T211 34Q227 34 242 37T274 49T311 72T358 109L370 97ZM135 208Q167 216 191 223T234 239T267 258T296 282Q319 305 332 330T346 379Q346 397 339 407T311 418Q290 418 267 405T223 369T184 316T152 252L135 208ZM370 654Q380 664 395 664Q410 664 420
654T431 628Q431 610 414 600L243 494H208L370 654Z" />
<glyph unicode="&#xea;" glyph-name="ecircumflex" horiz-adv-x="444" d="M370 97Q327 44 278 17T166 -11Q105 -11 68 26T31 126Q31 184 56 240T124 341T220 413T330 441Q370 441 391 423T412 373Q412 341 393 311T338 256T248 213T128 186Q120 171 119 154T118
125Q118 83 143 59T211 34Q227 34 242 37T274 49T311 72T358 109L370 97ZM135 208Q167 216 191 223T234 239T267 258T296 282Q319 305 332 330T346 379Q346 397 339 407T311 418Q290 418 267 405T223 369T184 316T152 252L135 208ZM430 492L348 596L211 492H172L329
661H378L466 492H430Z" />
<glyph unicode="&#xeb;" glyph-name="edieresis" horiz-adv-x="444" d="M370 97Q327 44 278 17T166 -11Q105 -11 68 26T31 126Q31 184 56 240T124 341T220 413T330 441Q370 441 391 423T412 373Q412 341 393 311T338 256T248 213T128 186Q120 171 119 154T118
125Q118 83 143 59T211 34Q227 34 242 37T274 49T311 72T358 109L370 97ZM135 208Q167 216 191 223T234 239T267 258T296 282Q319 305 332 330T346 379Q346 397 339 407T311 418Q290 418 267 405T223 369T184 316T152 252L135 208ZM475 557Q475 537 461 523T426
508Q405 508 391 522T377 558Q377 578 391 592T427 606Q446 606 460 591T475 557ZM275 557Q275 537 261 523T226 508Q205 508 191 522T177 558Q177 578 191 592T227 606Q246 606 260 591T275 557Z" />
<glyph unicode="&#xec;" glyph-name="igrave" horiz-adv-x="278" d="M235 103Q215 72 198 51T165 16T133 -4T97 -11Q74 -11 61 3T47 46Q47 61 53 86T71 156L119 331Q123 345 125 357T128 376Q128 391 117 395T65 400V416Q80 417 92 418T121 422T162 429T224 441L229
438L133 96Q129 82 127 71T124 51Q124 45 129 41T140 36Q153 36 171 54T221 115L235 103ZM270 492L130 598Q111 613 111 630Q111 647 121 655T147 664Q158 664 167 659T187 641L302 492H270Z" />
<glyph unicode="&#xed;" glyph-name="iacute" horiz-adv-x="278" d="M235 103Q215 72 198 51T165 16T133 -4T97 -11Q74 -11 61 3T47 46Q47 61 53 86T71 156L119 331Q123 345 125 357T128 376Q128 391 117 395T65 400V416Q80 417 92 418T121 422T162 429T224 441L229
438L133 96Q129 82 127 71T124 51Q124 45 129 41T140 36Q153 36 171 54T221 115L235 103ZM257 654Q267 664 282 664Q297 664 307 654T318 628Q318 610 301 600L130 494H95L257 654Z" />
<glyph unicode="&#xee;" glyph-name="icircumflex" horiz-adv-x="278" d="M235 103Q215 72 198 51T165 16T133 -4T97 -11Q74 -11 61 3T47 46Q47 61 53 86T71 156L119 331Q123 345 125 357T128 376Q128 391 117 395T65 400V416Q80 417 92 418T121 422T162 429T224
441L229 438L133 96Q129 82 127 71T124 51Q124 45 129 41T140 36Q153 36 171 54T221 115L235 103ZM315 492L233 596L96 492H57L214 661H263L351 492H315Z" />
<glyph unicode="&#xef;" glyph-name="idieresis" horiz-adv-x="278" d="M235 103Q215 72 198 51T165 16T133 -4T97 -11Q74 -11 61 3T47 46Q47 61 53 86T71 156L119 331Q123 345 125 357T128 376Q128 391 117 395T65 400V416Q80 417 92 418T121 422T162 429T224
441L229 438L133 96Q129 82 127 71T124 51Q124 45 129 41T140 36Q153 36 171 54T221 115L235 103ZM361 557Q361 537 347 523T312 508Q291 508 277 522T263 558Q263 578 277 592T313 606Q332 606 346 591T361 557ZM161 557Q161 537 147 523T112 508Q91 508 77 522T63
558Q63 578 77 592T113 606Q132 606 146 591T161 557Z" />
<glyph unicode="&#xf0;" glyph-name="eth" horiz-adv-x="500" d="M381 592Q427 539 447 484T467 359Q467 286 445 219T383 101T290 20T174 -11Q105 -11 66 23T27 129Q27 186 50 242T113 342T202 413T307 441Q340 441 360 429T394 392L396 393Q388 445 371 486T324
567L207 516L174 545L297 599Q271 624 249 638T194 666L229 683Q263 675 292 661T351 622L450 665L482 637L381 592ZM384 326Q384 369 365 394T313 420Q280 420 247 398T181 331Q144 280 128 224T111 107Q111 65 132 38T189 10Q222 10 253 30T313 92Q329 116 342
146T365 207T379 268T384 326Z" />
<glyph unicode="&#xf1;" glyph-name="ntilde" horiz-adv-x="500" d="M474 104Q448 69 430 47T397 13T367 -4T334 -9Q315 -9 301 3T287 45Q287 49 287 53T289 66T294 87T303 120L347 282Q353 305 357 328T361 361Q361 390 337 390Q307 390 272 354T189 248Q172
223 161 204T140 159T119 96T89 0H14L110 350Q112 360 112 367Q112 382 99 387T47 394V410Q77 416 99 420T138 427T172 434T209 441L213 439L146 221Q183 281 215 323T275 391T328 429T377 441Q409 441 425 424T442 380Q442 366 440 351T432 320L376 117Q368 90
365 76T362 56Q362 49 365 44T378 38Q389 38 403 50T439 91Q444 97 449 103T460 117L474 104ZM488 624Q477 573 453 547T393 520Q375 520 336 535Q295 552 275 558T241 564Q205 564 190 517H161Q176 575 199 599T261 623Q278 623 298 618T347 599Q370 588 384 584T409
580Q429 580 440 589T460 624H488Z" />
<glyph unicode="&#xf2;" glyph-name="ograve" horiz-adv-x="500" d="M468 301Q468 244 440 183T362 72Q318 28 271 9T174 -11Q103 -11 65 25T27 128Q27 170 40 211T78 290T135 359T207 411Q236 427 266 434T327 441Q388 441 428 404T468 301ZM384 326Q384 372
365 396T313 420Q246 420 185 329Q150 276 131 219T111 101Q111 56 132 33T189 10Q222 10 251 31T310 93Q327 117 341 145T364 204T379 266T384 326ZM386 492L246 598Q227 613 227 630Q227 647 237 655T263 664Q274 664 283 659T303 641L418 492H386Z" />
<glyph unicode="&#xf3;" glyph-name="oacute" horiz-adv-x="500" d="M468 301Q468 244 440 183T362 72Q318 28 271 9T174 -11Q103 -11 65 25T27 128Q27 170 40 211T78 290T135 359T207 411Q236 427 266 434T327 441Q388 441 428 404T468 301ZM384 326Q384 372
365 396T313 420Q246 420 185 329Q150 276 131 219T111 101Q111 56 132 33T189 10Q222 10 251 31T310 93Q327 117 341 145T364 204T379 266T384 326ZM377 654Q387 664 402 664Q417 664 427 654T438 628Q438 610 421 600L250 494H215L377 654Z" />
<glyph unicode="&#xf4;" glyph-name="ocircumflex" horiz-adv-x="500" d="M468 301Q468 244 440 183T362 72Q318 28 271 9T174 -11Q103 -11 65 25T27 128Q27 170 40 211T78 290T135 359T207 411Q236 427 266 434T327 441Q388 441 428 404T468 301ZM384 326Q384
372 365 396T313 420Q246 420 185 329Q150 276 131 219T111 101Q111 56 132 33T189 10Q222 10 251 31T310 93Q327 117 341 145T364 204T379 266T384 326ZM432 492L350 596L213 492H174L331 661H380L468 492H432Z" />
<glyph unicode="&#xf5;" glyph-name="otilde" horiz-adv-x="500" d="M468 301Q468 244 440 183T362 72Q318 28 271 9T174 -11Q103 -11 65 25T27 128Q27 170 40 211T78 290T135 359T207 411Q236 427 266 434T327 441Q388 441 428 404T468 301ZM384 326Q384 372
365 396T313 420Q246 420 185 329Q150 276 131 219T111 101Q111 56 132 33T189 10Q222 10 251 31T310 93Q327 117 341 145T364 204T379 266T384 326ZM494 624Q483 573 459 547T399 520Q381 520 342 535Q301 552 281 558T247 564Q211 564 196 517H167Q182 575 205
599T267 623Q284 623 304 618T353 599Q376 588 390 584T415 580Q435 580 446 589T466 624H494Z" />
<glyph unicode="&#xf6;" glyph-name="odieresis" horiz-adv-x="500" d="M468 301Q468 244 440 183T362 72Q318 28 271 9T174 -11Q103 -11 65 25T27 128Q27 170 40 211T78 290T135 359T207 411Q236 427 266 434T327 441Q388 441 428 404T468 301ZM384 326Q384 372
365 396T313 420Q246 420 185 329Q150 276 131 219T111 101Q111 56 132 33T189 10Q222 10 251 31T310 93Q327 117 341 145T364 204T379 266T384 326ZM474 557Q474 537 460 523T425 508Q404 508 390 522T376 558Q376 578 390 592T426 606Q445 606 459 591T474 557ZM274
557Q274 537 260 523T225 508Q204 508 190 522T176 558Q176 578 190 592T226 606Q245 606 259 591T274 557Z" />
<glyph unicode="&#xf7;" glyph-name="divide" horiz-adv-x="675" d="M394 460Q394 437 377 422T337 406Q315 406 299 422T283 460Q283 484 299 500T338 517Q361 517 377 500T394 460ZM86 220V286H590V220H86ZM394 43Q394 20 377 5T336 -11Q315 -11 299 5T283 43Q283
67 299 83T338 100Q361 100 377 83T394 43Z" />
<glyph unicode="&#xf8;" glyph-name="oslash" horiz-adv-x="500" d="M370 435Q402 426 419 413T449 376Q458 360 463 339T469 298Q469 268 460 236T435 173T396 113T345 60Q262 -11 176 -11Q170 -11 166 -11T156 -9L95 -135H60L124 -4Q101 4 89 11T65 30Q28 69
28 130Q28 187 53 243T121 343T215 414T322 441Q327 441 330 441T339 440L394 554H428L370 435ZM167 14Q178 10 189 10Q224 10 253 30T311 92Q327 116 340 145T364 206T379 267T385 325Q385 375 357 406L167 14ZM328 418Q324 419 322 419T318 420Q293 420 268 408T223
374Q199 348 179 315T143 245T120 171T112 97Q112 57 140 29L328 418Z" />
<glyph unicode="&#xf9;" glyph-name="ugrave" horiz-adv-x="500" d="M475 110Q451 73 433 50T400 13T370 -4T337 -9Q314 -9 302 3T289 39Q289 56 299 105T334 236Q290 163 257 116T197 40T146 1T95 -11Q42 -11 42 42Q42 56 48 85T69 170L104 309Q110 334 114 352T118
376Q118 388 107 394Q104 396 101 397T93 399T80 400T57 400V414Q78 417 96 419T132 425T167 432T207 441L211 438L122 83Q121 81 120 76T119 67Q119 42 139 42Q165 42 199 80T281 189Q299 216 311 238T335 287T360 347T391 432H465L386 133Q384 126 381 115T375
92T370 70T367 55Q367 38 378 38Q384 38 390 41T406 53T429 78T461 119L475 110ZM383 492L243 598Q224 613 224 630Q224 647 234 655T260 664Q271 664 280 659T300 641L415 492H383Z" />
<glyph unicode="&#xfa;" glyph-name="uacute" horiz-adv-x="500" d="M475 110Q451 73 433 50T400 13T370 -4T337 -9Q314 -9 302 3T289 39Q289 56 299 105T334 236Q290 163 257 116T197 40T146 1T95 -11Q42 -11 42 42Q42 56 48 85T69 170L104 309Q110 334 114 352T118
376Q118 388 107 394Q104 396 101 397T93 399T80 400T57 400V414Q78 417 96 419T132 425T167 432T207 441L211 438L122 83Q121 81 120 76T119 67Q119 42 139 42Q165 42 199 80T281 189Q299 216 311 238T335 287T360 347T391 432H465L386 133Q384 126 381 115T375
92T370 70T367 55Q367 38 378 38Q384 38 390 41T406 53T429 78T461 119L475 110ZM372 654Q382 664 397 664Q412 664 422 654T433 628Q433 610 416 600L245 494H210L372 654Z" />
<glyph unicode="&#xfb;" glyph-name="ucircumflex" horiz-adv-x="500" d="M475 110Q451 73 433 50T400 13T370 -4T337 -9Q314 -9 302 3T289 39Q289 56 299 105T334 236Q290 163 257 116T197 40T146 1T95 -11Q42 -11 42 42Q42 56 48 85T69 170L104 309Q110 334
114 352T118 376Q118 388 107 394Q104 396 101 397T93 399T80 400T57 400V414Q78 417 96 419T132 425T167 432T207 441L211 438L122 83Q121 81 120 76T119 67Q119 42 139 42Q165 42 199 80T281 189Q299 216 311 238T335 287T360 347T391 432H465L386 133Q384 126
381 115T375 92T370 70T367 55Q367 38 378 38Q384 38 390 41T406 53T429 78T461 119L475 110ZM429 492L347 596L210 492H171L328 661H377L465 492H429Z" />
<glyph unicode="&#xfc;" glyph-name="udieresis" horiz-adv-x="500" d="M475 110Q451 73 433 50T400 13T370 -4T337 -9Q314 -9 302 3T289 39Q289 56 299 105T334 236Q290 163 257 116T197 40T146 1T95 -11Q42 -11 42 42Q42 56 48 85T69 170L104 309Q110 334 114
352T118 376Q118 388 107 394Q104 396 101 397T93 399T80 400T57 400V414Q78 417 96 419T132 425T167 432T207 441L211 438L122 83Q121 81 120 76T119 67Q119 42 139 42Q165 42 199 80T281 189Q299 216 311 238T335 287T360 347T391 432H465L386 133Q384 126 381
115T375 92T370 70T367 55Q367 38 378 38Q384 38 390 41T406 53T429 78T461 119L475 110ZM469 557Q469 537 455 523T420 508Q399 508 385 522T371 558Q371 578 385 592T421 606Q440 606 454 591T469 557ZM269 557Q269 537 255 523T220 508Q199 508 185 522T171
558Q171 578 185 592T221 606Q240 606 254 591T269 557Z" />
<glyph unicode="&#xfd;" glyph-name="yacute" horiz-adv-x="444" d="M264 76Q296 129 319 169T357 241T379 294T386 333Q386 344 380 350T360 365Q345 375 340 383T334 404Q334 421 345 431T374 441Q397 441 411 425T426 386Q426 343 392 264T295 81Q256 16 218
-36T144 -127T78 -185T27 -206Q4 -206 -10 -195T-24 -163Q-24 -146 -13 -135T15 -123Q28 -123 35 -127T49 -137T60 -146T76 -151Q86 -151 96 -144T124 -118Q131 -111 141 -98T163 -70T183 -44T195 -27Q205 -7 205 8Q205 18 201 42T190 97T174 163T156 232T139 294T123
340Q109 377 93 390T46 404Q30 404 15 400V417Q23 419 31 420T47 423Q62 426 87 430T154 441H158Q162 441 168 429T183 395T200 347T217 292T232 236T243 186L264 76ZM340 654Q350 664 365 664Q380 664 390 654T401 628Q401 610 384 600L213 494H178L340 654Z"
/>
<glyph unicode="&#xfe;" glyph-name="thorn" horiz-adv-x="500" d="M191 333Q259 441 353 441Q408 441 438 408T469 315Q469 255 443 197T374 93T278 18T169 -11Q152 -11 137 -8T103 6Q87 -55 77 -101T66 -159Q66 -176 80 -183T130 -190V-205H-75V-189Q-43 -188
-30 -176T-8 -130L106 304L174 554L179 573Q184 590 186 599T188 616Q188 624 186 629T178 637T158 641T123 643V660Q148 663 168 665T205 671T240 677T275 683L280 678Q257 589 242 531T216 434T200 373T189 335L191 333ZM379 313Q379 398 317 398Q276 398 239
367T182 284Q171 256 160 220T139 150T123 87T117 45Q117 28 130 18T165 8Q247 8 310 103Q342 149 360 206T379 313Z" />
<glyph unicode="&#xff;" glyph-name="ydieresis" horiz-adv-x="444" d="M264 76Q296 129 319 169T357 241T379 294T386 333Q386 344 380 350T360 365Q345 375 340 383T334 404Q334 421 345 431T374 441Q397 441 411 425T426 386Q426 343 392 264T295 81Q256 16
218 -36T144 -127T78 -185T27 -206Q4 -206 -10 -195T-24 -163Q-24 -146 -13 -135T15 -123Q28 -123 35 -127T49 -137T60 -146T76 -151Q86 -151 96 -144T124 -118Q131 -111 141 -98T163 -70T183 -44T195 -27Q205 -7 205 8Q205 18 201 42T190 97T174 163T156 232T139
294T123 340Q109 377 93 390T46 404Q30 404 15 400V417Q23 419 31 420T47 423Q62 426 87 430T154 441H158Q162 441 168 429T183 395T200 347T217 292T232 236T243 186L264 76ZM442 557Q442 537 428 523T393 508Q372 508 358 522T344 558Q344 578 358 592T394 606Q413
606 427 591T442 557ZM242 557Q242 537 228 523T193 508Q172 508 158 522T144 558Q144 578 158 592T194 606Q213 606 227 591T242 557Z" />
<glyph unicode="&#x100;" glyph-name="uni0100" horiz-adv-x="611" d="M525 706H224L235 757H536L525 706ZM319 0V16Q366 18 381 30T396 69Q396 75 396 81T394 95L374 226H154L95 115Q73 74 73 49Q73 35 86 27T135 16V0H-51V16Q-34 19 -22 25T5 48T37 94T83 172L368
668H394L486 115Q491 83 496 65T510 36T531 21T564 16V0H319ZM324 525L175 262H369L324 525Z" />
<glyph unicode="&#x101;" glyph-name="uni0101" horiz-adv-x="501" d="M470 492H169L180 543H481L470 492ZM476 100Q448 66 429 45T394 11T365 -5T337 -10Q297 -10 297 31Q297 40 297 48T300 67T307 97T320 146Q264 61 217 25T117 -11Q75 -11 46 18T17 105Q17
163 43 223T110 331T202 410T303 441Q370 441 383 383L394 431L397 434L458 441L465 438Q463 431 462 428T459 417Q441 353 425 291T397 179T378 95T370 54Q370 41 384 41Q391 41 402 49T436 82L463 111L476 100ZM365 361Q365 387 350 403T309 419Q241 419 178
327Q162 303 148 276T124 220T107 164T101 112Q101 70 117 54T161 38Q180 38 198 47T232 71T262 102T288 136Q323 187 344 247T365 361Z" />
<glyph unicode="&#x102;" glyph-name="uni0102" horiz-adv-x="611" d="M531 862Q526 829 511 800T472 750T420 717T358 704Q289 704 260 744T230 862H259Q263 814 289 789T366 763Q412 763 448 789T502 862H531ZM319 0V16Q366 18 381 30T396 69Q396 75 396 81T394
95L374 226H154L95 115Q73 74 73 49Q73 35 86 27T135 16V0H-51V16Q-34 19 -22 25T5 48T37 94T83 172L368 668H394L486 115Q491 83 496 65T510 36T531 21T564 16V0H319ZM324 525L175 262H369L324 525Z" />
<glyph unicode="&#x103;" glyph-name="uni0103" horiz-adv-x="501" d="M481 650Q476 617 461 588T422 538T370 505T308 492Q239 492 210 532T180 650H209Q213 602 239 577T316 551Q362 551 398 577T452 650H481ZM476 100Q448 66 429 45T394 11T365 -5T337 -10Q297
-10 297 31Q297 40 297 48T300 67T307 97T320 146Q264 61 217 25T117 -11Q75 -11 46 18T17 105Q17 163 43 223T110 331T202 410T303 441Q370 441 383 383L394 431L397 434L458 441L465 438Q463 431 462 428T459 417Q441 353 425 291T397 179T378 95T370 54Q370
41 384 41Q391 41 402 49T436 82L463 111L476 100ZM365 361Q365 387 350 403T309 419Q241 419 178 327Q162 303 148 276T124 220T107 164T101 112Q101 70 117 54T161 38Q180 38 198 47T232 71T262 102T288 136Q323 187 344 247T365 361Z" />
<glyph unicode="&#x104;" glyph-name="uni0104" horiz-adv-x="611" d="M319 0V16Q366 18 381 30T396 69Q396 75 396 81T394 95L374 226H154L95 115Q73 74 73 49Q73 35 86 27T135 16V0H-51V16Q-34 19 -22 25T5 48T37 94T83 172L368 668H394L486 115Q491 83 496
65T510 36T531 21T564 16V0H477Q467 -26 467 -53Q467 -76 483 -91T526 -106Q573 -106 609 -74L626 -92Q574 -169 501 -169Q462 -169 434 -143T406 -74Q406 -33 433 0H319ZM324 525L175 262H369L324 525Z" />
<glyph unicode="&#x105;" glyph-name="uni0105" horiz-adv-x="501" d="M529 -92Q477 -169 404 -169Q365 -169 337 -143T309 -74Q309 -37 329 -10Q297 -6 297 31Q297 40 297 48T300 67T307 97T320 146Q264 61 217 25T117 -11Q75 -11 46 18T17 105Q17 163 43 223T110
331T202 410T303 441Q370 441 383 383L394 431L397 434L458 441L465 438Q463 431 462 428T459 417Q441 353 425 291T397 179T378 95T370 54Q370 41 384 41Q391 41 402 49T436 82L463 111L476 100Q442 58 420 36T381 2Q370 -24 370 -53Q370 -76 386 -91T429 -106Q476
-106 512 -74L529 -92ZM365 361Q365 387 350 403T309 419Q241 419 178 327Q162 303 148 276T124 220T107 164T101 112Q101 70 117 54T161 38Q180 38 198 47T232 71T262 102T288 136Q323 187 344 247T365 361Z" />
<glyph unicode="&#x106;" glyph-name="uni0106" horiz-adv-x="667" d="M551 866Q561 876 576 876Q591 876 601 866T612 840Q612 822 595 812L424 706H389L551 866ZM652 464L634 467Q616 630 485 630Q429 630 379 604T286 533Q232 475 205 395T178 232Q178 126
223 77T353 27Q384 27 411 33T466 53T521 89T582 146L600 131Q566 91 534 63T468 17T401 -9T327 -18Q270 -18 222 -1T140 50T86 132T66 243Q66 296 79 346T118 442T177 525T253 593Q301 628 356 647T472 666Q497 666 527 663T589 649Q604 644 613 643T630 642Q645
642 653 647T668 664H689L652 464Z" />
<glyph unicode="&#x107;" glyph-name="uni0107" horiz-adv-x="444" d="M370 654Q380 664 395 664Q410 664 420 654T431 628Q431 610 414 600L243 494H208L370 654ZM366 97Q320 39 277 14T177 -11Q107 -11 69 27T30 143Q30 213 64 275T153 380Q190 409 232 425T320
441Q366 441 395 418T425 360Q425 340 411 326T377 312Q356 312 347 324T338 352Q338 366 345 376T353 400Q353 420 316 420Q286 420 258 408T207 372Q165 327 141 267T116 139Q116 85 139 55T205 25Q245 25 277 44T350 107L366 97Z" />
<glyph unicode="&#x108;" glyph-name="uni0108" horiz-adv-x="667" d="M611 706L529 810L392 706H353L510 875H559L647 706H611ZM652 464L634 467Q616 630 485 630Q429 630 379 604T286 533Q232 475 205 395T178 232Q178 126 223 77T353 27Q384 27 411 33T466
53T521 89T582 146L600 131Q566 91 534 63T468 17T401 -9T327 -18Q270 -18 222 -1T140 50T86 132T66 243Q66 296 79 346T118 442T177 525T253 593Q301 628 356 647T472 666Q497 666 527 663T589 649Q604 644 613 643T630 642Q645 642 653 647T668 664H689L652 464Z"
/>
<glyph unicode="&#x109;" glyph-name="uni0109" horiz-adv-x="444" d="M391 492L309 596L172 492H133L290 661H339L427 492H391ZM366 97Q320 39 277 14T177 -11Q107 -11 69 27T30 143Q30 213 64 275T153 380Q190 409 232 425T320 441Q366 441 395 418T425 360Q425
340 411 326T377 312Q356 312 347 324T338 352Q338 366 345 376T353 400Q353 420 316 420Q286 420 258 408T207 372Q165 327 141 267T116 139Q116 85 139 55T205 25Q245 25 277 44T350 107L366 97Z" />
<glyph unicode="&#x10a;" glyph-name="uni010A" horiz-adv-x="667" d="M549 769Q549 749 535 735T500 720Q479 720 465 734T451 770Q451 790 465 804T501 818Q520 818 534 803T549 769ZM652 464L634 467Q616 630 485 630Q429 630 379 604T286 533Q232 475 205
395T178 232Q178 126 223 77T353 27Q384 27 411 33T466 53T521 89T582 146L600 131Q566 91 534 63T468 17T401 -9T327 -18Q270 -18 222 -1T140 50T86 132T66 243Q66 296 79 346T118 442T177 525T253 593Q301 628 356 647T472 666Q497 666 527 663T589 649Q604 644
613 643T630 642Q645 642 653 647T668 664H689L652 464Z" />
<glyph unicode="&#x10b;" glyph-name="uni010B" horiz-adv-x="444" d="M369 557Q369 537 355 523T320 508Q299 508 285 522T271 558Q271 578 285 592T321 606Q340 606 354 591T369 557ZM366 97Q320 39 277 14T177 -11Q107 -11 69 27T30 143Q30 213 64 275T153
380Q190 409 232 425T320 441Q366 441 395 418T425 360Q425 340 411 326T377 312Q356 312 347 324T338 352Q338 366 345 376T353 400Q353 420 316 420Q286 420 258 408T207 372Q165 327 141 267T116 139Q116 85 139 55T205 25Q245 25 277 44T350 107L366 97Z" />
<glyph unicode="&#x10c;" glyph-name="uni010C" horiz-adv-x="667" d="M485 706H437L342 875H380L469 770L610 875H647L485 706ZM652 464L634 467Q616 630 485 630Q429 630 379 604T286 533Q232 475 205 395T178 232Q178 126 223 77T353 27Q384 27 411 33T466
53T521 89T582 146L600 131Q566 91 534 63T468 17T401 -9T327 -18Q270 -18 222 -1T140 50T86 132T66 243Q66 296 79 346T118 442T177 525T253 593Q301 628 356 647T472 666Q497 666 527 663T589 649Q604 644 613 643T630 642Q645 642 653 647T668 664H689L652 464Z"
/>
<glyph unicode="&#x10d;" glyph-name="uni010D" horiz-adv-x="444" d="M311 492H263L168 661H206L295 556L436 661H473L311 492ZM366 97Q320 39 277 14T177 -11Q107 -11 69 27T30 143Q30 213 64 275T153 380Q190 409 232 425T320 441Q366 441 395 418T425 360Q425
340 411 326T377 312Q356 312 347 324T338 352Q338 366 345 376T353 400Q353 420 316 420Q286 420 258 408T207 372Q165 327 141 267T116 139Q116 85 139 55T205 25Q245 25 277 44T350 107L366 97Z" />
<glyph unicode="&#x10e;" glyph-name="uni010E" horiz-adv-x="722" d="M441 706H393L298 875H336L425 770L566 875H603L441 706ZM408 653Q474 653 527 636T619 584T679 500T700 384Q700 290 657 215T540 83Q485 40 411 20T249 0H-8V16Q13 20 26 24T48 35T62 56T74
92L196 537Q207 576 207 596Q207 616 192 625T131 637V653H408ZM192 162Q186 139 182 123T175 96T171 79T170 67Q170 30 238 30Q314 30 373 52T479 120Q506 146 526 180T561 252T582 330T589 408Q589 468 569 514T511 588Q488 605 456 614T380 623Q351 623 335
617T310 584L192 162Z" />
<glyph unicode="&#x10f;" glyph-name="uni010F" horiz-adv-x="609" d="M558 478Q597 504 615 525T633 566Q633 574 629 581T613 599Q599 612 594 621T588 645Q588 665 602 678T639 691Q664 691 680 671T697 620Q697 577 664 537T567 461L558 478ZM527 677L488
525L428 306Q416 263 405 222T384 146T369 89T363 60Q363 40 381 40Q387 40 393 42T408 52T430 74T463 111L475 101Q438 46 402 17T328 -13Q308 -13 298 -1T287 32Q287 41 287 49T289 66T293 89T300 121Q256 47 215 18T122 -11Q73 -11 44 19T15 106Q15 147 27 187T61
265T112 334T173 390T240 427T307 441Q339 441 353 427T372 383H373L418 546Q424 566 426 577T430 596T432 607T432 617Q432 633 421 637T368 643V660Q392 662 411 664T448 669T483 675T521 683L527 677ZM356 361Q356 388 341 403T309 418Q288 418 264 406T218
372Q193 346 172 314T136 246T111 176T102 110Q102 75 118 56T160 37Q194 37 229 66T292 141T338 246T356 361Z" />
<glyph unicode="&#x110;" glyph-name="uni0110" horiz-adv-x="722" d="M406 653Q543 653 621 585T700 384Q700 295 657 217T540 83Q430 0 237 0H-8V16Q13 20 26 23T47 34T61 55T73 90L138 326H48L60 368H150L196 532Q207 571 207 596Q207 616 192 624T130 637V653H406ZM192
162Q180 118 175 98T170 67Q170 30 239 30Q312 30 373 52T479 120Q530 171 559 246T589 404Q589 513 535 568T375 623Q343 623 331 617T313 594L250 368H403L391 326H238L192 162Z" />
<glyph unicode="&#x111;" glyph-name="uni0111" horiz-adv-x="500" d="M570 521H486L428 306Q416 263 405 222T384 146T369 89T363 60Q363 40 381 40Q387 40 393 42T408 52T430 74T463 111L475 101Q438 46 402 17T328 -13Q308 -13 298 -1T287 32Q287 41 287 49T289
66T293 89T300 121Q256 47 215 18T122 -11Q73 -11 44 19T15 106Q15 147 27 187T61 265T112 334T173 390T240 427T307 441Q339 441 353 427T372 383H373L410 521H228L235 560H422Q426 575 428 584T431 598T432 608T432 617Q432 633 421 637T368 643V660Q392 662
411 664T448 669T483 675T521 683L527 677L497 560H580L570 521ZM356 361Q356 388 341 403T309 418Q288 418 264 406T218 372Q193 346 172 314T136 246T111 176T102 110Q102 75 118 56T160 37Q194 37 229 66T292 141T338 246T356 361Z" />
<glyph unicode="&#x112;" glyph-name="uni0112" horiz-adv-x="611" d="M585 706H284L295 757H596L585 706ZM603 499L581 501Q584 526 584 547Q584 569 576 583T547 606T489 617T392 620Q371 620 358 619T337 615T325 607T319 594L253 361H331Q365 361 385 364T420
377T445 407T470 458L488 454L420 222L400 227Q404 244 405 254T407 279Q407 303 400 310Q383 325 322 325H244L212 213Q193 147 185 112T176 67Q176 49 194 41T255 33Q328 33 374 42T458 72Q482 85 502 107T552 170L568 162L506 0H-1V16Q20 20 33 23T54 34T68
55T80 90L203 532Q208 547 211 567T214 596Q214 616 199 624T137 637V653H634L603 499Z" />
<glyph unicode="&#x113;" glyph-name="uni0113" horiz-adv-x="444" d="M455 491H154L165 542H466L455 491ZM370 97Q327 44 278 17T166 -11Q105 -11 68 26T31 126Q31 184 56 240T124 341T220 413T330 441Q370 441 391 423T412 373Q412 341 393 311T338 256T248
213T128 186Q120 171 119 154T118 125Q118 83 143 59T211 34Q227 34 242 37T274 49T311 72T358 109L370 97ZM135 208Q167 216 191 223T234 239T267 258T296 282Q319 305 332 330T346 379Q346 397 339 407T311 418Q290 418 267 405T223 369T184 316T152 252L135
208Z" />
<glyph unicode="&#x114;" glyph-name="uni0114" horiz-adv-x="611" d="M601 866Q596 833 581 804T542 754T490 721T428 708Q359 708 330 748T300 866H329Q333 818 359 793T436 767Q482 767 518 793T572 866H601ZM603 499L581 501Q584 526 584 547Q584 569 576
583T547 606T489 617T392 620Q371 620 358 619T337 615T325 607T319 594L253 361H331Q365 361 385 364T420 377T445 407T470 458L488 454L420 222L400 227Q404 244 405 254T407 279Q407 303 400 310Q383 325 322 325H244L212 213Q193 147 185 112T176 67Q176 49
194 41T255 33Q328 33 374 42T458 72Q482 85 502 107T552 170L568 162L506 0H-1V16Q20 20 33 23T54 34T68 55T80 90L203 532Q208 547 211 567T214 596Q214 616 199 624T137 637V653H634L603 499Z" />
<glyph unicode="&#x115;" glyph-name="uni0115" horiz-adv-x="444" d="M471 650Q466 617 451 588T412 538T360 505T298 492Q229 492 200 532T170 650H199Q203 602 229 577T306 551Q352 551 388 577T442 650H471ZM370 97Q327 44 278 17T166 -11Q105 -11 68 26T31
126Q31 184 56 240T124 341T220 413T330 441Q370 441 391 423T412 373Q412 341 393 311T338 256T248 213T128 186Q120 171 119 154T118 125Q118 83 143 59T211 34Q227 34 242 37T274 49T311 72T358 109L370 97ZM135 208Q167 216 191 223T234 239T267 258T296 282Q319
305 332 330T346 379Q346 397 339 407T311 418Q290 418 267 405T223 369T184 316T152 252L135 208Z" />
<glyph unicode="&#x116;" glyph-name="uni0116" horiz-adv-x="611" d="M499 769Q499 749 485 735T450 720Q429 720 415 734T401 770Q401 790 415 804T451 818Q470 818 484 803T499 769ZM603 499L581 501Q584 526 584 547Q584 569 576 583T547 606T489 617T392
620Q371 620 358 619T337 615T325 607T319 594L253 361H331Q365 361 385 364T420 377T445 407T470 458L488 454L420 222L400 227Q404 244 405 254T407 279Q407 303 400 310Q383 325 322 325H244L212 213Q193 147 185 112T176 67Q176 49 194 41T255 33Q328 33 374
42T458 72Q482 85 502 107T552 170L568 162L506 0H-1V16Q20 20 33 23T54 34T68 55T80 90L203 532Q208 547 211 567T214 596Q214 616 199 624T137 637V653H634L603 499Z" />
<glyph unicode="&#x117;" glyph-name="uni0117" horiz-adv-x="444" d="M359 557Q359 537 345 523T310 508Q289 508 275 522T261 558Q261 578 275 592T311 606Q330 606 344 591T359 557ZM370 97Q327 44 278 17T166 -11Q105 -11 68 26T31 126Q31 184 56 240T124
341T220 413T330 441Q370 441 391 423T412 373Q412 341 393 311T338 256T248 213T128 186Q120 171 119 154T118 125Q118 83 143 59T211 34Q227 34 242 37T274 49T311 72T358 109L370 97ZM135 208Q167 216 191 223T234 239T267 258T296 282Q319 305 332 330T346
379Q346 397 339 407T311 418Q290 418 267 405T223 369T184 316T152 252L135 208Z" />
<glyph unicode="&#x118;" glyph-name="uni0118" horiz-adv-x="611" d="M-1 0V16Q20 20 33 23T54 34T68 55T80 90L203 532Q208 547 211 567T214 596Q214 616 199 624T137 637V653H634L603 499L581 501Q584 526 584 547Q584 569 576 583T547 606T489 617T392 620Q371
620 358 619T337 615T325 607T319 594L253 361H331Q365 361 385 364T420 377T445 407T470 458L488 454L420 222L400 227Q404 244 405 254T407 279Q407 303 400 310Q383 325 322 325H244L212 213Q193 147 185 112T176 67Q176 49 194 41T255 33Q328 33 374 42T458
72Q482 85 502 107T552 170L568 162L506 0H341Q328 -29 328 -59Q328 -82 344 -97T387 -112Q434 -112 470 -80L487 -98Q435 -175 362 -175Q323 -175 295 -149T267 -80Q267 -36 299 0H-1Z" />
<glyph unicode="&#x119;" glyph-name="uni0119" horiz-adv-x="444" d="M360 -98Q308 -175 235 -175Q196 -175 168 -149T140 -80Q140 -41 163 -11Q103 -10 67 27T31 126Q31 184 56 240T124 341T220 413T330 441Q370 441 391 423T412 373Q412 341 393 311T338 256T248
213T128 186Q120 171 119 154T118 125Q118 83 143 59T211 34Q227 34 242 37T274 49T311 72T358 109L370 97Q335 54 297 28T211 -7Q201 -33 201 -59Q201 -82 217 -97T260 -112Q307 -112 343 -80L360 -98ZM135 208Q167 216 191 223T234 239T267 258T296 282Q319 305
332 330T346 379Q346 397 339 407T311 418Q290 418 267 405T223 369T184 316T152 252L135 208Z" />
<glyph unicode="&#x11a;" glyph-name="uni011A" horiz-adv-x="611" d="M441 706H393L298 875H336L425 770L566 875H603L441 706ZM603 499L581 501Q584 526 584 547Q584 569 576 583T547 606T489 617T392 620Q371 620 358 619T337 615T325 607T319 594L253 361H331Q365
361 385 364T420 377T445 407T470 458L488 454L420 222L400 227Q404 244 405 254T407 279Q407 303 400 310Q383 325 322 325H244L212 213Q193 147 185 112T176 67Q176 49 194 41T255 33Q328 33 374 42T458 72Q482 85 502 107T552 170L568 162L506 0H-1V16Q20 20
33 23T54 34T68 55T80 90L203 532Q208 547 211 567T214 596Q214 616 199 624T137 637V653H634L603 499Z" />
<glyph unicode="&#x11b;" glyph-name="uni011B" horiz-adv-x="444" d="M340 492H292L197 661H235L324 556L465 661H502L340 492ZM370 97Q327 44 278 17T166 -11Q105 -11 68 26T31 126Q31 184 56 240T124 341T220 413T330 441Q370 441 391 423T412 373Q412 341
393 311T338 256T248 213T128 186Q120 171 119 154T118 125Q118 83 143 59T211 34Q227 34 242 37T274 49T311 72T358 109L370 97ZM135 208Q167 216 191 223T234 239T267 258T296 282Q319 305 332 330T346 379Q346 397 339 407T311 418Q290 418 267 405T223 369T184
316T152 252L135 208Z" />
<glyph unicode="&#x11c;" glyph-name="uni011C" horiz-adv-x="722" d="M617 708L535 812L398 708H359L516 877H565L653 708H617ZM722 303Q698 301 682 298T655 287T638 266T625 231L576 44Q518 12 462 -3T339 -18Q273 -18 219 1T126 58Q91 94 72 147T52 251Q52
304 65 353T103 447T160 528T235 594Q284 628 339 647T455 666Q486 666 521 661T589 642Q606 635 615 634T633 632Q653 632 666 640T693 666L708 661L659 464L641 467Q638 531 604 573Q556 632 463 632Q403 632 354 606T268 533Q219 470 191 391T162 228Q162 129
214 74T364 19Q398 19 425 27T469 53Q473 57 477 63T485 79T494 107T508 154Q515 179 520 197T528 227T532 249T534 267Q534 296 487 300L455 303V319H722V303Z" />
<glyph unicode="&#x11d;" glyph-name="uni011D" horiz-adv-x="500" d="M411 492L329 596L192 492H153L310 661H359L447 492H411ZM422 366Q429 352 430 340T431 315Q431 283 415 254T373 202T314 165T246 151Q228 151 215 154Q212 155 208 155Q195 155 184 143T172
114Q172 100 191 90T243 72Q315 55 350 23T385 -55Q385 -88 371 -115T330 -163T264 -194T175 -206Q98 -206 53 -179T8 -98Q8 -79 12 -64T29 -33T65 0T125 39Q111 47 105 57T98 78Q98 100 116 121T175 162Q133 177 115 204T96 270Q96 308 113 339T158 393T223 428T297
441Q355 441 395 413Q406 405 411 405H471V366H422ZM352 348Q352 388 338 403T296 419Q273 419 251 406T212 370T185 316T174 247Q174 212 189 192T234 172Q284 172 319 231Q334 257 343 286T352 348ZM325 -90Q325 -56 294 -32T182 17Q172 20 164 22T148 28Q145
28 136 23T117 9T98 -8T83 -24Q72 -38 68 -51T63 -82Q63 -135 96 -159T190 -184Q220 -184 245 -177T288 -156T315 -126T325 -90Z" />
<glyph unicode="&#x11e;" glyph-name="uni011E" horiz-adv-x="722" d="M661 866Q656 833 641 804T602 754T550 721T488 708Q419 708 390 748T360 866H389Q393 818 419 793T496 767Q542 767 578 793T632 866H661ZM722 303Q698 301 682 298T655 287T638 266T625
231L576 44Q518 12 462 -3T339 -18Q273 -18 219 1T126 58Q91 94 72 147T52 251Q52 304 65 353T103 447T160 528T235 594Q284 628 339 647T455 666Q486 666 521 661T589 642Q606 635 615 634T633 632Q653 632 666 640T693 666L708 661L659 464L641 467Q638 531 604
573Q556 632 463 632Q403 632 354 606T268 533Q219 470 191 391T162 228Q162 129 214 74T364 19Q398 19 425 27T469 53Q473 57 477 63T485 79T494 107T508 154Q515 179 520 197T528 227T532 249T534 267Q534 296 487 300L455 303V319H722V303Z" />
<glyph unicode="&#x11f;" glyph-name="uni011F" horiz-adv-x="500" d="M476 650Q471 617 456 588T417 538T365 505T303 492Q234 492 205 532T175 650H204Q208 602 234 577T311 551Q357 551 393 577T447 650H476ZM422 366Q429 352 430 340T431 315Q431 283 415
254T373 202T314 165T246 151Q228 151 215 154Q212 155 208 155Q195 155 184 143T172 114Q172 100 191 90T243 72Q315 55 350 23T385 -55Q385 -88 371 -115T330 -163T264 -194T175 -206Q98 -206 53 -179T8 -98Q8 -79 12 -64T29 -33T65 0T125 39Q111 47 105 57T98
78Q98 100 116 121T175 162Q133 177 115 204T96 270Q96 308 113 339T158 393T223 428T297 441Q355 441 395 413Q406 405 411 405H471V366H422ZM352 348Q352 388 338 403T296 419Q273 419 251 406T212 370T185 316T174 247Q174 212 189 192T234 172Q284 172 319
231Q334 257 343 286T352 348ZM325 -90Q325 -56 294 -32T182 17Q172 20 164 22T148 28Q145 28 136 23T117 9T98 -8T83 -24Q72 -38 68 -51T63 -82Q63 -135 96 -159T190 -184Q220 -184 245 -177T288 -156T315 -126T325 -90Z" />
<glyph unicode="&#x120;" glyph-name="uni0120" horiz-adv-x="722" d="M539 769Q539 749 525 735T490 720Q469 720 455 734T441 770Q441 790 455 804T491 818Q510 818 524 803T539 769ZM722 303Q698 301 682 298T655 287T638 266T625 231L576 44Q518 12 462 -3T339
-18Q273 -18 219 1T126 58Q91 94 72 147T52 251Q52 304 65 353T103 447T160 528T235 594Q284 628 339 647T455 666Q486 666 521 661T589 642Q606 635 615 634T633 632Q653 632 666 640T693 666L708 661L659 464L641 467Q638 531 604 573Q556 632 463 632Q403 632
354 606T268 533Q219 470 191 391T162 228Q162 129 214 74T364 19Q398 19 425 27T469 53Q473 57 477 63T485 79T494 107T508 154Q515 179 520 197T528 227T532 249T534 267Q534 296 487 300L455 303V319H722V303Z" />
<glyph unicode="&#x121;" glyph-name="uni0121" horiz-adv-x="500" d="M350 557Q350 537 336 523T301 508Q280 508 266 522T252 558Q252 578 266 592T302 606Q321 606 335 591T350 557ZM422 366Q429 352 430 340T431 315Q431 283 415 254T373 202T314 165T246
151Q228 151 215 154Q212 155 208 155Q195 155 184 143T172 114Q172 100 191 90T243 72Q315 55 350 23T385 -55Q385 -88 371 -115T330 -163T264 -194T175 -206Q98 -206 53 -179T8 -98Q8 -79 12 -64T29 -33T65 0T125 39Q111 47 105 57T98 78Q98 100 116 121T175
162Q133 177 115 204T96 270Q96 308 113 339T158 393T223 428T297 441Q355 441 395 413Q406 405 411 405H471V366H422ZM352 348Q352 388 338 403T296 419Q273 419 251 406T212 370T185 316T174 247Q174 212 189 192T234 172Q284 172 319 231Q334 257 343 286T352
348ZM325 -90Q325 -56 294 -32T182 17Q172 20 164 22T148 28Q145 28 136 23T117 9T98 -8T83 -24Q72 -38 68 -51T63 -82Q63 -135 96 -159T190 -184Q220 -184 245 -177T288 -156T315 -126T325 -90Z" />
<glyph unicode="&#x122;" glyph-name="uni0122" horiz-adv-x="722" d="M722 303Q698 301 682 298T655 287T638 266T625 231L576 44Q518 12 462 -3T339 -18Q273 -18 219 1T126 58Q91 94 72 147T52 251Q52 304 65 353T103 447T160 528T235 594Q284 628 339 647T455
666Q486 666 521 661T589 642Q606 635 615 634T633 632Q653 632 666 640T693 666L708 661L659 464L641 467Q638 531 604 573Q556 632 463 632Q403 632 354 606T268 533Q219 470 191 391T162 228Q162 129 214 74T364 19Q398 19 425 27T469 53Q473 57 477 63T485
79T494 107T508 154Q515 179 520 197T528 227T532 249T534 267Q534 296 487 300L455 303V319H722V303ZM250 -249Q290 -223 307 -202T325 -161Q325 -153 320 -147T304 -130Q290 -117 285 -107T280 -83Q280 -63 294 -50T331 -37Q356 -37 372 -57T389 -108Q389 -150
356 -191T259 -267L250 -249Z" />
<glyph unicode="&#x123;" glyph-name="uni0123" horiz-adv-x="500" d="M395 707Q355 681 338 660T320 618Q320 610 324 604T340 586Q354 573 359 564T365 541Q365 521 351 508T314 494Q289 494 273 514T256 565Q256 608 289 648T386 724L395 707ZM422 366Q429
352 430 340T431 315Q431 283 415 254T373 202T314 165T246 151Q228 151 215 154Q212 155 208 155Q195 155 184 143T172 114Q172 100 191 90T243 72Q315 55 350 23T385 -55Q385 -88 371 -115T330 -163T264 -194T175 -206Q98 -206 53 -179T8 -98Q8 -79 12 -64T29
-33T65 0T125 39Q111 47 105 57T98 78Q98 100 116 121T175 162Q133 177 115 204T96 270Q96 308 113 339T158 393T223 428T297 441Q355 441 395 413Q406 405 411 405H471V366H422ZM352 348Q352 388 338 403T296 419Q273 419 251 406T212 370T185 316T174 247Q174
212 189 192T234 172Q284 172 319 231Q334 257 343 286T352 348ZM325 -90Q325 -56 294 -32T182 17Q172 20 164 22T148 28Q145 28 136 23T117 9T98 -8T83 -24Q72 -38 68 -51T63 -82Q63 -135 96 -159T190 -184Q220 -184 245 -177T288 -156T315 -126T325 -90Z" />
<glyph unicode="&#x124;" glyph-name="uni0124" horiz-adv-x="722" d="M591 706L509 810L372 706H333L490 875H539L627 706H591ZM769 637Q748 633 735 629T712 618T697 598T685 563L553 82Q550 70 550 58Q550 47 553 41T565 30T589 22T629 16V0H355V16Q382 18
399 23T427 38T445 61T457 93L521 326H236L170 82Q167 71 167 60Q167 49 169 42T179 30T200 22T237 16V0H-8V16Q13 18 26 22T49 36T64 62T78 102L196 532Q201 552 204 568T208 596Q208 618 193 625T131 637V653H402V637Q357 634 335 618T302 566L248 368H533L579
532Q584 552 588 567T593 595Q593 613 578 623T521 637V653H769V637Z" />
<glyph unicode="&#x125;" glyph-name="uni0125" horiz-adv-x="500" d="M411 706L329 810L192 706H153L310 875H359L447 706H411ZM478 105Q455 72 437 51T401 16T368 -3T332 -9Q312 -9 300 2T288 33Q288 50 308 125L363 332Q366 344 368 353T370 365Q370 376 365
383T342 390Q328 390 310 379T272 350T231 306T190 250Q175 227 164 207T142 160T120 96T94 0H19L165 554Q171 577 174 591T178 616Q178 629 165 635T137 641H110V656Q132 659 151 661T189 667T226 674T267 683L274 677L153 230Q221 340 278 390T383 441Q418 441
433 422T448 374Q448 355 436 304T400 181Q394 161 388 141T378 104T370 73T367 56Q367 48 371 43T383 38Q389 38 395 41T410 52T432 76T465 118L478 105Z" />
<glyph unicode="&#x126;" glyph-name="uni0126" horiz-adv-x="722" d="M769 637Q748 633 735 629T712 618T697 598T685 563L673 520H761L749 476H661L553 82Q550 70 550 58Q550 47 553 41T565 30T589 22T629 16V0H355V16Q382 18 399 23T427 38T445 61T457 93L521
326H236L170 82Q167 71 167 60Q167 49 169 42T179 30T200 22T237 16V0H-8V16Q13 18 26 22T49 36T64 62T78 102L180 476H77L89 520H192Q200 549 204 567T208 596Q208 618 193 625T131 637V653H402V637Q357 634 335 618T302 566L289 520H575Q583 549 588 566T593
595Q593 613 578 623T521 637V653H769V637ZM277 476L248 368H533L563 476H277Z" />
<glyph unicode="&#x127;" glyph-name="uni0127" horiz-adv-x="500" d="M478 105Q455 72 437 51T401 16T368 -3T332 -9Q312 -9 300 2T288 33Q288 50 308 125L363 332Q366 344 368 353T370 365Q370 376 365 383T342 390Q328 390 310 379T272 350T231 306T190 250Q175
227 164 207T142 160T120 96T94 0H19L151 500H88L103 554H165Q171 577 174 591T178 616Q178 629 165 635T137 641H110V656Q132 659 151 661T189 667T226 674T267 683L274 677L241 554H400L385 500H226L153 230Q221 340 278 390T383 441Q418 441 433 422T448 374Q448
355 436 304T400 181Q394 161 388 141T378 104T370 73T367 56Q367 48 371 43T383 38Q389 38 395 41T410 52T432 76T465 118L478 105Z" />
<glyph unicode="&#x128;" glyph-name="uni0128" horiz-adv-x="333" d="M444 836Q433 785 409 759T349 732Q331 732 292 747Q251 764 231 770T197 776Q161 776 146 729H117Q132 787 155 811T217 835Q234 835 254 830T303 811Q326 800 340 796T365 792Q385 792 396
801T416 836H444ZM384 637Q363 634 350 631T329 619T314 597T302 560L182 131Q175 107 171 89T167 55Q167 34 180 28T236 16V0H-8V16Q13 20 26 24T49 36T64 57T76 91L196 532Q201 551 205 566T209 594Q209 613 194 624T137 637V653H384V637Z" />
<glyph unicode="&#x129;" glyph-name="uni0129" horiz-adv-x="278" d="M357 624Q346 573 322 547T262 520Q244 520 205 535Q164 552 144 558T110 564Q74 564 59 517H30Q45 575 68 599T130 623Q147 623 167 618T216 599Q239 588 253 584T278 580Q298 580 309 589T329
624H357ZM235 103Q215 72 198 51T165 16T133 -4T97 -11Q74 -11 61 3T47 46Q47 61 53 86T71 156L119 331Q123 345 125 357T128 376Q128 391 117 395T65 400V416Q80 417 92 418T121 422T162 429T224 441L229 438L133 96Q129 82 127 71T124 51Q124 45 128 41T140 36Q153
36 171 54T221 115L235 103Z" />
<glyph unicode="&#x12a;" glyph-name="uni012A" horiz-adv-x="333" d="M428 706H127L138 757H439L428 706ZM384 637Q363 634 350 631T329 619T314 597T302 560L182 131Q175 107 171 89T167 55Q167 34 180 28T236 16V0H-8V16Q13 20 26 24T49 36T64 57T76 91L196
532Q201 551 205 566T209 594Q209 613 194 624T137 637V653H384V637Z" />
<glyph unicode="&#x12b;" glyph-name="uni012B" horiz-adv-x="278" d="M330 492H29L40 543H341L330 492ZM235 103Q215 72 198 51T165 16T133 -4T97 -11Q74 -11 61 3T47 46Q47 61 53 86T71 156L119 331Q123 345 125 357T128 376Q128 391 117 395T65 400V416Q80
417 92 418T121 422T162 429T224 441L229 438L133 96Q129 82 127 71T124 51Q124 45 128 41T140 36Q153 36 171 54T221 115L235 103Z" />
<glyph unicode="&#x12c;" glyph-name="uni012C" horiz-adv-x="333" d="M448 866Q443 833 428 804T389 754T337 721T275 708Q206 708 177 748T147 866H176Q180 818 206 793T283 767Q329 767 365 793T419 866H448ZM384 637Q363 634 350 631T329 619T314 597T302
560L182 131Q175 107 171 89T167 55Q167 34 180 28T236 16V0H-8V16Q13 20 26 24T49 36T64 57T76 91L196 532Q201 551 205 566T209 594Q209 613 194 624T137 637V653H384V637Z" />
<glyph unicode="&#x12d;" glyph-name="uni012D" horiz-adv-x="278" d="M347 650Q342 617 327 588T288 538T236 505T174 492Q105 492 76 532T46 650H75Q79 602 105 577T182 551Q228 551 264 577T318 650H347ZM235 103Q215 72 198 51T165 16T133 -4T97 -11Q74 -11
61 3T47 46Q47 61 53 86T71 156L119 331Q123 345 125 357T128 376Q128 391 117 395T65 400V416Q80 417 92 418T121 422T162 429T224 441L229 438L133 96Q129 82 127 71T124 51Q124 45 128 41T140 36Q153 36 171 54T221 115L235 103Z" />
<glyph unicode="&#x12e;" glyph-name="uni012E" horiz-adv-x="333" d="M-8 0V16Q13 20 26 24T49 36T64 57T76 91L196 532Q201 551 205 566T209 594Q209 613 194 624T137 637V653H384V637Q363 634 350 631T329 619T314 597T302 560L182 131Q175 107 171 89T167
55Q167 34 180 28T236 16V0H138Q128 -26 128 -53Q128 -76 144 -91T187 -106Q234 -106 270 -74L287 -92Q235 -169 162 -169Q123 -169 95 -143T67 -74Q67 -33 94 0H-8Z" />
<glyph unicode="&#x12f;" glyph-name="uni012F" horiz-adv-x="278" d="M98 -11Q49 -11 49 44Q49 73 71 155L119 332Q123 346 125 358T128 376Q128 391 116 395T64 400V416Q79 417 91 418T121 422T162 429T224 441L228 438L134 95Q130 82 127 72T124 51Q124 36
138 36Q151 36 170 53T222 114L235 103Q212 68 194 46T159 10Q151 -7 148 -22T144 -53Q144 -76 160 -91T203 -106Q250 -106 286 -74L303 -92Q251 -169 178 -169Q139 -169 111 -143T83 -74Q83 -39 102 -11H98ZM264 599Q264 578 250 563T215 548Q193 548 180 562T167
601Q167 624 180 639T214 654Q234 654 249 638T264 599Z" />
<glyph unicode="&#x130;" glyph-name="uni0130" horiz-adv-x="333" d="M344 769Q344 749 330 735T295 720Q274 720 260 734T246 770Q246 790 260 804T296 818Q315 818 329 803T344 769ZM384 637Q363 634 350 631T329 619T314 597T302 560L182 131Q175 107 171
89T167 55Q167 34 180 28T236 16V0H-8V16Q13 20 26 24T49 36T64 57T76 91L196 532Q201 551 205 566T209 594Q209 613 194 624T137 637V653H384V637Z" />
<glyph unicode="&#x131;" glyph-name="dotlessi" horiz-adv-x="278" d="M235 103Q215 72 198 51T165 16T133 -4T97 -11Q74 -11 61 3T47 46Q47 61 53 86T71 156L119 331Q123 345 125 357T128 376Q128 391 117 395T65 400V416Q80 417 92 418T121 422T162 429T224
441L229 438L133 96Q129 82 127 71T124 51Q124 45 128 41T140 36Q153 36 171 54T221 115L235 103Z" />
<glyph unicode="&#x132;" glyph-name="uni0132" horiz-adv-x="750" d="M783 637Q762 634 749 631T727 620T713 599T701 563L598 196Q582 139 565 101T527 37Q505 8 473 -5T403 -18Q350 -18 318 6T286 70Q286 94 298 110T331 126Q351 126 366 113T382 80Q382 71
381 66T379 53Q379 32 387 23T414 14Q432 14 445 31T467 78L594 532Q606 575 606 596Q606 616 591 624T529 637V653H783V637ZM384 637Q363 634 350 631T329 619T314 597T302 560L182 131Q175 107 171 89T167 55Q167 34 180 28T236 16V0H-8V16Q13 20 26 24T49 36T64
57T76 91L196 532Q201 551 205 566T209 594Q209 613 194 624T137 637V653H384V637Z" />
<glyph unicode="&#x133;" glyph-name="uni0133" horiz-adv-x="500" d="M500 598Q500 578 485 563T450 548Q427 548 412 562T396 600Q396 623 412 637T449 652Q469 652 484 636T500 598ZM264 599Q264 578 250 563T215 548Q193 548 180 562T167 601Q167 624 180
639T214 654Q234 654 249 638T264 599ZM363 28Q332 -94 287 -150T176 -207Q141 -207 119 -190T97 -146Q97 -128 109 -115T138 -102Q158 -102 167 -112T177 -139Q177 -147 175 -151T171 -159T167 -164T165 -173Q165 -185 183 -185Q198 -185 210 -176T233 -146T256
-90T280 -3L352 289Q361 326 364 343T368 369Q368 386 358 393T320 400H294V416Q318 418 359 424T463 441L467 438L363 28ZM235 103Q214 71 197 50T165 15T133 -5T98 -11Q49 -11 49 44Q49 73 71 155L119 332Q123 346 125 358T128 376Q128 391 116 395T64 400V416Q79
417 91 418T121 422T162 429T224 441L228 438L134 95Q130 82 127 72T124 51Q124 36 138 36Q151 36 170 53T222 114L235 103Z" />
<glyph unicode="&#x134;" glyph-name="uni0134" horiz-adv-x="444" d="M500 708L418 812L281 708H242L399 877H448L536 708H500ZM491 637Q470 634 457 631T435 620T421 599T409 563L306 196Q290 139 273 101T235 37Q213 8 181 -5T111 -18Q58 -18 26 6T-6 70Q-6
94 6 110T39 126Q59 126 74 113T90 80Q90 71 89 66T87 53Q87 32 95 23T122 14Q140 14 153 31T175 78L302 532Q314 575 314 596Q314 616 299 624T237 637V653H491V637Z" />
<glyph unicode="&#x135;" glyph-name="uni0135" horiz-adv-x="278" d="M317 492L235 596L98 492H59L216 661H265L353 492H317ZM142 28Q111 -94 66 -150T-45 -207Q-80 -207 -102 -190T-124 -146Q-124 -128 -112 -115T-83 -102Q-63 -102 -54 -112T-44 -139Q-44 -147
-46 -151T-50 -159T-54 -164T-56 -173Q-56 -185 -38 -185Q-23 -185 -11 -176T12 -146T35 -90T59 -3L131 289Q140 326 143 343T147 369Q147 386 137 393T99 400H73V416Q97 418 138 424T242 441L246 438L142 28Z" />
<glyph unicode="&#x136;" glyph-name="uni0136" horiz-adv-x="667" d="M722 637Q703 637 685 627T645 600L347 375L515 82Q527 62 535 50T555 31T580 21T619 16V0H344V16L373 19Q419 23 419 51Q419 67 408 88T382 133L259 348L194 111Q188 90 186 79T183 60Q183
37 198 29T254 16V0H7V16Q29 19 42 23T64 34T77 54T88 87L212 532Q217 551 221 566T226 594Q226 614 210 624T147 637V653H417V637Q378 634 354 620T318 563L265 369L418 478Q485 526 523 561T561 615Q561 629 525 634L501 637V653H722V637ZM202 -249Q242 -223
259 -202T277 -161Q277 -153 272 -147T256 -130Q242 -117 237 -107T232 -83Q232 -63 246 -50T283 -37Q308 -37 324 -57T341 -108Q341 -150 308 -191T211 -267L202 -249Z" />
<glyph unicode="&#x137;" glyph-name="uni0137" horiz-adv-x="444" d="M461 412Q443 411 427 405T386 383T327 337T236 258L273 170Q302 101 321 71T354 41Q365 41 375 50T399 83Q403 89 406 95T414 109L429 98Q412 66 398 46T371 12T346 -6T318 -11Q296 -11 279
6T237 71Q230 84 222 101T206 138T191 176T177 212L137 180L89 0H14L155 528Q165 564 168 583T173 616Q171 630 160 635T122 640H104V656Q148 661 182 667T261 683L267 677L147 221L190 254Q333 364 333 394Q333 412 296 412H282V428H461V412ZM76 -249Q116 -223
133 -202T151 -161Q151 -153 146 -147T130 -130Q116 -117 111 -107T106 -83Q106 -63 120 -50T157 -37Q182 -37 198 -57T215 -108Q215 -150 182 -191T85 -267L76 -249Z" />
<glyph unicode="&#x138;" glyph-name="uni0138" horiz-adv-x="542" d="M285 280Q303 282 321 289T354 308Q374 322 392 344T429 396Q441 415 450 427T470 446T494 456T529 459Q540 459 553 456T576 447T594 430T601 407Q601 387 585 377T552 366Q535 366 526 372T512
385T501 399T489 405Q476 405 468 398T452 375Q410 301 354 266Q362 263 367 260T380 244Q386 234 393 214T406 172T418 129T429 98Q443 63 474 43T536 15L532 0H402Q385 11 372 25T345 72Q334 101 328 128T312 188Q306 208 300 223T288 242Q273 241 260 241T234
240L191 78Q189 70 188 63T187 51Q187 28 206 23T251 16L246 0H5L10 16Q56 16 73 27Q93 38 103 77L183 382Q187 397 187 410Q187 422 183 428T170 438T150 441T122 443L126 459H367L363 443Q317 441 301 432Q282 421 271 381L243 276L285 280Z" />
<glyph unicode="&#x139;" glyph-name="uni0139" horiz-adv-x="556" d="M422 866Q432 876 447 876Q462 876 472 866T483 840Q483 822 466 812L295 706H260L422 866ZM501 0H-8V16Q13 18 26 21T47 33T61 56T74 94L196 532Q202 552 204 567T207 594Q207 616 192 625T130
637V653H403V637Q358 634 336 619T302 560L182 131Q177 114 175 101T172 77Q172 65 177 58T194 45T226 38T277 36Q314 36 340 37T386 43T422 54T457 74Q481 90 499 116T539 186L559 180L501 0Z" />
<glyph unicode="&#x13a;" glyph-name="uni013A" horiz-adv-x="278" d="M287 866Q297 876 312 876Q327 876 337 866T348 840Q348 822 331 812L160 706H125L287 866ZM126 93Q118 64 118 50Q118 32 135 32Q146 32 163 45T202 89L227 124L241 114Q218 78 200 54T164
16T128 -5T90 -11Q41 -11 41 45Q41 51 42 59T45 75L182 599Q184 607 184 611T185 618Q185 627 173 633T136 640H118V656Q162 661 195 667T273 683L279 678L126 93Z" />
<glyph unicode="&#x13b;" glyph-name="uni013B" horiz-adv-x="556" d="M501 0H-8V16Q13 18 26 21T47 33T61 56T74 94L196 532Q202 552 204 567T207 594Q207 616 192 625T130 637V653H403V637Q358 634 336 619T302 560L182 131Q177 114 175 101T172 77Q172 65 177
58T194 45T226 38T277 36Q314 36 340 37T386 43T422 54T457 74Q481 90 499 116T539 186L559 180L501 0ZM151 -249Q191 -223 208 -202T226 -161Q226 -153 221 -147T205 -130Q191 -117 186 -107T181 -83Q181 -63 195 -50T232 -37Q257 -37 273 -57T290 -108Q290 -150
257 -191T160 -267L151 -249Z" />
<glyph unicode="&#x13c;" glyph-name="uni013C" horiz-adv-x="278" d="M126 93Q118 64 118 50Q118 32 135 32Q146 32 163 45T202 89L227 124L241 114Q218 78 200 54T164 16T128 -5T90 -11Q41 -11 41 45Q41 51 42 59T45 75L182 599Q184 607 184 611T185 618Q185
627 173 633T136 640H118V656Q162 661 195 667T273 683L279 678L126 93ZM7 -249Q47 -223 64 -202T82 -161Q82 -153 77 -147T61 -130Q47 -117 42 -107T37 -83Q37 -63 51 -50T88 -37Q113 -37 129 -57T146 -108Q146 -150 113 -191T16 -267L7 -249Z" />
<glyph unicode="&#x13d;" glyph-name="uni013D" horiz-adv-x="556" d="M456 453Q495 479 513 500T531 541Q531 549 527 556T511 574Q497 587 492 596T486 620Q486 640 500 653T537 666Q562 666 578 646T595 595Q595 552 562 512T465 436L456 453ZM501 0H-8V16Q13
18 26 21T47 33T61 56T74 94L196 532Q202 552 204 567T207 594Q207 616 192 625T130 637V653H403V637Q358 634 336 619T302 560L182 131Q177 114 175 101T172 77Q172 65 177 58T194 45T226 38T277 36Q314 36 340 37T386 43T422 54T457 74Q481 90 499 116T539 186L559
180L501 0Z" />
<glyph unicode="&#x13e;" glyph-name="uni013E" horiz-adv-x="278" d="M309 480Q348 506 366 527T384 568Q384 576 380 583T364 601Q350 614 345 623T339 647Q339 667 353 680T390 693Q415 693 431 673T448 622Q448 579 415 539T318 463L309 480ZM126 93Q118 64
118 50Q118 32 135 32Q146 32 163 45T202 89L227 124L241 114Q218 78 200 54T164 16T128 -5T90 -11Q41 -11 41 45Q41 51 42 59T45 75L182 599Q184 607 184 611T185 618Q185 627 173 633T136 640H118V656Q162 661 195 667T273 683L279 678L126 93Z" />
<glyph unicode="&#x13f;" glyph-name="uni013F" horiz-adv-x="556" d="M459 337Q459 314 442 299T402 283Q380 283 364 299T348 337Q348 361 364 377T403 394Q426 394 442 377T459 337ZM501 0H-8V16Q13 18 26 21T47 33T61 56T74 94L196 532Q202 552 204 567T207
594Q207 616 192 625T130 637V653H403V637Q358 634 336 619T302 560L182 131Q177 114 175 101T172 77Q172 65 177 58T194 45T226 38T277 36Q314 36 340 37T386 43T422 54T457 74Q481 90 499 116T539 186L559 180L501 0Z" />
<glyph unicode="&#x140;" glyph-name="uni0140" horiz-adv-x="323" d="M386 337Q386 314 369 299T329 283Q307 283 291 299T275 337Q275 361 291 377T330 394Q353 394 369 377T386 337ZM126 93Q118 64 118 50Q118 32 135 32Q146 32 163 45T202 89L227 124L241
114Q218 78 200 54T164 16T128 -5T90 -11Q41 -11 41 45Q41 51 42 59T45 75L182 599Q184 607 184 611T185 618Q185 627 173 633T136 640H118V656Q162 661 195 667T273 683L279 678L126 93Z" />
<glyph unicode="&#x141;" glyph-name="Lslash" horiz-adv-x="556" d="M500 0H-8V16Q13 19 26 23T48 35T63 58T75 93L127 284L28 225L41 273L140 332L196 532Q202 552 204 567T207 594Q207 616 192 624T129 637V653H402V637Q356 637 335 620T304 569L253 388L396
473L382 424L240 341L186 146Q177 114 173 96T169 72Q169 52 192 44T267 36Q306 36 333 37T382 42T420 53T455 72Q480 88 498 114T539 186L559 180L500 0Z" />
<glyph unicode="&#x142;" glyph-name="lslash" horiz-adv-x="278" d="M295 414L197 364L125 89Q122 78 120 68T118 51Q118 32 133 32Q147 32 163 45T202 89L228 123L241 114Q217 78 198 54T161 15T126 -5T90 -11Q41 -11 41 45Q41 54 45 74T57 120L109 314L37 278L49
324L121 360Q139 427 151 474T171 551T182 597T186 616Q186 640 137 640H117V656Q161 661 195 667T273 683L279 677L209 410L307 460L295 414Z" />
<glyph unicode="&#x143;" glyph-name="uni0143" horiz-adv-x="667" d="M523 866Q533 876 548 876Q563 876 573 866T584 840Q584 822 567 812L396 706H361L523 866ZM727 637Q703 632 690 627T666 608T648 567T625 492L479 -15H461L231 535L117 113Q108 81 108 59Q108
38 123 29T178 16V0H-20V16Q1 19 15 25T40 47T62 91T86 168L203 583Q192 609 172 623T117 637V653H277L484 154L590 542Q595 558 596 567T598 586Q598 599 595 608T585 623T564 632T529 637V653H727V637Z" />
<glyph unicode="&#x144;" glyph-name="uni0144" horiz-adv-x="500" d="M342 654Q352 664 367 664Q382 664 392 654T403 628Q403 610 386 600L215 494H180L342 654ZM474 104Q448 69 430 47T397 13T367 -4T334 -9Q315 -9 301 3T287 45Q287 49 287 53T289 66T294
87T303 120L347 282Q353 305 357 328T361 361Q361 390 337 390Q307 390 272 354T189 248Q172 223 161 204T140 159T119 96T89 0H14L110 350Q112 360 112 367Q112 382 99 387T47 394V410Q77 416 99 420T138 427T172 434T209 441L213 439L146 221Q183 281 215 323T275
391T328 429T377 441Q409 441 425 424T442 380Q442 366 440 351T432 320L376 117Q368 90 365 76T362 56Q362 49 365 44T378 38Q389 38 403 50T439 91Q444 97 449 103T460 117L474 104Z" />
<glyph unicode="&#x145;" glyph-name="uni0145" horiz-adv-x="667" d="M727 637Q703 632 690 627T666 608T648 567T625 492L479 -15H461L231 535L117 113Q108 81 108 59Q108 38 123 29T178 16V0H-20V16Q1 19 15 25T40 47T62 91T86 168L203 583Q192 609 172 623T117
637V653H277L484 154L590 542Q595 558 596 567T598 586Q598 599 595 608T585 623T564 632T529 637V653H727V637ZM173 -249Q213 -223 230 -202T248 -161Q248 -153 243 -147T227 -130Q213 -117 208 -107T203 -83Q203 -63 217 -50T254 -37Q279 -37 295 -57T312 -108Q312
-150 279 -191T182 -267L173 -249Z" />
<glyph unicode="&#x146;" glyph-name="uni0146" horiz-adv-x="500" d="M474 104Q448 69 430 47T397 13T367 -4T334 -9Q315 -9 301 3T287 45Q287 49 287 53T289 66T294 87T303 120L347 282Q353 305 357 328T361 361Q361 390 337 390Q307 390 272 354T189 248Q172
223 161 204T140 159T119 96T89 0H14L110 350Q112 360 112 367Q112 382 99 387T47 394V410Q77 416 99 420T138 427T172 434T209 441L213 439L146 221Q183 281 215 323T275 391T328 429T377 441Q409 441 425 424T442 380Q442 366 440 351T432 320L376 117Q368 90
365 76T362 56Q362 49 365 44T378 38Q389 38 403 50T439 91Q444 97 449 103T460 117L474 104ZM98 -249Q138 -223 155 -202T173 -161Q173 -153 168 -147T152 -130Q138 -117 133 -107T128 -83Q128 -63 142 -50T179 -37Q204 -37 220 -57T237 -108Q237 -150 204 -191T107
-267L98 -249Z" />
<glyph unicode="&#x147;" glyph-name="uni0147" horiz-adv-x="667" d="M473 706H425L330 875H368L457 770L598 875H635L473 706ZM727 637Q703 632 690 627T666 608T648 567T625 492L479 -15H461L231 535L117 113Q108 81 108 59Q108 38 123 29T178 16V0H-20V16Q1
19 15 25T40 47T62 91T86 168L203 583Q192 609 172 623T117 637V653H277L484 154L590 542Q595 558 596 567T598 586Q598 599 595 608T585 623T564 632T529 637V653H727V637Z" />
<glyph unicode="&#x148;" glyph-name="uni0148" horiz-adv-x="500" d="M313 492H265L170 661H208L297 556L438 661H475L313 492ZM474 104Q448 69 430 47T397 13T367 -4T334 -9Q315 -9 301 3T287 45Q287 49 287 53T289 66T294 87T303 120L347 282Q353 305 357 328T361
361Q361 390 337 390Q307 390 272 354T189 248Q172 223 161 204T140 159T119 96T89 0H14L110 350Q112 360 112 367Q112 382 99 387T47 394V410Q77 416 99 420T138 427T172 434T209 441L213 439L146 221Q183 281 215 323T275 391T328 429T377 441Q409 441 425 424T442
380Q442 366 440 351T432 320L376 117Q368 90 365 76T362 56Q362 49 365 44T378 38Q389 38 403 50T439 91Q444 97 449 103T460 117L474 104Z" />
<glyph unicode="&#x149;" glyph-name="uni0149" horiz-adv-x="577" d="M58 478Q97 504 115 525T133 566Q133 574 129 581T113 599Q99 612 94 621T88 645Q88 665 102 678T139 691Q164 691 180 671T197 620Q197 577 164 537T67 461L58 478ZM540 104Q514 69 496 47T463
13T433 -4T400 -9Q381 -9 367 3T353 45Q353 49 353 53T355 66T360 87T369 120L413 282Q419 305 423 328T427 361Q427 390 403 390Q373 390 338 354T255 248Q238 223 227 204T206 159T185 96T155 0H80L176 350Q178 360 178 367Q178 382 165 387T113 394V410Q143
416 165 420T204 427T238 434T275 441L279 439L212 221Q249 281 281 323T341 391T394 429T443 441Q475 441 491 424T508 380Q508 366 506 351T498 320L442 117Q434 90 431 76T428 56Q428 49 431 44T444 38Q455 38 469 50T505 91Q510 97 515 103T526 117L540 104Z"
/>
<glyph unicode="&#x14a;" glyph-name="uni014A" horiz-adv-x="722" d="M295 533Q326 572 355 597T413 638T470 660T527 666Q570 666 602 649T657 603T689 533T700 447Q700 402 692 351T667 247T623 148T556 63T466 4T351 -18Q310 -18 287 3T264 56Q264 92 286
116T343 141Q366 141 381 123T396 84Q396 72 389 59T382 37Q382 19 394 19Q403 19 421 24T461 45T505 87T546 157T577 261T589 407Q589 519 563 569T487 620Q464 620 439 611T387 579T331 521T268 433L178 111Q173 96 170 81T167 57Q167 40 178 28T222 16H236V0H-8V16Q13
20 26 24T48 35T62 56T74 92L197 538Q203 561 205 576T207 597Q207 616 193 626T137 637H131V653H329L295 533Z" />
<glyph unicode="&#x14b;" glyph-name="uni014B" horiz-adv-x="500" d="M146 221Q183 281 215 323T275 391T328 429T377 441Q409 441 425 424T442 380Q442 366 440 351T432 320L355 28Q323 -95 279 -151T168 -208Q133 -208 111 -191T89 -146Q89 -128 101 -115T130
-102Q150 -102 159 -112T169 -139Q169 -147 167 -151T163 -159T159 -164T157 -173Q157 -186 175 -186Q190 -186 202 -177T225 -146T248 -89T272 -3L344 290Q345 296 348 306T354 326T359 346T361 361Q361 378 355 384T337 390Q307 390 272 354T189 248Q172 223
161 203T140 158T118 96T89 0H14L110 350Q112 354 112 358T112 367Q112 382 99 387T47 394V410Q77 416 99 420T138 427T172 434T209 441L213 439L146 221Z" />
<glyph unicode="&#x14c;" glyph-name="uni014C" horiz-adv-x="722" d="M655 706H354L365 757H666L655 706ZM699 418Q699 363 684 311T640 211T575 123T492 53Q443 20 389 1T278 -18Q229 -18 189 -3T121 43T76 116T60 216Q60 262 73 310T109 404T165 492T237 569Q289
614 349 640T474 666Q528 666 570 649T640 600T684 521T699 418ZM594 481Q594 552 560 592T465 633Q409 633 363 600T279 516Q252 479 231 437T195 351T173 264T165 184Q165 102 198 59T295 15Q346 15 388 41T465 110Q496 149 520 197T561 296T585 394T594 481Z"
/>
<glyph unicode="&#x14d;" glyph-name="uni014D" horiz-adv-x="500" d="M500 492H199L210 543H511L500 492ZM468 301Q468 244 440 183T362 72Q318 28 271 9T174 -11Q103 -11 65 25T27 128Q27 170 40 211T78 290T135 359T207 411Q236 427 266 434T327 441Q388 441
428 404T468 301ZM384 326Q384 372 365 396T313 420Q246 420 185 329Q150 276 131 219T111 101Q111 56 132 33T189 10Q222 10 251 31T310 93Q327 117 341 145T364 204T379 266T384 326Z" />
<glyph unicode="&#x14e;" glyph-name="uni014E" horiz-adv-x="722" d="M709 866Q704 833 689 804T650 754T598 721T536 708Q467 708 438 748T408 866H437Q441 818 467 793T544 767Q590 767 626 793T680 866H709ZM699 418Q699 363 684 311T640 211T575 123T492
53Q443 20 389 1T278 -18Q229 -18 189 -3T121 43T76 116T60 216Q60 262 73 310T109 404T165 492T237 569Q289 614 349 640T474 666Q528 666 570 649T640 600T684 521T699 418ZM594 481Q594 552 560 592T465 633Q409 633 363 600T279 516Q252 479 231 437T195 351T173
264T165 184Q165 102 198 59T295 15Q346 15 388 41T465 110Q496 149 520 197T561 296T585 394T594 481Z" />
<glyph unicode="&#x14f;" glyph-name="uni014F" horiz-adv-x="500" d="M533 650Q528 617 513 588T474 538T422 505T360 492Q291 492 262 532T232 650H261Q265 602 291 577T368 551Q414 551 450 577T504 650H533ZM468 301Q468 244 440 183T362 72Q318 28 271 9T174
-11Q103 -11 65 25T27 128Q27 170 40 211T78 290T135 359T207 411Q236 427 266 434T327 441Q388 441 428 404T468 301ZM384 326Q384 372 365 396T313 420Q246 420 185 329Q150 276 131 219T111 101Q111 56 132 33T189 10Q222 10 251 31T310 93Q327 117 341 145T364
204T379 266T384 326Z" />
<glyph unicode="&#x150;" glyph-name="uni0150" horiz-adv-x="722" d="M657 866Q667 876 684 876Q699 876 709 866T720 840Q720 820 703 810L532 706H497L657 866ZM487 866Q497 876 514 876Q529 876 539 866T550 840Q550 820 533 810L364 706H327L487 866ZM699
418Q699 363 684 311T640 211T575 123T492 53Q443 20 389 1T278 -18Q229 -18 189 -3T121 43T76 116T60 216Q60 262 73 310T109 404T165 492T237 569Q289 614 349 640T474 666Q528 666 570 649T640 600T684 521T699 418ZM594 481Q594 552 560 592T465 633Q409 633
363 600T279 516Q252 479 231 437T195 351T173 264T165 184Q165 102 198 59T295 15Q346 15 388 41T465 110Q496 149 520 197T561 296T585 394T594 481Z" />
<glyph unicode="&#x151;" glyph-name="uni0151" horiz-adv-x="500" d="M478 654Q488 664 505 664Q520 664 530 654T541 628Q541 608 524 598L353 494H318L478 654ZM308 654Q318 664 335 664Q350 664 360 654T371 628Q371 608 354 598L185 494H148L308 654ZM468
301Q468 244 440 183T362 72Q318 28 271 9T174 -11Q103 -11 65 25T27 128Q27 170 40 211T78 290T135 359T207 411Q236 427 266 434T327 441Q388 441 428 404T468 301ZM384 326Q384 372 365 396T313 420Q246 420 185 329Q150 276 131 219T111 101Q111 56 132 33T189
10Q222 10 251 31T310 93Q327 117 341 145T364 204T379 266T384 326Z" />
<glyph unicode="&#x152;" glyph-name="OE" horiz-adv-x="944" d="M933 503H917Q917 542 915 558T905 588Q887 620 797 620H701Q685 620 677 613T664 588L600 361Q657 361 691 363T747 374T782 403T810 456L828 452L762 222L742 224Q744 240 745 246T748 266Q748
284 744 294T728 311T699 320T653 325L591 328L535 124Q529 101 527 89T524 69Q524 49 540 41T599 33Q653 33 693 39T765 61T825 104T883 172L899 166L834 0H488Q474 0 465 -1T443 -2T411 -4T357 -5Q331 -5 311 -6T276 -8Q227 -8 186 9T114 58T66 132T49 225Q49
312 81 392T168 533T293 630T443 666Q451 666 463 666T488 664T515 661T541 658Q558 656 571 655T595 653H964L933 503ZM531 467Q538 494 542 509T549 532T551 545T552 555Q552 589 523 611T448 634Q373 634 312 580Q278 551 250 508T201 415T169 310T157 202Q157
24 301 24Q333 24 359 34T400 63Q409 74 416 86T430 113T443 149T458 199L531 467Z" />
<glyph unicode="&#x153;" glyph-name="oe" horiz-adv-x="667" d="M604 94Q547 38 501 13T407 -12Q338 -12 303 56Q265 18 235 4T165 -11Q133 -11 107 0T61 30T31 76T20 135Q20 189 44 243T108 342T197 413T294 441Q334 441 363 420T406 361Q432 384 452 399T491
424T526 437T565 441Q603 441 624 423T646 373Q646 344 628 316T576 264Q561 253 541 243T499 225T456 210T419 203Q400 201 393 198T383 184Q379 171 376 151T373 114Q373 76 394 53T448 30Q462 30 475 33T505 45T543 67T593 105L604 94ZM580 378Q580 395 571
405T546 416Q512 416 476 377Q461 361 450 346T429 312T411 270T392 215Q425 225 445 232T480 246T505 260T527 277Q552 300 566 326T580 378ZM343 352Q343 382 327 400T284 418Q244 418 211 383Q187 357 167 324T133 253T111 176T103 100Q103 57 121 33T170 9Q219
9 259 69Q274 91 289 127T316 205T335 285T343 352Z" />
<glyph unicode="&#x154;" glyph-name="uni0154" horiz-adv-x="611" d="M451 866Q461 876 476 876Q491 876 501 866T512 840Q512 822 495 812L324 706H289L451 866ZM384 653Q484 653 536 615T588 512Q588 476 571 442T522 384Q499 366 470 355T391 333L480 98Q496
54 514 35T567 16V0H420L297 324L231 329L176 126Q168 97 166 84T163 63Q163 52 165 44T175 31T195 22T230 16V0H-13V16Q8 19 21 24T44 39T59 64T72 101L191 532Q196 552 199 567T203 595Q203 603 199 611T189 623Q181 628 172 630T132 637V653H384ZM243 366Q262
363 271 362T294 361Q384 361 433 401T483 511Q483 563 453 593T363 623Q314 623 306 593L243 366Z" />
<glyph unicode="&#x155;" glyph-name="uni0155" horiz-adv-x="389" d="M342 654Q352 664 367 664Q382 664 392 654T403 628Q403 610 386 600L215 494H180L342 654ZM192 258Q206 290 230 327T286 396Q306 416 327 428T365 441Q386 441 399 427T412 390Q412 367
400 352T365 336Q351 336 344 343T330 362Q322 376 314 376Q287 376 232 282Q216 254 204 230T179 176T154 105T121 0H45L126 292Q131 311 134 323T139 344T141 359T142 374Q142 390 131 395T104 400Q98 400 91 400T73 397V414L228 441L231 439L176 223L192 258Z"
/>
<glyph unicode="&#x156;" glyph-name="uni0156" horiz-adv-x="611" d="M384 653Q484 653 536 615T588 512Q588 476 571 442T522 384Q499 366 470 355T391 333L480 98Q496 54 514 35T567 16V0H420L297 324L231 329L176 126Q168 97 166 84T163 63Q163 52 165 44T175
31T195 22T230 16V0H-13V16Q8 19 21 24T44 39T59 64T72 101L191 532Q196 552 199 567T203 595Q203 603 199 611T189 623Q181 628 172 630T132 637V653H384ZM243 366Q262 363 271 362T294 361Q384 361 433 401T483 511Q483 563 453 593T363 623Q314 623 306 593L243
366ZM168 -249Q208 -223 225 -202T243 -161Q243 -153 238 -147T222 -130Q208 -117 203 -107T198 -83Q198 -63 212 -50T249 -37Q274 -37 290 -57T307 -108Q307 -150 274 -191T177 -267L168 -249Z" />
</font>
</defs>
</svg>
