<?xml version="1.0" standalone="no"?> <!DOCTYPE svg PUBLIC "-//W3C//DTD SVG 1.0//EN" "http://www.w3.org/TR/2001/REC-SVG-20010904/DTD/svg10.dtd" > <svg xmlns="http://www.w3.org/2000/svg" width="100%" height="100%">
<defs >
<font horiz-adv-x="589" ><font-face
    font-family="STIXDoubleStruckItalic"
    units-per-em="1000"
    panose-1="0 0 0 0 0 0 0 0 0 0"
    ascent="693"
    descent="-218"
    alphabetic="0" />
<missing-glyph horiz-adv-x="500" />
<glyph unicode=" " glyph-name="space" horiz-adv-x="500" />
<glyph unicode="A" glyph-name="A" horiz-adv-x="614" d="M451 0L427 212H168L44 0H0L384 653H532L603 0H451ZM498 616H422L485 37H561L498 616ZM387 581L385 582L189 249H423L387 581Z" />
<glyph unicode="B" glyph-name="B" horiz-adv-x="673" d="M476 653Q509 653 543 646T604 622T648 578T665 512Q665 453 639 405T556 333V331Q581 313 592 284T603 225Q603 180 588 139T545 67T478 18T392 0H6L181 653H476ZM526 361Q577 374 602 415T628 506Q628
531 618 552T586 587L526 361ZM553 600Q539 607 523 611T491 616H325L255 352H416Q421 352 431 352T451 352T472 354T487 357L553 600ZM441 46Q472 52 495 68T534 108T558 160T566 219Q566 251 553 275T512 313L441 46ZM246 315L172 37H330Q335 37 345 37T366 38T387
40T402 43L475 315H246ZM210 616L55 37H134L288 616H210Z" />
<glyph unicode="C" glyph-name="C" horiz-adv-x="678" d="M650 509Q621 538 601 560T557 598T503 621T427 629Q376 629 330 619T241 577L109 76Q146 46 184 33T270 19Q324 19 362 27T433 52T496 93T565 150L586 124Q523 49 442 16T264 -18Q206 -18 159 -2T78 45T26
122T8 228Q8 318 38 397T123 537T254 631T423 666Q504 666 568 632T675 530L650 509ZM202 562Q128 504 87 420T45 242Q45 207 50 170T79 103L202 562Z" />
<glyph unicode="D" glyph-name="D" horiz-adv-x="700" d="M432 653Q489 653 536 637T618 591T672 515T692 410Q692 318 661 243T575 113T443 30T275 0H6L181 653H432ZM506 109Q543 130 571 163T617 237T645 320T655 405Q655 442 649 475T620 539L506 109ZM588
559Q574 576 556 587T517 604T474 613T432 616H324L171 37H281Q376 37 459 86L588 559ZM209 616L53 37H133L287 616H209Z" />
<glyph unicode="E" glyph-name="E" horiz-adv-x="653" d="M644 616H325L256 354H538L527 317H246L171 37H527L519 0H6L181 653H653L644 616ZM210 616L54 37H134L288 616H210Z" />
<glyph unicode="F" glyph-name="F" horiz-adv-x="652" d="M643 616H324L251 340H534L523 303H241L160 0H6L180 653H652L643 616ZM209 616L53 37H133L287 616H209Z" />
<glyph unicode="G" glyph-name="G" horiz-adv-x="680" d="M650 511Q623 539 602 561T556 598T502 621T427 629Q376 629 329 620T241 577L109 82Q138 42 179 31T266 19Q299 19 337 26T406 47L467 266H329L339 303H635L575 74Q508 34 429 8T271 -18Q213 -18 165
-3T82 44T28 121T8 227Q8 317 38 397T122 537T253 631T423 666Q507 666 567 633T675 533L650 511ZM504 266L447 60Q472 71 496 81T545 103L588 266H504ZM202 563Q129 505 87 421T45 242Q45 201 50 170T79 104L202 563Z" />
<glyph unicode="H" glyph-name="H" horiz-adv-x="764" d="M582 0H428L511 309H245L161 0H7L182 653H336L255 346H521L603 653H757L582 0ZM631 616L476 37H554L709 616H631ZM210 616L55 37H133L288 616H210Z" />
<glyph unicode="I" glyph-name="I" horiz-adv-x="329" d="M154 0H0L175 653H329L154 0ZM203 616L48 37H126L281 616H203Z" />
<glyph unicode="J" glyph-name="J" horiz-adv-x="583" d="M449 158Q434 101 410 67T351 14T271 -11T171 -18Q142 -18 112 -10T57 13T16 53T0 111V142H36Q36 132 36 122T38 102Q42 79 57 63T93 37T137 23T180 19Q184 19 195 19T219 19T243 21T258 25L425 653H579L449
158ZM454 616L297 31Q341 43 369 74T408 148L532 616H454Z" />
<glyph unicode="K" glyph-name="K" horiz-adv-x="726" d="M435 426L630 0H464L310 339L237 287L160 0H6L181 653H335L252 345H254L696 653L719 623L435 426ZM404 403L342 359L487 37H573L404 403ZM209 616L54 37H132L287 616H209Z" />
<glyph unicode="L" glyph-name="L" horiz-adv-x="510" d="M501 0H4L178 653H332L166 37H510L501 0ZM206 616L50 37H129L284 616H206Z" />
<glyph unicode="M" glyph-name="M" horiz-adv-x="883" d="M702 0H548L673 474L670 475L368 0H221L180 496H178L46 0H8L182 653H322L364 67L368 66L739 653H875L702 0ZM751 616L594 37H674L828 616H751ZM284 616H207L254 37H330L284 616Z" />
<glyph unicode="N" glyph-name="N" horiz-adv-x="744" d="M563 0H452L190 528H186L44 0H7L182 653H294L556 126H558L700 653H737L563 0ZM272 616H209L202 588L475 37H534L543 70L272 616Z" />
<glyph unicode="O" glyph-name="O" horiz-adv-x="694" d="M686 420Q686 330 656 251T571 112T440 17T271 -18Q212 -18 164 -3T81 43T27 120T8 228Q8 318 38 397T123 536T254 631T423 666Q482 666 530 651T613 605T667 528T686 420ZM493 87Q531 114 560 150T609
227T639 314T649 406Q649 447 642 476T614 541L493 87ZM586 572Q557 601 512 615T427 629Q380 629 334 621T245 589L108 75Q139 46 183 33T270 19Q291 19 315 21T363 29T409 41T450 60L586 572ZM201 562Q124 505 85 421T45 242Q45 204 52 172T80 108L201 562Z"
/>
<glyph unicode="P" glyph-name="P" horiz-adv-x="675" d="M514 653Q587 653 631 609T675 491Q675 449 661 406T619 331Q577 283 517 265T396 247H226L160 0H6L181 653H514ZM513 299Q543 308 566 328T605 374T629 430T638 490Q638 523 629 548T594 595L513 299ZM560
606Q548 611 532 613T502 616H325L236 284H395Q414 284 435 285T475 293L560 606ZM209 616L54 37H132L287 616H209Z" />
<glyph unicode="Q" glyph-name="Q" horiz-adv-x="692" d="M585 -52Q566 -62 545 -66T503 -71Q468 -71 439 -50T393 0Q333 -18 269 -18Q210 -18 162 -3T79 44T25 121T6 228Q6 318 36 397T121 536T252 631T421 666Q480 666 528 651T611 604T665 527T684 420Q684
355 668 293T619 178T539 82T431 14Q444 -6 463 -20T508 -34Q523 -34 543 -30T577 -19L585 -52ZM491 87Q529 114 558 150T607 227T637 314T647 406Q647 446 640 476T612 541L491 87ZM584 572Q569 586 550 597T510 615T467 625T425 629Q378 629 332 621T243 589L106
75Q129 53 160 41Q211 103 291 103Q334 103 359 89T410 42Q431 50 448 60L584 572ZM199 562Q123 505 83 421T43 242Q43 205 50 173T78 108L199 562ZM370 30Q353 50 333 58T288 66Q234 66 198 28Q232 19 268 19Q317 19 370 30Z" />
<glyph unicode="R" glyph-name="R" horiz-adv-x="685" d="M514 653Q588 653 631 609T675 491Q675 397 624 341T481 268L618 0H446L321 264H231L160 0H6L181 653H514ZM519 316Q579 336 608 382T638 490Q638 520 628 548T593 597L519 316ZM559 605Q546 610 532 613T504
616H325L241 301H400Q420 301 440 302T480 309L559 605ZM442 265Q434 263 425 263T408 263Q396 263 385 263T362 264L469 37H556L442 265ZM209 616L54 37H132L287 616H209Z" />
<glyph unicode="S" glyph-name="S" horiz-adv-x="650" d="M621 505Q595 536 573 559T527 598T472 621T398 629Q357 629 326 612T277 556Q273 548 270 537T266 518Q266 480 286 454T337 407T404 368T470 326T521 271T542 195Q542 136 515 96T445 30T350 -6T249
-18Q195 -18 142 0T50 57Q36 71 25 86T2 118L31 141Q55 110 78 87T126 49T183 27T255 19Q283 19 310 27T359 52T393 92T406 147Q406 176 386 197T335 238T268 278T202 323T151 382T130 462Q130 516 155 555T220 618T308 654T404 666Q447 666 481 658T545 633T599
591T647 530L621 505ZM403 45Q449 65 477 102T505 191Q505 230 485 257T434 307T367 347T301 387T250 436T229 503Q229 565 274 607L273 609Q228 589 198 549T167 458Q167 419 187 391T238 341T305 300T371 260T422 211T443 147Q443 119 432 93T402 47L403 45Z"
/>
<glyph unicode="T" glyph-name="T" horiz-adv-x="655" d="M645 616H405L242 0H88L253 616H3L13 653H655L645 616ZM288 605L136 37H214L366 605H288Z" />
<glyph unicode="U" glyph-name="U" horiz-adv-x="698" d="M572 199Q555 135 526 94T455 28T361 -5T247 -14Q208 -14 167 -7T90 20T33 70T10 149Q10 166 12 181T20 213L137 653H291L128 40Q140 35 156 32T190 27T225 24T256 23Q305 23 350 33T432 65T496 123T537
210L655 653H693L572 199ZM166 616L57 209Q53 196 50 183T47 156Q47 136 49 123T58 100T73 81T96 60L244 616H166Z" />
<glyph unicode="V" glyph-name="V" horiz-adv-x="614" d="M230 0H82L11 653H163L227 72L229 71L570 653H614L230 0ZM129 616H53L116 37H192L129 616Z" />
<glyph unicode="W" glyph-name="W" horiz-adv-x="883" d="M555 0H420V535H418L152 0H17V653H166V116H168L437 653H569V116H571L839 653H880L555 0ZM532 616H457V37H532V616ZM129 616H54V37H129V616Z" />
<glyph unicode="X" glyph-name="X" horiz-adv-x="802" d="M472 365L629 0H468L354 260L59 0H4L339 296L185 653H349L457 400L743 653H798L472 365ZM324 617H242L488 37H573L324 617Z" />
<glyph unicode="Y" glyph-name="Y" horiz-adv-x="623" d="M336 259L266 0H112L180 252L7 653H170L322 303H323L577 653H623L336 259ZM148 617H63L218 259L159 37H238L299 262L148 617Z" />
<glyph unicode="Z" glyph-name="Z" horiz-adv-x="745" d="M210 40V37H639L630 0H1V37L540 614V616H136L145 653H744V616L210 40ZM592 616L55 37H158L692 616H592Z" />
<glyph unicode="a" glyph-name="a" horiz-adv-x="496" d="M79 327Q106 363 134 385T193 420T261 437T340 441Q368 441 394 433T441 410T474 371T486 316Q486 294 482 278L407 0H267L279 46L277 47Q244 12 208 1T125 -11Q100 -11 79 -5T41 14T15 46T5 92Q5 144
36 180T117 231Q142 238 166 241T217 248Q238 250 262 252T307 263T340 286T354 331Q354 343 349 356T336 379T317 397T292 404Q257 404 232 397T185 378T145 346T104 303L79 327ZM444 276Q449 296 449 314Q449 355 424 377T360 404V402Q374 391 382 373T391 337Q391
318 386 300T376 264L312 37H381L444 276ZM328 234Q321 230 308 227T280 220T248 215T216 210Q198 208 188 206T170 201L121 27Q126 26 130 26T140 26H159Q184 26 208 39T253 71T289 115T310 162L329 232L328 234ZM133 198Q114 196 98 186T69 162T49 129T42 92Q42
83 45 73T55 54T69 39T87 32L133 198Z" />
<glyph unicode="b" glyph-name="b" horiz-adv-x="537" d="M254 391Q280 415 314 428T385 441Q452 441 493 401T534 293Q534 239 516 185T463 87T381 16T274 -11Q237 -11 207 6T162 59H159L140 0H3L191 683H332Q317 628 302 574Q289 528 276 478T252 392L254 391ZM375
60Q403 72 425 97T464 155T488 221T497 284Q497 311 489 335T463 379L375 60ZM429 393Q402 404 373 404Q349 404 325 395T281 371T245 334T223 290L191 173Q188 162 185 151T182 127Q182 107 188 89T205 57T233 35T271 26Q288 26 303 29T333 41L429 393ZM218 646L50
37H117L285 646H218Z" />
<glyph unicode="c" glyph-name="c" horiz-adv-x="451" d="M416 298Q402 325 392 344T368 377T334 397T279 404Q262 404 241 401T205 388L112 46Q129 37 149 32T189 26Q214 26 238 32T284 52Q300 62 311 74T332 98T351 124T373 151L399 131Q379 100 359 74T313
29T258 0T188 -11Q106 -11 57 31T8 159Q8 215 29 266T88 356T175 418T282 441Q349 441 389 408T448 312L416 298ZM167 379Q139 362 117 338T78 284T54 222T45 157Q45 131 53 107T79 62L167 379Z" />
<glyph unicode="d" glyph-name="d" horiz-adv-x="598" d="M406 0H269L279 48Q250 16 217 3T139 -11Q106 -11 80 1T36 33T9 81T0 141Q0 193 16 246T63 343T140 413T244 441Q260 441 278 438T314 427T345 409T368 381H370L453 683H594L406 0ZM480 646L312 37H379L547
646H480ZM335 252Q340 268 342 282T345 308Q345 326 340 343T323 373T297 395T262 404Q245 404 229 403T197 394L99 38Q110 28 125 27T155 26Q181 26 205 36T250 64T284 103T306 150L335 252ZM157 382Q127 365 105 339T67 282T45 216T37 148Q37 128 47 101T67 56L157
382Z" />
<glyph unicode="e" glyph-name="e" horiz-adv-x="459" d="M404 107Q382 79 360 57T311 20T255 -3T188 -11Q106 -11 57 31T8 159Q8 216 29 267T88 356T175 418T283 441Q316 441 346 431T401 403T439 357T453 293Q453 267 446 237T431 183H149L112 43Q128 34 149
30T189 26Q225 26 250 33T295 53T334 85T376 128L404 107ZM404 220Q409 235 412 253T416 287Q416 312 406 335T376 373L333 220H404ZM344 389Q330 395 312 399T278 404Q261 404 242 401T206 391L159 220H297L344 389ZM167 380Q141 368 119 342T80 284T54 218T45
157Q45 130 54 105T78 56L167 380Z" />
<glyph unicode="f" glyph-name="f" horiz-adv-x="493" d="M462 609Q445 632 420 639T367 646Q356 646 343 646T319 643L260 428H350L341 391H250L141 0H2L109 391H25L34 428H119Q134 484 149 531T191 611T260 664T370 683Q405 683 437 673T493 634L462 609ZM280
639Q239 619 214 583T176 503L49 37H116L280 639Z" />
<glyph unicode="g" glyph-name="g" horiz-adv-x="573" d="M441 -44Q428 -92 403 -125T343 -180T266 -210T177 -220Q114 -220 71 -194T7 -107L42 -84Q64 -129 95 -155T179 -181Q201 -181 222 -178T265 -171L325 48H324Q295 16 261 3T183 -11Q150 -11 124 1T81 33T54
81T45 141Q45 193 61 246T109 343T187 414T291 441Q325 441 361 427T414 381H416L429 428H570L441 -44ZM456 391L303 -164Q338 -144 365 -115T403 -45L523 391H456ZM385 267Q388 278 389 288T390 308Q390 326 385 343T368 373T342 395T307 404Q270 404 241 390L144
37Q169 26 200 26Q227 26 251 36T295 63T329 102T351 150L385 267ZM200 379Q171 361 149 336T112 279T90 215T82 148Q82 122 89 97T111 52L200 379Z" />
<glyph unicode="h" glyph-name="h" horiz-adv-x="523" d="M247 374Q274 406 314 423T397 441Q421 441 443 435T482 417T509 385T519 338Q519 329 517 312T509 273Q488 198 472 138Q465 112 458 88T446 45T438 13T434 0H294L405 404H372Q346 404 320 388T272 348T234
297T211 246L143 0H3L190 683H331L247 374ZM473 276Q477 290 479 304T482 334Q482 358 472 372T441 398L341 37H407L473 276ZM217 646L50 37H116L284 646H217Z" />
<glyph unicode="i" glyph-name="i" horiz-adv-x="319" d="M283 518H141L178 653H319L283 518ZM205 616L188 555H256L272 616H205ZM140 0H0L117 428H258L140 0ZM144 391L47 37H114L211 391H144Z" />
<glyph unicode="j" glyph-name="j" horiz-adv-x="498" d="M462 518H320L357 653H498L462 518ZM384 616L367 555H435L451 616H384ZM308 -41Q297 -80 276 -112T224 -168T157 -204T79 -217Q36 -217 0 -201L25 -168Q45 -176 59 -178T94 -181Q105 -181 115 -180T136
-174L296 428H433L308 -41ZM324 391L172 -177Q186 -170 200 -159T226 -134T247 -104T260 -73L384 391H324Z" />
<glyph unicode="k" glyph-name="k" horiz-adv-x="510" d="M358 301L475 0H329L244 221L195 187L143 0H3L190 683H331L210 245H213L487 434L508 405L358 301ZM217 646L50 37H116L284 646H217ZM327 279L275 243L354 37H422L327 279Z" />
<glyph unicode="l" glyph-name="l" horiz-adv-x="329" d="M141 0H0L173 629L282 683H329L141 0ZM203 604L47 37H113L282 645L203 604Z" />
<glyph unicode="m" glyph-name="m" horiz-adv-x="807" d="M516 353Q544 391 583 416T672 441Q696 441 718 435T757 417T784 385T794 338Q794 321 790 298T779 249T765 197T751 150L709 0H569L680 406Q672 405 664 405T647 404Q619 401 595 386T551 348T518 299T497
247L430 0H289L400 406H391Q365 406 345 399T305 378Q276 358 258 332T228 276T208 214T191 150L149 0H9L127 428H266Q261 414 257 399T250 370H251Q278 401 314 421T392 441Q413 441 433 436T471 421T499 393T514 353H516ZM714 150Q720 170 727 195T741 245T752
294T757 334Q757 358 746 373T714 399L616 37H682L714 150ZM434 150Q440 170 447 196T461 248T472 297T477 334Q477 358 466 372T435 399L336 37H402L434 150ZM154 391L56 37H122L221 391H154Z" />
<glyph unicode="n" glyph-name="n" horiz-adv-x="533" d="M250 374Q279 403 318 422T400 441Q424 441 446 435T485 417T512 385T522 338Q522 329 520 312T512 273Q491 198 475 138Q468 112 461 88T449 45T441 13T437 0H297L408 404H375Q349 404 323 388T275 348T237
297T214 246L146 0H6L123 428H264L250 374ZM476 276Q480 290 482 304T485 334Q485 358 475 372T444 398L344 37H410L476 276ZM150 391L53 37H119L217 391H150Z" />
<glyph unicode="o" glyph-name="o" horiz-adv-x="470" d="M462 271Q462 216 440 165T381 75T293 13T188 -11Q106 -11 57 31T8 159Q8 214 30 265T89 355T176 417T282 441Q364 441 413 399T462 271ZM305 56Q333 72 355 96T393 148T417 209T425 273Q425 325 390 362L305
56ZM359 385Q343 395 320 399T279 404Q272 404 263 404T243 402T223 399T207 393L112 45Q126 34 149 30T189 26Q196 26 206 26T226 28T246 31T263 37L359 385ZM165 374Q137 359 115 335T77 282T53 221T45 157Q45 130 54 109T81 67L165 374Z" />
<glyph unicode="p" glyph-name="p" horiz-adv-x="588" d="M297 371Q326 409 365 425T449 441Q482 441 507 429T551 396T578 348T587 289Q587 237 571 184T523 87T445 17T341 -11Q307 -11 272 3T219 49H217Q199 -18 181 -84T144 -218H4L181 428H311L297 371ZM431
51Q460 67 482 93T519 150T542 216T550 282Q550 307 544 331T521 376L431 51ZM488 393Q461 404 432 404Q406 404 382 394T338 366T302 327T281 280L246 148Q242 136 242 120Q242 102 248 85T264 55T290 34T325 26Q341 26 358 29T391 37L488 393ZM207 391L51 -181H117L274
391H207Z" />
<glyph unicode="q" glyph-name="q" horiz-adv-x="541" d="M356 -218H216L286 38L283 39Q257 15 223 2T152 -11Q85 -11 44 29T3 137Q3 192 22 246T75 343T159 414T267 441Q304 441 332 424T375 371L378 370L384 390Q409 402 436 416T489 441H537L356 -218ZM411
362L263 -181H329L491 404L411 362ZM351 277Q353 283 354 289T355 303Q355 322 349 340T332 373T304 395T266 404Q251 404 233 401T202 389L107 36Q118 31 134 29T164 26Q188 26 212 35T256 59T292 96T314 140L351 277ZM162 370Q134 357 112 332T73 275T49 209T40
146Q40 91 74 50L162 370Z" />
<glyph unicode="r" glyph-name="r" horiz-adv-x="445" d="M443 406Q415 402 389 395T340 372Q320 359 298 339T257 295T222 246T200 197L145 0H5L122 428H264L237 331H239Q277 381 330 409T445 442L443 406ZM150 391L52 37H118L218 391H150Z" />
<glyph unicode="s" glyph-name="s" horiz-adv-x="442" d="M410 325Q395 343 380 357T348 382T312 398T267 404Q240 404 219 393T198 349Q198 327 213 311T250 283T299 258T348 231T386 195T401 144Q401 101 379 72T322 24T247 -3T171 -11Q114 -11 76 8T3 74L31
101Q52 81 66 67T95 43T129 30T181 26Q196 26 212 29T241 41T263 61T272 91Q272 107 257 119T220 142T171 167T123 197T85 237T70 292Q70 334 88 362T135 408T200 433T272 441Q329 441 367 418T437 349L410 325ZM296 48Q325 59 344 86T364 144Q364 166 349 182T312
211T263 236T214 262T176 294T161 339Q161 365 175 390L174 391Q145 380 126 356T107 300Q107 272 122 252T159 218T208 191T256 166T294 138T309 100Q309 86 306 74T295 50L296 48Z" />
<glyph unicode="t" glyph-name="t" horiz-adv-x="310" d="M300 391H229L133 31L228 69L217 29Q188 13 150 2T81 -10Q68 -10 54 -6T28 7T9 27T1 54Q1 58 3 68T9 92T15 118T22 141L89 391H30L39 428H100L140 580L259 633H295L240 428H309L300 391ZM171 553Q146 460
127 391T95 271T73 187T58 132Q45 83 45 81Q44 76 44 73T43 64Q43 50 50 39T73 28H96L247 588L171 553Z" />
<glyph unicode="u" glyph-name="u" horiz-adv-x="533" d="M410 0H269L283 54Q254 25 215 6T133 -13Q109 -13 87 -7T48 11T21 43T11 90Q11 99 13 116T21 155L96 428H236L125 24H158Q184 24 210 40T258 80T296 131T319 182L387 428H527L410 0ZM414 391L316 37H383L480
391H414ZM123 391L57 152Q53 138 51 124T48 94Q48 70 58 56T89 30L189 391H123Z" />
<glyph unicode="v" glyph-name="v" horiz-adv-x="430" d="M171 0H51L13 428H150L180 90H182L388 428H430L171 0ZM118 391H54L83 37H147L118 391Z" />
<glyph unicode="w" glyph-name="w" horiz-adv-x="654" d="M437 0H317L307 318H305L149 0H29L16 428H153L164 114H167L320 428H442L452 114H455L609 428H621H650L437 0ZM404 391H341L353 37H416L404 391ZM116 391H53L65 37H128L116 391Z" />
<glyph unicode="x" glyph-name="x" horiz-adv-x="551" d="M339 245L457 0H305L232 153L61 0H5L215 187L100 428H252L323 280L490 428H545L339 245ZM230 391H159L327 37H397L230 391Z" />
<glyph unicode="y" glyph-name="y" horiz-adv-x="539" d="M247 -97Q234 -121 221 -142T191 -181T152 -208T100 -218Q85 -218 69 -212T39 -194T16 -169T6 -138V-112H40Q39 -144 57 -162T107 -181Q128 -181 144 -172T172 -148T194 -117T213 -82L252 -11L112 428H258L345
154L497 428H539L247 -97ZM231 391H163L277 32L320 110L231 391Z" />
<glyph unicode="z" glyph-name="z" horiz-adv-x="516" d="M472 343L191 39V37H460V0H3V37L328 389V391H116V428H512V391L472 343ZM380 391L54 37H139L467 391H380Z" />
<glyph unicode="&#xa0;" glyph-name="space" horiz-adv-x="500" />
</font>
</defs>
</svg>
