<?xml version="1.0" standalone="no"?> <!DOCTYPE svg PUBLIC "-//W3C//DTD SVG 1.0//EN" "http://www.w3.org/TR/2001/REC-SVG-20010904/DTD/svg10.dtd" > <svg xmlns="http://www.w3.org/2000/svg" width="100%" height="100%">
<defs >
<font horiz-adv-x="581" ><font-face
    font-family="STIXDoubleStruckBold"
    units-per-em="1000"
    panose-1="0 0 0 0 0 0 0 0 0 0"
    ascent="693"
    descent="-218"
    alphabetic="0" />
<missing-glyph horiz-adv-x="500" />
<glyph unicode=" " glyph-name="space" horiz-adv-x="500" />
<glyph unicode="A" glyph-name="A" horiz-adv-x="695" d="M460 0L393 196H143L78 0H4L234 676H461L691 0H460ZM411 606H327L509 70H593L411 606ZM268 564H267L167 266H369L268 564Z" />
<glyph unicode="B" glyph-name="B" horiz-adv-x="621" d="M352 676Q397 676 441 667T521 636T579 579T601 490Q601 449 582 413T529 354Q571 330 590 289T610 201Q610 139 588 100T528 39T443 9T343 0H16V676H352ZM460 394Q498 408 514 429T531 492Q531 524 512
549T460 583V394ZM390 595Q381 601 368 603T343 606H236V384H343Q346 384 352 384T366 384T380 386T390 389V595ZM460 82Q505 96 522 124T540 199Q540 243 521 267T460 303V82ZM390 309Q387 311 381 312T367 313T353 314T343 314H236V70H343Q346 70 353 70T367
71T381 73T390 77V309ZM166 606H86V70H166V606Z" />
<glyph unicode="C" glyph-name="C" horiz-adv-x="640" d="M634 123Q602 88 571 62T506 17T433 -10T345 -19Q271 -19 209 9T102 85T32 198T7 334Q7 407 31 472T100 586T207 663T346 691Q387 691 429 683T509 656T578 610T629 544L583 497Q556 525 532 548T481 587T424
612T350 621Q316 621 285 615T227 585V85Q253 63 285 57T349 51Q392 51 423 60T480 86T531 125T588 171L634 123ZM157 542Q115 500 96 446T77 334Q77 276 96 223T157 128V542Z" />
<glyph unicode="D" glyph-name="D" horiz-adv-x="651" d="M305 676Q380 676 442 652T549 583T619 477T644 339Q644 266 619 204T548 97T441 26T306 0H16V676H305ZM494 134Q539 173 556 227T574 339Q574 395 557 450T494 543V134ZM424 577Q415 585 401 590T371
599T340 604T313 606H236V70H315Q327 70 342 71T372 76T400 84T424 97V577ZM166 606H86V70H166V606Z" />
<glyph unicode="E" glyph-name="E" horiz-adv-x="540" d="M16 0V676H536V606H236V384H506V314H236V70H536V0H16ZM166 606H86V70H166V606Z" />
<glyph unicode="F" glyph-name="F" horiz-adv-x="536" d="M236 606V374H496V304H236V0H16V676H536V606H236ZM166 606H86V70H166V606Z" />
<glyph unicode="G" glyph-name="G" horiz-adv-x="658" d="M648 97Q612 66 579 44T510 8T435 -12T348 -19Q274 -19 212 9T104 87T33 200T7 337Q7 411 32 475T102 588T211 663T349 691Q402 691 442 685T516 664T580 622T646 556L596 507Q567 534 541 555T487 591T427
613T353 621Q324 621 289 614T227 590V77Q251 62 287 57T351 51Q355 51 368 51T396 54T421 59T432 69V281H325V351H648V97ZM578 281H502V82Q511 84 522 91T543 106T562 124T578 140V281ZM157 549Q137 531 122 506T97 452T82 393T77 337Q77 310 82 281T97 223T122
168T157 123V549Z" />
<glyph unicode="H" glyph-name="H" horiz-adv-x="650" d="M414 0V304H236V0H16V676H236V374H414V676H634V0H414ZM564 606H484V70H564V606ZM166 606H86V70H166V606Z" />
<glyph unicode="I" glyph-name="I" horiz-adv-x="253" d="M16 0V676H236V0H16ZM166 606H86V70H166V606Z" />
<glyph unicode="J" glyph-name="J" horiz-adv-x="512" d="M498 177Q498 125 477 88T422 27T343 -8T253 -19Q154 -19 93 19T0 154L65 182Q82 143 97 118T132 78T180 58T253 52Q259 52 265 52T278 53V676H498V177ZM428 606H348V69Q380 83 404 107T428 170V606Z" />
<glyph unicode="K" glyph-name="K" horiz-adv-x="716" d="M457 0L271 302L236 271V0H16V676H236V365L595 676L640 624L438 447L708 0H457ZM385 401L324 348L467 112L495 70H585L385 401ZM166 606H86V70H166V606Z" />
<glyph unicode="L" glyph-name="L" horiz-adv-x="553" d="M16 0V676H236V70H553V0H16ZM166 606H86V70H166V606Z" />
<glyph unicode="M" glyph-name="M" horiz-adv-x="796" d="M560 0V403H558L429 0H211L87 367H86V0H51H16V676H209L399 127L570 676H780V0H560ZM710 606H630V70H710V606ZM161 606H86V581L263 70H345L161 606Z" />
<glyph unicode="N" glyph-name="N" horiz-adv-x="620" d="M423 0L88 452H86V0H16V676H194L532 217H534V676H604V0H423ZM534 100L160 606H86V571L457 70H534V100Z" />
<glyph unicode="O" glyph-name="O" horiz-adv-x="713" d="M705 334Q705 259 679 195T606 83T495 8T356 -19Q283 -19 220 9T109 85T35 197T8 335Q8 410 34 475T107 588T218 663T357 691Q430 691 494 663T604 585T678 471T705 334ZM555 135Q597 175 616 226T635
334Q635 452 555 538V135ZM485 590Q423 621 353 621Q322 621 289 613T228 590V83Q257 67 292 59T360 51Q390 51 424 60T485 83V590ZM158 538Q116 496 97 445T78 335Q78 278 98 228T158 135V538Z" />
<glyph unicode="P" glyph-name="P" horiz-adv-x="612" d="M365 676Q416 676 461 664T539 626T592 560T611 464Q611 407 592 368T540 303T462 266T365 254H236V0H16V676H365ZM461 335Q504 353 522 382T541 459Q541 506 524 540T461 594V335ZM391 601Q378 605 364
605T335 606H236V324H321Q338 324 356 325T391 328V601ZM166 606H86V70H166V606Z" />
<glyph unicode="Q" glyph-name="Q" horiz-adv-x="717" d="M708 -35Q694 -42 684 -47T662 -56T639 -62T612 -64Q570 -64 538 -45T477 2Q418 -19 354 -19Q281 -19 218 9T107 85T33 197T6 335Q6 409 32 474T105 587T216 663T355 691Q428 691 492 663T602 585T676
471T703 334Q703 244 663 166T548 37Q561 25 577 16T611 6Q631 6 650 13T688 27L708 -35ZM553 135Q595 175 614 226T633 334Q633 391 613 443T553 538V135ZM483 590Q419 621 351 621Q319 621 287 613T226 590V105Q253 133 284 150T355 168Q398 168 426 151T483
105V590ZM156 538Q115 497 96 445T76 335Q76 278 96 228T156 135V538ZM424 60Q399 98 355 98Q333 98 315 88T282 61Q318 51 358 51Q375 51 391 53T424 60Z" />
<glyph unicode="R" glyph-name="R" horiz-adv-x="705" d="M445 0L279 271H236V0H16V676H372Q421 676 466 666T544 631T598 569T618 475Q618 417 594 371T515 299Q538 261 569 210T630 112Q663 57 699 0H445ZM468 352Q510 369 529 398T548 473Q548 514 529 548T468
594V352ZM398 600Q386 604 370 605T342 606H236V341H343Q354 341 371 342T398 347V600ZM447 277L359 271L482 70H575L447 277ZM166 606H86V70H166V606Z" />
<glyph unicode="S" glyph-name="S" horiz-adv-x="624" d="M569 495Q537 525 513 548T464 588T407 613T327 622Q311 622 295 618T265 604T242 581T233 549Q233 522 250 503T291 470T342 447T389 429Q425 415 464 395T535 347T588 284T609 203Q609 142 581 100T510
32T413 -7T308 -19Q256 -19 216 -11T140 14T73 58T5 120L56 173Q94 144 119 121T169 83T226 59T313 51Q332 51 351 56T386 73T410 100T420 139Q420 167 392 187T322 225T232 262T141 310T71 377T43 475Q43 532 69 573T137 640T229 679T329 692Q381 692 420 683T491
656T553 610T617 545L569 495ZM479 89Q508 106 523 135T539 197Q539 243 511 274T442 328T351 370T261 410T191 459T163 528Q163 545 168 561T181 593L178 595Q149 578 131 548T113 485Q113 436 141 403T211 346T301 304T392 264T462 217T490 150Q490 135 487 120T477
90L479 89Z" />
<glyph unicode="T" glyph-name="T" horiz-adv-x="624" d="M422 606V0H202V606H2V676H622V606H422ZM352 606H272V70H352V606Z" />
<glyph unicode="U" glyph-name="U" horiz-adv-x="626" d="M612 201Q612 141 584 99T513 31T416 -7T312 -19Q260 -19 207 -7T111 31T41 100T14 204V676H234V72Q268 51 311 51Q346 51 386 59T461 85T519 132T542 205V676H612V201ZM164 606H84V204Q84 166 106 134T164
88V606Z" />
<glyph unicode="V" glyph-name="V" horiz-adv-x="693" d="M460 0H233L3 676H234L426 112H427L617 676H690L460 0ZM185 606H100L283 70H367L185 606Z" />
<glyph unicode="W" glyph-name="W" horiz-adv-x="1016" d="M852 0H613L506 470H505L401 0H162L9 676H232L356 127H359L485 676H683L807 127H810L936 676H1007L852 0ZM628 606H547L669 70H748L628 606ZM177 606H96L217 70H298L177 606Z" />
<glyph unicode="X" glyph-name="X" horiz-adv-x="770" d="M495 0L327 235L107 0H11L285 293L11 676H278L436 455L642 676H740L478 396L760 0H495ZM242 606H146L531 70H626L242 606Z" />
<glyph unicode="Y" glyph-name="Y" horiz-adv-x="720" d="M482 262V0H262V269L2 676H259L459 365H461L639 676H718L482 262ZM412 310L222 606H129L332 288V70H412V310Z" />
<glyph unicode="Z" glyph-name="Z" horiz-adv-x="689" d="M6 0V70L413 621H54V691H681V621L276 70H681V0H6ZM500 621L92 70H188L596 621H500Z" />
<glyph unicode="a" glyph-name="a" horiz-adv-x="535" d="M322 0V35L320 36Q289 7 256 -3T181 -14Q146 -14 115 -7T60 16T22 59T8 125Q8 174 31 201T89 243T164 264T240 275T298 288T321 317Q321 329 317 343T305 371T286 394T261 403Q223 403 200 396T158 375T122
342T79 300L27 347Q74 416 140 444T288 473Q337 473 379 464T453 434T503 376T521 284V0H322ZM451 271Q451 322 434 354T364 400L362 398Q373 386 379 371T387 339T390 306T391 273V70H451V271ZM321 225Q308 218 294 215T265 210T236 206T208 199V57Q214 56 219
56T231 56Q252 56 268 65T296 90T314 124T321 162V225ZM138 191Q112 183 95 168T78 123Q78 97 96 81T138 62V191Z" />
<glyph unicode="b" glyph-name="b" horiz-adv-x="550" d="M216 431Q240 454 271 463T335 473Q385 473 425 453T492 399T534 322T549 231Q549 183 536 139T496 61T430 7T339 -14Q304 -14 271 -2T214 36V0H16V676H216V431ZM418 75Q434 86 446 104T465 145T475 189T479
231Q479 249 476 270T465 310T446 346T418 374V75ZM348 397Q341 399 334 401T319 403Q298 403 280 394T247 370T225 336T216 296V180Q216 161 223 139T242 99T273 68T313 56Q321 56 330 57T348 62V397ZM146 606H86V70H146V606Z" />
<glyph unicode="c" glyph-name="c" horiz-adv-x="488" d="M482 139Q470 120 457 96Q425 39 375 13T261 -14Q207 -14 161 3T80 52T27 128T8 229Q8 285 27 330T80 407T160 456T262 473Q322 473 375 448T458 369Q468 349 482 330L429 288Q408 314 394 335T364 371T325
394T263 403Q234 403 209 390V71Q231 56 257 56Q300 56 324 65T364 90T395 128T431 176L482 139ZM139 375Q103 352 91 311T78 230Q78 210 81 190T91 150T109 115T139 86V375Z" />
<glyph unicode="d" glyph-name="d" horiz-adv-x="550" d="M336 0V36Q312 11 279 -1T211 -14Q159 -14 120 6T55 61T15 139T1 231Q1 278 15 322T57 399T124 453T215 473Q247 473 279 464T334 431V676H534V0H336ZM464 606H404V70H464V606ZM334 296Q334 316 326 335T303
370T271 394T231 403Q223 403 213 402T202 398V63Q221 56 237 56Q259 56 276 68T307 98T327 139T334 180V296ZM132 373Q116 363 105 346T86 310T75 270T71 231Q71 211 74 189T84 146T102 106T132 76V373Z" />
<glyph unicode="e" glyph-name="e" horiz-adv-x="490" d="M209 193V67Q219 61 232 59T257 56Q293 56 316 62T357 79T392 106T435 143L477 91Q433 39 382 13T261 -14Q207 -14 161 3T80 51T27 128T8 229Q8 285 27 330T80 407T160 456T262 473Q304 473 343 459T413
420T462 358T481 276V193H209ZM411 286Q411 315 394 342T351 383V263H411V286ZM281 398Q276 402 264 402T246 403Q240 403 227 402T209 396V263H281V398ZM139 375Q121 364 110 347T91 311T81 270T78 230Q78 210 81 190T91 150T109 114T139 86V375Z" />
<glyph unicode="f" glyph-name="f" horiz-adv-x="514" d="M478 560Q445 582 417 594T349 606Q329 606 306 601V451H432V381H306V0H106V381H2V451H106V479Q106 529 125 566T176 627T249 664T337 676Q384 676 430 666T513 624L478 560ZM236 592Q207 574 192 543T176
478V70H236V592Z" />
<glyph unicode="g" glyph-name="g" horiz-adv-x="555" d="M541 -14Q541 -65 516 -101T451 -161T364 -194T274 -205Q238 -205 205 -202T143 -188T87 -159T36 -111L92 -58Q98 -63 102 -68T111 -79Q123 -93 141 -103T180 -121T221 -131T261 -135Q276 -135 301 -134T341
-126V36Q318 9 285 -2T218 -14Q166 -14 127 6T62 61T22 139T8 231Q8 277 22 321T65 398T132 452T222 473Q254 473 285 464T341 431V461H541V-14ZM471 391H411V-114Q440 -99 455 -73T471 -13V391ZM341 296Q341 316 333 335T310 370T278 394T238 403Q222 403 209
400V63Q224 56 244 56Q266 56 283 68T314 98T334 139T341 180V296ZM139 373Q122 363 111 347T92 311T82 270T78 231Q78 213 81 190T92 146T110 105T139 75V373Z" />
<glyph unicode="h" glyph-name="h" horiz-adv-x="523" d="M320 0V407Q290 402 270 389T238 357T221 314T216 261V0H16V676H216V423H218Q243 453 277 463T349 473Q386 473 417 462T472 429T507 376T520 307V0H320ZM450 309Q450 337 435 364T390 398V70H450V309ZM146
606H86V70H146V606Z" />
<glyph unicode="i" glyph-name="i" horiz-adv-x="233" d="M16 507V691H216V507H16ZM146 621H86V577H146V621ZM16 0V461H216V0H16ZM146 391H86V70H146V391Z" />
<glyph unicode="j" glyph-name="j" horiz-adv-x="345" d="M131 507V691H331V507H131ZM261 621H201V577H261V621ZM331 -6Q331 -56 312 -93T261 -155T188 -192T100 -205Q74 -205 49 -200T0 -187L21 -118Q54 -135 94 -135Q102 -135 113 -135T131 -131V461H331V-6ZM261
391H201V-119Q237 -106 249 -73T261 -5V391Z" />
<glyph unicode="k" glyph-name="k" horiz-adv-x="577" d="M347 0L223 196L216 191V0H16V676H216V276L492 479L533 422L380 310L577 0H347ZM323 269L280 237L385 70H449L323 269ZM146 606H86V70H146V606Z" />
<glyph unicode="l" glyph-name="l" horiz-adv-x="237" d="M15 0V623L176 676H220V0H15ZM150 595L85 572V70H150V595Z" />
<glyph unicode="m" glyph-name="m" horiz-adv-x="819" d="M604 0V407Q572 405 554 388T526 347T513 294T510 241V0H310V407Q279 405 261 389T232 347T219 294T216 241V0H16V461H216V423H217Q242 452 272 462T340 473Q381 473 421 456T484 403H487Q517 442 551
457T634 473Q671 473 702 462T756 429T791 376T804 307V0H604ZM734 308Q734 337 719 363T674 397V70H734V308ZM440 308Q440 320 436 335T424 363T405 385T380 397V70H440V308ZM146 391H86V70H146V391Z" />
<glyph unicode="n" glyph-name="n" horiz-adv-x="534" d="M320 0V407Q289 407 269 390T237 348T221 294T216 241V0H16V461H216V423H218Q243 452 277 462T348 473Q385 473 417 462T471 429T507 376T520 307V0H320ZM450 310Q450 339 435 365T390 399V70H450V310ZM146
391H86V70H146V391Z" />
<glyph unicode="o" glyph-name="o" horiz-adv-x="524" d="M516 230Q516 174 497 129T444 52T364 3T262 -14Q208 -14 162 3T81 51T28 128T8 229Q8 285 27 330T80 407T160 456T262 473Q316 473 362 456T443 408T496 331T516 230ZM385 96Q417 123 431 155T446 229Q446
269 432 304T385 363V96ZM315 397Q302 399 289 401T263 403Q249 403 236 401T209 397V63Q220 58 235 57T263 56Q276 56 289 57T315 63V397ZM139 363Q107 336 93 304T78 230Q78 190 92 155T139 96V363Z" />
<glyph unicode="p" glyph-name="p" horiz-adv-x="551" d="M216 431Q239 454 271 463T335 473Q389 473 429 454T496 403T536 326T549 231Q549 183 536 139T496 61T430 7T339 -14Q303 -14 273 -3T218 35H216V-205H16V461H215V431H216ZM418 76Q434 88 446 106T465
146T475 189T479 231Q479 249 476 269T465 309T446 346T418 373V76ZM348 400Q341 402 334 402T319 403Q298 403 280 394T247 370T225 336T216 296V180Q216 161 223 139T242 99T273 68T313 56Q321 56 330 57T348 62V400ZM146 391H86V-135H146V391Z" />
<glyph unicode="q" glyph-name="q" horiz-adv-x="551" d="M335 -205V35H333Q309 8 279 -3T212 -14Q160 -14 121 6T56 61T16 139T2 231Q2 282 15 326T54 402T121 454T216 473Q248 473 280 464T335 431H336V461H535V-205H335ZM465 391H405V-135H465V391ZM335 296Q335
316 327 335T304 370T272 394T232 403Q225 403 218 403T203 400V62Q211 58 220 57T238 56Q260 56 277 68T308 98T328 139T335 180V296ZM133 373Q117 363 106 346T87 310T76 270T72 231Q72 211 75 189T86 146T104 107T133 76V373Z" />
<glyph unicode="r" glyph-name="r" horiz-adv-x="402" d="M401 402Q396 403 390 403T378 403H355Q326 403 301 385T256 339T227 281T216 224V0H16V461H216V399H218Q241 434 280 453T361 473Q371 473 381 472T401 470V402ZM146 391H86V70H146V391Z" />
<glyph unicode="s" glyph-name="s" horiz-adv-x="459" d="M404 322Q383 338 369 352T339 378T304 396T252 403Q239 403 228 396T217 375Q217 360 224 350T243 333T268 320T293 310Q320 298 348 284T399 251T436 207T451 146Q451 101 429 71T373 22T299 -5T222
-14Q184 -14 150 -7T82 20Q58 34 42 52T6 90L58 142Q79 121 94 105T127 78T167 62T222 56Q240 56 251 65T263 94Q263 109 246 120T202 142T146 167T90 199T47 245T29 312Q29 354 48 384T97 434T165 463T238 473Q275 473 304 468T358 450T405 417T450 369L404 322ZM329
70Q352 82 366 99T381 144Q381 171 364 189T320 223T264 250T208 277T165 311T147 358Q147 367 149 375T153 392L152 393Q126 379 113 362T99 314Q99 288 116 270T160 236T216 209T272 183T315 152T333 110Q333 90 325 71L329 70Z" />
<glyph unicode="t" glyph-name="t" horiz-adv-x="393" d="M387 24Q355 10 322 -2T253 -14Q195 -14 163 -2T114 34T95 96T91 183V381H1V451H91V625L252 676H296V451H382V381H296V61Q345 74 387 94V24ZM226 595L161 574V133Q161 97 176 78T226 56V595Z" />
<glyph unicode="u" glyph-name="u" horiz-adv-x="534" d="M318 0V38H316Q291 9 257 -3T186 -16Q148 -16 117 -4T63 30T27 84T14 154V461H214V54Q245 54 265 71T297 113T313 167T318 220V461H518V0H318ZM448 391H388V70H448V391ZM144 391H84V151Q84 122 99 96T144 62V391Z" />
<glyph unicode="v" glyph-name="v" horiz-adv-x="546" d="M382 0H318H224H167L4 461H214L341 99H343L468 461H542L382 0ZM165 391H102L215 70H278L165 391Z" />
<glyph unicode="w" glyph-name="w" horiz-adv-x="787" d="M674 0H446L394 240H391L339 0H110L10 461H210L288 105H290L367 461H546L624 105H626L704 461H777L674 0ZM490 391H434L503 70H560L490 391ZM154 391H97L167 70H224L154 391Z" />
<glyph unicode="x" glyph-name="x" horiz-adv-x="631" d="M369 0L260 140L109 0H11L219 193L11 461H263L366 329L509 461H607L407 276L621 0H369ZM230 391H153L406 70H478L230 391Z" />
<glyph unicode="y" glyph-name="y" horiz-adv-x="556" d="M343 -76Q331 -105 317 -129T283 -170T237 -196T178 -205Q136 -205 96 -185T29 -132L72 -87Q80 -97 93 -106T120 -121T150 -131T179 -135Q208 -135 225 -127T254 -103T272 -69T289 -26L9 461H237L380 212H382L479
461H555L343 -76ZM199 391H131L321 56L349 126L199 391Z" />
<glyph unicode="z" glyph-name="z" horiz-adv-x="461" d="M13 0V70L213 391H31V461H446V391L246 70H446V0H13ZM294 391L95 70H166L364 391H294Z" />
<glyph unicode="&#xa0;" glyph-name="space" horiz-adv-x="500" />
</font>
</defs>
</svg>
