<?xml version="1.0" standalone="no"?> <!DOCTYPE svg PUBLIC "-//W3C//DTD SVG 1.0//EN" "http://www.w3.org/TR/2001/REC-SVG-20010904/DTD/svg10.dtd" > <svg xmlns="http://www.w3.org/2000/svg" width="100%" height="100%">
<defs >
<font horiz-adv-x="512" ><font-face
    font-family="Sazanami Gothic"
    units-per-em="1024"
    panose-1="2 0 0 9 0 0 0 0 0 0"
    ascent="880"
    descent="-208"
    alphabetic="0" />
<missing-glyph horiz-adv-x="1024" d="M400 400V624H624V400H400Z" />
<glyph unicode=" " glyph-name="null" />
<glyph unicode="!" glyph-name="null" d="M319 756Q319 692 303 484T287 190H227Q227 276 211 484T195 756H319ZM202 -56V58H310V-56H202Z" />
<glyph unicode="&quot;" glyph-name="null" d="M72 620L132 820H244L120 620H72ZM220 620L304 820H424L268 620H220Z" />
<glyph unicode="#" glyph-name="null" d="M134 -51H77L100 166H2L8 242H109L141 541H29L35 617H149L170 810H227L206 617H338L359 810H416L395 617H510L504 541H387L355 242H483L477 166H346L323 -51H266L289 166H157L134 -51ZM198 541L166 242H298L330 541H198Z" />
<glyph unicode="$" glyph-name="null" d="M31 226H123Q123 168 156 141T226 106V358Q125 383 91 436Q57 489 57 550Q57 610 108 665T226 730V830H280V731Q354 725 406 678T459 550H367Q367 600 342 622T280 650V423Q366 405 424 356T483 226Q483 144 429 86T280
23V-108H226V24Q147 32 89 88T31 226ZM391 226Q391 277 357 301T280 341V104Q337 109 364 141T391 226ZM149 550Q149 497 168 474Q188 452 226 438V648Q195 642 172 619T149 550Z" />
<glyph unicode="%" glyph-name="null" d="M435 817L487 800L90 -105L37 -91L435 817ZM4 562Q4 640 36 696T129 752Q188 752 221 696T254 562Q254 483 221 428T129 372Q69 372 37 427T4 562ZM77 562Q77 511 90 479T129 447Q153 447 167 479T181 562T167 645T129
678Q104 678 91 646T77 562ZM262 166Q262 244 294 300T387 356Q446 356 479 300Q512 244 512 166Q512 87 479 32T387 -24Q327 -24 295 31T262 166ZM335 166Q335 115 348 83T387 51Q411 51 425 83T439 166T425 249T387 282Q362 282 349 250T335 166Z" />
<glyph unicode="&amp;" glyph-name="null" d="M508 58L509 47Q479 26 428 -27L337 64Q325 52 288 25Q251 -2 186 -2Q110 -2 60 64Q11 130 11 196Q11 271 46 315T119 389Q99 436 84 487T68 589Q68 655 110 705T228 756Q294 754 337 707T383 593Q383 514 333 466T216
368Q260 280 335 198Q357 251 361 326H443Q439 224 398 142Q444 103 508 58ZM97 196Q97 142 117 111T186 79Q243 79 262 96T287 119Q269 140 232 188T153 317Q137 302 117 278T97 196ZM301 593Q299 638 278 660Q256 683 226 683Q195 683 172 665T148 589Q148 543
156 511T185 433Q228 462 264 495T301 593Z" />
<glyph unicode="&apos;" glyph-name="null" d="M306 738L218 584H186L232 712H180V836H306V738Z" />
<glyph unicode="(" glyph-name="null" d="M404 -75L338 -107Q232 5 172 118Q112 231 112 373T172 628T338 853L404 821Q294 711 245 613T196 373Q196 231 245 133Q294 35 404 -75Z" />
<glyph unicode=")" glyph-name="null" d="M102 -75Q212 35 261 133T310 373T261 613T102 821L168 853Q274 741 334 628T394 373Q394 231 334 118Q274 5 168 -107L102 -75Z" />
<glyph unicode="*" glyph-name="null" d="M292 672Q292 648 285 566T275 417Q325 458 384 514T462 585L507 526Q489 511 419 466T294 381V378Q349 338 419 293T507 233L462 174Q443 189 384 245T275 342Q277 276 284 196Q292 115 292 91H218Q218 115 225 195T235
342Q185 301 126 245T48 174L3 233Q21 248 91 293T216 378V381Q161 421 91 466T3 526L48 585Q67 570 126 514T235 417Q233 484 226 566T218 672H292Z" />
<glyph unicode="+" glyph-name="null" d="M28 431H230V720H303V431H490V359H303V25H230V359H28V431Z" />
<glyph unicode="," glyph-name="null" d="M278 -18L190 -144H158L204 -44H152V80H278V-18Z" />
<glyph unicode="-" glyph-name="null" d="M32 431H486V359H32V431Z" />
<glyph unicode="." glyph-name="null" d="M278 -44H152V80H278V-44Z" />
<glyph unicode="/" glyph-name="null" d="M454 814L510 793L56 -67L-1 -50L454 814Z" />
<glyph unicode="0" glyph-name="null" d="M46 378Q46 528 110 642T259 756T408 642T473 377Q473 226 408 112Q343 -2 259 -2T111 112T46 378ZM138 377Q138 238 176 158Q214 79 259 79T342 158T381 378Q381 521 343 598T259 675T176 598T138 377Z" />
<glyph unicode="1" glyph-name="null" d="M307 -12H221V600Q221 631 185 631H114V688Q235 695 256 761H307V699V-12Z" />
<glyph unicode="2" glyph-name="null" d="M261 756Q350 756 404 703T459 552Q459 459 372 360L131 94H452L439 4H46V106L288 378Q367 457 367 553Q367 630 335 652T261 675Q218 675 184 655T149 544H63Q63 658 122 707T261 756Z" />
<glyph unicode="3" glyph-name="null" d="M261 756Q346 756 402 695T459 560Q459 513 428 464T352 402Q396 392 439 340T483 210Q483 128 424 63Q366 -2 261 -2Q169 -2 108 50Q47 102 47 210H133Q133 125 170 102Q206 79 261 79Q319 79 355 109T391 209Q391 285
342 326T228 368V432Q294 432 330 474T367 561Q367 614 335 644T261 675Q218 675 184 652T149 544H63Q63 660 124 708T261 756Z" />
<glyph unicode="4" glyph-name="null" d="M377 -12H291V164H21V210L302 761H377V254H488V164H377V-12ZM291 575L124 254H291V575Z" />
<glyph unicode="5" glyph-name="null" d="M277 478Q366 478 424 417T483 248Q483 144 417 71T239 -2Q147 -2 97 55T47 186H133Q133 135 162 107T239 79Q303 79 347 123T391 248Q391 324 358 360T277 397Q228 397 195 383T149 341H71L95 750H444L425 660H167L155
444Q215 478 277 478Z" />
<glyph unicode="6" glyph-name="null" d="M277 478Q352 478 417 416T483 240Q483 144 418 71T255 -2Q163 -2 97 70T31 376Q31 558 100 657T271 756Q349 756 404 707T459 602H365Q365 639 336 657T271 675Q221 675 175 617T124 420Q187 478 277 478ZM255 79Q315
79 353 119T391 240Q391 324 358 360T277 397Q204 397 170 365T126 281Q133 156 168 118T255 79Z" />
<glyph unicode="7" glyph-name="null" d="M68 750H460V668L228 -12H140L361 660H68V750Z" />
<glyph unicode="8" glyph-name="null" d="M23 210Q23 291 62 331T146 393Q99 419 77 462T55 566Q55 638 113 697T257 756T401 697T459 566Q459 505 433 462Q407 420 360 391Q403 369 447 330T491 210Q491 120 421 59T257 -2T93 59T23 210ZM115 210Q115 144 154
112T257 79T359 111T399 210Q399 271 361 298T240 355Q184 336 150 301T115 210ZM367 566Q367 618 338 646T257 675T177 647T147 566Q147 509 164 483T276 426Q315 442 341 475T367 566Z" />
<glyph unicode="9" glyph-name="null" d="M237 276Q162 276 97 338T31 514Q31 610 96 683T259 756Q351 756 417 684T483 378Q483 196 414 97Q344 -2 243 -2Q165 -2 110 47Q55 96 55 152H149Q149 115 178 97T243 79Q293 79 339 137T390 334Q327 276 237 276ZM259
675Q199 675 161 634Q123 594 123 514Q123 430 156 394T237 357Q310 357 344 389T388 473Q381 598 346 636T259 675Z" />
<glyph unicode=":" glyph-name="null" d="M318 422H192V546H318V422ZM318 76H192V200H318V76Z" />
<glyph unicode=";" glyph-name="null" d="M318 422H192V546H318V422ZM318 94L246 -52H214L244 76H192V200H318V94Z" />
<glyph unicode="&lt;" glyph-name="null" d="M507 -55L461 -103L23 340Q5 360 23 380L461 823L507 775L97 361L507 -55Z" />
<glyph unicode="=" glyph-name="null" d="M28 503H490V431H28V503ZM28 293H490V221H28V293Z" />
<glyph unicode="&gt;" glyph-name="null" d="M11 -55L421 361L11 775L57 823L495 380Q513 360 495 340L57 -103L11 -55Z" />
<glyph unicode="?" glyph-name="null" d="M198 -56V58H306V-56H198ZM266 777Q334 779 393 751T477 682T503 595Q503 510 449 465Q395 420 351 393T301 328T294 240V181H209V240Q209 290 221 338T282 424T367 496T403 594Q403 634 383 658T338 693T266 704T188
692T138 646T120 570V524H16V570Q16 612 44 664T129 746T266 777Z" />
<glyph unicode="@" glyph-name="null" d="M2 360Q2 534 82 659T271 785Q386 785 447 668T508 396Q508 294 462 214T371 134Q329 134 312 147T287 190Q264 162 240 146T179 142T118 199T95 304T114 427T169 541T241 603T296 607T330 577L338 631H398Q353 720 272
720Q189 720 130 622T70 360T117 101T261 5Q319 5 361 34T453 153L511 127Q473 46 412 -7T261 -61Q138 -61 70 62T2 360ZM360 281Q352 234 356 221T377 207Q391 207 417 256T443 396Q443 528 405 616L360 281ZM290 288L321 507Q312 538 296 547T258 549T213 505T175
416T160 312T168 235T199 204T245 213T290 288Z" />
<glyph unicode="A" glyph-name="null" d="M502 -12H414L357 210H155L98 -12H10L206 750H218H294H306L502 -12ZM252 586L178 300H334L260 586H252Z" />
<glyph unicode="B" glyph-name="null" d="M407 216Q407 281 359 311T202 342H130V77H192V78Q331 78 369 119T407 216ZM381 546Q381 601 347 630T192 660H130V432H202Q310 432 345 461T381 546ZM44 -12V750H192Q352 750 412 698T473 546Q473 462 396 392Q499 322
499 216Q499 116 438 52Q378 -12 192 -12H44Z" />
<glyph unicode="C" glyph-name="null" d="M14 378Q14 528 82 642T259 756Q345 756 412 699T493 496H397Q387 609 350 642T259 675Q198 675 152 598T106 377Q106 230 152 151T259 71Q318 71 359 109T409 273H505Q497 128 432 59T259 -10T83 104T14 378Z" />
<glyph unicode="D" glyph-name="null" d="M44 -12V750H208Q368 750 432 645T497 369T433 93T208 -12H44ZM405 369Q405 503 363 581T208 660H130V78H208Q321 78 363 156T405 369Z" />
<glyph unicode="E" glyph-name="null" d="M468 750V660H130V432H412V342H130V78H468V-12H44V750H468Z" />
<glyph unicode="F" glyph-name="null" d="M130 -12H44V750H468V660H130V432H412V342H130V-12Z" />
<glyph unicode="G" glyph-name="null" d="M14 378Q14 528 82 642T259 756Q345 756 412 699T493 496H397Q387 609 350 642T259 675Q198 675 152 598T106 377Q106 230 152 151T259 71Q318 71 360 106T410 256V320H274V400H490V-28H426L405 40Q344 -10 259 -10Q151
-10 83 104T14 378Z" />
<glyph unicode="H" glyph-name="null" d="M130 -12H44V750H130V432H400V750H486V-12H400V342H130V-12Z" />
<glyph unicode="I" glyph-name="null" d="M300 -12H214V750H300V-12Z" />
<glyph unicode="J" glyph-name="null" d="M207 28Q243 28 264 53T286 170V750H372V170Q372 23 326 -20T207 -64Q135 -64 89 -16T43 138H133Q133 81 152 54Q172 28 207 28Z" />
<glyph unicode="K" glyph-name="null" d="M130 -12H44V750H130V418L352 750H458L275 479L492 -12H386L214 388L130 264V-12Z" />
<glyph unicode="L" glyph-name="null" d="M44 750H130V78H468V-12H130H44V78V750Z" />
<glyph unicode="M" glyph-name="null" d="M98 -12H12V750H122L252 206H262L392 750H502V-12H416V552H411L289 -9H225L103 552H98V-12Z" />
<glyph unicode="N" glyph-name="null" d="M130 -12H44V750H154L400 163V750H486V-12H376L130 580V-12Z" />
<glyph unicode="O" glyph-name="null" d="M14 378Q14 528 82 642T259 756T436 642T505 377Q505 218 436 104T259 -10T83 104T14 378ZM106 377Q106 230 152 151T259 71T366 150T413 378Q413 521 367 598T259 675T152 598T106 377Z" />
<glyph unicode="P" glyph-name="null" d="M130 -12H44V750H208Q384 750 440 694T497 546T441 398T208 342H130V-12ZM405 546Q405 601 371 630T208 660H130V432H208Q337 432 371 461T405 546Z" />
<glyph unicode="Q" glyph-name="null" d="M14 378Q14 528 82 642T259 756T436 642T505 377Q505 219 437 106L503 6L420 -44L373 30Q323 -10 259 -10Q151 -10 83 104T14 378ZM106 377Q106 230 152 151T259 71Q296 71 328 101L254 217L335 259L384 186Q413 259 413
378Q413 521 367 598T259 675T152 598T106 377Z" />
<glyph unicode="R" glyph-name="null" d="M130 -12H44V750H208Q384 750 440 694T497 546T454 411T343 354L510 -12H402L245 343L208 342H130V-12ZM405 546Q405 601 371 630T208 660H130V432H208Q337 432 371 461T405 546Z" />
<glyph unicode="S" glyph-name="null" d="M23 202H115Q115 136 154 104T257 71Q332 71 365 106T399 202Q399 261 357 295T216 364T83 452T49 566Q49 634 110 695T257 756Q347 756 407 705T467 566H375Q375 624 343 649T257 675T173 648T141 566Q141 513 165 485T282
427T433 344T491 202Q491 112 430 51T257 -10Q149 -10 86 51T23 202Z" />
<glyph unicode="T" glyph-name="null" d="M300 -12H214V660H24V750H488V660H300V-12Z" />
<glyph unicode="U" glyph-name="null" d="M263 71Q318 71 354 111T390 253V750H476V253Q476 104 416 47T263 -10T110 47Q50 104 50 253V750H136V253Q136 152 172 112T263 71Z" />
<glyph unicode="V" glyph-name="null" d="M502 750L306 -12H294H218H206L10 750H98L252 152H260L414 750H502Z" />
<glyph unicode="W" glyph-name="null" d="M1 750H85L151 287L215 750H299L363 287L429 750H513L405 -12H321L257 448L193 -12H109L1 750Z" />
<glyph unicode="X" glyph-name="null" d="M504 -12H408L247 297L102 -12H6L197 394L12 750H108L259 458L402 750H498L309 363L504 -12Z" />
<glyph unicode="Y" glyph-name="null" d="M300 -12H214V286L12 744H100L257 388L414 744H502L300 286V-12Z" />
<glyph unicode="Z" glyph-name="null" d="M60 750H460V660L134 78H476V-12H36V78L362 660H60V750Z" />
<glyph unicode="[" glyph-name="null" d="M175 826H412V753H249V-25H412V-97H175V826Z" />
<glyph unicode="\" glyph-name="null" d="M56 814L511 -50L454 -67L0 793L56 814Z" />
<glyph unicode="]" glyph-name="null" d="M335 826V-97H98V-25H261V753H98V826H335Z" />
<glyph unicode="^" glyph-name="null" d="M236 836H276L415 695L364 660L256 773L148 660L97 695L236 836Z" />
<glyph unicode="_" glyph-name="null" d="M4 -50H505V-121H4V-50Z" />
<glyph unicode="`" glyph-name="null" d="M84 730V836H210V712H158L188 584H156L84 730Z" />
<glyph unicode="a" glyph-name="null" d="M260 532Q348 532 400 486T453 350V104Q453 42 476 -10H380Q373 23 370 52Q343 22 302 7T220 -10Q144 -10 100 30Q55 70 55 135Q55 184 83 230T174 304T367 358V378Q367 416 341 443T260 471Q217 471 194 449T162 385H74Q82
452 133 492T260 532ZM367 295Q275 275 226 255T162 207T147 136Q147 99 166 80Q186 61 221 61Q256 62 295 78T367 161V295Z" />
<glyph unicode="b" glyph-name="null" d="M156 -12H70V750H156V471Q217 532 277 532Q358 532 416 468T475 272Q475 160 418 77T255 -10Q199 -10 156 27V-12ZM255 71Q313 75 348 129T383 272Q383 380 347 415T267 451Q218 451 190 408T156 319V137Q172 105 193 88T255 71Z" />
<glyph unicode="c" glyph-name="null" d="M23 260Q23 368 88 450T248 532Q350 532 410 475T478 336H386Q378 399 343 425T248 451Q199 451 157 406T115 259Q115 166 159 119T252 71T334 86T386 172H482Q468 90 408 40T252 -10T90 72T23 260Z" />
<glyph unicode="d" glyph-name="null" d="M364 -12V27Q320 -10 257 -10Q156 -6 101 73T45 254Q45 386 103 459T235 532Q295 532 364 468V750H450V-12H364ZM237 451Q201 451 169 407T137 254Q137 176 166 126T257 71Q298 71 325 89T364 151V315Q357 363 322 407T237 451Z" />
<glyph unicode="e" glyph-name="null" d="M27 260Q27 368 89 450T248 532Q340 532 409 469T478 266H386H119V259Q119 166 161 119T252 71T337 86T386 172H482Q472 86 410 38T252 -10T92 72T27 260ZM248 451Q199 451 168 416T127 340H378Q368 394 337 422T248 451Z" />
<glyph unicode="f" glyph-name="null" d="M341 675Q303 675 292 649T280 554V518H424V444H280V-12H194V444H116V518H194V554Q194 677 235 716T341 756Q403 756 444 739V650Q387 675 341 675Z" />
<glyph unicode="g" glyph-name="null" d="M78 370Q78 432 122 482T259 532Q320 532 360 510Q418 542 488 552V482Q438 484 402 474Q441 427 441 369Q441 306 396 256T259 206Q222 206 193 214Q167 195 167 185Q167 176 203 168T291 152T388 128T464 77T495 -2Q495
-51 431 -89T260 -128T89 -90T25 -2Q25 33 48 62T136 120Q111 130 100 148T88 184Q88 206 141 239Q131 247 105 276T78 370ZM170 369Q170 334 192 307T259 279T326 306T349 370Q349 409 327 434T259 459T192 434T170 369ZM117 -2Q117 -29 156 -45T260 -61T364 -45Q403
-29 403 -2Q403 45 360 61T284 84L225 97Q165 79 141 57T117 -2Z" />
<glyph unicode="h" glyph-name="null" d="M160 -12H74V750H160V449Q233 532 305 532Q359 532 416 493T474 339V-12H388V339Q388 406 363 428T287 451Q246 451 206 410Q167 370 160 299V-12Z" />
<glyph unicode="i" glyph-name="null" d="M306 -12H220V534H306V-12ZM308 642H218V738H308V642Z" />
<glyph unicode="j" glyph-name="null" d="M223 -28Q253 -28 269 -3T286 82V534H372V82Q372 -33 326 -76T223 -120Q165 -120 123 -80T81 38H171Q171 -5 186 -16T223 -28ZM374 642H284V738H374V642Z" />
<glyph unicode="k" glyph-name="null" d="M160 -12H74V750H160V243L364 518H458L289 299L498 -12H394L236 229L160 131V-12Z" />
<glyph unicode="l" glyph-name="null" d="M300 -12H214V750H300V-12Z" />
<glyph unicode="m" glyph-name="null" d="M94 -12H8V534H94V461Q137 532 179 532T250 507T290 441Q296 454 319 493T385 532T466 498T506 339V-12H420V339Q420 406 407 428T373 451Q346 451 326 412T300 313V-12H214V339Q214 406 201 428T167 451Q140 451 120
412T94 313V-12Z" />
<glyph unicode="n" glyph-name="null" d="M160 -12H74V534H160V449Q233 532 305 532Q359 532 416 493T474 339V-12H388V339Q388 406 363 428T287 451Q246 451 203 406Q160 360 160 259V-12Z" />
<glyph unicode="o" glyph-name="null" d="M30 266Q30 368 94 450T259 532T424 450T489 265Q489 154 424 72T259 -10T95 72T30 266ZM122 265Q122 166 164 119T259 71T354 118T397 266Q397 361 355 406T259 451T164 406T122 265Z" />
<glyph unicode="p" glyph-name="null" d="M68 -116V534H154V468Q211 532 279 532Q358 532 415 464T473 286Q473 180 417 115T277 46Q209 46 154 82V-116H68ZM277 127Q321 131 351 167T381 286Q381 366 350 408T277 451Q220 451 190 409T154 340V193Q166 156 201
142Q236 127 277 127Z" />
<glyph unicode="q" glyph-name="null" d="M450 -116H364V534H450V-116ZM235 532Q303 532 362 474T427 303L366 287Q366 352 330 401T237 451Q195 451 166 399T137 286Q137 200 170 166T257 127Q298 127 328 143T368 208L434 181Q416 116 370 81Q325 46 257 46Q164
50 104 113Q45 176 45 286Q45 378 95 455T235 532Z" />
<glyph unicode="r" glyph-name="null" d="M192 -12H106V534H192V436Q206 457 255 503T408 532V433Q318 445 255 403T192 259V-12Z" />
<glyph unicode="s" glyph-name="null" d="M31 170H123Q123 112 158 92Q194 71 257 71Q324 71 357 90T391 144Q391 193 353 213T228 242T99 293T57 388Q57 440 114 486T257 532Q347 532 403 492T459 388H367Q367 422 335 436T257 451T181 435T149 388Q149 343 177
328T286 305T425 262T483 144Q483 80 422 35T257 -10Q149 -10 90 37T31 170Z" />
<glyph unicode="t" glyph-name="null" d="M182 704L265 756H268V550H392V476H268V94Q268 70 292 70H372V-12H280Q182 -12 182 94V476H84V550H182V704Z" />
<glyph unicode="u" glyph-name="null" d="M376 534H462V-12H376V73Q303 -10 231 -10Q177 -10 120 29Q62 68 62 183V534H148V183Q148 116 173 94Q198 71 249 71Q290 71 333 116T376 263V534Z" />
<glyph unicode="v" glyph-name="null" d="M494 534L306 -12H206L18 534H106L253 106H259L406 534H494Z" />
<glyph unicode="w" glyph-name="null" d="M1 534H85L151 202L215 534H299L363 202L429 534H513L405 -12H321L257 318L193 -12H109L1 534Z" />
<glyph unicode="x" glyph-name="null" d="M502 -12H414L252 211L106 -12H18L206 275L18 534H106L260 322L406 534H494L305 260L502 -12Z" />
<glyph unicode="y" glyph-name="null" d="M156 -20L199 76L26 534H116L248 183L408 534H502L242 -36Q193 -156 60 -120V-40Q131 -66 156 -20Z" />
<glyph unicode="z" glyph-name="null" d="M60 534H452V444L156 78H44L340 444H60V534ZM44 78H476V-12H44V78Z" />
<glyph unicode="{" glyph-name="null" d="M436 -121Q370 -121 309 -86Q248 -51 248 42V197Q248 273 234 299T160 326V408Q219 408 233 434T248 537V692Q248 785 309 820T436 855V804Q396 804 363 787T330 690V535Q330 441 297 404T231 367Q263 367 296 330T330
199V44Q330 -36 363 -53T436 -70V-121Z" />
<glyph unicode="|" glyph-name="null" d="M218 -136V874H290V-136H218Z" />
<glyph unicode="}" glyph-name="null" d="M92 -121V-70Q132 -70 165 -53T198 44V199Q198 293 231 330T297 367Q265 367 232 404T198 535V690Q198 770 165 787T92 804V855Q158 855 219 820T280 692V537Q280 461 294 435T368 408V326Q309 326 295 300T280 197V42Q280
-51 219 -86T92 -121Z" />
<glyph unicode="~" glyph-name="null" d="M454 666Q387 607 343 607Q301 607 270 634L214 682Q189 703 155 703Q119 703 44 635V713Q111 772 155 772Q197 772 228 745L284 697Q309 676 343 676Q379 676 454 744V666Z" />
<glyph unicode="&#xa0;" glyph-name="null" horiz-adv-x="457" />
<glyph unicode="&#xa1;" glyph-name="null" horiz-adv-x="784" />
<glyph unicode="&#xa2;" glyph-name="null" horiz-adv-x="784" />
<glyph unicode="&#xa3;" glyph-name="null" horiz-adv-x="784" />
<glyph unicode="&#xa4;" glyph-name="null" horiz-adv-x="1024" d="M285 353Q285 254 359 191Q418 141 497 141Q595 141 659 214Q710 274 710 353Q710 449 637 513Q576 565 497 565Q398 565 335 491Q285 432 285 353ZM199 352Q199 440 244 512Q254 528 256 532L140
649L204 714L322 597L376 626Q429 650 497 650Q583 650 657 605Q672 596 676 594L795 715L861 648L743 530Q771 478 776 466Q796 415 795 352Q795 267 749 193Q741 180 739 176L860 56L796 -7L677 111Q626 81 616 77Q563 55 497 54Q410 55 337 99Q324 107 321 109L204
-8L139 59L255 173L225 227Q200 281 199 352Z" />
<glyph unicode="&#xa5;" glyph-name="null" d="M298 -12H216V140H44V200H216V286L210 300H44V360H183L12 744H100L257 388L414 744H502L331 360H480V300H304L298 286V200H480V140H298V-12Z" />
<glyph unicode="&#xa6;" glyph-name="null" horiz-adv-x="784" />
<glyph unicode="&#xa7;" glyph-name="null" horiz-adv-x="1024" d="M713 75Q713 12 654 -40T480 -92Q399 -92 338 -61Q276 -30 250 56H350Q362 8 398 -5T480 -19Q531 -19 573 0T615 74Q615 115 584 137T457 208T313 292T264 400Q264 449 287 472T329 507Q310 520
280 545Q249 570 249 643Q249 706 308 758T482 810Q563 810 624 779T712 662H612Q600 710 564 723T482 737Q431 737 389 718T347 644Q347 603 378 581T505 510T649 426T698 318Q698 269 675 246T633 211Q652 198 682 173T713 75ZM362 401Q362 371 378 352T465 299T559
253Q575 261 587 272T600 317Q600 347 584 366T497 419T403 465Q387 457 375 446T362 401Z" />
<glyph unicode="&#xa8;" glyph-name="null" horiz-adv-x="1024" d="M316 690V810H436V690H316ZM564 690V810H684V690H564Z" />
<glyph unicode="&#xa9;" glyph-name="null" horiz-adv-x="784" />
<glyph unicode="&#xaa;" glyph-name="null" horiz-adv-x="784" />
<glyph unicode="&#xab;" glyph-name="null" horiz-adv-x="784" />
<glyph unicode="&#xac;" glyph-name="null" horiz-adv-x="784" />
<glyph unicode="&#xad;" glyph-name="null" horiz-adv-x="784" />
<glyph unicode="&#xae;" glyph-name="null" horiz-adv-x="784" />
<glyph unicode="&#xaf;" glyph-name="null" horiz-adv-x="784" />
<glyph unicode="&#xb0;" glyph-name="null" horiz-adv-x="1024" d="M44 698Q44 748 79 784T166 820Q216 820 252 784T288 698Q288 647 252 612T166 576Q115 576 80 611T44 698ZM85 697Q85 662 108 639T166 616Q200 616 223 639T247 697Q247 731 224 754T166 778Q131
778 108 755T85 697Z" />
<glyph unicode="&#xb1;" glyph-name="null" horiz-adv-x="1024" d="M471 785H545V498H865V425H545V137H471V425H151V498H471V785ZM151 77H865V4H151V77Z" />
<glyph unicode="&#xb2;" glyph-name="null" horiz-adv-x="784" />
<glyph unicode="&#xb3;" glyph-name="null" horiz-adv-x="784" />
<glyph unicode="&#xb4;" glyph-name="null" horiz-adv-x="1024" d="M668 816L494 640H414L532 816H668Z" />
<glyph unicode="&#xb5;" glyph-name="null" d="M370 357Q368 247 424 173Q449 140 470 137V54Q436 51 397 96Q368 131 354 178Q311 93 265 75Q248 69 229 69Q173 69 139 115Q135 121 131 127V28Q131 -79 121 -143H42Q58 -27 58 40V524H131V332Q131 203 183 159Q199
145 217 145Q268 145 287 204Q295 229 295 264V524H370V357Z" />
<glyph unicode="&#xb6;" glyph-name="null" horiz-adv-x="1024" d="M198 584Q198 660 241 718T370 777H705V-16H636V726H445V-16H377V391H370Q285 391 242 449T198 584Z" />
<glyph unicode="&#xb7;" glyph-name="null" horiz-adv-x="784" />
<glyph unicode="&#xb8;" glyph-name="null" d="M222 14H264Q264 14 291 -8Q306 -18 318 -20Q361 -27 376 -60Q381 -70 381 -80Q381 -110 340 -134Q308 -152 271 -152Q234 -157 193 -129Q173 -115 160 -97L214 -63Q214 -63 238 -83Q257 -96 271 -97Q290 -98 299
-94Q311 -90 312 -80Q314 -67 291 -58Q290 -57 286 -56Q237 -38 225 5Q223 9 222 14Z" />
<glyph unicode="&#xb9;" glyph-name="null" horiz-adv-x="784" />
<glyph unicode="&#xba;" glyph-name="null" horiz-adv-x="784" />
<glyph unicode="&#xbb;" glyph-name="null" horiz-adv-x="784" />
<glyph unicode="&#xbc;" glyph-name="null" horiz-adv-x="784" />
<glyph unicode="&#xbd;" glyph-name="null" horiz-adv-x="784" />
<glyph unicode="&#xbe;" glyph-name="null" horiz-adv-x="784" />
<glyph unicode="&#xbf;" glyph-name="null" horiz-adv-x="784" />
<glyph unicode="&#xc0;" glyph-name="null" horiz-adv-x="784" />
<glyph unicode="&#xc1;" glyph-name="null" horiz-adv-x="784" />
<glyph unicode="&#xc2;" glyph-name="null" horiz-adv-x="784" />
<glyph unicode="&#xc3;" glyph-name="null" horiz-adv-x="784" />
<glyph unicode="&#xc4;" glyph-name="null" horiz-adv-x="784" />
<glyph unicode="&#xc5;" glyph-name="null" horiz-adv-x="784" />
<glyph unicode="&#xc6;" glyph-name="null" horiz-adv-x="896" d="M439 586H423L275 300H439V586ZM439 210H228L115 -12H20L413 750H857V660H528V432H801V342H528V78H857V-12H439V210Z" />
<glyph unicode="&#xc7;" glyph-name="null" d="M229 -8Q141 6 82 104Q14 218 14 378Q14 528 82 642Q151 756 259 756Q345 756 412 699Q479 642 493 497L397 496Q387 609 350 642Q312 675 259 675Q198 675 152 598Q106 521 106 377Q106 230 152 150Q198 71 259
71Q318 71 360 110Q401 148 409 273H505Q497 128 432 59Q377 1 291 -8Q307 -18 318 -20Q361 -27 376 -60Q381 -70 381 -80Q381 -110 340 -134Q308 -152 271 -152Q234 -157 193 -129Q173 -115 160 -97L214 -63Q214 -63 238 -83Q257 -96 271 -97Q290 -98 299 -94Q311
-90 312 -80Q314 -67 291 -58Q290 -57 286 -56Q243 -40 229 -8Z" />
<glyph unicode="&#xc8;" glyph-name="null" horiz-adv-x="784" />
<glyph unicode="&#xc9;" glyph-name="null" horiz-adv-x="784" />
<glyph unicode="&#xca;" glyph-name="null" horiz-adv-x="784" />
<glyph unicode="&#xcb;" glyph-name="null" horiz-adv-x="784" />
<glyph unicode="&#xcc;" glyph-name="null" horiz-adv-x="784" />
<glyph unicode="&#xcd;" glyph-name="null" horiz-adv-x="784" />
<glyph unicode="&#xce;" glyph-name="null" horiz-adv-x="784" />
<glyph unicode="&#xcf;" glyph-name="null" horiz-adv-x="784" />
<glyph unicode="&#xd0;" glyph-name="null" horiz-adv-x="784" />
<glyph unicode="&#xd1;" glyph-name="null" horiz-adv-x="784" />
<glyph unicode="&#xd2;" glyph-name="null" horiz-adv-x="784" />
<glyph unicode="&#xd3;" glyph-name="null" horiz-adv-x="784" />
<glyph unicode="&#xd4;" glyph-name="null" horiz-adv-x="784" />
<glyph unicode="&#xd5;" glyph-name="null" horiz-adv-x="784" />
<glyph unicode="&#xd6;" glyph-name="null" horiz-adv-x="784" />
<glyph unicode="&#xd7;" glyph-name="null" horiz-adv-x="1024" d="M172 71L462 361L172 651L224 703L514 413L804 703L856 651L566 361L856 71L804 19L514 309L224 19L172 71Z" />
<glyph unicode="&#xd8;" glyph-name="null" horiz-adv-x="784" />
<glyph unicode="&#xd9;" glyph-name="null" horiz-adv-x="784" />
<glyph unicode="&#xda;" glyph-name="null" horiz-adv-x="784" />
<glyph unicode="&#xdb;" glyph-name="null" horiz-adv-x="784" />
<glyph unicode="&#xdc;" glyph-name="null" horiz-adv-x="784" />
<glyph unicode="&#xdd;" glyph-name="null" horiz-adv-x="784" />
<glyph unicode="&#xde;" glyph-name="null" d="M152 -12H62V766H152V595H213Q444 595 465 427Q467 410 467 391Q467 199 244 188Q229 187 213 187H152V-12ZM376 391Q376 477 292 498Q260 506 213 506H152V278H213Q339 278 366 336Q376 358 376 391Z" />
<glyph unicode="&#xdf;" glyph-name="null" d="M236 756Q325 756 383 685Q427 631 427 560Q427 491 378 443Q355 420 327 413Q384 399 431 332Q473 271 473 210Q473 38 316 6Q280 -1 236 -2L177 0V85L236 79Q381 79 381 209Q381 288 315 340Q265 378 203 378V442Q285
442 319 501Q335 527 335 561Q335 634 284 663Q263 675 236 675Q154 675 134 613Q125 586 125 544V0H39V544Q39 705 164 745Q198 756 236 756Z" />
<glyph unicode="&#xe0;" glyph-name="null" horiz-adv-x="784" />
<glyph unicode="&#xe1;" glyph-name="null" horiz-adv-x="784" />
<glyph unicode="&#xe2;" glyph-name="null" horiz-adv-x="784" />
<glyph unicode="&#xe3;" glyph-name="null" horiz-adv-x="784" />
<glyph unicode="&#xe4;" glyph-name="null" horiz-adv-x="784" />
<glyph unicode="&#xe5;" glyph-name="null" horiz-adv-x="784" />
<glyph unicode="&#xe6;" glyph-name="null" horiz-adv-x="832" d="M563 451Q489 451 452 376Q444 359 439 340H695Q676 434 599 448Q583 451 563 451ZM406 450Q472 532 563 532Q715 532 770 406Q795 347 795 266H430Q430 137 500 90Q529 71 567 71Q641 71 668
99Q687 119 703 172H799Q761 -10 567 -10Q458 -10 389 97Q344 35 272 5Q233 -11 197 -10Q90 -10 50 63Q33 95 33 135Q33 237 126 290Q196 329 344 358Q344 462 254 470Q246 471 237 471Q156 471 139 385H51Q62 473 142 512Q184 532 237 532Q358 532 406 450ZM344
161Q344 295 344 295Q193 262 154 225Q125 197 125 136Q125 61 198 61Q280 63 322 123Q333 139 344 161Z" />
<glyph unicode="&#xe7;" glyph-name="null" d="M291 -8Q306 -18 318 -20Q361 -27 376 -60Q381 -70 381 -80Q381 -110 340 -134Q308 -152 271 -152Q234 -157 193 -129Q173 -115 160 -97L214 -63Q214 -63 238 -83Q257 -96 271 -97Q290 -98 299 -94Q311 -90 312 -80Q314
-67 291 -58Q290 -57 286 -56Q244 -40 230 -9Q144 -1 84 72Q15 154 15 260Q15 368 82 450Q150 532 248 532Q354 532 416 475Q478 418 486 336H394Q382 399 346 425Q311 451 248 451Q195 451 151 406Q107 361 107 259Q107 166 153 118Q199 71 252 71Q305 71 338
86Q372 102 394 172H490Q476 90 414 40Q365 0 291 -8Z" />
<glyph unicode="&#xe8;" glyph-name="null" horiz-adv-x="784" />
<glyph unicode="&#xe9;" glyph-name="null" horiz-adv-x="784" />
<glyph unicode="&#xea;" glyph-name="null" horiz-adv-x="784" />
<glyph unicode="&#xeb;" glyph-name="null" horiz-adv-x="784" />
<glyph unicode="&#xec;" glyph-name="null" horiz-adv-x="784" />
<glyph unicode="&#xed;" glyph-name="null" horiz-adv-x="784" />
<glyph unicode="&#xee;" glyph-name="null" horiz-adv-x="784" />
<glyph unicode="&#xef;" glyph-name="null" horiz-adv-x="784" />
<glyph unicode="&#xf0;" glyph-name="null" d="M237 79Q327 79 355 179Q367 220 371 281Q353 374 278 392Q256 397 227 397Q143 397 120 303Q114 275 114 240Q114 110 191 85Q211 79 237 79ZM354 670L452 706L497 655L394 617Q463 506 463 376Q463 122 402 70Q345
19 310 8Q283 -1 237 -2Q135 -5 72 80Q22 148 22 240Q22 374 115 441Q168 478 227 478Q290 478 316 466Q343 453 373 420Q359 527 321 590L128 517L83 571L278 642Q238 680 178 703L232 755Q300 731 354 670Z" />
<glyph unicode="&#xf1;" glyph-name="null" horiz-adv-x="784" />
<glyph unicode="&#xf2;" glyph-name="null" horiz-adv-x="784" />
<glyph unicode="&#xf3;" glyph-name="null" horiz-adv-x="784" />
<glyph unicode="&#xf4;" glyph-name="null" horiz-adv-x="784" />
<glyph unicode="&#xf5;" glyph-name="null" horiz-adv-x="784" />
<glyph unicode="&#xf6;" glyph-name="null" horiz-adv-x="784" />
<glyph unicode="&#xf7;" glyph-name="null" horiz-adv-x="1024" d="M151 432H865V359H151V432ZM452 570V682H564V570H452ZM452 112V224H564V112H452Z" />
<glyph unicode="&#xf8;" glyph-name="null" horiz-adv-x="784" />
<glyph unicode="&#xf9;" glyph-name="null" horiz-adv-x="784" />
<glyph unicode="&#xfa;" glyph-name="null" horiz-adv-x="784" />
<glyph unicode="&#xfb;" glyph-name="null" horiz-adv-x="784" />
<glyph unicode="&#xfc;" glyph-name="null" horiz-adv-x="784" />
<glyph unicode="&#xfd;" glyph-name="null" horiz-adv-x="784" />
<glyph unicode="&#xfe;" glyph-name="null" d="M68 -116V716H159V468Q217 532 284 532Q375 532 431 450Q478 382 478 286Q478 162 401 93Q351 49 283 46Q213 46 159 82V-116H68ZM283 127Q386 136 386 286Q386 391 333 434Q310 451 283 451Q225 451 195 409T159
340V193Q180 127 283 127Z" />
<glyph unicode="&#xff;" glyph-name="null" horiz-adv-x="784" />
<glyph unicode="&#x131;" glyph-name="null" d="M299 -12H213V534H299V-12Z" />
<glyph unicode="&#x141;" glyph-name="null" d="M94 -12V437L41 415L-4 471L94 512V750H180V548L340 614L385 561L180 474V78H486V-12H94Z" />
<glyph unicode="&#x142;" glyph-name="null" d="M287 554L414 607L459 554L287 481V-12H201V444L115 408L70 464L201 518V750H287V554Z" />
<glyph unicode="&#x14b;" glyph-name="null" d="M377 -6L378 339Q378 383 367 408Q361 421 353 428Q328 451 277 451Q236 451 193 406Q150 360 150 259V88H66V534H150V449Q223 532 295 532Q349 532 406 493Q464 454 464 339L463 -6Q463 -102 397 -164Q358 -201
271 -207Q261 -208 251 -208Q181 -208 126 -168Q72 -121 69 -59Q68 -54 68 -50H156Q156 -93 176 -104Q204 -121 207 -122Q226 -129 251 -129Q313 -129 341 -96Q377 -54 377 -6Z" />
<glyph unicode="&#x152;" glyph-name="null" horiz-adv-x="896" d="M417 80V656Q300 656 242 617Q147 553 147 377Q147 80 417 80ZM847 -12H417Q191 -12 107 127Q50 220 50 378Q51 749 417 749L847 750V660H520V432H791V342H520V78H847V-12Z" />
<glyph unicode="&#x153;" glyph-name="null" horiz-adv-x="896" d="M617 473Q531 473 500 362H748Q730 453 657 469Q639 473 617 473ZM444 454Q513 550 617 555Q769 555 823 427Q848 369 848 289H491V288Q491 173 552 120Q582 93 621 93Q723 93 753 186Q755 190
756 195H852Q829 84 734 37Q683 12 621 12Q521 12 456 101Q451 108 447 115Q378 16 268 12Q162 12 97 105Q44 182 44 289Q44 409 118 488Q181 555 268 555Q368 555 432 471Q438 463 444 454ZM403 284Q403 418 327 459Q301 473 268 473Q208 473 169 411Q136 360
136 288Q136 169 199 118Q229 93 268 93Q352 95 386 180Q403 224 403 284Z" />
<glyph unicode="&#x192;" glyph-name="null" d="M100 331V408H209Q209 616 245 684Q250 693 255 698Q301 744 356 744Q423 744 460 728V642Q406 668 356 667Q302 667 296 481Q295 450 295 408H422V331H295Q295 99 270 -2Q263 -31 254 -39Q200 -89 147 -89Q93 -89
52 -75V7Q89 -7 147 -7Q209 -7 209 331H100Z" />
<glyph unicode="&#x251;" glyph-name="null" d="M364 -12V27Q320 -10 257 -10Q156 -6 100 73Q45 152 45 254Q45 386 104 459Q162 532 235 532Q295 532 364 468V537H450V-12H364ZM237 451Q201 451 169 406Q137 362 137 254Q137 176 166 126Q195 75 257 71Q298 71
326 90Q353 108 364 151V315Q357 363 322 407Q286 451 237 451Z" />
<glyph unicode="&#x25a;" glyph-name="null" d="M186 66Q226 66 250 99Q272 128 280 197Q284 221 282 238L80 180Q80 136 117 99Q150 66 186 66ZM387 261L357 253Q357 147 308 65Q267 -5 204 -10Q198 -10 192 -10Q122 -10 69 53Q31 99 21 132Q11 166 13 218L279
294Q279 376 255 406Q219 451 189 451Q150 451 126 436Q101 420 85 350H14Q38 504 149 528Q168 532 189 532Q279 532 327 420Q349 369 355 309L465 336L477 285Q428 269 435 234Q440 209 465 201Q475 198 485 200L501 151Q463 136 422 166Q375 200 385 253Q386
257 387 261Z" />
<glyph unicode="&#x292;" glyph-name="null" d="M366 411Q332 426 276 426L429 605Q444 624 447 630V714H50V628Q107 628 350 627L190 434V368Q293 368 342 326Q391 285 391 209Q391 140 355 110Q319 79 261 79Q206 79 170 102Q133 125 133 210H47Q47 102 108
50Q169 -2 261 -2Q366 -2 424 63Q483 128 483 210Q483 285 440 340L408 383Q393 399 366 411Z" />
<glyph unicode="&#x2d8;" glyph-name="null" d="M141 805Q186 765 256 765Q326 765 371 805V760Q321 716 256 716Q192 716 141 760V805Z" />
<glyph unicode="&#x391;" glyph-name="null" horiz-adv-x="1024" d="M849 -12H745L664 210H360L279 -12H175L454 750H570L849 -12ZM393 300H631L516 614H508L393 300Z" />
<glyph unicode="&#x392;" glyph-name="null" horiz-adv-x="1024" d="M236 -12V750H468Q619 750 692 698Q762 646 762 547V546Q762 462 672 392Q787 322 788 217V216Q788 116 718 52Q646 -12 460 -12H236ZM684 216Q684 281 632 312Q578 342 448 342H334V78H460Q598
78 642 120Q685 161 684 215V216ZM658 546Q658 601 620 630Q580 660 468 660H334V432H448Q577 432 618 462Q658 491 658 545V546Z" />
<glyph unicode="&#x393;" glyph-name="null" horiz-adv-x="1024" d="M796 751L228 750V-12H328V660H794L796 751Z" />
<glyph unicode="&#x394;" glyph-name="null" horiz-adv-x="1024" d="M860 -12H164V78L450 750H558L860 77V-12ZM268 77H744L508 643H500L268 77Z" />
<glyph unicode="&#x395;" glyph-name="null" horiz-adv-x="1024" d="M241 -12V750H783V660H339V432H723V342H339V78H783V-12H241Z" />
<glyph unicode="&#x396;" glyph-name="null" horiz-adv-x="1024" d="M245 750H779V660L315 78H833V-12H191V78L655 660H245V750Z" />
<glyph unicode="&#x397;" glyph-name="null" horiz-adv-x="1024" d="M318 -12H220V750H318V432H706V750H804V-12H706V342H318V-12Z" />
<glyph unicode="&#x398;" glyph-name="null" horiz-adv-x="1024" d="M132 378Q132 528 244 642Q355 756 519 756T787 642T892 378Q892 218 788 104Q684 -10 520 -10T244 104T132 378ZM236 377Q236 230 323 151T520 71Q629 71 708 150Q788 230 788 377Q788 521
708 598Q628 675 520 675Q410 675 324 598Q236 521 236 377ZM342 429H690V336H342V429Z" />
<glyph unicode="&#x399;" glyph-name="null" horiz-adv-x="1024" d="M561 -12H463V750H561V-12Z" />
<glyph unicode="&#x39a;" glyph-name="null" horiz-adv-x="1024" d="M286 -12H188V750H286V387L632 750H762L517 497L836 -12H710L445 423L286 259V-12Z" />
<glyph unicode="&#x39b;" glyph-name="null" horiz-adv-x="1024" d="M849 -12H745L519 615H509L279 -12H175L454 750H570L849 -12Z" />
<glyph unicode="&#x39c;" glyph-name="null" horiz-adv-x="1024" d="M217 -12H119V750H242L521 174H531L782 750H905V-12H807V552H801L558 -9H494L223 552H217V-12Z" />
<glyph unicode="&#x39d;" glyph-name="null" horiz-adv-x="1024" d="M302 -12H204V750H327L721 147L722 140V750H820V-12H697L303 596L302 600V-12Z" />
<glyph unicode="&#x39e;" glyph-name="null" horiz-adv-x="1024" d="M198 -13V90H826V-13H198ZM198 656V750H826V656H198ZM280 426H752V326H280V426Z" />
<glyph unicode="&#x39f;" glyph-name="null" horiz-adv-x="1024" d="M132 380Q132 528 244 642Q355 756 519 756T787 642T892 380Q892 218 788 104Q684 -10 520 -10T244 104T132 380ZM236 380Q236 230 323 151T520 71Q629 71 708 150Q788 230 788 380Q788 521
708 598Q628 675 520 675Q410 675 324 598Q236 521 236 380Z" />
<glyph unicode="&#x3a0;" glyph-name="null" horiz-adv-x="1024" d="M318 -12H220V750H804V-12H706V661H318V-12Z" />
<glyph unicode="&#x3a1;" glyph-name="null" horiz-adv-x="1024" d="M334 -12H236V750H500Q662 750 725 696Q788 642 788 547Q788 450 725 396Q662 342 500 342H334V-12ZM684 547Q684 605 650 632Q615 660 500 660H334V432H500Q615 432 650 460Q684 487 684 547Z" />
<glyph unicode="&#x3a3;" glyph-name="null" horiz-adv-x="1024" d="M216 751H808V660H344V659L592 395V366L342 86H810V-8H216L214 81L470 382L214 666L216 751Z" />
<glyph unicode="&#x3a4;" glyph-name="null" horiz-adv-x="1024" d="M560 -12H462V660H156V750H868V660H560V-12Z" />
<glyph unicode="&#x3a5;" glyph-name="null" horiz-adv-x="1024" d="M306 674Q239 674 216 644Q194 615 194 545H109V587Q113 653 166 704Q218 755 297 755Q391 755 436 720Q481 686 512 625Q543 686 588 720Q633 755 727 755Q806 755 858 704Q911 653 915 587V545H830Q830
615 808 644T718 674Q632 674 595 596Q558 517 558 384V-12H466V384Q466 517 429 596Q392 674 306 674Z" />
<glyph unicode="&#x3a6;" glyph-name="null" horiz-adv-x="1024" d="M352 219Q418 174 460 167V570Q415 562 352 520Q281 475 275 384L274 368Q274 275 349 221L352 219ZM749 184Q678 130 611 116L556 109V-14H459V111Q376 118 300 169Q200 236 181 331Q177 349
177 368V369Q177 474 280 554Q364 618 460 628V756H558V628Q675 616 751 554Q850 473 847 369Q845 286 776 210Q762 194 749 184ZM683 518Q625 560 558 570V166Q612 174 667 212Q738 260 748 346L749 369Q749 469 683 518Z" />
<glyph unicode="&#x3a7;" glyph-name="null" horiz-adv-x="1024" d="M879 -12H757L501 324L267 -12H145L438 407L177 750H299L523 456L731 750H853L586 372L879 -12Z" />
<glyph unicode="&#x3a8;" glyph-name="null" horiz-adv-x="1024" d="M560 756V192Q608 200 668 244Q730 290 746 393L748 668H844V394Q844 290 742 209H740Q739 208 738 206L720 194Q644 143 562 136V-14H462V136Q379 143 302 194Q203 261 184 356Q179 374 180
393V394V668H276V393Q293 287 354 245V244Q420 199 462 192V756H560Z" />
<glyph unicode="&#x3a9;" glyph-name="null" horiz-adv-x="1024" d="M508 756Q348 756 244 643Q138 529 138 377V376Q138 202 272 78H72V-10H432V78Q376 94 322 146Q241 225 240 374V375Q240 521 322 598Q393 657 450 668Q474 673 508 673Q615 673 694 598Q776
521 778 376V375Q778 225 694 146Q649 102 614 88Q603 83 590 80Q589 79 586 79Q586 78 584 78V-10H952V80H750Q878 199 880 375V376Q880 529 774 643Q668 756 508 756Z" />
<glyph unicode="&#x3b1;" glyph-name="null" horiz-adv-x="1024" d="M680 478L725 461Q741 451 752 432Q624 128 568 64Q512 0 448 0Q352 0 304 56Q256 112 256 224Q256 352 320 416Q384 480 480 480Q590 480 626 382Q629 375 631 368L674 156Q687 78 714 75L752
80L768 64Q752 0 704 0Q640 0 624 96L573 360Q551 416 495 424Q482 426 464 426Q400 426 368 370Q335 312 330 258Q329 242 329 224Q329 154 350 110Q352 107 353 104Q372 66 448 66Q491 66 544 128Q577 166 628 305Q662 397 680 478Z" />
<glyph unicode="&#x3b2;" glyph-name="null" horiz-adv-x="1024" d="M325 -144Q293 -144 285 -120Q277 -96 293 -56Q309 -16 325 80Q341 176 341 304Q341 432 365 552Q389 672 501 672Q597 672 637 632Q677 592 677 512Q677 432 565 368Q469 352 453 368Q443 379
446 389Q448 394 453 400Q464 411 517 407Q544 405 581 400Q741 352 741 208Q741 80 685 40Q629 0 557 0Q485 0 405 48L421 64Q501 32 549 32Q597 32 629 72Q661 112 661 208Q661 336 565 384L485 368H501V400H485L549 384Q613 448 613 512Q613 576 581 608Q549
640 493 640Q437 640 421 592T405 336Q405 128 397 48Q389 -32 381 -80Q373 -128 325 -144Z" />
<glyph unicode="&#x3b3;" glyph-name="null" horiz-adv-x="1024" d="M350 480Q398 480 454 384Q510 288 526 176Q542 64 542 -32Q542 -128 518 -136Q494 -144 478 -136Q465 -129 468 -63Q469 -49 470 -32Q478 64 518 200Q558 336 574 376Q590 416 614 448Q638
480 678 480Q718 480 726 456T702 408Q670 384 614 320Q558 256 510 80Q478 272 438 352Q398 432 382 432Q366 432 350 416Q334 400 310 416Q286 432 302 456Q318 480 350 480Z" />
<glyph unicode="&#x3b4;" glyph-name="null" horiz-adv-x="1024" d="M544 672Q592 656 632 624Q672 592 672 568Q672 544 648 536Q624 528 592 584Q560 640 496 656Q448 656 432 647Q416 638 416 608Q416 560 528 496Q736 384 736 224Q736 96 680 48Q624 0 512
0Q416 0 352 48Q288 96 288 224Q304 400 496 480L512 464Q368 368 368 208Q368 112 408 72Q448 32 528 32Q592 32 624 72Q656 112 656 208Q656 352 464 480Q384 544 384 608Q384 640 424 664Q464 688 544 672Z" />
<glyph unicode="&#x3b5;" glyph-name="null" horiz-adv-x="1024" d="M668 129L761 130Q752 74 693 35Q690 32 686 30Q625 -7 536 -9Q528 -9 519 -9Q394 -9 329 34Q261 81 264 139Q269 197 317 232Q359 262 380 267Q391 270 405 272Q363 288 347 304Q344 307 337
315Q308 348 310 384Q315 436 389 480Q459 522 556 522Q650 522 701 475Q745 434 751 373H667Q667 373 650 403Q641 415 632 421Q593 446 553 446Q497 446 462 429Q418 408 411 377Q410 375 410 372Q408 351 435 331Q447 322 464 314Q489 301 542 296V244Q480 239
443 226Q365 198 361 150Q358 124 386 101Q399 92 415 85Q455 69 528 69Q567 69 621 89Q650 101 668 129Z" />
<glyph unicode="&#x3b6;" glyph-name="null" horiz-adv-x="1024" d="M528 688L544 672Q448 624 448 576T472 512Q488 501 507 512Q517 517 528 528L560 544Q432 448 384 368Q336 288 336 192Q336 128 368 112Q400 96 512 80Q656 64 696 40Q736 16 736 -48Q736
-112 696 -136Q656 -160 592 -160Q544 -160 504 -136Q464 -112 456 -88T472 -48Q496 -32 528 -80Q560 -128 608 -128Q656 -128 680 -112Q704 -96 704 -64Q704 -48 680 -32Q656 -16 512 0Q368 16 328 56Q288 96 288 176Q288 272 336 352Q384 432 472 504Q560 576
600 600Q631 618 647 613Q652 612 656 608Q672 592 600 536Q528 480 496 480Q464 480 440 504Q416 528 416 576Q416 640 528 688Z" />
<glyph unicode="&#x3b7;" glyph-name="null" horiz-adv-x="1024" d="M551 451Q490 451 446 408Q403 362 390 297L363 -12H265L305 446Q312 475 303 513Q301 523 298 534H396Q406 498 404 454Q488 532 580 532Q653 532 711 491Q764 453 759 352Q758 346 758 339L713
-174H615L660 339Q664 383 653 408Q647 421 638 428Q611 451 551 451Z" />
<glyph unicode="&#x3b8;" glyph-name="null" horiz-adv-x="1024" d="M242 378Q256 528 341 642T545 756Q664 756 730 642Q791 537 784 399Q783 388 782 377Q768 217 682 104Q598 -10 477 -10Q361 -10 293 104Q233 210 240 355Q241 366 242 378ZM679 359H342Q336
270 352 207Q360 175 374 150Q418 71 485 71Q552 71 610 150Q665 227 679 359ZM350 431H684Q685 500 670 552Q662 577 650 598Q605 675 537 675Q470 675 414 598Q368 537 350 431Z" />
<glyph unicode="&#x3b9;" glyph-name="null" horiz-adv-x="1024" d="M621 -122Q559 -113 479 -54Q392 32 394 147Q395 163 397 178L463 566H565L499 178Q490 76 558 17Q594 -15 630 -15Q630 -14 627 -43Q621 -122 621 -122Z" />
<glyph unicode="&#x3ba;" glyph-name="null" horiz-adv-x="1024" d="M360 480Q392 480 400 392Q405 333 404 264Q403 230 400 192Q392 80 384 40Q376 0 344 0Q312 0 312 16Q312 32 328 152Q341 252 338 324Q337 338 336 352Q328 432 320 456Q312 480 360 480ZM376
288Q440 400 488 432Q536 464 576 472Q602 477 625 472Q637 470 648 464Q680 448 648 416T592 408Q568 432 512 400Q456 368 376 256V288ZM392 288Q456 288 536 176Q616 48 632 40Q648 32 656 32Q664 32 696 64L712 48Q680 0 640 0T568 24T472 176Q440 256 392
272V288Z" />
<glyph unicode="&#x3bb;" glyph-name="null" horiz-adv-x="1024" d="M514 496L546 400L322 32Q306 0 258 0Q226 0 244 35Q253 53 274 80L514 496ZM306 592Q322 624 346 648Q370 672 418 672T498 640Q530 608 586 376Q642 144 658 88T706 32Q738 32 770 64L786
48Q754 0 690 0Q626 16 610 80L538 376Q482 608 458 624Q434 640 402 640Q370 640 354 624Q338 608 322 576L306 592Z" />
<glyph unicode="&#x3bc;" glyph-name="null" horiz-adv-x="1024" d="M682 357Q670 257 739 182Q776 141 808 137L802 54Q760 51 709 90Q660 127 646 178Q585 94 526 76Q505 69 480 69Q405 69 362 127L350 28Q343 -44 314 -143H216Q254 -26 266 82Q266 86 266 89L306
524H398L380 332Q370 210 425 163Q446 145 472 145Q539 145 566 209Q577 232 580 264L602 524H696L682 357Z" />
<glyph unicode="&#x3bd;" glyph-name="null" horiz-adv-x="1024" d="M248 448Q280 496 312 496Q392 496 424 424T552 64Q632 144 672 272Q712 400 688 416Q664 432 664 448Q664 464 680 480Q696 496 720 496Q744 496 760 480Q776 464 776 440Q776 416 760 368Q744
320 680 200Q616 80 536 0H504Q376 464 312 464Q280 464 264 432L248 448Z" />
<glyph unicode="&#x3be;" glyph-name="null" horiz-adv-x="1024" d="M458 672L474 656Q378 640 378 592Q378 544 410 528L618 544L586 528Q458 528 410 496Q362 464 362 416Q362 352 442 320L570 336L538 320Q362 320 346 224T378 104Q426 80 522 80Q666 80 698
56Q730 32 730 -32Q730 -112 682 -136Q634 -160 570 -160Q522 -160 482 -136Q442 -112 434 -88T450 -48Q474 -32 506 -80Q538 -128 586 -128Q634 -128 666 -112Q698 -96 698 -64Q698 -32 674 -16T522 0Q378 0 330 48T298 200Q314 304 418 336Q513 365 588 361Q595
361 602 360Q682 352 682 328Q682 304 602 304H442Q410 304 370 328T330 416Q330 480 378 511T498 551Q570 560 642 552Q714 544 714 528T618 504T458 504Q394 512 370 528Q346 544 346 592Q346 656 458 672Z" />
<glyph unicode="&#x3bf;" glyph-name="null" horiz-adv-x="1024" d="M250 266Q261 377 340 454Q416 532 536 532Q652 532 718 454Q780 379 774 277Q774 271 774 265Q763 145 684 68Q606 -10 488 -10Q370 -10 306 68Q244 143 250 253Q250 259 250 266ZM352 265Q348
202 365 158Q374 137 388 120Q432 71 494 71Q557 71 612 120Q664 172 672 266Q677 326 660 368Q652 388 638 404Q590 451 528 451Q464 451 412 404Q362 358 352 265Z" />
<glyph unicode="&#x3c0;" glyph-name="null" horiz-adv-x="1024" d="M232 416Q296 480 344 480H680Q728 480 776 512L792 496Q744 416 696 416L344 432Q280 432 248 400L232 416ZM440 464L488 448L408 128Q376 0 312 0Q264 0 232 80L248 96Q280 48 312 48Q344
48 360 80L440 464ZM600 448H664V80Q664 32 696 32T760 64L776 48Q744 0 680 0Q600 0 600 112V448Z" />
<glyph unicode="&#x3c1;" glyph-name="null" horiz-adv-x="1024" d="M504 480Q616 480 680 416T744 240T680 64Q616 0 520 0Q424 0 352 64Q280 128 280 224V256Q280 352 344 416T520 480V448Q424 448 392 392Q360 336 360 240Q360 144 400 88Q440 32 504 32Q600
32 632 88Q664 144 664 241Q664 338 632 393Q600 448 504 448V480ZM280 240L328 224Q344 112 352 24Q360 -64 368 -96Q376 -128 344 -144Q318 -157 303 -154Q299 -153 296 -152Q283 -145 286 -106Q287 -98 288 -88Q293 -51 288 82Q285 149 280 240Z" />
<glyph unicode="&#x3c2;" glyph-name="null" horiz-adv-x="1024" d="M526 39Q309 66 309 292Q309 391 378 458Q448 526 565 526Q654 526 715 445Q717 431 690 412Q674 401 666 405Q654 405 645 423Q644 425 641 430Q627 456 584 464Q572 466 559 466Q474 465 419
411Q371 364 371 294Q371 161 470 118Q501 105 542 99Q616 88 646 34Q659 11 659 -17Q659 -109 536 -121Q520 -123 502 -123L501 -62Q586 -60 589 -17Q589 0 566 21Q547 39 526 39Z" />
<glyph unicode="&#x3c3;" glyph-name="null" horiz-adv-x="1024" d="M504 480Q616 480 680 416T744 240T680 64Q616 0 520 0Q424 0 352 64Q280 128 280 240Q280 352 344 416T520 480V448Q424 448 392 392Q360 336 360 240Q360 144 400 88Q440 32 504 32Q600 32
632 88Q664 144 664 241Q664 338 632 393Q600 448 504 448V480ZM536 464Q632 464 664 496T704 528Q712 528 728 504T720 464Q696 448 568 448L536 464Z" />
<glyph unicode="&#x3c4;" glyph-name="null" horiz-adv-x="1024" d="M232 416Q296 480 344 480H680Q728 480 776 512L792 496Q744 416 696 416L344 432Q280 432 248 400L232 416ZM472 448H536V80Q536 32 568 32T632 64L648 48Q616 0 552 0Q472 0 472 112V448Z" />
<glyph unicode="&#x3c5;" glyph-name="null" horiz-adv-x="1024" d="M267 432Q315 480 355 480Q395 480 419 448Q437 423 432 282Q430 242 427 192Q427 80 467 56Q507 32 555 32Q603 32 659 80Q715 128 723 232Q731 336 723 376T667 424Q619 432 619 456Q619 480
651 488Q683 496 707 472Q731 448 747 384Q760 331 757 251Q756 234 755 216Q747 112 683 56Q619 0 539 0Q427 0 387 48T347 192Q363 416 347 432Q336 443 312 432Q299 427 283 416L267 432Z" />
<glyph unicode="&#x3c6;" glyph-name="null" horiz-adv-x="1024" d="M432 480L448 464Q384 448 360 400Q336 352 336 256T360 120Q384 80 424 56Q464 32 528 32T632 56Q672 80 688 120Q704 160 704 256Q704 352 688 400Q672 448 632 456Q606 461 586 456Q576 454
568 448Q544 432 536 392Q531 365 536 247Q539 188 544 104Q555 -61 548 -120Q544 -149 536 -152Q512 -160 480 -160Q453 -160 460 -127Q461 -120 464 -112Q480 -64 480 152Q480 368 496 408Q512 448 544 464Q576 480 616 480Q656 480 688 456Q720 432 728 392Q736
352 736 248Q736 144 712 96Q688 48 648 24Q608 0 520 0Q432 0 384 32Q336 64 312 104T288 256Q288 368 320 416Q352 464 432 480Z" />
<glyph unicode="&#x3c7;" glyph-name="null" horiz-adv-x="1024" d="M618 352Q650 400 658 440Q666 480 730 480Q762 480 745 445Q736 427 714 400L346 -128Q330 -160 282 -160Q234 -160 298 -80L618 352ZM282 400Q298 432 322 456Q346 480 394 480Q442 480 474
448Q506 416 562 200Q618 -16 634 -72Q650 -128 682 -128Q714 -128 746 -96L762 -112Q730 -160 666 -160Q602 -144 586 -80L514 200Q458 416 434 432Q410 448 378 448Q346 448 330 432Q314 416 298 384L282 400Z" />
<glyph unicode="&#x3c8;" glyph-name="null" horiz-adv-x="1024" d="M541 21L525 -159Q422 -158 422 -158L438 23Q333 35 259 95Q166 166 172 280Q172 285 173 290Q183 417 262 485Q303 522 378 542L369 439Q336 427 317 405Q281 366 275 290Q271 245 291 210Q302
190 321 173Q355 138 447 126L488 684Q488 684 591 684L550 125Q627 133 681 175Q743 228 749 294Q754 355 737 392Q724 419 701 434L711 546Q776 522 805 485Q858 418 852 309Q851 302 851 294Q840 173 731 95Q637 32 541 21Z" />
<glyph unicode="&#x3c9;" glyph-name="null" horiz-adv-x="1024" d="M396 480L412 464Q348 448 308 376Q268 304 268 216Q268 128 308 80Q348 32 396 32Q444 32 508 128L524 288L508 144Q556 32 620 32Q684 32 716 72Q748 112 756 208Q764 304 732 376T636 464L652
480Q732 464 780 400Q828 336 828 216Q828 96 772 48Q716 0 620 0Q556 0 524 40Q492 80 484 168Q479 226 484 260Q487 277 492 288Q508 320 524 320Q540 320 548 296T548 192Q540 112 492 56Q444 0 396 0Q300 0 244 64Q188 128 196 232Q204 336 260 400Q316 464
396 480Z" />
<glyph unicode="&#x3d1;" glyph-name="null" horiz-adv-x="1024" d="M392 236Q331 96 375 40Q386 26 398 24Q454 24 514 86Q573 147 594 233Q613 322 618 409L622 453V483Q622 561 611 619Q604 655 592 679Q584 701 550 706Q529 709 514 701Q495 693 485 656Q477
629 484 609Q513 518 572 486Q582 481 592 478L618 477Q626 477 646 479Q710 486 779 514Q790 518 798 523L824 460Q754 422 663 409Q602 401 554 412Q487 427 442 500Q416 543 406 595Q394 666 434 720Q453 746 482 761Q535 790 602 757Q641 737 660 705Q701 634
708 499Q709 446 700 343Q694 275 688 247Q651 83 544 3Q473 -51 386 -51Q298 -49 282 49Q268 134 308 239Q356 360 334 405Q325 423 304 436Q292 444 245 418Q232 410 226 407L200 452Q256 498 310 496Q325 495 338 489Q394 462 411 389Q427 317 392 236Z" />
<glyph unicode="&#x3d5;" glyph-name="null" horiz-adv-x="1024" d="M406 462Q370 431 344 367Q332 335 332 313Q332 181 440 147Q469 138 499 138Q595 138 653 207Q689 250 690 298Q693 356 664 400Q647 428 626 428Q596 428 575 385Q561 358 545 305Q496 153
437 -119Q425 -138 393 -129Q366 -121 365 -100Q431 182 479 324Q534 481 606 492Q613 493 621 493Q699 493 738 412Q763 362 762 296Q761 205 685 138Q606 68 490 68Q385 68 321 134Q261 196 262 299Q262 404 335 490L406 462Z" />
<glyph unicode="&#x401;" glyph-name="null" horiz-adv-x="1024" d="M240 -12V690H784L782 600H338V405H722V315H338V78H782V-12H240ZM338 744V862H456V744H338ZM586 744V862H704V744H586Z" />
<glyph unicode="&#x410;" glyph-name="null" horiz-adv-x="1024" d="M849 -12H745L664 210H360L279 -12H175L454 750H570L849 -12ZM393 300H631L516 614H508L393 300Z" />
<glyph unicode="&#x411;" glyph-name="null" horiz-adv-x="1024" d="M754 751V657H334V444H448Q574 444 628 426Q652 418 672 406Q765 351 784 260Q788 241 788 223V222Q788 116 718 52Q646 -12 460 -12H236V750L754 751ZM684 222Q684 293 632 324Q581 352 472
354Q460 354 448 354H334V78H460Q598 78 642 120Q684 161 684 221V222Z" />
<glyph unicode="&#x412;" glyph-name="null" horiz-adv-x="1024" d="M236 -12V750H468Q619 750 692 698Q762 646 762 547V546Q762 462 672 392Q787 322 788 217V216Q788 116 718 52Q646 -12 460 -12H236ZM684 216Q684 281 632 312Q578 342 448 342H334V78H460Q598
78 642 120Q685 161 684 215V216ZM658 546Q658 601 620 630Q580 660 468 660H334V432H448Q577 432 618 462Q658 491 658 545V546Z" />
<glyph unicode="&#x413;" glyph-name="null" horiz-adv-x="1024" d="M796 751L228 750V-12H328V660H794L796 751Z" />
<glyph unicode="&#x414;" glyph-name="null" horiz-adv-x="1024" d="M225 107H266Q298 170 324 313Q327 325 328 333Q346 427 346 710V739Q345 745 348 746Q350 747 354 746H806V107H842L844 -27H747L746 18H300Q293 10 288 -13Q286 -22 281 -27H180Q207 23 217
100Q217 104 219 106Q220 108 225 107ZM369 107H708V657H444Q442 434 422 313Q420 306 419 299Q401 188 369 107Z" />
<glyph unicode="&#x415;" glyph-name="null" horiz-adv-x="1024" d="M241 -12V750H783V660H339V432H723V342H339V78H783V-12H241Z" />
<glyph unicode="&#x416;" glyph-name="null" horiz-adv-x="1024" d="M856 675Q773 675 755 503Q743 379 663 354Q634 345 552 345V429Q621 414 665 501Q683 538 685 562Q699 739 824 755Q839 757 856 757H933Q933 757 932 675H856ZM552 413Q659 413 703 391Q732
376 767 341Q789 319 842 222Q848 209 853 201Q903 109 943 64Q963 42 991 15H879Q834 60 768 165Q757 183 728 247Q713 279 693 308Q671 340 660 347Q639 359 552 359V413ZM168 675H92Q92 676 91 757H168Q285 757 322 652Q335 614 339 562Q342 528 370 483Q412
416 472 429V345Q389 345 360 354Q281 380 269 503Q251 675 168 675ZM472 413V359Q383 359 362 346Q352 339 331 308Q311 279 283 215Q270 188 256 165Q190 60 145 15H33Q102 81 142 149Q153 167 171 201Q229 308 246 329Q252 336 257 341Q308 392 358 404Q395
413 472 413ZM463 -13V770H561V-13H463Z" />
<glyph unicode="&#x417;" glyph-name="null" horiz-adv-x="1024" d="M214 175H319Q336 136 371 115Q373 114 375 113Q430 86 473 83Q481 83 489 83Q576 83 633 112Q707 149 707 209Q707 282 624 327Q618 330 612 332Q554 360 497 366V438Q566 447 597 466Q665
513 670 561Q670 613 611 646Q558 675 487 675Q437 675 377 641Q375 640 373 639Q346 623 323 573Q321 570 320 567H211Q227 638 278 681Q284 686 290 690Q388 756 488 756Q613 756 690 702Q694 699 697 697Q782 634 782 560Q782 509 743 462Q714 427 687 415Q672
409 648 402Q696 395 740 358Q747 353 758 342Q813 293 813 210Q813 127 723 60Q645 2 517 -2Q504 -2 490 -2Q389 -2 315 42Q304 49 292 57Q234 96 214 175Z" />
<glyph unicode="&#x418;" glyph-name="null" horiz-adv-x="1024" d="M722 -12V600L721 596L327 -12H204V750H302V140L303 147L697 750H820V-12H722Z" />
<glyph unicode="&#x419;" glyph-name="null" horiz-adv-x="1024" d="M289 799L373 865Q414 797 506 797Q595 797 642 848Q649 857 658 868L739 798Q665 725 589 709Q554 702 506 702Q414 702 365 732Q329 753 289 799ZM722 -12V588L721 584L327 -12H204V738H302V140L303
147L703 738H820V-12H722Z" />
<glyph unicode="&#x41a;" glyph-name="null" horiz-adv-x="1024" d="M520 478Q477 341 285 289V382Q369 405 415 474L458 546Q543 687 651 749Q659 753 667 757H794V750Q621 631 551 535Q528 504 520 478ZM517 497L836 -12H710L445 423L517 497ZM286 -12H188V750H286V-12Z"
/>
<glyph unicode="&#x41b;" glyph-name="null" horiz-adv-x="1024" d="M188 -45V57Q277 93 324 246Q365 379 360 630Q360 673 358 728H836V-34H738V639H457Q458 435 429 274Q408 157 377 109Q320 21 268 -8L188 -45Z" />
<glyph unicode="&#x41c;" glyph-name="null" horiz-adv-x="1024" d="M217 -12H119V750H242L521 174H531L782 750H905V-12H807V552H801L558 -9H494L223 552H217V-12Z" />
<glyph unicode="&#x41d;" glyph-name="null" horiz-adv-x="1024" d="M318 -12H220V750H318V432H706V750H804V-12H706V342H318V-12Z" />
<glyph unicode="&#x41e;" glyph-name="null" horiz-adv-x="1024" d="M132 380Q132 528 244 642Q355 756 519 756T787 642T892 380Q892 218 788 104Q684 -10 520 -10T244 104T132 380ZM236 380Q236 230 323 151T520 71Q629 71 708 150Q788 230 788 380Q788 521
708 598Q628 675 520 675Q410 675 324 598Q236 521 236 380Z" />
<glyph unicode="&#x41f;" glyph-name="null" horiz-adv-x="1024" d="M318 -12H220V750H804V-12H706V661H318V-12Z" />
<glyph unicode="&#x420;" glyph-name="null" horiz-adv-x="1024" d="M334 -12H236V750H500Q662 750 725 696Q788 642 788 547Q788 450 725 396Q662 342 500 342H334V-12ZM684 547Q684 605 650 632Q615 660 500 660H334V432H500Q615 432 650 460Q684 487 684 547Z" />
<glyph unicode="&#x421;" glyph-name="null" horiz-adv-x="1024" d="M140 378Q140 530 251 643Q362 756 526 756Q665 756 756 683Q848 610 868 496H760Q743 577 684 626Q624 675 526 675Q419 675 332 598Q244 521 244 377Q244 230 331 151T526 71Q624 71 692 126Q760
180 776 273H884Q867 160 782 75Q698 -10 526 -10Q362 -10 251 103Q140 216 140 378Z" />
<glyph unicode="&#x422;" glyph-name="null" horiz-adv-x="1024" d="M560 -12H462V660H156V750H868V660H560V-12Z" />
<glyph unicode="&#x423;" glyph-name="null" horiz-adv-x="1024" d="M382 -13L436 88L149 750H266L498 218L753 751H875L485 -36Q432 -144 288 -126Q271 -124 253 -120V-25Q318 -46 353 -35Q372 -29 382 -13Z" />
<glyph unicode="&#x424;" glyph-name="null" horiz-adv-x="1024" d="M352 219Q418 174 460 167V570Q415 562 352 520Q281 475 275 384L274 368Q274 275 349 221L352 219ZM749 184Q678 130 611 116L556 109V-14H459V111Q376 118 300 169Q200 236 181 331Q177 349
177 368V369Q177 474 280 554Q364 618 460 628V756H558V628Q675 616 751 554Q850 473 847 369Q845 286 776 210Q762 194 749 184ZM683 518Q625 560 558 570V166Q612 174 667 212Q738 260 748 346L749 369Q749 469 683 518Z" />
<glyph unicode="&#x425;" glyph-name="null" horiz-adv-x="1024" d="M879 -12H757L501 324L267 -12H145L438 407L177 749L299 750L523 456L731 750H853L586 372L879 -12Z" />
<glyph unicode="&#x426;" glyph-name="null" horiz-adv-x="1024" d="M692 20H222V750H320V109H656V750H754L756 113H794L802 -36H700L692 20Z" />
<glyph unicode="&#x427;" glyph-name="null" horiz-adv-x="1024" d="M658 770H763V-13H658V267Q581 194 478 194Q399 194 332 232Q272 266 262 369Q261 384 261 399V770H368V399Q368 335 402 310Q431 288 499 288Q556 288 598 324Q630 350 634 356Q648 375 658 419V770Z" />
<glyph unicode="&#x428;" glyph-name="null" horiz-adv-x="1024" d="M878 22V750H780V109H560V750H462V109H244V750H146V20L878 22Z" />
<glyph unicode="&#x429;" glyph-name="null" horiz-adv-x="1024" d="M536 109H756V750H854V112L856 113H894L902 -36H800L792 20H122V750H220V109H438V750H536V109Z" />
<glyph unicode="&#x42a;" glyph-name="null" horiz-adv-x="1024" d="M794 231Q794 298 754 333Q748 338 741 342Q704 362 685 366Q656 372 592 372H498V78H604Q697 78 733 105Q741 111 751 120Q790 166 794 230V231ZM400 659H128V750L498 751V462H592Q689 462
729 448Q754 440 782 424Q865 375 889 283Q896 257 896 232V231Q896 122 835 59Q831 56 827 52Q772 3 691 -7Q654 -12 604 -12H400V659Z" />
<glyph unicode="&#x42b;" glyph-name="null" horiz-adv-x="1024" d="M846 770V-12H746V770H846ZM276 770V462H372Q476 462 519 448Q544 439 570 424Q653 375 677 283Q684 257 684 232V231Q684 122 623 59Q619 56 616 52Q556 -1 450 -10Q421 -12 384 -12H178V770H276ZM582
231Q582 298 542 333Q536 338 530 342Q490 364 456 368Q427 372 372 372H276V78H384Q487 78 527 109Q533 114 540 120Q578 166 582 230V231Z" />
<glyph unicode="&#x42c;" glyph-name="null" horiz-adv-x="1024" d="M334 770V462H448Q574 462 628 444Q652 436 672 424Q754 375 780 286Q788 259 788 232V231Q788 129 730 64Q724 58 718 52Q646 -12 460 -12H236V770H334ZM684 231Q684 298 644 333Q638 338 632
342Q581 370 472 372Q460 372 448 372H334V78H460Q598 78 642 120Q680 166 684 230V231Z" />
<glyph unicode="&#x42d;" glyph-name="null" horiz-adv-x="1024" d="M771 336H341V423H771Q759 532 686 598Q598 675 492 675Q392 675 334 626Q294 595 272 544H162Q190 626 261 683Q352 756 492 756Q661 756 768 646Q877 536 877 378Q877 214 768 104Q657 -10
492 -10Q320 -10 235 75Q173 137 147 216H258Q281 161 326 126Q391 71 492 71Q598 71 686 150Q760 218 771 336Z" />
<glyph unicode="&#x42e;" glyph-name="null" horiz-adv-x="1024" d="M375 380Q375 229 452 150Q527 71 619 71Q711 71 780 150Q850 227 850 380Q850 521 779 598Q708 675 619 675Q528 675 452 599Q375 522 375 380ZM277 345H173V-12H75V768H173V440H279Q290 546
354 624Q362 634 372 645Q463 744 586 755Q602 756 619 756Q767 756 858 644Q949 534 949 380Q949 214 857 103Q765 -10 619 -10Q474 -10 374 103Q286 204 277 345Z" />
<glyph unicode="&#x42f;" glyph-name="null" horiz-adv-x="1024" d="M707 -13H805V750H549Q392 750 332 711Q324 706 316 699Q252 645 252 546Q252 449 306 404Q358 358 449 346L219 -13H351L550 341H707V-13ZM356 546Q356 599 391 632Q423 660 549 660H707V431H541Q427
431 391 462Q356 495 356 546Z" />
<glyph unicode="&#x430;" glyph-name="null" horiz-adv-x="1024" d="M518 532Q605 532 662 486T718 350V104Q718 42 742 -10H634Q628 21 624 48Q598 22 558 6Q518 -9 478 -10Q385 -10 334 26T282 135Q282 184 318 229Q354 274 422 306Q492 338 620 364V378Q620
416 596 444Q572 471 518 471Q466 471 442 448Q417 426 410 385H310Q317 452 380 492Q441 532 518 532ZM386 136Q386 91 415 76T478 61Q514 62 551 78Q588 94 620 153V294Q530 274 482 254Q434 235 410 206Q386 177 386 136Z" />
<glyph unicode="&#x431;" glyph-name="null" horiz-adv-x="1024" d="M533 478Q608 478 673 416Q739 354 739 240Q739 141 675 70Q610 -2 511 -2Q414 -2 348 70Q299 123 290 244Q287 287 287 345L286 489Q291 570 328 612Q373 664 463 677Q476 679 493 681Q590
691 645 709Q673 718 715 734V638Q637 614 555 610Q545 609 541 609Q428 603 398 565Q366 526 370 451Q371 435 374 413Q420 478 533 478ZM511 79Q568 79 606 119T644 240Q644 322 610 360Q576 397 530 397Q464 397 426 360Q392 328 382 277Q388 156 424 118Q460
79 511 79Z" />
<glyph unicode="&#x432;" glyph-name="null" horiz-adv-x="1024" d="M287 -12V522H480Q600 522 660 485Q716 449 716 380V379Q716 320 644 271Q737 221 737 148Q737 78 680 33T474 -12H287ZM651 148Q651 190 609 211Q573 227 535 229Q520 230 498 230H374V58H471Q583
58 617 86Q651 111 651 147V148ZM630 380Q630 416 599 435Q568 454 477 454H374V304H498Q563 304 588 318Q589 319 597 324Q630 342 630 380Z" />
<glyph unicode="&#x433;" glyph-name="null" horiz-adv-x="1024" d="M298 513H726V420H394V-12H298V513Z" />
<glyph unicode="&#x434;" glyph-name="null" horiz-adv-x="1024" d="M274 94H306Q340 163 354 268Q364 351 364 537Q364 541 367 544Q370 547 374 546H744V94H774L784 -26H696L690 10H336L320 -21H240Q256 6 267 84Q267 87 268 89Q268 94 274 94ZM396 94H656V464H444Q441
346 428 234Q416 146 396 94Z" />
<glyph unicode="&#x435;" glyph-name="null" horiz-adv-x="1024" d="M236 260Q236 368 312 450Q387 532 508 532Q629 532 704 464Q780 396 780 266H672H340V259Q340 166 392 118Q444 71 512 71Q576 71 618 92Q660 112 680 172H788Q774 90 702 40Q632 -10 512 -10Q390
-10 313 72Q236 154 236 260ZM508 451Q441 451 402 416Q364 381 350 340H664Q652 391 613 421T508 451Z" />
<glyph unicode="&#x436;" glyph-name="null" horiz-adv-x="1024" d="M768 449H823V521H768Q698 521 670 487Q646 458 641 400Q639 370 617 339Q590 302 551 310V246Q618 246 637 251Q693 268 701 348Q710 430 741 444Q752 449 768 449ZM551 287V243Q618 243 633
232Q638 228 652 209Q661 196 692 142Q699 130 707 118Q761 38 787 13H876Q827 58 793 116Q788 124 777 143Q731 222 722 233Q719 237 716 240Q675 279 615 285Q591 287 551 287ZM254 449H199V521H254Q324 521 352 487Q376 458 381 400Q385 365 409 335Q435 303
471 310V246Q404 246 385 251Q330 268 321 348Q313 431 279 445Q269 449 254 449ZM471 287V243Q404 243 389 231Q384 227 371 209Q360 194 329 141Q323 129 315 118Q263 41 253 29Q245 20 237 12H148Q197 57 230 114Q235 124 246 143Q290 221 303 236Q305 238 307
240Q347 279 407 285Q430 287 471 287ZM465 -3V530H557V-3H465Z" />
<glyph unicode="&#x437;" glyph-name="null" horiz-adv-x="1024" d="M357 129Q373 101 400 89Q457 70 491 69Q564 69 606 85Q659 107 665 143Q666 146 666 150Q666 198 590 226Q553 239 497 244V296Q551 301 577 314Q636 341 636 372Q636 405 594 427Q591 428
589 429Q551 446 490 446Q439 446 399 421Q377 408 356 373H262Q275 434 328 475Q390 522 493 522Q600 522 666 480Q737 436 737 384Q737 350 704 315Q681 292 660 283Q650 279 632 272Q669 267 702 243Q689 253 717 232Q762 198 762 139Q762 82 687 34Q619 -9
494 -9Q397 -9 340 24Q335 27 330 30Q276 65 265 119Q264 124 264 130L357 129Z" />
<glyph unicode="&#x438;" glyph-name="null" horiz-adv-x="1024" d="M649 -13V391L643 381L388 -12H278V515H375V112L381 125L636 513H746V-13H649Z" />
<glyph unicode="&#x439;" glyph-name="null" horiz-adv-x="1024" d="M331 626L393 681Q419 644 478 636Q489 634 500 634Q579 634 621 683L681 625Q618 571 559 562Q534 558 500 558Q423 558 383 583Q359 598 331 626ZM649 -13V391L643 381L388 -12H278V515H375V112L381
125L636 513H746V-13H649Z" />
<glyph unicode="&#x43a;" glyph-name="null" horiz-adv-x="1024" d="M528 303Q497 192 363 152V236Q421 254 452 309L480 365Q541 481 622 526H720V520Q611 436 557 360Q535 328 528 303ZM527 320L753 -9H654L468 259L527 320ZM364 -9H271V520H364V-9Z" />
<glyph unicode="&#x43b;" glyph-name="null" horiz-adv-x="1024" d="M241 -18V73Q298 97 325 147Q336 169 350 208Q370 268 373 355Q374 403 373 512H783V-9H682V421H467Q464 227 417 126Q408 107 396 87Q358 21 272 -8Q258 -13 241 -18Z" />
<glyph unicode="&#x43c;" glyph-name="null" horiz-adv-x="1024" d="M302 -12H207V519H327L519 131H528L697 519H817V-12H722V386H717L550 -10H497L307 386H302V-12Z" />
<glyph unicode="&#x43d;" glyph-name="null" horiz-adv-x="1024" d="M640 224H384V-12H286V521H384V317H640V521H738V-12H640V224Z" />
<glyph unicode="&#x43e;" glyph-name="null" horiz-adv-x="1024" d="M236 266Q236 376 312 454Q387 532 512 532Q635 532 711 454T788 265Q788 146 712 68Q635 -10 512 -10Q387 -10 312 68T236 266ZM340 265Q340 170 392 120Q442 71 511 71T632 120Q683 170 684
266Q684 357 632 404Q581 451 512 451Q442 451 392 404Q340 357 340 265Z" />
<glyph unicode="&#x43f;" glyph-name="null" horiz-adv-x="1024" d="M640 420H384V-12H286V513H738V-12H640V420Z" />
<glyph unicode="&#x440;" glyph-name="null" horiz-adv-x="1024" d="M280 -116V534H378V469Q445 532 520 532Q615 532 680 464Q744 396 744 286Q744 178 677 114Q610 50 518 46Q442 46 378 84V-116H280ZM518 127Q575 131 608 170Q640 208 640 286Q640 362 606
406Q572 451 518 451Q454 451 419 410Q384 369 378 342V196Q392 157 431 142Q470 127 518 127Z" />
<glyph unicode="&#x441;" glyph-name="null" horiz-adv-x="1024" d="M236 260Q236 368 312 450Q387 532 508 532Q635 532 702 475T778 336H674Q662 399 623 425Q584 451 508 451Q440 451 391 406T340 259Q340 166 392 118Q444 71 512 71Q576 71 618 92Q660 112
680 172H788Q774 90 702 40Q632 -10 512 -10Q390 -10 313 72Q236 154 236 260Z" />
<glyph unicode="&#x442;" glyph-name="null" horiz-adv-x="1024" d="M560 -12H462V413H227V503H797V413H560V-12Z" />
<glyph unicode="&#x443;" glyph-name="null" horiz-adv-x="1024" d="M395 -20L438 66L240 534H345L495 180L672 534H784L498 -36Q445 -144 301 -126Q284 -124 266 -120V-34Q331 -55 367 -42Q385 -36 395 -20Z" />
<glyph unicode="&#x444;" glyph-name="null" horiz-adv-x="1024" d="M678 127Q723 132 752 168Q782 204 782 286Q782 365 750 408Q720 451 678 451Q620 451 590 409T554 340V193Q566 156 602 142Q636 127 678 127ZM464 73Q422 46 362 46Q269 51 209 113Q149 176
149 286Q149 378 200 455Q251 532 340 532Q405 532 464 478V770H554V468Q611 532 680 532Q760 532 817 464Q875 395 875 286Q875 180 818 115Q761 51 678 46Q610 46 554 82V-116H464V73ZM464 177V345Q455 375 436 402Q399 451 342 451Q300 451 272 398Q242 347
242 286Q242 200 276 166Q308 132 362 127Q405 127 434 143Q453 154 464 177Z" />
<glyph unicode="&#x445;" glyph-name="null" horiz-adv-x="1024" d="M824 -12H692L498 211L322 -12H200L434 284L216 534H348L524 333L674 534H796L589 257L824 -12Z" />
<glyph unicode="&#x446;" glyph-name="null" horiz-adv-x="1024" d="M664 8H260V516H359V94H623V514H722V94H757L764 -31H672L664 8Z" />
<glyph unicode="&#x447;" glyph-name="null" horiz-adv-x="1024" d="M619 518H714V2H619V206Q564 146 479 146Q416 146 365 176Q312 214 310 310V518H404V319Q404 268 429 247Q450 230 502 230Q543 230 575 258Q600 281 603 288Q612 302 619 335V518Z" />
<glyph unicode="&#x448;" glyph-name="null" horiz-adv-x="1024" d="M464 105V520H560V105H705V521H804V12H220V521H319V105H464Z" />
<glyph unicode="&#x449;" glyph-name="null" horiz-adv-x="1024" d="M725 12H200V521H298V105H444V520H540V105H684V521H784V105H818L824 -26H732L725 12Z" />
<glyph unicode="&#x44a;" glyph-name="null" horiz-adv-x="1024" d="M762 154Q762 201 724 224Q693 238 657 240Q643 240 616 240H508V62H590Q693 62 728 90Q762 116 762 154ZM508 522V316H616Q725 316 762 294Q765 292 768 290Q848 230 848 153Q848 79 790 33Q733
-12 592 -12H420V431H176V522Q176 522 508 522Z" />
<glyph unicode="&#x44b;" glyph-name="null" horiz-adv-x="1024" d="M797 -12H699V521H797V-12ZM558 154Q558 203 520 224Q491 238 458 239Q444 240 415 240H314V62H404Q486 62 517 84Q520 87 524 90Q558 115 558 154ZM644 153Q644 78 587 33T391 -12H227V522H314V316H415Q520
316 557 295Q561 293 564 290Q644 232 644 153Z" />
<glyph unicode="&#x44c;" glyph-name="null" horiz-adv-x="1024" d="M646 154Q646 203 608 224Q578 239 531 240Q517 240 496 240H378V62H468Q579 62 612 90Q646 115 646 154ZM732 153Q732 78 675 33T472 -12H292V522H378V316H496Q613 316 652 290Q732 232 732 153Z" />
<glyph unicode="&#x44d;" glyph-name="null" horiz-adv-x="1024" d="M673 224H333Q333 307 333 307H672Q661 374 625 406Q576 451 508 451Q431 451 393 425Q371 411 359 386H249Q266 434 313 475Q380 532 508 532Q628 532 703 450Q779 368 779 260Q779 156 703
72Q625 -10 504 -10Q384 -10 313 40Q265 74 245 119H364Q400 71 504 71Q570 71 623 118Q664 156 673 224Z" />
<glyph unicode="&#x44e;" glyph-name="null" horiz-adv-x="1024" d="M509 265Q509 170 543 120Q578 71 623 71Q669 71 704 120Q738 170 738 266Q738 358 704 404Q669 451 623 451Q578 451 543 404Q509 358 509 265ZM412 315Q423 399 467 454Q530 531 628 532Q724
532 785 454Q841 381 841 265Q841 141 785 68Q724 -10 628 -10Q527 -10 467 68Q419 129 411 227H281V-12H183V521H281V315H412Z" />
<glyph unicode="&#x44f;" glyph-name="null" horiz-adv-x="1024" d="M662 -5H746V519H542Q412 519 358 481Q313 448 306 382Q304 373 304 364Q304 296 341 260Q345 255 350 252Q397 216 458 210L278 -5H382L542 208H662V-5ZM388 363Q388 398 422 426Q451 448 542
448H662V278H536Q451 278 422 300Q388 328 388 363Z" />
<glyph unicode="&#x451;" glyph-name="null" horiz-adv-x="1024" d="M334 581V699H452V581H334ZM582 581V699H700V581H582ZM236 260Q236 368 312 450Q387 532 508 532Q629 532 704 464Q780 396 780 266H672H340V259Q340 166 392 118Q444 71 512 71Q576 71 618
92Q660 112 680 172H788Q774 90 702 40Q632 -10 512 -10Q390 -10 313 72Q236 154 236 260ZM508 451Q441 451 402 416Q364 381 350 340H664Q652 391 613 421T508 451Z" />
<glyph unicode="&#x2003;" glyph-name="null" horiz-adv-x="937" />
<glyph unicode="&#x2010;" glyph-name="null" horiz-adv-x="1024" d="M310 408H706V319H310V408Z" />
<glyph unicode="&#x2015;" glyph-name="null" horiz-adv-x="1024" d="M78 408H938V319H78V408Z" />
<glyph unicode="&#x2016;" glyph-name="null" horiz-adv-x="937" />
<glyph unicode="&#x2017;" glyph-name="null" />
<glyph unicode="&#x2018;" glyph-name="null" horiz-adv-x="1024" d="M772 694L872 836H904L854 720H898V596H772V694Z" />
<glyph unicode="&#x2019;" glyph-name="null" horiz-adv-x="1024" d="M228 738L128 596H96L146 712H102V836H228V738Z" />
<glyph unicode="&#x201c;" glyph-name="null" horiz-adv-x="1024" d="M788 694L888 836H920L870 720H914V596H788V694ZM576 694L676 836H708L658 720H702V596H576V694Z" />
<glyph unicode="&#x201d;" glyph-name="null" horiz-adv-x="1024" d="M222 738L122 596H90L140 712H96V836H222V738ZM434 738L334 596H302L352 712H308V836H434V738Z" />
<glyph unicode="&#x2020;" glyph-name="null" horiz-adv-x="1024" d="M526 236V-76H450V236Q450 366 428 420L449 506Q407 506 335 498T244 490V598Q263 598 335 590T450 582Q450 621 441 695T432 788H544Q544 770 536 697T526 582Q569 582 641 590T732 598V490Q713
490 642 498T527 506L548 420Q526 366 526 236Z" />
<glyph unicode="&#x2021;" glyph-name="null" horiz-adv-x="1024" d="M732 660V560Q713 560 641 568T526 576V544L548 508Q522 462 522 364T548 220L526 184V152Q569 152 641 160T732 168V68Q713 68 642 76T528 84Q531 55 538 -2Q544 -58 544 -76H432Q432 -58
439 -2T448 84Q405 84 334 76T244 68V168Q263 168 335 160T450 152V188L428 220Q454 266 454 364T428 508L450 540V576Q407 576 335 568T244 560V660Q263 660 334 652T448 644Q446 673 439 729T432 804H544Q544 786 538 730T528 644Q571 644 642 652T732 660Z"
/>
<glyph unicode="&#x2025;" glyph-name="null" horiz-adv-x="1024" d="M198 310V414H302V310H198ZM714 310V414H818V310H714Z" />
<glyph unicode="&#x2026;" glyph-name="null" horiz-adv-x="1024" d="M130 310V414H234V310H130ZM454 310V414H558V310H454ZM782 310V414H886V310H782Z" />
<glyph unicode="&#x2030;" glyph-name="null" horiz-adv-x="1024" d="M87 -81L557 842L613 822L143 -101L87 -81ZM26 586Q26 672 69 727T181 782Q248 782 288 727T328 586Q328 499 288 444Q248 390 181 390Q113 390 70 444Q26 499 26 586ZM111 586Q111 527 133
496T181 465Q205 465 224 496T243 586T224 676T181 708Q156 708 134 677T111 586ZM370 154Q370 240 413 295T525 350Q592 350 632 295Q672 240 672 154Q672 67 632 13T525 -42Q457 -42 414 12T370 154ZM455 154Q455 95 477 64T525 33Q549 33 568 64T587 154T568
244T525 276Q500 276 478 245T455 154ZM694 154Q694 240 737 295T849 350Q916 350 956 295Q996 240 996 154Q996 67 956 13T849 -42Q781 -42 738 12T694 154ZM779 154Q779 95 801 64T849 33Q873 33 892 64T911 154T892 244T849 276Q824 276 802 245T779 154Z" />
<glyph unicode="&#x2032;" glyph-name="null" horiz-adv-x="1024" d="M90 602L142 820H264L138 602H90Z" />
<glyph unicode="&#x2033;" glyph-name="null" horiz-adv-x="1024" d="M90 602L142 820H264L138 602H90ZM254 602L330 820H460L302 602H254Z" />
<glyph unicode="&#x203b;" glyph-name="null" horiz-adv-x="1024" d="M73 9L444 380L110 714L154 762L490 425L826 762L870 714L536 380L907 9L861 -36L490 334L119 -36L73 9ZM426 636V772H562V636H426ZM426 -10V126H562V-10H426ZM238 312H102V449H238V312ZM885
312H749V449H885V312Z" />
<glyph unicode="&#x203e;" glyph-name="null" horiz-adv-x="784" />
<glyph unicode="&#x20ac;" glyph-name="null" horiz-adv-x="1024" d="M331 241Q374 130 478 88Q527 69 582 69Q715 69 783 163Q816 207 826 267H932Q907 92 759 25Q683 -10 582 -10Q426 -10 319 96Q256 157 227 241H84L91 298H212Q203 351 207 392Q208 401 210
410L105 412L112 469H220Q257 600 372 676Q467 738 582 738Q748 738 843 635Q901 572 916 484H810Q783 624 645 653Q615 659 582 659Q451 659 373 565Q339 523 323 469H636L629 412H311Q303 355 306 340L314 298H615L608 241H331Z" />
<glyph unicode="&#x2103;" glyph-name="null" horiz-adv-x="1024" d="M228 378Q228 528 331 642T581 756Q705 756 788 683T891 496H783Q767 577 716 626T581 675Q490 675 411 598Q332 521 332 377Q332 230 411 151T581 71Q664 71 723 125T799 273H907Q891 160
814 75T581 -10Q435 -10 332 104T228 378ZM47 687Q47 731 77 762T151 793T226 762T257 687T226 613T151 583T77 613T47 687ZM85 687Q85 658 103 640T151 621Q179 621 198 639T217 687Q217 715 198 734T151 753Q122 753 104 734Q85 715 85 687Z" />
<glyph unicode="&#x2113;" glyph-name="null" horiz-adv-x="1024" d="M469 257Q605 406 609 547Q612 639 588 666Q573 684 545 684Q466 684 458 460Q456 428 457 393Q457 326 469 257ZM398 189Q371 288 371 427Q374 691 486 748Q513 762 546 762Q687 761 696 576Q697
556 697 534Q690 359 495 161Q528 79 584 79Q626 79 660 131Q683 167 717 245H721L774 151Q708 36 636 5Q611 -5 580 -9Q486 -3 432 99Q426 94 299 -15Q293 -19 289 -23Q259 48 250 61V81Q319 120 398 189Z" />
<glyph unicode="&#x2116;" glyph-name="null" horiz-adv-x="937" />
<glyph unicode="&#x2121;" glyph-name="null" horiz-adv-x="1024" d="M648 526V436H450V312H608V222H450V78H648V-12H372V526H648ZM264 -12H186V660H36V750H436V660H264V-12ZM712 526H790V78H988V-12H712V526Z" />
<glyph unicode="&#x212b;" glyph-name="null" horiz-adv-x="1024" d="M840 -12H736L633 218H373L270 -12H166L445 614H457H549H561L840 -12ZM401 750Q401 794 430 824T503 854T577 824T607 750T577 677T503 648T430 677T401 750ZM437 750Q437 721 455 703T503
684Q531 684 550 702T569 750Q569 778 550 797T503 816Q474 816 456 797T437 750ZM409 300H597L508 500H498L409 300Z" />
<glyph unicode="&#x2160;" glyph-name="null" horiz-adv-x="937" />
<glyph unicode="&#x2161;" glyph-name="null" horiz-adv-x="937" />
<glyph unicode="&#x2162;" glyph-name="null" horiz-adv-x="937" />
<glyph unicode="&#x2163;" glyph-name="null" horiz-adv-x="937" />
<glyph unicode="&#x2164;" glyph-name="null" horiz-adv-x="937" />
<glyph unicode="&#x2165;" glyph-name="null" horiz-adv-x="937" />
<glyph unicode="&#x2166;" glyph-name="null" horiz-adv-x="937" />
<glyph unicode="&#x2167;" glyph-name="null" horiz-adv-x="937" />
<glyph unicode="&#x2168;" glyph-name="null" horiz-adv-x="937" />
<glyph unicode="&#x2169;" glyph-name="null" horiz-adv-x="937" />
<glyph unicode="&#x2190;" glyph-name="null" horiz-adv-x="1024" d="M313 578L229 437H973V352H231L313 213L288 197L54 390V401L288 594L313 578Z" />
<glyph unicode="&#x2191;" glyph-name="null" horiz-adv-x="1024" d="M330 574L314 599L507 833H519L712 599L696 574L557 656V-86H471V658L330 574Z" />
<glyph unicode="&#x2192;" glyph-name="null" horiz-adv-x="1024" d="M715 578L740 594L974 401V390L740 197L715 213L797 352H55V437H799L715 578Z" />
<glyph unicode="&#x2193;" glyph-name="null" horiz-adv-x="1024" d="M330 174L471 90V834H557V92L696 174L712 149L519 -85H507L314 149L330 174Z" />
<glyph unicode="&#x21d2;" glyph-name="null" horiz-adv-x="1024" d="M26 428V493H813L681 626L717 662L997 384Q1015 364 997 344L718 67L680 102L812 234H26V299H877L941 364L878 428H26Z" />
<glyph unicode="&#x21d4;" glyph-name="null" horiz-adv-x="1024" d="M677 626L713 662L993 384Q1011 364 993 344L714 67L676 102L808 234H228L360 102L322 67L43 344Q25 364 43 384L323 662L359 626L227 493H809L677 626ZM938 365L874 428H162L99 364L163 299H873L938
365Z" />
<glyph unicode="&#x2200;" glyph-name="null" horiz-adv-x="1024" d="M48 772L100 801L222 559H791L913 801L965 772L544 -67Q527 -99 506 -99T469 -67L48 772ZM503 -1Q507 -5 510 -1L759 494H254L503 -1Z" />
<glyph unicode="&#x2202;" glyph-name="null" horiz-adv-x="1024" d="M511 470Q588 470 651 422Q648 570 626 654T535 739Q468 739 431 703T359 602L267 622Q307 700 371 760T535 820Q658 820 706 693T755 376Q755 158 652 30T425 -98Q300 -98 257 -12T216 137T241
266T336 401T511 470ZM495 389Q439 389 399 348T341 253T319 143T334 35T425 -17Q494 -17 561 68T644 271Q635 333 595 361T495 389Z" />
<glyph unicode="&#x2203;" glyph-name="null" horiz-adv-x="1024" d="M184 753H832V-23H184V41H766V332H184V397H766V688H184V753Z" />
<glyph unicode="&#x2207;" glyph-name="null" horiz-adv-x="1024" d="M54 788H960V756L526 -90H488L54 756V788ZM849 724H173L511 64L849 724Z" />
<glyph unicode="&#x2208;" glyph-name="null" horiz-adv-x="1024" d="M961 -22H421Q253 -22 154 97T54 365Q54 511 153 632T421 753H961V687H421Q281 687 204 592Q127 496 120 399H961V333H120Q126 233 204 138Q281 42 421 42H961V-22Z" />
<glyph unicode="&#x220b;" glyph-name="null" horiz-adv-x="1024" d="M55 -22V42H595Q735 42 812 137T896 333H55V399H896Q889 496 812 591T595 687H55V753H595Q763 753 862 632Q962 511 962 365Q962 217 862 98Q763 -22 595 -22H55Z" />
<glyph unicode="&#x2212;" glyph-name="null" horiz-adv-x="937" />
<glyph unicode="&#x221a;" glyph-name="null" horiz-adv-x="1024" d="M506 850H1011V770H545L259 -104H218L116 246L53 160L17 208L129 370H166L257 66L506 850Z" />
<glyph unicode="&#x221d;" glyph-name="null" horiz-adv-x="1024" d="M274 234Q343 234 397 267T518 364Q452 428 398 461T274 494Q213 494 171 460T128 364T170 269T274 234ZM801 559Q877 559 969 511L934 455Q861 494 801 494Q759 494 718 465T612 364Q676 292
717 263T801 234Q861 234 934 273L969 217Q877 169 801 169Q731 169 679 209T565 316Q495 250 428 210Q361 169 274 169Q183 169 120 228T57 364T120 499T274 559Q361 559 428 519T565 412Q627 478 679 518T801 559Z" />
<glyph unicode="&#x221e;" glyph-name="null" horiz-adv-x="1024" d="M755 494Q699 494 656 462T553 364Q612 299 655 267T755 234Q816 234 854 268T893 364T855 459T755 494ZM262 169Q171 169 112 228Q53 288 53 364Q53 440 112 499T262 559Q338 559 394 517T508
415Q565 475 622 517T755 559Q846 559 905 500T964 364T905 229T755 169Q679 169 622 211T508 313Q450 253 394 211T262 169ZM262 234Q318 234 360 266T462 364Q403 429 361 461T262 494Q201 494 162 460Q124 425 124 364Q124 303 162 269T262 234Z" />
<glyph unicode="&#x221f;" glyph-name="null" horiz-adv-x="937" />
<glyph unicode="&#x2220;" glyph-name="null" horiz-adv-x="1024" d="M884 789L921 739L176 8H930V-56H73Q26 -56 59 -21L884 789Z" />
<glyph unicode="&#x2225;" glyph-name="null" horiz-adv-x="1024" d="M577 875H651V-136H577V875ZM345 875H419V-136H345V875Z" />
<glyph unicode="&#x2227;" glyph-name="null" horiz-adv-x="1024" d="M48 -31L469 808Q485 840 506 840T544 808L965 -31L913 -60L510 742Q507 746 503 741L100 -60L48 -31Z" />
<glyph unicode="&#x2228;" glyph-name="null" horiz-adv-x="1024" d="M48 769L100 798L503 -3Q507 -8 510 -4L913 798L965 769L544 -70Q527 -102 506 -102T469 -70L48 769Z" />
<glyph unicode="&#x2229;" glyph-name="null" horiz-adv-x="1024" d="M153 -87V459Q153 635 257 726T509 818Q655 818 760 727T865 459V-87H799V459Q799 607 714 680T509 754Q388 754 304 681T219 459V-87H153Z" />
<glyph unicode="&#x222a;" glyph-name="null" horiz-adv-x="1024" d="M153 818H219V271Q219 123 303 50T509 -23Q629 -23 714 50T799 271V818H865V271Q865 95 760 4T509 -87Q362 -87 258 4T153 271V818Z" />
<glyph unicode="&#x222b;" glyph-name="null" horiz-adv-x="1024" d="M383 -96Q331 -96 295 -71T239 40H329Q334 -3 348 -15T384 -27Q431 -27 451 2T466 121T450 346L432 595Q423 709 474 763T600 818Q652 818 688 793T744 682H654Q649 725 635 737T599 749Q552
749 532 720Q511 690 517 600Q523 511 533 376L552 127Q560 13 509 -41T383 -96Z" />
<glyph unicode="&#x222c;" glyph-name="null" horiz-adv-x="1024" d="M239 -96Q187 -96 151 -71T95 40H185Q190 -3 204 -15T240 -27Q287 -27 307 2T322 121T306 346L288 595Q279 709 330 763T456 818Q508 818 544 793T600 682H510Q505 725 491 737T455 749Q408
749 388 720T373 600Q379 511 389 376L408 127Q416 13 365 -41T239 -96ZM571 -96Q519 -96 483 -71T427 40H517Q522 -3 536 -15T572 -27Q619 -27 639 2T654 121T638 346L620 595Q611 709 662 763T788 818Q840 818 876 793T932 682H842Q837 725 823 737T787 749Q740
749 720 720T705 600Q711 511 721 376L740 127Q748 13 697 -41T571 -96Z" />
<glyph unicode="&#x222d;" glyph-name="null" horiz-adv-x="1024" d="M692 -96Q619 -96 588 -34Q571 -1 574 40H640Q647 -16 674 -25Q682 -27 693 -27Q746 -27 760 16Q767 39 768 84Q739 506 739 625Q738 742 805 791Q842 818 893 818Q965 818 997 762Q1017 727
1011 682H945Q938 738 911 747Q903 749 892 749Q855 749 835 719Q822 700 820 638Q849 188 849 94Q849 -31 771 -76Q737 -96 692 -96ZM413 -96Q340 -96 309 -33Q293 0 295 40H361Q369 -15 394 -24Q402 -27 414 -27Q468 -27 481 17Q488 41 488 84Q460 525 460 625Q460
756 540 800Q572 818 613 818Q684 818 717 762Q738 727 732 682H666Q658 736 633 746Q625 749 612 749Q574 749 556 719Q543 698 541 638Q569 203 569 94Q569 -30 491 -76Q457 -96 413 -96ZM130 -96Q57 -96 26 -34Q9 -1 12 40H78Q85 -16 112 -25Q120 -27 131 -27Q184
-27 198 17Q205 41 206 84Q177 506 177 625Q176 743 243 791Q279 818 331 818Q402 818 434 763Q455 728 448 682H383Q376 739 346 747Q339 749 330 749Q294 749 272 719Q260 700 258 638Q287 188 287 94Q287 -29 209 -76Q175 -96 130 -96Z" />
<glyph unicode="&#x222e;" glyph-name="null" horiz-adv-x="937" />
<glyph unicode="&#x2234;" glyph-name="null" horiz-adv-x="1024" d="M428 540V700H588V540H428ZM686 118V278H846V118H686ZM170 118V278H330V118H170Z" />
<glyph unicode="&#x2235;" glyph-name="null" horiz-adv-x="1024" d="M196 508V644H332V508H196ZM652 508V644H788V508H652ZM422 116V252H558V116H422Z" />
<glyph unicode="&#x223d;" glyph-name="null" horiz-adv-x="1024" d="M266 559Q337 559 401 505L369 451Q314 494 266 494Q205 494 166 461Q128 428 128 364Q128 303 166 269T266 234Q322 234 366 268T485 385T621 514T759 559Q850 559 909 500T968 364Q968 280
909 225T759 169Q688 169 624 223L656 277Q711 234 759 234Q820 234 858 267T897 364Q897 425 859 459T759 494Q703 494 658 460T538 343T403 214T266 169Q175 169 116 228Q57 288 57 364Q57 448 116 503T266 559Z" />
<glyph unicode="&#x2243;" glyph-name="null" horiz-adv-x="1024" d="M682 394Q619 394 560 430Q556 432 552 435L440 509Q377 551 334 551Q302 548 249 513Q212 487 171 394L111 428Q167 542 219 576Q270 611 334 617Q398 617 463 576Q538 528 575 502Q638 461
682 461Q714 464 765 498Q802 524 842 617L904 583Q848 470 797 435Q746 400 682 394ZM890 284V211H111V284H890Z" />
<glyph unicode="&#x2252;" glyph-name="null" horiz-adv-x="1024" d="M118 526H897V461H118V526ZM118 299H897V234H118V299ZM254 628V744H370V628H254ZM644 12V128H760V12H644Z" />
<glyph unicode="&#x2260;" glyph-name="null" horiz-adv-x="1024" d="M618 706L685 692L602 509H865V436H570L504 291H865V218H471L385 27L320 36L401 218H151V291H433L498 436H151V509H530L618 706Z" />
<glyph unicode="&#x2261;" glyph-name="null" horiz-adv-x="1024" d="M106 621H787V557H106V621ZM106 425H787V361H106V425ZM106 229H787V165H106V229Z" />
<glyph unicode="&#x2266;" glyph-name="null" horiz-adv-x="1024" d="M863 822L899 773L219 540L899 307L863 258L134 510Q84 540 134 570L863 822ZM890 206V133H111V206H890ZM890 37V-35H111V37H890Z" />
<glyph unicode="&#x2267;" glyph-name="null" horiz-adv-x="1024" d="M145 822L874 570Q924 540 874 510L145 258L109 307L789 540L109 773L145 822ZM118 206H897V133H118V206ZM118 37H897V-35H118V37Z" />
<glyph unicode="&#x226a;" glyph-name="null" horiz-adv-x="1024" d="M724 826L767 789L133 364L767 -60L724 -97L70 339Q52 351 52 363T69 389L724 826ZM934 826L977 789L343 364L977 -60L934 -97L280 339Q262 351 262 363T279 389L934 826Z" />
<glyph unicode="&#x226b;" glyph-name="null" horiz-adv-x="1024" d="M306 826L961 389Q978 376 978 364T960 339L306 -97L263 -60L897 364L263 789L306 826ZM96 826L751 389Q768 376 768 364T750 339L96 -97L53 -60L687 364L53 789L96 826Z" />
<glyph unicode="&#x2272;" glyph-name="null" horiz-adv-x="1000" d="M684 18Q621 18 562 54Q558 56 554 59L442 133Q379 175 336 175Q304 172 251 137Q214 111 173 18L113 52Q169 166 221 200Q272 235 336 241Q400 241 465 200Q540 152 577 126Q640 85 684 85Q716
88 767 122Q804 148 844 241L906 207Q850 94 799 59Q748 24 684 18ZM863 822L899 773L219 540L899 307L863 258L134 510Q84 540 134 570L863 822Z" />
<glyph unicode="&#x2273;" glyph-name="null" horiz-adv-x="1000" d="M684 18Q621 18 562 54Q558 56 554 59L442 133Q379 175 336 175Q304 172 251 137Q214 111 173 18L113 52Q169 166 221 200Q272 235 336 241Q400 241 465 200Q540 152 577 126Q640 85 684 85Q716
88 767 122Q804 148 844 241L906 207Q850 94 799 59Q748 24 684 18ZM170 822L899 570Q949 540 899 510L170 258L134 307L814 540L134 773L170 822Z" />
<glyph unicode="&#x2282;" glyph-name="null" horiz-adv-x="1024" d="M963 9H423Q239 9 148 113Q56 217 56 365Q56 511 147 616T423 721H963V655H423Q267 655 194 570Q120 485 120 365Q120 243 194 158Q267 74 423 74H963V9Z" />
<glyph unicode="&#x2283;" glyph-name="null" horiz-adv-x="1024" d="M53 9V74H593Q749 74 822 158T896 365Q896 485 823 570T593 655H53V721H593Q777 721 868 616T960 365Q960 217 868 113Q777 9 593 9H53Z" />
<glyph unicode="&#x2286;" glyph-name="null" horiz-adv-x="1024" d="M53 41H962V-23H53V41ZM962 169H398Q239 169 147 265T55 479Q55 595 147 691T398 787H962V721H398Q265 721 192 645Q119 569 119 479Q119 387 192 311T398 234H962V169Z" />
<glyph unicode="&#x2287;" glyph-name="null" horiz-adv-x="1024" d="M53 41H963V-23H53V41ZM52 787H616Q775 787 867 691T959 477Q959 361 867 265T616 169H52V235H616Q749 235 822 311T895 477Q895 569 822 645T616 722H52V787Z" />
<glyph unicode="&#x22a5;" glyph-name="null" horiz-adv-x="1024" d="M475 818H541V8H930V-56H86V8H475V818Z" />
<glyph unicode="&#x22bf;" glyph-name="null" horiz-adv-x="937" />
<glyph unicode="&#x2312;" glyph-name="null" horiz-adv-x="1024" d="M57 449Q57 571 185 678T509 786Q703 786 832 679T961 449L891 448Q876 567 777 644T509 722Q340 722 237 645T119 448L57 449Z" />
<glyph unicode="&#x2460;" glyph-name="null" horiz-adv-x="1024" d="M34 381Q34 578 173 717T510 857Q707 857 846 718T986 381Q986 183 847 44T510 -95Q312 -95 173 44T34 381ZM79 380Q79 198 204 74Q328 -50 510 -50Q691 -50 816 74T941 380Q941 561 816 686T510
812Q328 812 204 687T79 380ZM557 50H479V569Q479 597 447 597H383V648Q492 654 511 714H557V658V50Z" />
<glyph unicode="&#x2461;" glyph-name="null" horiz-adv-x="1024" d="M520 702Q604 702 665 657T726 518Q726 431 628 338L387 138H712L700 57H298V149L540 354Q641 445 641 519Q641 581 609 605T520 629Q465 629 429 607T393 511H313Q313 614 376 658T520 702ZM34
381Q34 578 173 717T510 857Q707 857 846 718T986 381Q986 183 847 44T510 -95Q312 -95 173 44T34 381ZM79 380Q79 198 204 74Q328 -50 510 -50Q691 -50 816 74T941 380Q941 561 816 686T510 812Q328 812 204 687T79 380Z" />
<glyph unicode="&#x2462;" glyph-name="null" horiz-adv-x="1024" d="M505 702Q601 702 654 653T707 533Q707 491 671 451T587 399Q642 390 689 349T737 230Q737 156 668 104T505 51Q414 51 355 96T296 230H374Q374 162 410 143Q447 124 505 124Q561 124 607 151T654
229Q654 306 594 337T459 368V426Q535 426 579 460T624 534Q624 578 594 603T505 629Q462 629 427 608T392 519H315Q315 611 374 656T505 702ZM34 381Q34 578 173 717T510 857Q707 857 846 718T986 381Q986 183 847 44T510 -95Q312 -95 173 44T34 381ZM79 380Q79
198 204 74Q328 -50 510 -50Q691 -50 816 74T941 380Q941 561 816 686T510 812Q328 812 204 687T79 380Z" />
<glyph unicode="&#x2463;" glyph-name="null" horiz-adv-x="1024" d="M34 381Q34 578 173 717T510 857Q707 857 846 718T986 381Q986 183 847 44T510 -95Q312 -95 173 44T34 381ZM79 380Q79 198 204 74Q328 -50 510 -50Q691 -50 816 74T941 380Q941 561 816 686T510
812Q328 812 204 687T79 380ZM600 50H523V205H196V246L533 714H600V286H708V205H600V50ZM523 572L316 286H523V572Z" />
<glyph unicode="&#x2464;" glyph-name="null" horiz-adv-x="1024" d="M34 381Q34 578 173 717T510 857Q707 857 846 718T986 381Q986 183 847 44T510 -95Q312 -95 173 44T34 381ZM79 380Q79 198 204 74Q328 -50 510 -50Q691 -50 816 74T941 380Q941 561 816 686T510
812Q328 812 204 687T79 380ZM547 467Q627 467 690 413T753 268Q753 181 693 116T525 51Q426 51 365 102T304 220H384Q384 174 430 149Q475 124 525 124Q591 124 630 163T670 268Q670 331 633 362T547 394Q495 394 469 385Q443 376 416 344H341L363 696H686L669
615H432L422 437Q488 467 547 467Z" />
<glyph unicode="&#x2465;" glyph-name="null" horiz-adv-x="1024" d="M34 381Q34 578 173 717T510 857Q707 857 846 718T986 381Q986 183 847 44T510 -95Q312 -95 173 44T34 381ZM79 380Q79 198 204 74Q328 -50 510 -50Q691 -50 816 74T941 380Q941 561 816 686T510
812Q328 812 204 687T79 380ZM514 459Q604 459 669 402T734 253Q734 183 669 117T514 51Q422 51 351 112T279 376Q279 519 343 610T514 702Q593 702 652 654T712 539H628Q628 588 594 608T514 629Q450 629 408 574T362 402Q444 459 514 459ZM514 124Q571 124 611
160T651 253Q651 317 616 352T514 387Q463 387 423 363T366 282Q376 185 418 154Q459 124 514 124Z" />
<glyph unicode="&#x2466;" glyph-name="null" horiz-adv-x="1024" d="M34 381Q34 578 173 717T510 857Q707 857 846 718T986 381Q986 183 847 44T510 -95Q312 -95 173 44T34 381ZM79 380Q79 198 204 74Q328 -50 510 -50Q691 -50 816 74T941 380Q941 561 816 686T510
812Q328 812 204 687T79 380ZM307 695H728V622L515 42H426L638 614H307V695Z" />
<glyph unicode="&#x2467;" glyph-name="null" horiz-adv-x="1024" d="M34 381Q34 578 173 717T510 857Q707 857 846 718T986 381Q986 183 847 44T510 -95Q312 -95 173 44T34 381ZM79 380Q79 198 204 74Q328 -50 510 -50Q691 -50 816 74T941 380Q941 561 816 686T510
812Q328 812 204 687T79 380ZM278 230Q278 303 324 338T414 391Q369 413 340 448T311 539Q311 603 369 652T511 702Q593 702 649 652T706 539Q706 484 680 450T612 391Q651 373 695 344T739 230Q739 149 678 100Q617 51 517 51Q420 51 349 98T278 230ZM361 230Q361
171 406 148Q452 124 517 124Q581 124 618 147T656 230Q656 285 617 309T505 358Q449 342 405 314T361 230ZM624 539Q624 583 594 606T511 629Q459 629 427 607T394 539Q394 487 421 468T535 420Q570 434 597 460T624 539Z" />
<glyph unicode="&#x2468;" glyph-name="null" horiz-adv-x="1024" d="M34 381Q34 578 173 717T510 857Q707 857 846 718T986 381Q986 183 847 44T510 -95Q312 -95 173 44T34 381ZM79 380Q79 198 204 74Q328 -50 510 -50Q691 -50 816 74T941 380Q941 561 816 686T510
812Q328 812 204 687T79 380ZM498 294Q408 294 343 351T278 500Q278 570 343 636T498 702Q590 702 661 641T733 377Q733 234 668 142Q604 51 498 51Q419 51 360 99T300 214H384Q384 165 418 144Q453 124 498 124Q562 124 604 179T650 351Q568 294 498 294ZM498
629Q441 629 401 593T361 500Q361 436 396 401T498 366Q549 366 589 390T646 471Q636 568 595 598T498 629Z" />
<glyph unicode="&#x2469;" glyph-name="null" horiz-adv-x="1024" d="M34 381Q34 578 173 717T510 857Q707 857 846 718T986 381Q986 183 847 44T510 -95Q312 -95 173 44T34 381ZM79 380Q79 198 204 74Q328 -50 510 -50Q691 -50 816 74T941 380Q941 561 816 686T510
812Q328 812 204 687T79 380ZM369 50H299V569Q299 597 267 597H207V648Q312 654 331 714H369V658V50ZM470 377Q470 512 526 607T658 702T789 607T846 377Q846 241 790 146Q733 51 658 51T527 146T470 377ZM547 377Q547 251 582 188Q618 124 658 124Q698 124 733
187T769 377Q769 506 734 567T658 629T583 568T547 377Z" />
<glyph unicode="&#x246a;" glyph-name="null" horiz-adv-x="1024" d="M377 50H307V569Q307 597 275 597H215V648Q320 654 339 714H377V658V50ZM733 50H663V569Q663 597 631 597H571V648Q676 654 695 714H733V658V50ZM34 381Q34 578 173 717T510 857Q707 857 846
718T986 381Q986 183 847 44T510 -95Q312 -95 173 44T34 381ZM79 380Q79 198 204 74Q328 -50 510 -50Q691 -50 816 74T941 380Q941 561 816 686T510 812Q328 812 204 687T79 380Z" />
<glyph unicode="&#x246b;" glyph-name="null" horiz-adv-x="1024" d="M34 381Q34 578 173 717T510 857Q707 857 846 718T986 381Q986 183 847 44T510 -95Q312 -95 173 44T34 381ZM79 380Q79 198 204 74Q328 -50 510 -50Q691 -50 816 74T941 380Q941 561 816 686T510
812Q328 812 204 687T79 380ZM361 50H291V569Q291 597 259 597H199V648Q304 654 323 714H361V658V50ZM658 702Q727 702 778 657T830 530Q830 451 728 338L547 138H804L792 57H470V149L652 354Q753 465 753 531Q753 581 728 605T658 629T581 605T549 519H477Q477
610 532 656T658 702Z" />
<glyph unicode="&#x246c;" glyph-name="null" horiz-adv-x="1024" d="M34 381Q34 578 173 717T510 857Q707 857 846 718T986 381Q986 183 847 44T510 -95Q312 -95 173 44T34 381ZM79 380Q79 198 204 74Q328 -50 510 -50Q691 -50 816 74T941 380Q941 561 816 686T510
812Q328 812 204 687T79 380ZM361 50H291V569Q291 597 259 597H199V648Q304 654 323 714H361V658V50ZM634 702Q718 702 771 655T824 533Q824 491 788 451T704 399Q759 390 806 349T854 230Q854 156 799 104T650 51Q559 51 501 96T443 230H515Q515 162 554 143Q592
124 650 124Q706 124 742 151T779 229Q779 306 715 337T576 368V426Q652 426 700 460T749 534Q749 582 721 605T634 629Q591 629 561 612T531 527H460Q460 611 513 656T634 702ZM634 702Q718 702 771 655T824 533Q824 491 788 451T704 399Q759 390 806 349T854
230Q854 156 799 104T650 51Q559 51 501 96T443 230H515Q515 162 554 143Q592 124 650 124Q706 124 742 151T779 229Q779 306 715 337T576 368V426Q652 426 700 460T749 534Q749 582 721 605T634 629Q591 629 561 612T531 527H460Q460 611 513 656T634 702Z" />
<glyph unicode="&#x246d;" glyph-name="null" horiz-adv-x="1024" d="M34 381Q34 578 173 717T510 857Q707 857 846 718T986 381Q986 183 847 44T510 -95Q312 -95 173 44T34 381ZM79 380Q79 198 204 74Q328 -50 510 -50Q691 -50 816 74T941 380Q941 561 816 686T510
812Q328 812 204 687T79 380ZM361 50H291V569Q291 597 259 597H199V648Q304 654 323 714H361V658V50ZM738 50H669V205H398V246L679 714H738V286H822V205H738V50ZM669 569L498 286H669V569Z" />
<glyph unicode="&#x246e;" glyph-name="null" horiz-adv-x="1024" d="M34 381Q34 578 173 717T510 857Q707 857 846 718T986 381Q986 183 847 44T510 -95Q312 -95 173 44T34 381ZM79 380Q79 198 204 74Q328 -50 510 -50Q691 -50 816 74T941 380Q941 561 816 686T510
812Q328 812 204 687T79 380ZM361 50H291V569Q291 597 259 597H199V648Q304 654 323 714H361V658V50ZM659 467Q730 467 791 412T853 268Q853 176 794 114Q736 51 653 51Q565 51 505 102T444 220H524Q524 174 565 149Q606 124 653 124Q713 124 745 163T778 268Q778
324 744 359T659 394Q618 394 589 385T536 344H469L491 696H794L777 615H552L541 435Q608 467 659 467Z" />
<glyph unicode="&#x246f;" glyph-name="null" horiz-adv-x="1024" d="M34 381Q34 578 173 717T510 857Q707 857 846 718T986 381Q986 183 847 44T510 -95Q312 -95 173 44T34 381ZM79 380Q79 198 204 74Q328 -50 510 -50Q691 -50 816 74T941 380Q941 561 816 686T510
812Q328 812 204 687T79 380ZM361 50H291V569Q291 597 259 597H199V648Q304 654 323 714H361V658V50ZM654 459Q732 459 788 400T845 253Q845 179 788 115Q732 51 642 51Q570 51 509 112T447 376Q447 519 497 610T642 702Q713 702 766 654T820 539H744Q744 588 712
608T642 629Q590 629 558 574T522 408Q588 459 654 459ZM642 124Q699 124 734 158T770 253T739 350T654 387Q607 387 574 363T526 281Q535 185 571 154Q607 124 642 124Z" />
<glyph unicode="&#x2470;" glyph-name="null" horiz-adv-x="1024" d="M472 695H800V622L616 42H535L718 615H472V695ZM34 381Q34 578 173 717T510 857Q707 857 846 718T986 381Q986 183 847 44T510 -95Q312 -95 173 44T34 381ZM79 380Q79 198 204 74Q328 -50 510
-50Q691 -50 816 74T941 380Q941 561 816 686T510 812Q328 812 204 687T79 380ZM361 50H291V569Q291 597 259 597H199V648Q304 654 323 714H361V658V50Z" />
<glyph unicode="&#x2471;" glyph-name="null" horiz-adv-x="1024" d="M448 234Q448 297 489 343Q513 370 573 397Q526 419 503 452Q479 486 479 542V543Q479 601 529 656Q564 693 624 704L650 706Q721 706 769 656Q816 607 816 544V543Q816 489 793 455Q772 422
735 396Q788 367 807 349Q847 312 847 235V234Q847 155 793 104Q743 55 655 55Q571 55 510 102Q448 150 448 233V234ZM523 238Q523 178 561 156Q600 132 655 132Q708 132 741 156Q772 178 772 237V238Q772 292 737 319Q703 343 643 367Q592 349 560 323Q523 293
523 239V238ZM745 543Q745 588 720 610Q692 635 650 635Q607 635 578 611Q551 589 551 544V543Q551 492 573 473Q616 438 667 426Q699 441 721 465Q745 492 745 542V543ZM34 381Q34 578 173 717T510 857Q707 857 846 718T986 381Q986 183 847 44T510 -95Q312 -95
173 44T34 381ZM79 380Q79 198 204 74Q328 -50 510 -50Q691 -50 816 74T941 380Q941 561 816 686T510 812Q328 812 204 687T79 380ZM361 50H291V569Q291 597 259 597H199V648Q304 654 323 714H361V658V50Z" />
<glyph unicode="&#x2472;" glyph-name="null" horiz-adv-x="1024" d="M34 381Q34 578 173 717T510 857Q707 857 846 718T986 381Q986 183 847 44T510 -95Q312 -95 173 44T34 381ZM79 380Q79 198 204 74Q328 -50 510 -50Q691 -50 816 74T941 380Q941 561 816 686T510
812Q328 812 204 687T79 380ZM361 50H291V569Q291 597 259 597H199V648Q304 654 323 714H361V658V50ZM638 293Q560 293 504 352T447 499Q447 573 503 637T650 701Q722 701 783 640T845 376Q845 233 794 142Q744 50 650 50Q579 50 526 98T472 213H548Q548 164 580
144Q613 123 650 123Q702 123 734 178T770 344Q704 293 638 293ZM650 628Q593 628 558 594T522 499T553 402T638 365Q685 365 718 389T766 471Q757 567 721 597T650 628Z" />
<glyph unicode="&#x2473;" glyph-name="null" horiz-adv-x="1024" d="M34 381Q34 578 173 717T510 857Q707 857 846 718T986 381Q986 183 847 44T510 -95Q312 -95 173 44T34 381ZM79 380Q79 199 202 76V149L346 354Q427 465 427 531Q427 581 407 605T342 629Q309
629 285 605T261 519H189Q189 606 240 654T342 702Q407 702 453 657T500 530Q500 451 418 338L277 138H476L464 57H222Q341 -50 510 -50Q691 -50 816 74T941 380Q941 561 816 686T510 812Q328 812 204 687T79 380ZM522 377Q522 512 572 607T694 702T815 607T866
377Q866 241 816 146Q765 51 694 51T573 146T522 377ZM599 377Q599 251 628 188Q658 124 694 124Q730 124 759 187T789 377Q789 506 760 567T694 629T629 568T599 377Z" />
<glyph unicode="&#x2500;" glyph-name="null" horiz-adv-x="1024" d="M0 367V414H1024V367H0Z" />
<glyph unicode="&#x2501;" glyph-name="null" horiz-adv-x="1024" d="M0 348V433H1024V348H0Z" />
<glyph unicode="&#x2502;" glyph-name="null" horiz-adv-x="1024" d="M535 -144H487V880H535V-144Z" />
<glyph unicode="&#x2503;" glyph-name="null" horiz-adv-x="1024" d="M554 -144H468V880H554V-144Z" />
<glyph unicode="&#x250c;" glyph-name="null" horiz-adv-x="1024" d="M535 -144H487V412H1024V367H535V-144Z" />
<glyph unicode="&#x250f;" glyph-name="null" horiz-adv-x="1024" d="M554 -144H468V433H1024V348H554V-144Z" />
<glyph unicode="&#x2510;" glyph-name="null" horiz-adv-x="1024" d="M0 367V414H535V-144H487V367H0Z" />
<glyph unicode="&#x2513;" glyph-name="null" horiz-adv-x="1024" d="M0 348V433H554V-144H468V348H0Z" />
<glyph unicode="&#x2514;" glyph-name="null" horiz-adv-x="1024" d="M1024 414V367H487V880H535V414H1024Z" />
<glyph unicode="&#x2517;" glyph-name="null" horiz-adv-x="1024" d="M468 348V880H554V433H1024V348H468Z" />
<glyph unicode="&#x2518;" glyph-name="null" horiz-adv-x="1024" d="M0 367V414H487V880H535V367H0Z" />
<glyph unicode="&#x251b;" glyph-name="null" horiz-adv-x="1024" d="M0 348V433H468V880H554V348H0Z" />
<glyph unicode="&#x251c;" glyph-name="null" horiz-adv-x="1024" d="M1024 367H535V-144H487V880H535V414H1024V367Z" />
<glyph unicode="&#x251d;" glyph-name="null" horiz-adv-x="1024" d="M535 -144H487V880H535V433H1024V348H535V-144Z" />
<glyph unicode="&#x2520;" glyph-name="null" horiz-adv-x="1024" d="M554 -144H468V880H554V414H1024V367H554V-144Z" />
<glyph unicode="&#x2523;" glyph-name="null" horiz-adv-x="1024" d="M554 -144H468V880H554V433H1024V348H554V-144Z" />
<glyph unicode="&#x2524;" glyph-name="null" horiz-adv-x="1024" d="M0 367V414H487V880H535V-144H487V367H0Z" />
<glyph unicode="&#x2525;" glyph-name="null" horiz-adv-x="1024" d="M0 348V433H487V880H535V-144H487V348H0Z" />
<glyph unicode="&#x2528;" glyph-name="null" horiz-adv-x="1024" d="M0 367V414H468V880H554V-144H468V367H0Z" />
<glyph unicode="&#x252b;" glyph-name="null" horiz-adv-x="1024" d="M0 348V433H468V880H554V-144H468V348H0Z" />
<glyph unicode="&#x252c;" glyph-name="null" horiz-adv-x="1024" d="M0 367V414H1024V367H535V-144H487V367H0Z" />
<glyph unicode="&#x252f;" glyph-name="null" horiz-adv-x="1024" d="M0 348V433H1024V348H535V-144H487V348H0Z" />
<glyph unicode="&#x2530;" glyph-name="null" horiz-adv-x="1024" d="M0 367V414H1024V367H554V-144H468V367H0Z" />
<glyph unicode="&#x2533;" glyph-name="null" horiz-adv-x="1024" d="M0 348V433H1024V348H554V-144H468V348H0Z" />
<glyph unicode="&#x2534;" glyph-name="null" horiz-adv-x="1024" d="M0 367V414H487V880H535V414H1024V367H0Z" />
<glyph unicode="&#x2537;" glyph-name="null" horiz-adv-x="1024" d="M0 348V433H487V880H535V433H1024V348H0Z" />
<glyph unicode="&#x2538;" glyph-name="null" horiz-adv-x="1024" d="M0 367V414H468V880H554V414H1024V367H0Z" />
<glyph unicode="&#x253b;" glyph-name="null" horiz-adv-x="1024" d="M0 348V433H468V880H554V433H1024V348H0Z" />
<glyph unicode="&#x253c;" glyph-name="null" horiz-adv-x="1024" d="M0 367V414H487V880H535V414H1024V367H535V-144H487V367H0Z" />
<glyph unicode="&#x253f;" glyph-name="null" horiz-adv-x="1024" d="M0 348V433H487V880H535V433H1024V348H535V-144H487V348H0Z" />
<glyph unicode="&#x2542;" glyph-name="null" horiz-adv-x="1024" d="M0 367V414H468V880H554V414H1024V367H554V-144H468V367H0Z" />
<glyph unicode="&#x254b;" glyph-name="null" horiz-adv-x="1024" d="M0 348V433H468V880H554V433H1024V348H554V-144H468V348H0Z" />
<glyph unicode="&#x25a0;" glyph-name="null" horiz-adv-x="1024" d="M846 722Q863 722 863 706V21Q863 5 846 5H166Q149 5 149 21V706Q149 722 166 722H846Z" />
<glyph unicode="&#x25a1;" glyph-name="null" horiz-adv-x="1024" d="M846 722Q863 722 863 706V21Q863 5 846 5H166Q149 5 149 21V706Q149 722 166 722H846ZM217 654V73H795V654H217Z" />
<glyph unicode="&#x25a2;" glyph-name="null" horiz-adv-x="1000" d="M132 823H866Q939 823 959 762Q965 745 965 725V-15Q965 -74 917 -100Q896 -112 869 -112H132Q69 -112 45 -60Q35 -40 35 -15V725Q35 823 132 823ZM164 784Q100 784 84 753Q74 734 74 687V17Q74
-72 164 -72H837Q923 -72 923 17V692Q923 765 872 780Q856 784 834 784H164Z" />
<glyph unicode="&#x25b2;" glyph-name="null" horiz-adv-x="1024" d="M101 9Q73 9 80 35L494 814Q509 842 524 814L937 37Q945 9 913 9H101Z" />
<glyph unicode="&#x25b3;" glyph-name="null" horiz-adv-x="1024" d="M174 69H841L509 706L174 69ZM101 9Q73 9 80 35L494 814Q509 842 524 814L937 37Q945 9 913 9H101Z" />
<glyph unicode="&#x25bc;" glyph-name="null" horiz-adv-x="1024" d="M101 751H913Q945 751 937 723L524 -54Q509 -82 494 -54L80 725Q73 751 101 751Z" />
<glyph unicode="&#x25bd;" glyph-name="null" horiz-adv-x="1024" d="M174 691L509 54L841 691H174ZM101 751H913Q945 751 937 723L524 -54Q509 -82 494 -54L80 725Q73 751 101 751Z" />
<glyph unicode="&#x25c6;" glyph-name="null" horiz-adv-x="1024" d="M496 823Q505 832 515 824L970 369Q977 360 969 351L514 -104Q506 -111 497 -104L42 351Q34 360 42 369L496 823Z" />
<glyph unicode="&#x25c7;" glyph-name="null" horiz-adv-x="1024" d="M130 360L506 -17L881 359L505 735L130 360ZM496 823Q505 832 515 824L970 369Q977 360 969 351L514 -104Q506 -111 497 -104L42 351Q34 360 42 369L496 823Z" />
<glyph unicode="&#x25cb;" glyph-name="null" horiz-adv-x="1024" d="M87 360Q87 533 211 658T510 783Q683 783 808 658T933 360Q933 186 808 62T510 -62Q336 -62 212 62T87 360ZM159 360Q159 212 260 110Q362 9 510 9T760 110T862 360T760 610T510 712T261 610T159 360Z" />
<glyph unicode="&#x25ce;" glyph-name="null" horiz-adv-x="1024" d="M87 360Q87 533 211 658T510 783Q683 783 808 658T933 360Q933 186 808 62T510 -62Q336 -62 212 62T87 360ZM159 360Q159 212 260 110Q362 9 510 9T760 110T862 360T760 610T510 712T261 610T159
360ZM250 361Q250 468 326 545T510 622T694 545T771 361Q771 254 694 178Q617 101 510 101T327 177T250 361ZM323 361Q323 281 376 228T509 175T642 228T696 361T643 494T509 548T376 495T323 361Z" />
<glyph unicode="&#x25cf;" glyph-name="null" horiz-adv-x="1024" d="M87 360Q87 533 211 658T510 783Q683 783 808 658T933 360Q933 186 808 62T510 -62Q336 -62 212 62T87 360Z" />
<glyph unicode="&#x25ef;" glyph-name="null" horiz-adv-x="1024" d="M30 365Q30 562 171 703T510 845Q707 845 848 704T990 365Q990 167 849 26T510 -115Q312 -115 171 26T30 365ZM79 364Q79 182 203 58T510 -66Q691 -66 816 58T941 364Q941 545 816 670T510
796Q328 796 204 671T79 364Z" />
<glyph unicode="&#x2605;" glyph-name="null" horiz-adv-x="1024" d="M532 837L640 511Q643 498 657 498H997Q1029 490 1009 465L733 261Q720 254 726 241L836 -91Q835 -120 806 -109L528 97Q516 106 506 97L219 -113Q193 -122 196 -94L307 243Q313 256 303 262L23
465Q3 488 32 498H375Q390 498 394 513L502 837Q517 862 532 837Z" />
<glyph unicode="&#x2606;" glyph-name="null" horiz-adv-x="1024" d="M517 699L439 461Q433 438 410 438H154L374 285Q394 273 382 252L290 8L499 163Q516 179 534 163L744 6L653 250Q646 274 665 284L885 438H624Q600 437 597 459L517 699ZM532 837L640 511Q643
498 657 498H997Q1029 490 1009 465L733 261Q720 254 726 241L836 -91Q835 -120 806 -109L528 97Q516 106 506 97L219 -113Q193 -122 196 -94L307 243Q313 256 303 262L23 465Q3 488 32 498H375Q390 498 394 513L502 837Q517 862 532 837Z" />
<glyph unicode="&#x2640;" glyph-name="null" horiz-adv-x="1024" d="M281 591Q281 684 348 751T509 819Q602 819 669 752T737 591Q737 497 680 437Q624 377 547 366V267H832V193H546V-87H470V193H184V267H470V367Q393 377 337 437T281 591ZM354 590Q354 523 397
480T508 436Q574 436 618 479T662 590Q662 656 618 700T508 744Q441 744 398 700T354 590Z" />
<glyph unicode="&#x2642;" glyph-name="null" horiz-adv-x="1024" d="M936 716Q929 505 925 292L899 287Q882 466 861 601L520 260Q561 202 561 129Q561 35 494 -31T333 -98Q239 -98 172 -32Q105 35 105 129Q105 222 172 289T333 357Q410 357 469 312L812 655Q674
674 495 691L500 717Q714 720 924 728Q940 732 936 716ZM178 128Q178 61 221 18T332 -25Q398 -25 442 18T486 128Q486 194 442 238T332 282Q265 282 222 238T178 128Z" />
<glyph unicode="&#x2661;" glyph-name="null" horiz-adv-x="1000" d="M516 539Q547 594 566 611Q604 647 660 647Q726 647 772 573Q809 512 810 434Q810 308 646 160L515 46Q506 38 500 31Q487 45 402 118Q264 234 219 322Q190 379 190 434Q191 539 248 603Q287
648 339 648Q418 648 464 572Q467 567 482 539H516ZM500 572Q451 677 340 677Q253 677 198 590Q156 523 156 440Q156 291 347 121L495 -5L496 -6H504Q509 -2 607 80Q766 213 816 321Q844 381 844 440Q844 542 785 614Q733 677 660 677Q548 677 500 572Z" />
<glyph unicode="&#x2662;" glyph-name="null" horiz-adv-x="1000" d="M196 341L500 773L804 341L500 -91L196 341ZM500 -31L762 341L500 713L238 341L500 -31Z" />
<glyph unicode="&#x2664;" glyph-name="null" horiz-adv-x="1000" d="M498 725Q429 684 334 586Q331 583 327 579Q249 498 217 433Q198 394 196 364Q195 352 195 336Q195 236 260 186Q283 168 310 161H313Q374 161 413 198Q417 202 421 206Q434 221 434 221L473
190Q403 79 329 -5L330 -7Q428 12 498 12Q565 12 648 -3Q658 -5 670 -7L671 -5Q604 64 527 190L566 221Q566 221 579 206Q628 163 687 161H690Q759 179 789 251Q805 290 805 336Q805 382 782 430Q748 502 673 579Q577 678 498 725ZM498 765Q592 712 698 603Q778
520 817 445Q843 395 843 344Q843 227 772 165Q732 130 685 129Q657 129 635 135Q615 141 600 153Q586 164 565 185L563 183Q610 101 697 8Q703 2 710 -6L691 -37Q655 -24 550 -17Q521 -15 498 -15Q402 -15 320 -34Q313 -36 309 -37L290 -6Q390 106 437 183L435
185Q414 164 400 153Q370 129 315 129Q248 130 201 195Q157 256 157 344Q157 385 184 444Q215 511 302 603Q408 715 498 765Z" />
<glyph unicode="&#x2667;" glyph-name="null" horiz-adv-x="1000" d="M652 -12Q569 73 513 187L545 215Q589 174 603 165Q637 144 680 144Q719 144 768 190Q827 245 827 306Q827 379 776 419Q769 424 762 428Q719 452 679 452Q651 452 626 439L609 470Q652 522
657 571Q658 584 658 601Q658 676 597 717Q556 745 498 745Q398 745 356 672Q336 637 336 593Q336 523 386 486Q390 483 390 483L375 449Q375 449 344 454Q337 454 330 454Q277 453 263 448Q247 443 229 432Q163 389 163 312Q163 234 227 183Q271 147 319 147Q377
147 410 181Q417 188 429 203Q441 218 441 218L481 188L462 159Q397 59 333 -11H332Q332 -11 440 2Q475 5 499 5Q560 4 643 -10L652 -12ZM405 143Q374 118 319 118Q231 118 171 196Q163 207 156 218Q133 256 133 307Q133 388 189 437Q201 448 215 456Q248 476 300
481L313 482Q333 484 353 480Q310 512 306 583Q305 593 305 604Q305 701 387 747Q435 774 497 774Q600 774 655 707Q690 664 691 604Q691 531 654 484Q649 477 642 471Q661 479 678 479Q730 479 778 452Q847 412 858 328Q859 317 859 305Q859 257 835 217Q785 134
700 119Q686 116 671 116Q628 116 590 142Q567 156 544 181L542 179Q597 90 657 25Q673 8 693 -13L691 -17L676 -41L674 -44L671 -43Q622 -31 538 -25Q517 -23 500 -23Q406 -23 312 -45L293 -13Q366 66 445 179L443 181Q419 153 405 143Z" />
<glyph unicode="&#x266a;" glyph-name="null" horiz-adv-x="1024" d="M493 809Q570 716 637 669T772 564T839 430Q839 376 790 325T666 224Q648 221 656 237Q711 289 732 329T753 397Q753 428 715 466T621 543T520 622V139Q520 72 496 34T429 -31T338 -58Q288
-58 254 -36T220 25Q220 70 270 105T381 142Q429 142 464 132V809H493Z" />
<glyph unicode="&#x266d;" glyph-name="null" horiz-adv-x="1024" d="M523 466Q607 466 670 411T734 274Q734 182 654 104T334 -77H300V813H356V383Q407 422 443 444T523 466ZM641 276Q641 343 606 376T524 410Q492 410 448 388T356 302V-8Q526 71 583 133T641 276Z" />
<glyph unicode="&#x266f;" glyph-name="null" horiz-adv-x="1024" d="M800 672V576L649 534V323L800 365V265L649 223V-42H597V209L420 160V-90H368V146L216 104V204L368 246V457L216 415V511L368 553V775H420V567L597 616V823H649V630L800 672ZM597 520L420 471V260L597
309V520Z" />
<glyph unicode="&#x3000;" glyph-name="null" horiz-adv-x="1024" />
<glyph unicode="&#x3001;" glyph-name="null" horiz-adv-x="1024" d="M100 84L151 161Q260 92 349 1L348 -9Q311 -39 277 -77Q193 38 100 84Z" />
<glyph unicode="&#x3002;" glyph-name="null" horiz-adv-x="1024" d="M80 26Q80 72 113 106T194 140Q240 140 274 106T308 26Q308 -21 274 -54T194 -88Q147 -88 114 -55T80 26ZM118 26Q118 -6 140 -28T194 -50Q225 -50 247 -28T270 26Q270 57 248 79T194 102Q162
102 140 80T118 26Z" />
<glyph unicode="&#x3003;" glyph-name="null" horiz-adv-x="1024" d="M576 164H504L616 552H748L576 164ZM360 552H492L296 164H224L360 552Z" />
<glyph unicode="&#x3005;" glyph-name="null" horiz-adv-x="1024" d="M522 90Q479 138 421 184L380 131Q496 41 568 -90L620 -46Q593 1 565 38Q680 178 786 367L759 413H516Q533 450 549 493Q592 500 567 521Q550 536 501 555Q397 269 241 107L302 74Q404 186
485 347H698Q615 206 522 90Z" />
<glyph unicode="&#x3006;" glyph-name="null" horiz-adv-x="1024" d="M751 682L844 608Q858 589 834 590L804 592L593 394Q635 342 708 268V256Q679 231 634 182L530 333Q417 223 266 37Q239 67 185 94Q209 164 215 212T232 328T260 439T309 506T370 532T433 525T494
499T545 454L672 586Q740 658 736 673Q738 686 751 682ZM292 188L486 392Q450 438 428 454T372 466T323 426T300 325T292 188Z" />
<glyph unicode="&#x3007;" glyph-name="null" horiz-adv-x="1024" d="M50 365Q50 552 183 686T505 820Q692 820 826 686T960 365Q960 177 826 44T505 -90Q317 -90 184 43T50 365ZM112 365Q112 201 222 87T505 -28T788 86T899 365T788 644T505 759T222 644Q112
529 112 365Z" />
<glyph unicode="&#x3008;" glyph-name="null" horiz-adv-x="1024" d="M912 858L980 818Q782 580 565 367Q560 363 565 359Q782 146 980 -91L912 -131Q702 120 472 345Q457 363 472 381Q702 606 912 858Z" />
<glyph unicode="&#x3009;" glyph-name="null" horiz-adv-x="1024" d="M132 858Q342 606 572 381Q587 363 572 345Q342 120 132 -131L64 -91Q262 146 479 359Q484 363 479 367Q262 580 64 818L132 858Z" />
<glyph unicode="&#x300a;" glyph-name="null" horiz-adv-x="1024" d="M718 858L770 818Q572 580 355 367Q350 363 355 359Q572 146 770 -91L718 -131Q508 120 278 345Q263 363 278 381Q508 606 718 858ZM913 858L965 818Q767 580 550 367Q545 363 550 359Q767
146 965 -91L913 -131Q703 120 473 345Q458 363 473 381Q703 606 913 858Z" />
<glyph unicode="&#x300b;" glyph-name="null" horiz-adv-x="1024" d="M290 858Q500 606 730 381Q745 363 730 345Q500 120 290 -131L238 -91Q436 146 653 359Q658 363 653 367Q436 580 238 818L290 858ZM95 858Q305 606 535 381Q550 363 535 345Q305 120 95 -131L43
-91Q241 146 458 359Q463 363 458 367Q241 580 43 818L95 858Z" />
<glyph unicode="&#x300c;" glyph-name="null" horiz-adv-x="1024" d="M731 147H648V843H957V769H731V147Z" />
<glyph unicode="&#x300d;" glyph-name="null" horiz-adv-x="1024" d="M287 583H370V-113H61V-39H287V583Z" />
<glyph unicode="&#x300e;" glyph-name="null" horiz-adv-x="1024" d="M541 846H960V649H747V85H541V846ZM591 798V129H697V697H914V798H591Z" />
<glyph unicode="&#x300f;" glyph-name="null" horiz-adv-x="1024" d="M469 -116H50V81H263V645H469V-116ZM419 -68V601H313V33H96V-68H419Z" />
<glyph unicode="&#x3010;" glyph-name="null" horiz-adv-x="1024" d="M662 834H954V797Q863 723 808 624T752 357Q752 186 807 87T954 -83V-121H662V834Z" />
<glyph unicode="&#x3011;" glyph-name="null" horiz-adv-x="1024" d="M348 834V-121H56V-83Q147 -12 202 87T258 357Q258 524 203 623T56 797V834H348Z" />
<glyph unicode="&#x3012;" glyph-name="null" horiz-adv-x="1024" d="M143 789H870V690H143V789ZM143 529H870V430H568V-62H448V430H143V529Z" />
<glyph unicode="&#x3013;" glyph-name="null" horiz-adv-x="1024" d="M154 584H863V438H154V584ZM154 292H863V146H154V292Z" />
<glyph unicode="&#x3014;" glyph-name="null" horiz-adv-x="1024" d="M661 715Q774 758 887 826L956 769L752 668V58L956 -43L887 -100Q774 -32 661 11V715Z" />
<glyph unicode="&#x3015;" glyph-name="null" horiz-adv-x="1024" d="M351 715V11Q238 -32 125 -100L56 -43L260 58V668L56 769L125 826Q238 758 351 715Z" />
<glyph unicode="&#x301c;" glyph-name="null" horiz-adv-x="1024" d="M298 501Q375 501 453 454L592 371Q653 334 722 334Q782 340 826 367T922 501L993 463Q926 335 862 295Q798 255 722 249Q645 249 568 295L428 378Q367 416 298 416Q238 410 194 383T98 249L27
287Q94 415 158 455T298 501Z" />
<glyph unicode="&#x3033;" glyph-name="null" horiz-adv-x="1024" d="M261 -145Q261 -123 264 -102Q267 -60 384 150Q468 303 537 486Q576 592 586 654Q593 695 574 726Q569 733 568 736Q570 743 568 772Q567 786 586 788Q652 774 716 733Q752 711 752 698Q752
692 729 665Q719 655 716 648Q653 473 531 237Q501 180 478 140Q365 -72 360 -106Q357 -126 357 -144Q357 -147 289 -144Q261 -142 261 -145Z" />
<glyph unicode="&#x3034;" glyph-name="null" horiz-adv-x="1024" d="M718 344Q790 289 839 226L779 163Q734 244 663 291L718 344ZM819 445Q893 387 940 327L880 264Q836 344 764 392L819 445ZM261 -145Q261 -123 264 -102Q267 -60 384 150Q468 303 537 486Q576
592 586 654Q593 695 574 726Q569 733 568 736Q570 743 568 772Q567 786 586 788Q652 774 716 733Q752 711 752 698Q752 692 729 665Q719 655 716 648Q653 473 531 237Q501 180 478 140Q365 -72 360 -106Q357 -126 357 -144Q357 -147 289 -144Q261 -142 261 -145Z"
/>
<glyph unicode="&#x3035;" glyph-name="null" horiz-adv-x="1024" d="M357 880L358 857V856Q361 828 474 627L762 98V71L706 29Q682 9 670 -11Q514 383 390 593Q266 808 263 843Q261 867 261 879L357 880Z" />
<glyph unicode="&#x3041;" glyph-name="null" horiz-adv-x="1024" d="M579 -52Q567 -15 543 15V23Q596 29 640 47T714 100T743 181T717 258T658 299T600 311Q569 247 543 201Q517 155 485 112Q495 94 508 75L506 67Q486 58 441 18L427 44Q404 22 369 1T299 -16T242
16T219 94T236 188T286 263T356 316Q356 332 356 365T361 450Q306 448 238 448Q234 478 226 517L230 521Q307 517 366 518Q372 586 367 594Q363 607 375 606L449 596Q462 592 454 582L444 570Q441 545 439 522Q542 536 599 557L636 495Q567 473 514 465T432 455Q427
394 426 345Q475 361 544 368Q566 425 562 428Q560 445 577 440L650 417Q662 410 649 402L638 393L626 366Q648 362 692 350T779 290Q821 243 822 184Q824 125 784 72Q745 18 693 -8T579 -52ZM519 308Q483 301 428 280Q431 244 437 221T450 178Q463 198 480 228T519
308ZM362 243Q353 237 333 219T299 165T284 102T292 64T322 52T363 71T398 107Q379 153 372 185T362 243Z" />
<glyph unicode="&#x3042;" glyph-name="null" horiz-adv-x="1024" d="M678 723L703 640Q587 620 508 613T401 602Q395 514 395 456Q460 474 556 479Q572 543 566 548Q564 566 582 564L675 545Q691 540 679 528L663 514L650 471Q690 463 759 439T872 352T918 222T869
86T747 -16T603 -66Q590 -25 558 19V30Q623 39 684 62T781 125T819 215T789 312T709 376T626 398Q599 319 565 251T475 116Q488 90 503 63L502 52Q473 43 407 7L394 39Q370 22 324 0T225 -16T141 30T106 137T131 263T206 361T311 427Q310 522 314 596Q230 591 131
587Q130 635 127 675L131 677Q234 673 320 676Q329 777 321 788Q316 806 331 804L423 793Q439 789 428 778L415 765Q411 720 407 680Q559 694 678 723ZM535 404Q479 401 398 378Q404 315 416 273T439 199Q466 236 490 287T535 404ZM317 344Q297 333 264 307T211
239T191 153T204 88T255 70T319 89T365 122Q343 188 333 240T317 344Z" />
<glyph unicode="&#x3043;" glyph-name="null" horiz-adv-x="1024" d="M218 469Q219 478 232 479L313 460Q325 457 316 448L306 437Q285 327 291 233T310 108T336 74T358 88T396 183Q440 157 469 146L402 19Q378 -27 344 -30T276 2T230 100T214 240T218 387T218
469ZM696 451Q751 390 793 307T860 135L856 127Q812 116 765 96Q749 191 714 271T631 398L696 451Z" />
<glyph unicode="&#x3044;" glyph-name="null" horiz-adv-x="1024" d="M137 693Q136 706 153 707L247 690Q261 685 249 673L237 659Q209 488 218 362Q227 237 243 193Q259 149 279 145T313 164T351 296H359L443 231Q400 133 371 77T296 14Q250 8 210 54Q171 101
151 186T126 372T133 576T137 693ZM756 652Q844 561 893 458T973 219L968 212Q917 205 863 182Q839 333 802 420T679 593L756 652Z" />
<glyph unicode="&#x3045;" glyph-name="null" horiz-adv-x="1024" d="M373 594Q489 557 626 545L629 539Q616 504 611 468Q455 494 349 525L373 594ZM265 339Q364 375 424 384T549 387T647 343T688 260T681 153T621 40T533 -41T405 -98Q394 -60 367 -27V-16Q425
-3 470 16T549 75T597 163T606 243T588 296T529 321T433 317T295 258Q286 293 262 331L265 339Z" />
<glyph unicode="&#x3046;" glyph-name="null" horiz-adv-x="1024" d="M347 819Q519 763 699 752L703 744Q694 712 686 660Q481 685 319 731L347 819ZM198 487Q343 528 429 545T609 552T748 484T803 366T791 224T708 74T580 -28T407 -97Q391 -43 363 -6V4Q437 14
510 45T628 121T693 234T709 344T677 423T583 470T442 464T240 384Q223 434 195 477L198 487Z" />
<glyph unicode="&#x3047;" glyph-name="null" horiz-adv-x="1024" d="M560 413L572 425Q577 433 584 425Q620 401 647 379Q658 365 645 358L631 354L513 234Q531 236 555 228T589 201T600 139T603 67T615 31T671 22T812 34L817 26Q801 -9 795 -52H695Q657 -52
605 -48T543 -24T530 38T531 123T519 172T482 172T417 135L317 26Q262 -34 242 -62Q203 -24 169 -8V-1Q366 186 515 347Q380 327 280 309Q270 349 260 379L263 388Q374 390 560 413ZM369 602Q463 565 587 559Q580 522 578 489Q444 508 340 538L369 602Z" />
<glyph unicode="&#x3048;" glyph-name="null" horiz-adv-x="1024" d="M604 580L613 590Q620 596 627 590Q672 566 707 534Q724 521 705 508L687 502L509 326Q516 329 534 334T580 329T625 294T645 212T650 116T669 68T751 57T931 78L937 68Q921 12 913 -39Q830
-39 777 -40T664 -36T587 -5T566 77T561 189T542 253T492 252T370 186L249 56Q180 -21 151 -60Q119 -15 75 19V29L558 493Q356 476 215 451Q210 497 190 540L195 552Q348 553 604 580ZM334 821Q462 778 627 774Q618 731 618 684Q436 700 306 738L334 821Z" />
<glyph unicode="&#x3049;" glyph-name="null" horiz-adv-x="1024" d="M698 484Q786 434 845 379V370Q822 358 790 321Q736 389 660 430L698 484ZM592 464L619 396Q530 381 427 366Q426 308 427 258Q439 261 473 266T573 271T682 256T755 212T794 146T794 73T756
8T689 -35T612 -44T548 -20T494 35Q529 60 555 88Q579 43 606 33T656 28T695 46T718 84T720 134T697 178T649 203T566 210T480 205T428 193Q431 93 434 49T427 -17T378 -53T303 -64T236 -36T195 16T194 90T245 175T357 240Q356 302 356 358Q297 353 220 349Q219
379 212 420Q296 419 357 423Q360 545 352 555Q351 566 366 565L439 555Q449 553 443 543L433 530Q430 478 429 430Q505 441 592 464ZM358 172Q315 155 292 129T265 72T271 24T303 0T341 2T358 47T358 172Z" />
<glyph unicode="&#x304a;" glyph-name="null" horiz-adv-x="1024" d="M745 703Q876 626 947 561V553Q921 531 880 484Q813 574 698 627L745 703ZM620 673L645 591Q551 573 410 559Q409 471 409 397Q428 401 474 409T608 418T755 396T855 338T911 248T911 145T855
58T767 4T664 -5T579 28T507 113Q553 138 578 167L586 166Q620 104 654 88T721 77T780 105T818 159T822 226T784 289T712 329T598 341T482 332T410 316Q413 174 419 117T410 33T346 -18T248 -36Q198 -31 159 -5Q120 21 108 60T107 169T176 290T324 373Q323 467
324 551Q239 543 137 536Q138 576 126 626Q233 623 325 629Q329 775 318 789Q317 803 333 802L425 793Q438 788 427 777L414 760Q412 696 411 637Q523 650 620 673ZM326 286Q273 264 235 234T191 145T201 65T248 41T304 49T330 111T326 286Z" />
<glyph unicode="&#x304b;" glyph-name="null" horiz-adv-x="1024" d="M750 656Q825 567 878 486T982 292V285Q939 262 890 233Q847 358 797 442T682 598L750 656ZM85 549L90 555Q161 559 281 572Q294 623 308 692T312 780Q313 791 327 794L415 778Q425 772 415
763L404 751Q386 660 367 581Q454 589 488 581T566 540T614 431T618 305T610 213T588 122T536 34Q501 -5 468 -10Q435 -15 417 -4T382 26T316 86Q362 127 377 158Q407 120 428 102Q449 83 466 95T500 143T523 221T531 304T532 405T499 491T346 498L310 381Q285
298 248 204L166 -7Q117 19 77 35V44Q130 138 167 229T227 393L256 485Q167 471 93 457Q92 518 85 549Z" />
<glyph unicode="&#x304c;" glyph-name="null" horiz-adv-x="1024" d="M85 549L90 555Q161 559 281 572Q294 623 308 692T312 780Q313 791 327 794L415 778Q425 772 415 763L404 751Q386 660 367 581Q454 589 488 581T566 540T614 431T618 305T610 213T588 122T536
34Q501 -5 468 -10Q435 -15 417 -4T382 26T316 86Q362 127 377 158Q407 120 428 102Q449 83 466 95T500 143T523 221T531 304T532 405T499 491T346 498L310 381Q285 298 248 204L166 -7Q117 19 77 35V44Q130 138 167 229T227 393L256 485Q167 471 93 457Q92 518
85 549ZM735 625Q804 559 874 463T979 295V288Q934 266 887 236Q857 313 799 410T672 562L735 625ZM869 805Q946 754 1004 701L953 649Q899 713 826 752L869 805ZM781 725Q850 678 913 613L861 560Q808 628 738 672L781 725Z" />
<glyph unicode="&#x304d;" glyph-name="null" horiz-adv-x="1024" d="M505 788Q522 723 537 674Q632 691 720 721L756 641Q667 615 566 598Q571 585 585 559L624 489Q746 508 854 549L889 465Q788 436 664 418Q706 352 790 255L711 190Q649 215 616 223T529 238T433
240T356 223T304 188T288 134T313 75T387 39T528 29T710 41L712 30Q699 7 690 -53Q584 -59 470 -52T310 -20T238 40T207 127T227 215T292 271T381 300T486 307T637 288Q597 349 568 405Q406 387 172 377Q170 422 160 460L163 467Q376 461 532 477L502 538Q489 565
480 585Q371 572 222 565Q221 601 208 649L214 654Q351 652 451 662Q446 676 431 725T404 786Q396 797 411 802L500 818Q514 817 507 803L505 788Z" />
<glyph unicode="&#x304e;" glyph-name="null" horiz-adv-x="1024" d="M172 377Q170 422 160 460L163 467Q376 461 532 477L502 538Q489 565 480 585Q371 572 222 565Q221 601 208 649L214 654Q351 652 451 662Q446 676 431 725T404 786Q396 797 411 802L500 818Q514
817 507 803L505 788Q522 723 537 674Q632 691 720 721L756 641Q667 615 566 598Q571 585 585 559L624 489Q746 508 854 549L889 465Q788 436 664 418Q706 352 790 255L711 190Q649 215 616 223T529 238T433 240T356 223T304 188T288 134T313 75T387 39T528 29T710
41L712 30Q699 7 690 -53Q584 -59 470 -52T310 -20T238 40T207 127T227 215T292 271T381 300T486 307T637 288Q597 349 568 405Q406 387 172 377ZM845 857Q922 806 980 753L929 701Q875 765 802 804L845 857ZM749 789Q818 742 881 677L829 624Q776 692 706 736L749
789Z" />
<glyph unicode="&#x304f;" glyph-name="null" horiz-adv-x="1024" d="M585 801Q586 815 603 813L695 770Q711 762 693 753L675 745Q567 597 457 501T341 391T339 363T452 262L728 29V21Q694 -9 648 -70Q488 122 364 228Q241 334 238 353Q234 372 238 392T358 518T531
704T585 801Z" />
<glyph unicode="&#x3050;" glyph-name="null" horiz-adv-x="1024" d="M769 637Q846 586 904 533L853 481Q799 545 726 584L769 637ZM669 557Q738 510 801 445L749 392Q696 460 626 504L669 557ZM585 801Q586 815 603 813L695 770Q711 762 693 753L675 745Q567
597 457 501T341 391T339 363T452 262L728 29V21Q694 -9 648 -70Q488 122 364 228Q241 334 238 353Q234 372 238 392T358 518T531 704T585 801Z" />
<glyph unicode="&#x3051;" glyph-name="null" horiz-adv-x="1024" d="M133 731Q130 744 147 745L245 729Q259 724 245 711L230 695Q202 528 202 395T211 216T233 162T273 210H276Q310 170 344 137Q272 47 233 42T165 81T123 203T113 402T129 621T133 731ZM904
608L932 524Q862 508 771 498Q773 421 775 354T766 215T723 89T647 -3T529 -82Q509 -42 475 1V12Q549 36 585 65T647 137T681 237T690 362T690 446T687 491Q528 481 401 480Q400 524 390 565L393 574Q549 562 682 572Q681 595 676 680T663 783Q656 799 676 796L762
794Q775 792 768 780L761 761L768 581Q840 591 904 608Z" />
<glyph unicode="&#x3052;" glyph-name="null" horiz-adv-x="1024" d="M817 773Q886 726 931 673L879 624Q840 688 778 724L817 773ZM905 853Q974 806 1019 753L967 704Q928 768 866 804L905 853ZM133 731Q130 744 147 745L245 729Q259 724 245 711L230 695Q202
528 202 395T211 216T233 162T273 210H276Q310 170 344 137Q272 47 233 42T165 81T123 203T113 402T129 621T133 731ZM904 608L932 524Q862 508 771 498Q773 421 775 354T766 215T723 89T647 -3T529 -82Q509 -42 475 1V12Q549 36 585 65T647 137T681 237T690 362T690
446T687 491Q528 481 401 480Q400 524 390 565L393 574Q549 562 682 572Q681 595 676 680T663 783Q656 799 676 796L762 794Q775 792 768 780L761 761L768 581Q840 591 904 608Z" />
<glyph unicode="&#x3053;" glyph-name="null" horiz-adv-x="1024" d="M306 718Q425 675 505 671T756 675V585Q575 579 487 585T281 627Q298 690 300 718H306ZM199 291L297 261Q269 215 269 186T285 140Q302 125 341 114Q380 103 419 98T553 91T841 107L849 3Q654
0 547 0T393 7T293 31Q241 47 214 76Q187 105 178 156T199 291Z" />
<glyph unicode="&#x3054;" glyph-name="null" horiz-adv-x="1024" d="M306 718Q425 675 505 671T750 675Q723 698 694 716L737 769Q806 722 869 657L817 604Q787 642 752 673V585Q575 579 487 585T281 627Q298 690 300 718H306ZM199 291L297 261Q269 215 269 186T285
140Q302 125 341 114Q380 103 419 98T553 91T841 107L849 3Q654 0 547 0T393 7T293 31Q241 47 214 76Q187 105 178 156T199 291ZM833 837Q910 786 968 733L917 681Q863 745 790 784L833 837Z" />
<glyph unicode="&#x3055;" glyph-name="null" horiz-adv-x="1024" d="M168 505Q166 547 152 592L157 599Q342 592 489 609Q468 657 449 711T419 777Q408 790 423 795L521 812Q531 811 527 799L524 781Q550 687 578 622Q700 644 807 682L843 598Q741 567 617 546Q642
501 676 448T824 271L745 206Q681 241 619 253T484 266T375 249T323 203T310 148T341 92T433 55T565 44T723 60L725 53Q717 17 707 -41Q590 -46 502 -41T355 -11T259 58T219 146T238 230T309 300T413 336T522 338T657 319Q608 383 580 432T526 532Q374 512 168
505Z" />
<glyph unicode="&#x3056;" glyph-name="null" horiz-adv-x="1024" d="M873 849Q950 798 1008 745L957 693Q903 757 830 796L873 849ZM785 781Q854 734 917 669L865 616Q839 649 809 677L843 598Q741 567 617 546Q642 501 676 448T824 271L745 206Q681 241 619
253T484 266T375 249T323 203T310 148T341 92T433 55T565 44T723 60L725 53Q717 17 707 -41Q590 -46 502 -41T355 -11T259 58T219 146T238 230T309 300T413 336T522 338T657 319Q608 383 580 432T526 532Q374 512 168 505Q166 547 152 592L157 599Q342 592 489
609Q468 657 449 711T419 777Q408 790 423 795L521 812Q531 811 527 799L524 781Q550 687 578 622Q698 644 804 681Q775 707 742 728L785 781Z" />
<glyph unicode="&#x3057;" glyph-name="null" horiz-adv-x="1024" d="M250 771Q251 787 264 787L377 775Q389 769 379 758L364 739Q351 555 348 427T347 231T370 133T411 89T470 69Q509 62 563 74Q617 85 677 131T795 287Q850 243 894 224Q837 142 775 83T624
-5T459 -22T342 19T278 101T250 223T251 429T258 661T250 771Z" />
<glyph unicode="&#x3058;" glyph-name="null" horiz-adv-x="1024" d="M689 749Q775 693 835 632L773 575Q726 648 649 692L689 749ZM577 657Q663 601 723 540L661 483Q614 556 537 600L577 657ZM250 771Q251 787 264 787L377 775Q389 769 379 758L364 739Q351
555 348 427T347 231T370 133T411 89T470 69Q509 62 563 74Q617 85 677 131T795 287Q850 243 894 224Q837 142 775 83T624 -5T459 -22T342 19T278 101T250 223T251 429T258 661T250 771Z" />
<glyph unicode="&#x3059;" glyph-name="null" horiz-adv-x="1024" d="M622 825Q637 821 626 807L618 787Q620 717 621 661Q783 668 932 681L946 595Q785 589 621 584Q621 532 619 484T610 375Q618 355 620 325T616 223T583 93T516 -5T385 -105Q361 -61 324 -17V-10Q410
24 451 62T506 134T525 188Q508 178 477 169Q446 160 408 167T334 213T288 300T293 391T345 459T436 486T531 465Q534 530 535 582Q330 576 83 566Q80 616 70 651V661Q317 652 533 658Q527 750 524 772T510 810Q508 824 526 827L622 825ZM522 353Q518 371 508 385T468
410T413 413T371 376T365 306T405 253T458 243T499 267T522 353Z" />
<glyph unicode="&#x305a;" glyph-name="null" horiz-adv-x="1024" d="M873 853Q950 810 1003 762L953 705Q904 764 838 796L873 853ZM749 829Q818 786 871 729L821 672Q878 676 932 681L946 595Q785 589 621 584Q621 532 619 484T610 375Q618 355 620 325T616
223T583 93T516 -5T385 -105Q361 -61 324 -17V-10Q410 24 451 62T506 134T525 188Q508 178 477 169Q446 160 408 167T334 213T288 300T293 391T345 459T436 486T531 465Q534 530 535 582Q330 576 83 566Q80 616 70 651V661Q317 652 533 658Q527 750 524 772T510
810Q508 824 526 827L622 825Q637 821 626 807L618 787Q620 717 621 661Q724 665 821 672Q772 740 714 772L749 829ZM522 353Q518 371 508 385T468 410T413 413T371 376T365 306T405 253T458 243T499 267T522 353Z" />
<glyph unicode="&#x305b;" glyph-name="null" horiz-adv-x="1024" d="M952 573L960 487L955 482Q840 473 726 465Q725 330 708 288Q690 247 646 236Q603 225 487 245Q497 299 498 331L504 336Q555 319 580 317T615 320T631 357T638 460Q584 456 518 452T369 442Q368
414 368 348T370 221T390 133T451 99T543 93T670 97T834 114L843 108Q828 58 820 8Q778 5 745 4T637 1T476 5T362 29T308 91T279 205T276 345T277 435L72 420Q68 465 60 512V518Q173 518 279 521Q279 567 281 639T272 725Q273 741 286 741L387 733Q399 728 389
716L379 699Q374 601 371 525Q447 528 512 532T639 542Q639 593 638 671T625 767Q623 780 639 781L727 776Q740 772 732 762L723 744Q725 633 725 550Q837 560 952 573Z" />
<glyph unicode="&#x305c;" glyph-name="null" horiz-adv-x="1024" d="M952 573L960 487L955 482Q840 473 726 465Q725 330 708 288Q690 247 646 236Q603 225 487 245Q497 299 498 331L504 336Q555 319 580 317T615 320T631 357T638 460Q584 456 518 452T369 442Q368
414 368 348T370 221T390 133T451 99T543 93T670 97T834 114L843 108Q828 58 820 8Q778 5 745 4T637 1T476 5T362 29T308 91T279 205T276 345T277 435L72 420Q68 465 60 512V518Q173 518 279 521Q279 567 281 639T272 725Q273 741 286 741L387 733Q399 728 389
716L379 699Q374 601 371 525Q447 528 512 532T639 542Q639 593 638 671T625 767Q623 780 639 781L727 776Q740 772 732 762L723 744Q725 633 725 550Q837 560 952 573ZM789 761Q858 714 921 649L869 596Q816 664 746 708L789 761ZM877 845Q954 794 1012 741L961
689Q907 753 834 792L877 845Z" />
<glyph unicode="&#x305d;" glyph-name="null" horiz-adv-x="1024" d="M882 514L916 428L910 423Q816 419 724 413Q695 402 650 372T552 292Q500 242 490 179Q481 116 512 85T593 47T758 58Q767 11 783 -37L778 -44Q676 -56 612 -51T494 -16T414 61T395 175T454
299T571 400Q536 397 419 385T116 348Q108 403 94 437L98 444Q208 449 284 455Q500 619 591 699Q475 689 310 671Q303 722 284 753L290 762Q417 759 501 764T661 776L668 784Q672 790 678 785Q713 761 757 727Q771 709 749 703L723 698L418 467Q458 470 574 481T882
514Z" />
<glyph unicode="&#x305e;" glyph-name="null" horiz-adv-x="1024" d="M785 729Q854 682 917 617L865 564Q812 632 742 676L785 729ZM869 821Q946 770 1004 717L953 665Q899 729 826 768L869 821ZM882 514L916 428L910 423Q816 419 724 413Q695 402 650 372T552
292Q500 242 490 179Q481 116 512 85T593 47T758 58Q767 11 783 -37L778 -44Q676 -56 612 -51T494 -16T414 61T395 175T454 299T571 400Q536 397 419 385T116 348Q108 403 94 437L98 444Q208 449 284 455Q500 619 591 699Q475 689 310 671Q303 722 284 753L290
762Q417 759 501 764T661 776L668 784Q672 790 678 785Q713 761 757 727Q771 709 749 703L723 698L418 467Q458 470 574 481T882 514Z" />
<glyph unicode="&#x305f;" glyph-name="null" horiz-adv-x="1024" d="M521 230Q528 143 550 120T634 87T908 92L915 83Q899 41 896 -7Q664 -12 594 2T492 50T449 127T435 227L521 230ZM438 746L410 629Q520 643 607 669L633 585L632 579Q545 563 388 543Q374 489
347 398L288 204Q255 102 191 -51Q145 -22 98 0L97 13Q162 131 197 228T256 410L289 531Q212 523 128 516Q125 560 112 607L117 614Q221 612 312 618L332 706Q346 765 336 783Q337 794 351 797L451 780Q464 776 455 765L438 746ZM906 493Q900 447 897 400Q800 409
708 408T556 395L548 481Q612 488 709 491T906 493Z" />
<glyph unicode="&#x3060;" glyph-name="null" horiz-adv-x="1024" d="M521 230Q528 143 550 120T634 87T908 92L915 83Q899 41 896 -7Q664 -12 594 2T492 50T449 127T435 227L521 230ZM906 493Q900 447 897 400Q800 409 708 408T556 395L548 481Q612 488 709 491T906
493ZM607 669L633 585L632 579Q545 563 388 543Q374 489 347 398L288 204Q255 102 191 -51Q145 -22 98 0L97 13Q162 131 197 228T256 410L289 531Q212 523 128 516Q125 560 112 607L117 614Q221 612 312 618L332 706Q346 765 336 783Q337 794 351 797L451 780Q464
776 455 765L438 746L410 629Q520 643 607 669ZM737 717Q806 670 869 605L817 552Q764 620 694 664L737 717ZM829 809Q906 758 964 705L913 653Q859 717 786 756L829 809Z" />
<glyph unicode="&#x3061;" glyph-name="null" horiz-adv-x="1024" d="M711 587Q534 554 391 542Q380 478 373 434T349 302Q434 357 507 375T634 390T738 359T819 278T837 155T777 40T665 -26T522 -52T348 -53Q348 -7 332 35L334 46Q410 32 476 32T596 42T690 80T740
156T733 239T689 293T619 313T522 304T416 262T323 189L232 226Q273 367 282 426T300 536Q189 529 121 527Q115 581 104 617L110 623Q211 614 313 616L328 714Q338 775 331 795Q332 817 350 808L445 794Q457 787 446 776L430 759L405 621Q525 633 687 675L711 587Z"
/>
<glyph unicode="&#x3062;" glyph-name="null" horiz-adv-x="1024" d="M757 729Q826 682 889 617L837 564Q784 632 714 676L757 729ZM849 821Q926 770 984 717L933 665Q879 729 806 768L849 821ZM711 587Q534 554 391 542Q380 478 373 434T349 302Q434 357 507
375T634 390T738 359T819 278T837 155T777 40T665 -26T522 -52T348 -53Q348 -7 332 35L334 46Q410 32 476 32T596 42T690 80T740 156T733 239T689 293T619 313T522 304T416 262T323 189L232 226Q273 367 282 426T300 536Q189 529 121 527Q115 581 104 617L110 623Q211
614 313 616L328 714Q338 775 331 795Q332 817 350 808L445 794Q457 787 446 776L430 759L405 621Q525 633 687 675L711 587Z" />
<glyph unicode="&#x3063;" glyph-name="null" horiz-adv-x="1024" d="M187 324Q358 360 465 376T650 380T769 326T821 232T813 119T750 24T637 -36T405 -64Q403 -17 386 23L390 30Q533 19 589 33T678 71T726 141T733 222T696 278T616 307T481 303T212 232Q203
277 181 315L187 324Z" />
<glyph unicode="&#x3064;" glyph-name="null" horiz-adv-x="1024" d="M68 558Q317 609 466 630T710 634T854 564T920 440T911 292T829 162T676 78T367 36Q359 94 344 140L349 147Q546 142 624 163T748 223T813 319T821 421T780 502T682 553T492 549T102 450Q89
510 65 547L68 558Z" />
<glyph unicode="&#x3065;" glyph-name="null" horiz-adv-x="1024" d="M68 558Q317 609 466 630T710 634T854 564T920 440T911 292T829 162T676 78T367 36Q359 94 344 140L349 147Q546 142 624 163T748 223T813 319T821 421T780 502T682 553T492 549T102 450Q89
510 65 547L68 558ZM845 837Q922 786 980 733L929 681Q875 745 802 784L845 837ZM717 773Q786 726 849 661L797 608Q744 676 674 720L717 773Z" />
<glyph unicode="&#x3066;" glyph-name="null" horiz-adv-x="1024" d="M869 753Q880 708 900 664L890 657L752 644Q679 606 608 548T492 416T452 266T508 142T615 85T789 81L792 78Q781 31 771 -32Q712 -34 642 -27T511 13T409 106T358 253T395 422T492 548T581
625Q545 621 423 606T110 558Q100 614 80 657L84 667Q156 667 241 674T516 705T869 753Z" />
<glyph unicode="&#x3067;" glyph-name="null" horiz-adv-x="1024" d="M869 753Q880 708 900 664L890 657L752 644Q679 606 608 548T492 416T452 266T508 142T615 85T789 81L792 78Q781 31 771 -32Q712 -34 642 -27T511 13T409 106T358 253T395 422T492 548T581
625Q545 621 423 606T110 558Q100 614 80 657L84 667Q156 667 241 674T516 705T869 753ZM709 481Q778 434 841 369L789 316Q736 384 666 428L709 481ZM801 573Q878 522 936 469L885 417Q831 481 758 520L801 573Z" />
<glyph unicode="&#x3068;" glyph-name="null" horiz-adv-x="1024" d="M722 569L729 583Q737 600 748 587L815 508Q818 492 802 492Q783 492 704 468T516 396T367 313T306 239T295 159T329 104T402 81T542 74T793 93L796 87Q788 48 783 -16H524Q426 -16 351 -1T244
52T203 143T215 248T280 341T386 418Q352 539 344 643T321 756Q321 772 338 772L433 775Q446 770 438 759L430 739Q436 549 469 460Q570 508 722 569Z" />
<glyph unicode="&#x3069;" glyph-name="null" horiz-adv-x="1024" d="M749 713Q818 666 881 601L829 548Q776 616 706 660L749 713ZM841 805Q918 754 976 701L925 649Q871 713 798 752L841 805ZM722 569L729 583Q737 600 748 587L815 508Q818 492 802 492Q783
492 704 468T516 396T367 313T306 239T295 159T329 104T402 81T542 74T793 93L796 87Q788 48 783 -16H524Q426 -16 351 -1T244 52T203 143T215 248T280 341T386 418Q352 539 344 643T321 756Q321 772 338 772L433 775Q446 770 438 759L430 739Q436 549 469 460Q570
508 722 569Z" />
<glyph unicode="&#x306a;" glyph-name="null" horiz-adv-x="1024" d="M550 684L578 602Q504 584 377 566Q343 477 297 371T166 111Q121 149 83 169L82 178Q158 290 205 387T279 552Q200 543 114 535Q111 584 99 627Q212 627 309 637L336 727Q351 781 341 799Q342
810 352 813L457 798Q470 793 457 781L442 765L407 650Q489 664 550 684ZM693 440L684 425L686 205Q776 175 926 100Q899 61 876 10Q805 55 761 80T681 120Q679 101 672 64T636 0T572 -36T501 -46T423 -36T351 5T320 76T339 158T402 216T492 236T598 228Q598 307
595 371T585 448Q580 464 599 464L689 457Q702 452 693 440ZM699 657Q814 605 949 536L895 449Q774 535 661 579L699 657ZM596 149L546 162Q519 169 477 162T422 134T406 86Q403 60 422 47Q442 34 478 33T536 35T572 56T591 99T596 149Z" />
<glyph unicode="&#x306b;" glyph-name="null" horiz-adv-x="1024" d="M497 280Q501 203 538 166T635 119T907 125L911 120Q902 76 899 26Q664 20 594 35T489 81T433 160T404 275L497 280ZM861 678Q859 637 864 587Q753 586 667 583T448 565L443 652L656 665L861
678ZM130 741Q129 754 146 755L245 746Q258 740 245 727L233 711Q213 524 209 350T216 128T239 76T275 132H279Q313 84 348 49Q278 -33 236 -39T163 -1T122 119T116 357T129 624T130 741Z" />
<glyph unicode="&#x306c;" glyph-name="null" horiz-adv-x="1024" d="M111 666L200 686Q218 687 213 673L207 653Q227 587 250 528Q278 551 324 580T424 620L500 633Q519 741 508 759Q511 774 530 769L624 754Q636 747 626 737L611 721L594 637Q620 635 684 627T818
563Q887 508 910 444Q934 380 930 308Q925 235 889 164Q931 137 982 100Q947 60 918 14Q873 58 837 89Q820 70 780 34T674 -1T566 41T534 140T578 229T660 260T752 239T809 211Q832 263 836 313T820 417T752 509T655 555T577 562Q552 452 525 370T449 200Q472 172
495 149V143Q457 114 419 69Q405 89 392 110Q358 65 319 40T244 14T170 34T112 92T89 194T114 334T186 463Q157 527 138 582T105 648Q96 664 111 666ZM770 144Q708 184 666 184T616 135T653 80T726 99T770 144ZM484 556Q429 546 378 519T284 450Q335 347 392 271Q422
332 444 405T484 556ZM227 376Q213 350 197 304T180 211T192 142T223 112T270 114T341 185Q330 200 303 240T227 376Z" />
<glyph unicode="&#x306d;" glyph-name="null" horiz-adv-x="1024" d="M292 798L389 791Q401 786 392 776L380 759Q376 686 374 617L378 624Q383 628 388 624Q419 608 456 586Q471 575 450 563L416 545L371 479L372 466Q433 518 508 561T646 614T769 596T862 502T898
375T900 260T887 169Q935 136 985 97L988 87Q951 54 917 10Q883 52 849 86Q815 35 749 14T631 8T550 54T515 119T526 191T587 249T690 261T810 218Q813 237 814 272T810 359T790 456T740 523T658 539T539 492T372 357Q373 283 374 185T392 -45L389 -54Q344 -57
286 -71Q283 64 283 146T282 255Q212 168 136 50L130 51Q102 94 53 125Q147 239 221 320Q255 381 282 439V510L112 455Q99 501 76 541L78 550Q185 560 283 584Q284 640 287 705T282 782Q277 800 292 798ZM784 142Q712 193 663 193T600 167T599 119T646 84T721 86T784
142Z" />
<glyph unicode="&#x306e;" glyph-name="null" horiz-adv-x="1024" d="M542 704Q602 704 677 687T819 617T913 492T936 332Q931 245 894 176Q857 107 783 59T560 -29Q550 20 528 60V68Q647 89 709 123T801 212T835 333T821 461T752 561T639 614T522 627L592 612Q604
606 594 598L580 584Q523 329 467 224Q411 120 362 85Q312 50 277 45T206 61T141 135T102 251T125 403T204 546T311 639T431 690T542 704ZM488 621V624Q428 615 374 580T281 501T215 389T189 273T213 185T255 141T307 155T386 257T463 471T488 621Z" />
<glyph unicode="&#x306f;" glyph-name="null" horiz-adv-x="1024" d="M122 741Q114 754 131 755L235 741Q250 736 238 724L224 708Q203 520 199 349T204 130T226 76T267 129L272 130Q305 85 338 50Q266 -36 224 -41T152 -2T113 117T108 354T122 624T122 741ZM653
766Q649 780 662 782L762 778Q775 772 764 761L754 745Q756 669 758 609Q850 616 926 625L939 539Q870 533 760 528Q761 508 762 456Q764 405 767 322Q770 238 770 208Q857 180 979 125V117Q952 82 928 24Q836 87 766 121Q763 101 755 66T718 7T651 -24T578 -31T501
-15T438 22T409 74T411 150T468 217T562 244T676 233Q676 257 676 338T673 465T670 523Q538 517 389 513Q386 561 380 600L385 607Q536 597 667 603Q665 634 664 693T653 766ZM674 156Q597 177 565 172T510 151T490 98T530 52T591 44T640 56T668 96T674 156Z" />
<glyph unicode="&#x3070;" glyph-name="null" horiz-adv-x="1024" d="M809 777Q878 730 923 677L863 632Q832 692 766 736L809 777ZM893 849Q962 802 1007 749L947 704Q916 764 850 808L893 849ZM122 741Q114 754 131 755L235 741Q250 736 238 724L224 708Q203
520 199 349T204 130T226 76T267 129L272 130Q305 85 338 50Q266 -36 224 -41T152 -2T113 117T108 354T122 624T122 741ZM926 625L939 539Q870 533 760 528Q761 508 762 456Q764 405 767 322Q770 238 770 208Q857 180 979 125V117Q952 82 928 24Q836 87 766 121Q763
101 755 66T718 7T651 -24T578 -31T501 -15T438 22T409 74T411 150T468 217T562 244T676 233Q676 257 676 338T673 465T670 523Q538 517 389 513Q386 561 380 600L385 607Q536 597 667 603Q665 634 664 693T653 766Q649 780 662 782L762 778Q775 772 764 761L754
745Q756 669 758 609Q850 616 926 625ZM674 156Q597 177 565 172T510 151T490 98T530 52T591 44T640 56T668 96T674 156Z" />
<glyph unicode="&#x3071;" glyph-name="null" horiz-adv-x="1024" d="M794 736Q794 775 821 803T889 831Q928 831 956 803T984 736Q984 696 956 669T889 641Q849 641 822 668T794 736ZM832 736Q832 709 846 695T887 681T929 695T945 736Q945 761 929 777T887 793T847
777T832 736ZM122 741Q114 754 131 755L235 741Q250 736 238 724L224 708Q203 520 199 349T204 130T226 76T267 129L272 130Q305 85 338 50Q266 -36 224 -41T152 -2T113 117T108 354T122 624T122 741ZM926 625L939 539Q870 533 760 528Q761 508 762 456Q764 405
767 322Q770 238 770 208Q857 180 979 125V117Q952 82 928 24Q836 87 766 121Q763 101 755 66T718 7T651 -24T578 -31T501 -15T438 22T409 74T411 150T468 217T562 244T676 233Q676 257 676 338T673 465T670 523Q538 517 389 513Q386 561 380 600L385 607Q536 597
667 603Q665 634 664 693T653 766Q649 780 662 782L762 778Q775 772 764 761L754 745Q756 669 758 609Q850 616 926 625ZM674 156Q597 177 565 172T510 151T490 98T530 52T591 44T640 56T668 96T674 156Z" />
<glyph unicode="&#x3072;" glyph-name="null" horiz-adv-x="1024" d="M371 721L381 732Q386 738 392 732Q422 713 462 677Q475 664 460 657L434 646Q346 508 312 450T259 327T247 203T282 107T367 57T483 51T591 96T658 207T669 402T620 698L709 725Q746 629 810
529T969 338L968 327Q943 311 891 249L759 443Q761 422 767 348T756 188Q740 102 670 38Q600 -25 510 -38T331 -30Q242 -7 198 56Q155 119 153 197T171 342T227 469T321 620Q264 612 124 579L104 680Q228 687 371 721Z" />
<glyph unicode="&#x3073;" glyph-name="null" horiz-adv-x="1024" d="M777 753Q846 706 909 641L857 588Q804 656 734 700L777 753ZM869 845Q946 794 1004 741L953 689Q899 753 826 792L869 845ZM371 721L381 732Q386 738 392 732Q422 713 462 677Q475 664 460
657L434 646Q346 508 312 450T259 327T247 203T282 107T367 57T483 51T591 96T658 207T669 402T620 698L709 725Q746 629 810 529T969 338L968 327Q943 311 891 249L759 443Q761 422 767 348T756 188Q740 102 670 38Q600 -25 510 -38T331 -30Q242 -7 198 56Q155
119 153 197T171 342T227 469T321 620Q264 612 124 579L104 680Q228 687 371 721Z" />
<glyph unicode="&#x3074;" glyph-name="null" horiz-adv-x="1024" d="M782 684Q782 723 809 751T877 779Q916 779 944 751T972 684Q972 644 944 617T877 589Q837 589 810 616T782 684ZM820 684Q820 657 834 643T875 629T917 643T933 684Q933 709 917 725T875 741T835
725T820 684ZM371 721L381 732Q386 738 392 732Q422 713 462 677Q475 664 460 657L434 646Q346 508 312 450T259 327T247 203T282 107T367 57T483 51T591 96T658 207T669 402T620 698L709 725Q746 629 810 529T969 338L968 327Q943 311 891 249L759 443Q761 422
767 348T756 188Q740 102 670 38Q600 -25 510 -38T331 -30Q242 -7 198 56Q155 119 153 197T171 342T227 469T321 620Q264 612 124 579L104 680Q228 687 371 721Z" />
<glyph unicode="&#x3075;" glyph-name="null" horiz-adv-x="1024" d="M379 235Q268 151 143 10Q121 42 70 83L309 300L379 235ZM707 297L765 367Q892 262 998 143L999 134Q975 119 916 63Q820 211 707 297ZM388 790Q517 715 690 682Q671 643 654 589Q481 636 342
710L388 790ZM474 503Q465 454 465 421T516 362T631 289T710 167T698 44T622 -27T512 -50T406 -23T315 49L316 57Q355 83 389 116Q425 66 462 51T541 40T605 78T612 160T543 246L432 318Q374 355 371 397T375 481T379 538Q376 549 389 550L485 536Q499 530 487
518L474 503Z" />
<glyph unicode="&#x3076;" glyph-name="null" horiz-adv-x="1024" d="M813 821Q890 770 948 717L897 665Q843 729 770 768L813 821ZM701 761Q770 714 833 649L781 596Q728 664 658 708L701 761ZM379 235Q268 151 143 10Q121 42 70 83L309 300L379 235ZM707 297L765
367Q892 262 998 143L999 134Q975 119 916 63Q820 211 707 297ZM388 790Q517 715 690 682Q671 643 654 589Q481 636 342 710L388 790ZM474 503Q465 454 465 421T516 362T631 289T710 167T698 44T622 -27T512 -50T406 -23T315 49L316 57Q355 83 389 116Q425 66 462
51T541 40T605 78T612 160T543 246L432 318Q374 355 371 397T375 481T379 538Q376 549 389 550L485 536Q499 530 487 518L474 503Z" />
<glyph unicode="&#x3077;" glyph-name="null" horiz-adv-x="1024" d="M727 710Q727 749 754 777T822 805Q861 805 889 777T917 710Q917 670 889 643T822 615Q782 615 755 642T727 710ZM765 710Q765 683 779 669T820 655T862 669T878 710Q878 735 862 751T820 767T780
751T765 710ZM379 235Q268 151 143 10Q121 42 70 83L309 300L379 235ZM707 297L765 367Q892 262 998 143L999 134Q975 119 916 63Q820 211 707 297ZM388 790Q517 715 690 682Q671 643 654 589Q481 636 342 710L388 790ZM474 503Q465 454 465 421T516 362T631 289T710
167T698 44T622 -27T512 -50T406 -23T315 49L316 57Q355 83 389 116Q425 66 462 51T541 40T605 78T612 160T543 246L432 318Q374 355 371 397T375 481T379 538Q376 549 389 550L485 536Q499 530 487 518L474 503Z" />
<glyph unicode="&#x3078;" glyph-name="null" horiz-adv-x="1024" d="M421 626Q477 626 565 529T991 184L990 172Q952 143 908 83Q588 380 522 450T427 521Q400 521 383 497T141 260Q105 307 60 336V344Q289 516 334 571T421 626Z" />
<glyph unicode="&#x3079;" glyph-name="null" horiz-adv-x="1024" d="M793 789Q879 737 939 672L873 619Q830 692 749 740L793 789ZM681 697Q767 645 827 580L761 527Q718 600 637 648L681 697ZM421 626Q477 626 565 529T991 184L990 172Q952 143 908 83Q588 380
522 450T427 521Q400 521 383 497T141 260Q105 307 60 336V344Q289 516 334 571T421 626Z" />
<glyph unicode="&#x307a;" glyph-name="null" horiz-adv-x="1024" d="M421 626Q477 626 565 529T991 184L990 172Q952 143 908 83Q588 380 522 450T427 521Q400 521 383 497T141 260Q105 307 60 336V344Q289 516 334 571T421 626ZM669 596Q669 642 699 674T776
706T854 674T886 596T854 520T776 489T700 519T669 596ZM709 596Q709 565 726 548T775 530Q804 530 824 547T844 596Q844 626 824 645T775 665Q744 665 727 646T709 596Z" />
<glyph unicode="&#x307b;" glyph-name="null" horiz-adv-x="1024" d="M651 640Q648 651 655 654Q539 649 407 645Q405 685 397 730L402 737Q535 731 638 736T888 760L898 673Q791 661 674 655L758 652Q767 649 760 638L752 621Q755 556 757 503Q856 511 937 525L946
436Q867 426 761 419Q763 397 765 343T771 208Q858 180 979 125V117Q952 82 928 24Q836 87 766 121Q763 103 754 67T717 7T651 -24T578 -31T501 -15T438 22T409 74T411 150T468 217T562 244T678 233Q679 306 676 352L671 413Q540 406 392 401Q394 447 384 489L389
496Q537 490 666 497Q665 521 663 573T651 640ZM122 741Q114 754 131 755L235 741Q250 736 238 724L224 708Q203 520 199 349T204 130T226 76T267 129L272 130Q305 85 338 50Q266 -36 224 -41T152 -2T113 117T108 354T122 624T122 741ZM675 156Q597 178 565 173T510
151T490 98T530 52T591 44T640 56T669 98T675 156Z" />
<glyph unicode="&#x307c;" glyph-name="null" horiz-adv-x="1024" d="M812 752L816 726L845 750Q902 684 937 631L874 589Q856 634 825 675L827 663Q775 658 694 655L758 652Q767 649 760 638L752 621Q755 556 757 503Q856 511 937 525L946 436Q867 426 761 419Q763
397 765 343T771 208Q858 180 979 125V117Q952 82 928 24Q836 87 766 121Q763 103 754 67T717 7T651 -24T578 -31T501 -15T438 22T409 74T411 150T468 217T562 244T678 233Q679 306 676 352L671 413Q540 406 392 401Q394 447 384 489L389 496Q537 490 666 497Q665
521 663 573T651 640Q648 649 653 653Q545 649 407 645Q405 685 397 731L402 738Q535 731 626 732T812 752ZM921 838Q982 780 1017 727L958 685Q929 749 872 797L921 838ZM122 741Q114 754 131 755L235 741Q250 736 238 724L224 708Q203 520 199 349T204 130T226
76T267 129L272 130Q305 85 338 50Q266 -36 224 -41T152 -2T113 117T108 354T122 624T122 741ZM675 156Q597 178 565 173T510 151T490 98T530 52T591 44T640 56T669 98T675 156Z" />
<glyph unicode="&#x307d;" glyph-name="null" horiz-adv-x="1024" d="M819 753L834 668Q781 658 706 654L758 652Q767 649 760 638L752 621Q755 556 757 503Q856 511 937 525L946 436Q867 426 761 419Q763 397 765 343T771 208Q858 180 979 125V117Q952 82 928
24Q836 87 766 121Q763 103 754 67T717 7T651 -24T578 -31T501 -15T438 22T409 74T411 150T468 217T562 244T678 233Q679 306 676 352L671 413Q540 406 392 401Q394 447 384 489L389 496Q537 490 666 497Q665 521 663 573T651 640Q649 648 652 652L407 645Q405
685 397 730L402 737Q535 731 626 734T819 753ZM824 741Q824 780 851 808T919 836Q958 836 986 808T1014 741Q1014 701 986 674T919 646Q879 646 852 673T824 741ZM862 741Q862 714 876 700T917 686T959 700T975 741Q975 766 959 782T917 798T877 782T862 741ZM122
741Q114 754 131 755L235 741Q250 736 238 724L224 708Q203 520 199 349T204 130T226 76T267 129L272 130Q305 85 338 50Q266 -36 224 -41T152 -2T113 117T108 354T122 624T122 741ZM675 156Q597 178 565 173T510 151T490 98T530 52T591 44T640 56T669 98T675 156Z"
/>
<glyph unicode="&#x307e;" glyph-name="null" horiz-adv-x="1024" d="M464 794Q460 808 475 810L579 806Q592 802 585 789L571 766Q573 701 574 648Q722 658 831 675L845 587Q749 578 575 569Q577 503 577 476T578 431Q706 438 790 452L798 366Q729 360 580 352L583
211Q709 176 863 105V93Q834 59 808 4Q687 89 582 129Q581 90 575 54T536 -13T462 -53T381 -62T298 -48Q256 -35 226 -10Q197 15 187 47T190 125T247 202T352 240T492 233Q491 307 490 348Q356 343 306 348Q255 352 203 382L250 454Q286 432 324 428T489 427Q489
451 489 481T486 564Q318 555 158 544Q160 584 144 633L149 640Q307 633 482 642Q475 780 464 794ZM491 156Q412 177 371 173T296 141T275 72T332 22T405 16T456 34T485 79T491 156Z" />
<glyph unicode="&#x307f;" glyph-name="null" horiz-adv-x="1024" d="M767 555Q764 570 782 565L877 545Q890 539 877 528L867 514Q853 402 831 325Q898 297 981 257V250Q952 223 916 161L796 232Q764 163 715 93T554 -72Q528 -30 486 8V17Q579 71 631 134T714
273Q663 297 591 317T456 344Q413 231 372 165Q330 99 281 76T183 60T107 96T73 180T100 289T189 374T298 414T394 423Q433 533 465 671Q374 662 218 627Q213 680 195 712L200 724Q335 730 499 751L510 762Q513 768 520 762Q562 740 597 718Q619 704 594 692L575
680L483 418Q562 409 631 392T743 359Q755 407 763 475T767 555ZM365 346Q357 345 328 343T252 319T183 264T162 196T188 151T240 151T298 208T365 346Z" />
<glyph unicode="&#x3080;" glyph-name="null" horiz-adv-x="1024" d="M291 794Q288 809 302 809L395 801Q409 798 399 786L388 769Q387 705 386 650Q484 658 612 685L627 598Q512 579 384 571Q380 438 374 372Q389 334 371 261T346 148T350 81T387 44T491 33T622
39T702 61T735 93T732 151T693 286L793 305Q811 197 824 141T823 50T759 -10T649 -45T490 -54T336 -28T261 43T251 133Q220 122 186 126T126 154T93 222T96 316T136 395T201 437T262 447T293 442Q296 499 297 566Q195 561 97 557Q94 603 85 642L88 651Q206 643
298 645Q299 779 291 794ZM745 588Q878 504 965 431V425Q933 397 894 346Q807 452 692 514L745 588ZM289 359Q283 377 261 379T219 373T187 346T170 293T170 235T200 206T254 225T289 359Z" />
<glyph unicode="&#x3081;" glyph-name="null" horiz-adv-x="1024" d="M160 682L246 694Q264 697 258 680L253 660Q267 605 281 560Q293 569 335 592T437 626T539 642Q565 751 554 769Q557 784 576 779L667 760Q687 757 673 744L657 727L633 637L696 624Q744 615
814 559Q885 503 908 434Q932 364 931 299T895 161T788 34T571 -46Q563 -8 538 38V50Q644 57 710 91T803 182T832 291T813 404T746 500T661 544T608 555Q579 459 545 375T462 211Q485 183 511 157V147Q485 130 431 78L401 122Q358 65 320 44T245 17T168 34Q128
56 108 92Q89 129 88 206T114 350T169 453T208 500Q198 530 182 592T154 664Q145 680 160 682ZM517 559Q432 551 383 524T308 477Q320 446 342 401T408 285Q438 339 466 410T517 559ZM244 407Q221 373 203 329T182 226T188 144Q197 122 217 112Q237 102 271 118T353
200Q343 215 318 259T244 407Z" />
<glyph unicode="&#x3082;" glyph-name="null" horiz-adv-x="1024" d="M620 634L639 552Q557 540 423 540Q414 491 408 454L398 389Q413 388 472 387T648 401L666 315Q542 301 474 304L387 309Q381 263 376 211T385 119T442 60T552 36T674 56T748 158T734 336Q780
342 832 359Q863 237 843 138Q823 38 732 -11T540 -53T379 -7T297 91T283 207T298 316Q276 319 242 325T142 364L182 438Q246 406 271 402T310 395Q313 419 319 458L332 541Q261 543 177 546Q179 583 170 630L176 636Q269 625 346 621Q352 654 364 713T365 787Q366
803 379 803L477 787Q490 780 479 770L463 754Q449 685 437 620Q532 622 620 634Z" />
<glyph unicode="&#x3083;" glyph-name="null" horiz-adv-x="1024" d="M306 480Q326 416 348 358Q420 387 483 407V488Q483 523 481 528Q476 537 485 543L565 534Q579 532 573 522L560 510Q555 461 552 424Q586 430 627 428T707 404T769 349T793 278T779 206T730
151T656 122T573 127T475 187L520 235Q564 200 590 192T640 186T679 199T704 228T711 274T698 320T665 347T608 362T513 348T372 295L450 118Q482 48 530 -47V-56Q492 -69 447 -92Q403 22 373 92L303 265Q242 236 175 198Q156 230 123 270L126 276Q208 303 278
330Q265 365 250 409T219 471Q211 477 220 486L304 513Q320 513 315 502L306 480Z" />
<glyph unicode="&#x3084;" glyph-name="null" horiz-adv-x="1024" d="M322 691Q349 599 376 517Q467 552 552 580Q554 646 554 695T551 752Q545 764 557 771L656 761Q670 759 662 745L649 727Q642 655 639 601Q680 609 733 609T840 578T922 502T950 405T930 307T865
230T766 194T654 207T529 290L592 357Q644 303 680 290T748 278T802 292T842 337T858 402T839 465T788 512T703 529T579 505T403 438Q452 300 493 202Q534 103 597 -31V-43Q541 -55 491 -81Q439 72 401 172T318 402L109 307Q87 353 51 394L56 403Q182 443 290 484L250
607Q229 670 210 684Q199 693 212 705L319 735Q335 736 329 720L322 691Z" />
<glyph unicode="&#x3085;" glyph-name="null" horiz-adv-x="1024" d="M513 546L595 541Q614 543 604 528L596 512Q600 459 601 410Q688 406 740 368T804 275T798 166Q779 112 734 74Q688 36 634 27T546 21Q514 -48 454 -114Q424 -84 389 -63L388 -56Q438 -12 467
42Q413 67 379 121L433 162Q463 118 493 104Q520 195 521 254T522 332Q486 323 436 294T339 202T279 89Q286 67 295 42L214 6Q187 99 187 162T189 280T198 384T198 447Q199 464 213 457L286 445Q294 442 289 433L278 419Q269 333 267 291T264 221Q336 323 401 358T521
405Q520 434 516 480Q512 525 503 534Q502 547 513 546ZM572 92Q631 94 668 120T715 182T721 257T684 317T602 340Q602 318 601 259T572 92Z" />
<glyph unicode="&#x3086;" glyph-name="null" horiz-adv-x="1024" d="M548 804L644 801Q658 797 650 785L638 765Q644 696 646 631Q773 630 846 574T934 444T928 300T839 174T699 110T579 107Q538 11 462 -76Q421 -37 382 -21V-11Q451 49 490 129Q417 160 363
243L429 310Q475 230 521 211Q558 335 559 421T560 544Q501 530 428 487Q356 444 287 349Q218 254 211 201Q222 166 238 124L140 76Q101 208 100 296T101 464T112 603T113 683Q114 705 132 696L223 681Q238 676 226 663L212 646Q197 540 193 472T189 350Q285 502
379 556T557 624Q556 658 551 717T534 788Q533 806 548 804ZM608 192Q623 190 664 190T763 228T835 324T838 433T775 518T648 553Q649 510 646 423Q644 336 608 192Z" />
<glyph unicode="&#x3087;" glyph-name="null" horiz-adv-x="1024" d="M429 548Q426 559 437 560L526 554Q541 550 528 540L519 530Q519 435 520 375Q645 393 716 419L744 350Q659 326 521 307Q522 247 524 197T527 130Q634 103 771 43V35Q758 22 726 -36Q609 36
528 58Q527 43 525 15T497 -38T440 -71T378 -80T303 -72Q260 -62 240 -38Q219 -15 211 12T219 79T273 135T363 151T448 145Q448 159 446 213T441 326T438 462T429 548ZM448 77Q418 83 381 87T316 81T285 34T328 -9T393 -13T428 0T446 34T448 77Z" />
<glyph unicode="&#x3088;" glyph-name="null" horiz-adv-x="1024" d="M444 774Q440 788 455 790L557 784Q571 780 560 768L547 749Q549 632 551 554Q701 563 820 594L847 509Q734 487 554 472Q557 385 559 230Q588 223 664 200T881 109V97Q854 71 814 8Q705 95
557 145Q554 102 546 65T506 -3T433 -45T355 -58T262 -47T177 -3T142 63T153 149T222 225T349 251T470 246Q468 395 464 476T457 659T444 774ZM468 169Q423 179 370 179T272 162T228 94T282 31T368 24T425 44T457 90T468 169Z" />
<glyph unicode="&#x3089;" glyph-name="null" horiz-adv-x="1024" d="M363 818Q478 758 651 729L655 722Q643 691 628 638Q450 682 315 739L363 818ZM252 577Q253 599 271 590L362 572Q370 566 363 558L348 543Q329 440 322 392T312 308Q402 381 505 403T701 403T828
319T854 196T795 75T649 -11T370 -32Q369 18 357 56L361 61Q497 47 570 57T698 103T760 198T740 291T658 334T522 328T386 270T303 182L207 204Q217 316 226 380T247 500T252 577Z" />
<glyph unicode="&#x308a;" glyph-name="null" horiz-adv-x="1024" d="M264 771Q261 786 279 781L367 766Q377 763 370 751L356 736Q339 654 333 564T330 403T342 331T367 354T399 416L469 353L396 257Q368 222 318 219T251 321T242 545T258 711T264 771ZM757 767Q766
610 769 514T767 335T727 166T611 17T432 -93Q417 -55 376 -5L379 4Q478 32 544 76T638 189T673 330T676 500T666 679T649 781Q639 797 657 800L756 804Q770 800 763 788L757 767Z" />
<glyph unicode="&#x308b;" glyph-name="null" horiz-adv-x="1024" d="M609 765L614 774Q621 780 628 774L704 726Q722 712 701 700L680 692L441 424Q490 446 560 458T724 432T848 325T870 200T830 94T726 4T568 -48T417 -41T327 30T329 137T403 210T509 209T604
158Q639 127 672 66Q708 86 738 120T776 198T762 292T681 369T550 387T419 344T296 259L194 142Q159 194 122 210V222Q360 443 553 684Q403 664 253 640Q248 686 232 725L237 737Q299 735 394 742T609 765ZM582 32Q561 82 542 106T470 141T402 100Q387 48 436 34Q485
21 523 24T582 32Z" />
<glyph unicode="&#x308c;" glyph-name="null" horiz-adv-x="1024" d="M997 185Q958 111 924 66Q891 21 837 3T742 16T703 109T709 295T716 471T701 535T648 545T541 500T356 341L358 181Q360 87 376 -45L373 -54Q328 -57 270 -71Q267 64 266 235Q205 157 134 55L126
56Q98 93 53 130L228 321Q249 361 266 401V496Q193 476 120 447Q107 493 84 533L86 542Q188 555 267 571Q268 636 271 703T266 782Q261 800 276 798L375 789Q389 784 375 773L364 758Q359 678 357 604Q391 592 429 570Q443 559 423 547L392 529L362 457Q432 522
514 572T640 628T742 609T802 514T800 319T794 146T821 99T871 138T911 231L997 185Z" />
<glyph unicode="&#x308d;" glyph-name="null" horiz-adv-x="1024" d="M609 765L614 774Q621 780 628 774L704 726Q722 712 701 700L680 692L441 424Q490 446 560 458T724 432T849 324T869 177T807 44T650 -33T384 -46Q379 4 361 44V48Q499 33 580 40T713 80T774
179T762 294T681 369T550 387T419 344T296 259L194 142Q159 194 122 210V222Q360 443 553 684Q403 664 253 640Q248 686 232 725L237 737Q299 735 394 742T609 765Z" />
<glyph unicode="&#x308e;" glyph-name="null" horiz-adv-x="1024" d="M552 53Q615 56 647 64T710 98T755 164T760 244T731 305T683 338T614 349T524 328T378 234L380 121Q382 52 391 -47L388 -54Q357 -56 313 -67Q310 35 308 162Q259 104 207 22H198Q183 58 144
84Q237 199 307 263V366Q242 350 184 331Q181 363 163 393L165 400Q240 408 308 424Q309 469 312 522T312 585Q311 599 322 597L391 588Q402 585 395 577L387 565Q382 505 380 450L382 454Q384 460 390 454L440 427Q457 413 437 404L409 389L377 341L378 320Q440
365 502 387T610 414T704 403T789 349T838 258T831 152T778 63T700 8T593 -23Q574 20 552 46V53Z" />
<glyph unicode="&#x308f;" glyph-name="null" horiz-adv-x="1024" d="M567 66Q651 78 701 93T791 144T847 236T856 343T818 433T742 483T642 487T516 447T376 354Q377 281 378 184T396 -45L393 -54Q348 -57 290 -71Q287 64 287 148T286 263Q220 187 132 63L123
62Q90 107 49 131Q196 293 286 378V458V518Q198 496 120 465Q115 507 92 555L94 564Q196 576 287 596Q288 645 291 707T286 782Q281 800 296 798L395 788Q407 783 395 772L384 756Q380 691 378 629L380 632Q385 636 390 632Q429 614 462 592Q477 579 456 567L420
547L375 479L376 454Q435 498 503 526T639 562T772 554T888 479T947 356T940 223T876 106T768 30T604 -23Q588 25 567 56V66Z" />
<glyph unicode="&#x3090;" glyph-name="null" horiz-adv-x="1024" d="M489 743L500 760Q507 766 514 760Q549 739 592 716Q614 702 590 691L576 684L540 534Q567 535 633 535T788 490T906 382T932 254T888 125Q849 63 782 20Q714 -22 645 -22T538 20Q502 62 508
132Q514 202 560 225T664 238T799 149Q840 204 843 254T823 355T749 432T635 462T519 460Q505 407 479 331Q453 255 402 158Q352 60 313 32T238 2T166 18T110 74T92 182T148 331T287 456T405 512L446 522Q462 590 476 668Q385 646 261 610Q249 647 214 686L219
699Q281 700 328 708T489 743ZM740 93Q696 166 640 174T582 121Q582 60 628 55Q673 50 702 68T740 93ZM424 437Q391 425 329 394T223 300T176 193T184 123T219 91T262 97T323 181T389 327T424 437Z" />
<glyph unicode="&#x3091;" glyph-name="null" horiz-adv-x="1024" d="M547 781L560 796Q567 802 574 796L652 748Q676 732 649 722L624 714L466 563Q496 574 549 582T676 565T773 492T793 401T762 317T677 246T574 212T508 208Q479 185 438 157Q521 160 544 84Q586
122 634 145T749 180T881 157T966 74T971 3T921 -30T772 -70Q762 -23 744 4V14Q806 17 837 25T875 39T874 66T831 104T754 113T678 88T606 37T564 -36H476Q480 6 476 34T455 89T326 80L117 -68Q95 -31 62 8V16Q196 85 279 141L406 227Q366 245 350 280T353 353T408
406T491 414T565 378T591 325T583 283Q599 287 625 299T675 337T704 401T692 468T636 510T539 521T425 493T329 436L342 450Q274 389 235 346Q209 383 170 413V421Q395 589 512 715L294 679Q292 711 270 753L273 761Q331 759 381 762T547 781ZM477 279Q520 314
504 335T455 352T421 318T439 284T477 279Z" />
<glyph unicode="&#x3092;" glyph-name="null" horiz-adv-x="1024" d="M799 502L804 515Q808 534 821 521L905 444Q907 429 888 425Q869 429 786 401T603 325Q604 308 605 270T608 145H512Q519 217 519 284Q449 247 418 221Q386 195 366 163T356 101T388 60T461
45T581 43T805 63L812 57Q802 19 797 -39Q623 -39 549 -39T403 -29T301 10T258 83T271 175T348 261T516 365Q515 378 512 408T449 443T274 377L181 274Q151 312 116 343L115 352Q196 408 254 473T345 596Q251 585 146 575Q142 617 130 657L134 663Q269 664 387
676Q399 702 415 743T422 803Q421 814 435 817L542 800Q554 796 542 787L524 773Q503 726 484 688Q586 702 673 726L692 645Q595 626 443 607Q405 539 356 475Q429 512 496 502T589 402Q674 445 799 502Z" />
<glyph unicode="&#x3093;" glyph-name="null" horiz-adv-x="1024" d="M462 784Q521 756 567 746Q578 737 564 728L544 715L360 350Q438 403 476 409T542 407T589 373T615 264T635 125T694 68T781 117T850 255T877 357H888Q933 318 979 292Q967 267 937 199T850
55T711 -26T595 2T549 101T532 236T507 325T455 331T374 284Q326 250 291 216L221 84L153 -43Q109 -2 64 14V26Q225 269 338 514T444 772Q441 790 462 784Z" />
<glyph unicode="&#x3094;" glyph-name="null" horiz-adv-x="1024" d="M723 697Q795 629 849 557L779 508Q732 595 667 649L723 697ZM824 779Q903 719 963 651L898 598Q849 673 774 727L824 779ZM254 819Q419 764 606 752L610 744Q600 711 593 657Q379 687 226
732L254 819ZM104 496Q411 549 456 551Q468 552 493 552Q681 552 708 372Q711 355 712 336Q712 95 462 -37Q400 -70 322 -97Q300 -44 269 -7V3Q473 33 563 159Q616 233 616 329Q616 469 475 471Q387 471 243 426Q200 412 146 393Q127 449 101 486L104 496Z" />
<glyph unicode="&#x3095;" glyph-name="null" horiz-adv-x="1024" d="M187 357Q226 360 329 371Q354 474 356 515Q356 524 352 534Q352 544 367 546L442 531Q450 529 451 524L443 514L427 503L400 380Q421 383 453 383Q538 383 570 316Q581 293 583 265Q587 203
587 187Q587 28 522 -38Q494 -66 459 -69Q440 -69 422 -55Q408 -43 356 5Q353 6 356 8Q390 38 401 61H406Q446 12 460 12Q489 10 506 95Q516 146 518 217Q517 289 497 306Q483 318 442 318Q416 318 383 313Q347 174 263 -17Q253 -40 240 -69Q239 -71 236 -70Q203
-42 172 -29V-19Q263 122 310 303Q260 295 193 282Q189 282 189 285Q188 325 181 350Q187 357 187 357ZM665 436Q762 320 818 212Q840 171 840 156Q840 154 839 154L769 115H766V117Q709 279 610 389Q607 390 610 392L662 436Q664 439 665 436Z" />
<glyph unicode="&#x3096;" glyph-name="null" horiz-adv-x="1024" d="M257 5Q211 2 187 86Q169 148 169 243Q169 309 181 507Q181 522 178 531Q180 543 194 545L269 527Q281 525 281 519Q281 517 273 509L257 499Q244 368 243 275Q243 109 265 100Q271 100 291
136Q291 139 297 137L338 89Q343 85 348 81Q295 11 257 5ZM566 573Q565 583 573 585Q576 585 582 585L657 578Q665 578 667 569Q667 565 661 559L646 547Q650 483 651 420Q706 422 752 438L774 376V375Q719 360 656 352L657 237Q657 89 599 13Q561 -39 476 -88H473L472
-87Q464 -69 430 -23L432 -12Q526 20 557 81Q586 136 586 250Q587 294 584 346L374 339Q374 363 368 413Q442 406 495 406Q532 406 578 410Q575 549 566 573Z" />
<glyph unicode="&#x309b;" glyph-name="null" horiz-adv-x="1024" d="M101 727Q185 670 248 608L188 551Q132 624 54 672L101 727ZM205 819Q289 762 352 700L292 643Q236 716 158 764L205 819Z" />
<glyph unicode="&#x309c;" glyph-name="null" horiz-adv-x="1024" d="M62 715Q62 761 92 792T167 824Q213 824 244 793T276 715Q276 670 245 640T167 610Q122 610 92 640T62 715ZM100 715Q100 685 117 667T166 649Q195 649 215 667T235 715T215 764T166 784Q135
784 118 765T100 715Z" />
<glyph unicode="&#x309d;" glyph-name="null" horiz-adv-x="1024" d="M393 533Q539 409 605 342T704 228T746 149T754 90Q750 63 732 42Q713 20 682 11T439 -8Q435 55 426 101Q547 87 589 89T642 102T651 132T623 189T474 348L337 452L393 533Z" />
<glyph unicode="&#x309e;" glyph-name="null" horiz-adv-x="1024" d="M393 533Q539 409 605 342T704 228T746 149T754 90Q750 63 732 42Q713 20 682 11T439 -8Q435 55 426 101Q547 87 589 89T642 102T651 132T623 189T474 348L337 452L393 533ZM643 546Q703 489
751 421L695 378Q654 447 597 497L643 546ZM743 611Q814 551 857 496L804 449Q759 519 698 564L743 611Z" />
<glyph unicode="&#x30a1;" glyph-name="null" horiz-adv-x="1024" d="M201 470L724 479L731 485Q734 488 737 485L805 434Q820 420 802 411L779 400H776Q727 330 685 286T562 186Q539 225 521 244Q509 142 473 62T332 -97Q311 -62 278 -32V-27Q355 12 396 85T442
307Q442 323 437 334Q433 344 443 346L533 338Q546 335 536 325L526 310Q525 283 522 259Q579 285 617 325T682 414Q433 409 214 394Q211 437 201 459V470Z" />
<glyph unicode="&#x30a2;" glyph-name="null" horiz-adv-x="1024" d="M121 699L824 708L832 718Q836 723 841 718L929 649Q949 631 925 619L894 605Q829 513 773 456T610 322Q585 372 556 396Q544 270 495 155T311 -66Q284 -19 245 16V22Q354 84 410 186T468 471Q468
492 462 507Q456 520 470 523L571 517Q586 514 575 502L561 483Q560 448 558 416Q635 451 693 501T788 629Q447 626 141 601Q135 650 121 685V699Z" />
<glyph unicode="&#x30a3;" glyph-name="null" horiz-adv-x="1024" d="M614 563Q616 577 631 574L714 528Q733 521 713 511L687 500Q645 444 596 398T514 323L548 321Q557 316 549 307L543 295V-80H461V280L394 230Q345 193 185 109Q171 158 148 193V200Q252 237
347 297T507 423T596 521T614 563Z" />
<glyph unicode="&#x30a4;" glyph-name="null" horiz-adv-x="1024" d="M698 774Q702 792 719 788L824 734Q840 724 826 716L799 706Q733 621 675 563Q617 505 578 471L611 469Q627 468 617 454L607 439V95Q607 -10 611 -61H506Q512 45 512 215V417Q485 396 415
346T139 188Q121 238 88 283V291Q236 342 364 426T568 587T675 713T698 774Z" />
<glyph unicode="&#x30a5;" glyph-name="null" horiz-adv-x="1024" d="M232 162V435H448V510Q448 536 444 545Q437 557 450 561L542 555Q553 549 543 541L532 527V435H702L703 437Q708 443 714 437Q742 420 776 392Q791 384 773 369L761 362Q758 281 741 208T675
71T558 -32T367 -97Q364 -61 343 -18V-7Q436 -3 496 23Q556 49 600 103T659 224T675 365H316V162H232Z" />
<glyph unicode="&#x30a6;" glyph-name="null" horiz-adv-x="1024" d="M162 258V612H456V745Q456 766 450 781Q444 794 458 797L557 793Q569 788 562 778L551 759V612H796L800 615Q804 620 809 615Q839 593 878 561Q894 546 878 531L866 519Q856 389 831 307T742
146T590 15T354 -68Q345 -20 318 25V36Q435 42 512 76T653 180T738 329T765 527H257V258H162Z" />
<glyph unicode="&#x30a7;" glyph-name="null" horiz-adv-x="1024" d="M277 439H739V372H559V78H833V11H194V78H474V372H277V439Z" />
<glyph unicode="&#x30a8;" glyph-name="null" horiz-adv-x="1024" d="M192 648H828V559H563V160H950V71H82V160H468V559H192V648Z" />
<glyph unicode="&#x30a9;" glyph-name="null" horiz-adv-x="1024" d="M543 571L624 565Q639 564 631 550L621 535V422H836V353H621V45Q622 14 621 -10T598 -53T536 -65T438 -41L462 34Q497 24 513 21T533 22T537 41V290Q496 225 425 150T239 -15Q213 28 181 52V61Q276
112 362 203T478 353H194V422H537V525Q537 550 533 559Q532 573 543 571Z" />
<glyph unicode="&#x30aa;" glyph-name="null" horiz-adv-x="1024" d="M563 798L657 794Q669 790 661 778L650 760V594H954V505H650V82Q651 41 649 13T624 -36T547 -52T416 -24Q432 21 441 69L447 73Q494 51 519 48T549 52T555 79V444Q491 343 390 240Q290 137
134 15Q105 68 70 98V106Q208 184 321 301T476 505H86V594H555V736Q555 770 549 782Q545 800 563 798Z" />
<glyph unicode="&#x30ab;" glyph-name="null" horiz-adv-x="1024" d="M136 7Q238 92 307 192T395 367T420 478Q277 471 133 459Q131 510 121 550V556L431 565Q435 615 436 669V733Q436 754 430 769Q424 782 438 785L538 779Q552 775 540 761L530 745V667Q529 616
524 568L778 575L781 578Q785 583 790 578L855 531Q875 519 855 505L842 495Q841 300 832 208Q824 116 818 84Q811 51 802 27T766 -25T688 -40T561 -2Q577 45 584 96L591 98Q641 72 670 67T706 67T722 93T740 200T748 486Q631 486 513 481Q506 443 485 363T403
172T208 -79Q177 -37 136 0V7Z" />
<glyph unicode="&#x30ac;" glyph-name="null" horiz-adv-x="1024" d="M121 556L431 565Q435 615 436 669V733Q436 754 430 769Q424 782 438 785L538 779Q552 775 540 761L530 745V667Q529 616 524 568L778 575L781 578Q785 583 790 578L855 531Q875 519 855 505L842
495Q841 300 832 208Q824 116 818 84Q811 51 802 27T766 -25T688 -40T561 -2Q577 45 584 96L591 98Q641 72 670 67T706 67T722 93T740 200T748 486Q631 486 513 481Q506 443 485 363T403 172T208 -79Q177 -37 136 0V7Q238 92 307 192T395 367T420 478Q277 471 133
459Q131 510 121 550V556ZM773 733Q842 686 905 621L853 568Q800 636 730 680L773 733ZM865 821Q942 770 1000 717L949 665Q895 729 822 768L865 821Z" />
<glyph unicode="&#x30ad;" glyph-name="null" horiz-adv-x="1024" d="M780 667L802 582L532 539Q552 445 575 349Q740 374 894 401L923 309Q765 290 595 265Q632 114 674 -41L673 -51Q632 -56 571 -84L498 250Q325 222 140 187Q134 233 113 277L116 286Q304 309
480 335L438 523L171 478Q164 524 149 563L152 572Q291 588 420 606Q388 744 381 752Q369 768 387 769L488 782Q500 780 495 768L489 748Q501 685 515 620Q654 642 780 667Z" />
<glyph unicode="&#x30ae;" glyph-name="null" horiz-adv-x="1024" d="M780 667L802 582L532 539Q552 445 575 349Q740 374 894 401L923 309Q765 290 595 265Q632 114 674 -41L673 -51Q632 -56 571 -84L498 250Q325 222 140 187Q134 233 113 277L116 286Q304 309
480 335L438 523L171 478Q164 524 149 563L152 572Q291 588 420 606Q388 744 381 752Q369 768 387 769L488 782Q500 780 495 768L489 748Q501 685 515 620Q654 642 780 667ZM765 769Q834 722 897 657L845 604Q792 672 722 716L765 769ZM857 857Q934 806 992 753L941
701Q887 765 814 804L857 857Z" />
<glyph unicode="&#x30af;" glyph-name="null" horiz-adv-x="1024" d="M380 753Q382 768 398 764L489 746Q505 741 492 729L478 715Q465 677 451 642H729L732 646Q736 651 741 646L807 594Q823 582 806 567L790 556Q784 499 752 413T649 233T480 66T218 -68Q202
-17 175 23V32Q308 59 405 124T564 270T655 428T689 557H412Q387 508 340 440Q293 373 196 282Q165 321 124 358V363Q213 422 275 509T362 668T380 753Z" />
<glyph unicode="&#x30b0;" glyph-name="null" horiz-adv-x="1024" d="M773 761Q842 714 905 649L853 596Q800 664 730 708L773 761ZM865 849Q942 798 1000 745L949 693Q895 757 822 796L865 849ZM380 753Q382 768 398 764L489 746Q505 741 492 729L478 715Q465
677 451 642H729L732 646Q736 651 741 646L807 594Q823 582 806 567L790 556Q784 499 752 413T649 233T480 66T218 -68Q202 -17 175 23V32Q308 59 405 124T564 270T655 428T689 557H412Q387 508 340 440Q293 373 196 282Q165 321 124 358V363Q213 422 275 509T362
668T380 753Z" />
<glyph unicode="&#x30b1;" glyph-name="null" horiz-adv-x="1024" d="M246 33Q381 66 456 125T563 279T597 483H353Q263 329 160 220Q134 257 88 291V300Q172 363 245 479T335 673T344 763Q345 780 362 774L454 758Q470 754 458 743L443 727Q425 645 395 572H914V483H691Q689
369 658 268T552 87T300 -61Q282 -15 246 26V33Z" />
<glyph unicode="&#x30b2;" glyph-name="null" horiz-adv-x="1024" d="M246 33Q381 66 456 125T563 279T597 483H353Q263 329 160 220Q134 257 88 291V300Q172 363 245 479T335 673T344 763Q345 780 362 774L454 758Q470 754 458 743L443 727Q425 645 395 572H914V483H691Q689
369 658 268T552 87T300 -61Q282 -15 246 26V33ZM757 761Q826 714 889 649L837 596Q784 664 714 708L757 761ZM849 849Q926 798 984 745L933 693Q879 757 806 796L849 849Z" />
<glyph unicode="&#x30b3;" glyph-name="null" horiz-adv-x="1024" d="M164 629H831V20H734V62H164V153H734V538H164V629Z" />
<glyph unicode="&#x30b4;" glyph-name="null" horiz-adv-x="1024" d="M781 765Q850 718 913 653L861 600Q808 668 738 712L781 765ZM873 853Q950 802 1008 749L957 697Q903 761 830 800L873 853ZM164 629H831V20H734V62H164V153H734V538H164V629Z" />
<glyph unicode="&#x30b5;" glyph-name="null" horiz-adv-x="1024" d="M58 526H270Q269 603 270 685Q270 706 264 721Q258 734 272 737L373 729Q384 722 373 712L361 695Q360 606 361 526H626V731Q626 752 620 767Q614 780 628 783L733 775Q744 767 732 756L721
740V526H950V441H721V436Q721 327 698 244T620 96T416 -48Q399 -5 361 35V46Q463 80 524 130T605 255T626 436V441H363Q366 326 373 229L278 215Q272 322 270 441H58V526Z" />
<glyph unicode="&#x30b6;" glyph-name="null" horiz-adv-x="1024" d="M58 526H270Q269 603 270 685Q270 706 264 721Q258 734 272 737L373 729Q384 722 373 712L361 695Q360 606 361 526H626V731Q626 752 620 767Q614 780 628 783L733 775Q744 767 732 756L721
740V526H950V441H721V436Q721 327 698 244T620 96T416 -48Q399 -5 361 35V46Q463 80 524 130T605 255T626 436V441H363Q366 326 373 229L278 215Q272 322 270 441H58V526ZM781 765Q850 718 913 653L861 600Q808 668 738 712L781 765ZM873 853Q950 802 1008 749L957
697Q903 761 830 800L873 853Z" />
<glyph unicode="&#x30b7;" glyph-name="null" horiz-adv-x="1024" d="M346 343Q245 441 124 482L170 561Q299 505 404 430Q375 389 346 343ZM450 571Q349 669 228 710L274 789Q403 733 508 658Q479 617 450 571ZM859 559Q906 525 952 505Q896 408 795 295T549
109T267 0L255 -17Q244 -32 236 -16L198 83Q191 99 208 101Q225 99 282 106T473 173T708 337T859 559Z" />
<glyph unicode="&#x30b8;" glyph-name="null" horiz-adv-x="1024" d="M346 343Q245 441 124 482L170 561Q299 505 404 430Q375 389 346 343ZM450 571Q349 669 228 710L274 789Q403 733 508 658Q479 617 450 571ZM725 749Q794 702 857 637L805 584Q752 652 682
696L725 749ZM817 837Q894 786 952 733L901 681Q847 745 774 784L817 837ZM859 559Q906 525 952 505Q896 408 795 295T549 109T267 0L255 -17Q244 -32 236 -16L198 83Q191 99 208 101Q225 99 282 106T473 173T708 337T859 559Z" />
<glyph unicode="&#x30b9;" glyph-name="null" horiz-adv-x="1024" d="M195 662Q432 658 680 674L686 679Q690 684 695 679L772 622Q789 608 768 594L747 580Q713 486 680 432Q647 379 626 351Q746 262 812 200L950 78V69Q908 36 870 -14Q795 82 731 146T571 284L497
209Q444 156 352 96T119 -32Q104 23 75 64V75Q188 112 275 160T443 282T571 429T648 588L211 563Q209 613 192 653L195 662Z" />
<glyph unicode="&#x30ba;" glyph-name="null" horiz-adv-x="1024" d="M765 769Q834 722 897 657L845 604Q792 672 722 716L765 769ZM857 857Q934 806 992 753L941 701Q887 765 814 804L857 857ZM195 662Q432 658 680 674L686 679Q690 684 695 679L772 622Q789
608 768 594L747 580Q713 486 680 432Q647 379 626 351Q746 262 812 200L950 78V69Q908 36 870 -14Q795 82 731 146T571 284L497 209Q444 156 352 96T119 -32Q104 23 75 64V75Q188 112 275 160T443 282T571 429T648 588L211 563Q209 613 192 653L195 662Z" />
<glyph unicode="&#x30bb;" glyph-name="null" horiz-adv-x="1024" d="M304 168V448L78 412Q72 469 57 504L59 512Q181 522 304 535V709Q304 730 298 745Q292 758 306 761L413 754Q425 749 417 737L401 714V546Q606 571 814 604L816 606Q820 611 825 606L911 541Q931
523 907 511L884 504Q773 373 654 253Q620 301 589 327V334Q694 410 774 515L401 462V171Q401 96 462 96H855L841 5H464Q304 5 304 168Z" />
<glyph unicode="&#x30bc;" glyph-name="null" horiz-adv-x="1024" d="M59 512Q181 522 304 535V709Q304 730 298 745Q292 758 306 761L413 754Q425 749 417 737L401 714V546Q606 571 814 604L816 606Q820 611 825 606L911 541Q931 523 907 511L884 504Q773 373
654 253Q620 301 589 327V334Q694 410 774 515L401 462V171Q401 96 462 96H855L841 5H464Q304 5 304 168V448L78 412Q72 469 57 504L59 512ZM753 777Q822 730 885 665L833 612Q780 680 710 724L753 777ZM857 853Q934 802 992 749L941 697Q887 761 814 800L857 853Z"
/>
<glyph unicode="&#x30bd;" glyph-name="null" horiz-adv-x="1024" d="M324 401Q268 512 177 613L251 670Q340 572 413 465Q374 442 324 401ZM758 692Q761 709 780 704L879 687Q893 682 881 670L866 653Q845 510 796 375Q746 240 634 134T315 -53Q301 -3 269 38V46Q425
82 541 178T701 397T755 600T758 692Z" />
<glyph unicode="&#x30be;" glyph-name="null" horiz-adv-x="1024" d="M316 401Q260 512 169 613L243 670Q332 572 405 465Q366 442 316 401ZM738 628Q741 645 760 640L801 633Q756 682 702 716L745 769Q814 722 877 657L846 625L859 623Q874 617 861 605L846 588Q825
466 776 349T618 130T303 -53Q289 -3 257 38V46Q413 82 525 174T681 371T735 546T738 628ZM853 853Q930 802 988 749L937 697Q883 761 810 800L853 853Z" />
<glyph unicode="&#x30bf;" glyph-name="null" horiz-adv-x="1024" d="M384 761Q385 778 402 772L495 754Q510 748 497 736L481 722Q466 680 450 642H737L740 646Q744 651 749 646L819 594Q835 582 818 567L802 558Q797 490 774 414Q750 338 694 256L732 225Q695
184 660 138Q645 156 629 172Q573 110 484 49Q396 -12 218 -68Q202 -17 175 23V32Q324 56 416 115T564 237Q540 258 493 293T345 379L391 453Q496 399 547 364L620 313Q657 371 678 435T705 561H412Q389 517 343 451T200 278Q169 317 127 351V356Q217 431 279 520T366
678T384 761Z" />
<glyph unicode="&#x30c0;" glyph-name="null" horiz-adv-x="1024" d="M391 453Q496 399 547 364L620 313Q657 371 678 435T705 561H412Q389 517 343 451T200 278Q169 317 127 351V356Q217 431 279 520T366 678T384 761Q385 778 402 772L495 754Q510 748 497 736L481
722Q466 680 450 642H737L740 646Q744 651 749 646L819 594Q835 582 818 567L802 558Q797 490 774 414Q750 338 694 256L732 225Q695 184 660 138Q645 156 629 172Q573 110 484 49Q396 -12 218 -68Q202 -17 175 23V32Q324 56 416 115T564 237Q540 258 493 293T345
379L391 453ZM765 777Q834 730 897 665L845 612Q792 680 722 724L765 777ZM857 865Q934 814 992 761L941 709Q887 773 814 812L857 865Z" />
<glyph unicode="&#x30c1;" glyph-name="null" horiz-adv-x="1024" d="M82 439H488V581Q488 602 482 617L481 619Q376 597 213 571Q200 624 179 654L181 665Q329 672 432 693T617 742T700 780Q709 795 721 782L770 711Q784 695 764 693H744Q631 653 539 631L589
629Q603 625 593 611L583 594V439H946V350H580Q575 281 557 212T480 74T283 -49Q266 -1 232 32V43Q340 70 395 117T466 225T486 350H82V439Z" />
<glyph unicode="&#x30c2;" glyph-name="null" horiz-adv-x="1024" d="M865 809Q942 758 1000 705L949 653Q895 717 822 756L865 809ZM789 713Q858 666 921 601L869 548Q816 616 746 660L789 713ZM82 439H488V581Q488 602 482 617L481 619Q376 597 213 571Q200
624 179 654L181 665Q329 672 432 693T617 742T700 780Q709 795 721 782L770 711Q784 695 764 693H744Q631 653 539 631L589 629Q603 625 593 611L583 594V439H946V350H580Q575 281 557 212T480 74T283 -49Q266 -1 232 32V43Q340 70 395 117T466 225T486 350H82V439Z"
/>
<glyph unicode="&#x30c3;" glyph-name="null" horiz-adv-x="1024" d="M453 274Q419 356 347 433L410 473Q474 405 527 325Q498 302 453 274ZM287 212Q249 296 181 371L242 417Q306 345 361 261L287 212ZM688 468Q690 481 704 477L795 447Q809 441 796 430L782
418Q771 358 723 250T596 57T394 -96Q376 -54 336 -16V-10Q429 19 510 89T636 268T687 418T688 468Z" />
<glyph unicode="&#x30c4;" glyph-name="null" horiz-adv-x="1024" d="M762 696Q765 713 784 708L887 680Q900 674 889 663L872 646Q855 533 800 390Q746 246 631 135Q516 24 317 -61Q299 -12 264 30V38Q414 76 533 173T704 411T763 618T762 696ZM461 442Q398 568
311 650L379 707Q472 612 545 505Q502 478 461 442ZM237 362Q174 488 87 570L155 627Q248 532 321 425Q278 398 237 362Z" />
<glyph unicode="&#x30c5;" glyph-name="null" horiz-adv-x="1024" d="M453 442Q390 568 303 650L371 707Q464 612 537 505Q494 478 453 442ZM229 362Q166 488 79 570L147 627Q240 532 313 425Q270 398 229 362ZM750 656Q753 673 772 668L821 655Q790 706 732 744L775
785Q844 738 889 685L841 649L875 640Q888 635 877 623L860 608Q843 493 790 370Q738 246 623 135Q508 24 309 -61Q291 -12 256 30V38Q406 76 525 173T694 391T751 578T750 656ZM891 849Q960 802 1005 749L945 704Q914 764 848 808L891 849Z" />
<glyph unicode="&#x30c6;" glyph-name="null" horiz-adv-x="1024" d="M236 714H750V625H236V714ZM88 473H916V384H581Q578 222 509 129T290 -41Q270 9 238 46V55Q356 91 420 165T483 384H88V473Z" />
<glyph unicode="&#x30c7;" glyph-name="null" horiz-adv-x="1024" d="M236 714H732L773 765Q842 718 905 653L853 600Q808 658 750 699V625H236V714ZM88 473H916V384H581Q578 222 509 129T290 -41Q270 9 238 46V55Q356 91 420 165T483 384H88V473ZM865 861Q942
810 1000 757L949 705Q895 769 822 808L865 861Z" />
<glyph unicode="&#x30c8;" glyph-name="null" horiz-adv-x="1024" d="M478 519Q668 434 825 319V312Q795 272 766 224Q598 375 447 432V108Q447 0 451 -59H346Q352 43 352 246V743Q352 764 346 779Q340 792 354 795L455 789Q467 784 457 772L447 754V463L478 519Z" />
<glyph unicode="&#x30c9;" glyph-name="null" horiz-adv-x="1024" d="M478 519Q668 434 825 319V312Q795 272 766 224Q598 375 447 432V108Q447 0 451 -59H346Q352 43 352 246V743Q352 764 346 779Q340 792 354 795L455 789Q467 784 457 772L447 754V463L478 519ZM801
813Q887 757 951 696L897 635Q838 712 757 756L801 813ZM692 713Q778 657 842 596L788 535Q729 612 648 656L692 713Z" />
<glyph unicode="&#x30ca;" glyph-name="null" horiz-adv-x="1024" d="M235 69Q331 104 387 158T464 290T488 453H92V542H488Q487 619 480 725Q480 746 474 761Q468 774 482 777L584 773Q599 769 590 756L579 737Q584 622 585 542H928V453H584Q581 367 559 277T477
113T293 -29Q270 23 235 56V69Z" />
<glyph unicode="&#x30cb;" glyph-name="null" horiz-adv-x="1024" d="M224 640H804V551H224V640ZM82 156H946V67H82V156Z" />
<glyph unicode="&#x30cc;" glyph-name="null" horiz-adv-x="1024" d="M248 648Q501 653 754 669L759 677Q763 682 768 677Q802 651 842 611Q860 599 838 585L820 574Q780 451 678 299Q778 223 871 137V128Q827 94 797 47Q713 152 622 229Q565 167 470 98T219 -35Q198
15 167 56V67Q301 94 393 154T550 286Q468 344 375 389L420 468Q521 410 603 353Q687 471 711 580Q504 572 265 552Q258 607 245 641L248 648Z" />
<glyph unicode="&#x30cd;" glyph-name="null" horiz-adv-x="1024" d="M210 628L460 630V760Q460 781 454 796Q448 809 462 812L563 805Q577 801 567 789L555 769V631L680 632L685 639Q689 644 694 639L776 583Q792 569 774 558L748 544Q677 413 628 367T547 296L562
295Q574 290 565 279L555 261V-61H460V235Q439 222 371 183T150 87Q135 135 105 178V189Q251 222 346 270T515 383T637 552Q438 550 224 535Q220 579 209 619L210 628ZM687 371Q808 307 929 223V214Q895 177 864 130Q758 241 637 297L687 371Z" />
<glyph unicode="&#x30ce;" glyph-name="null" horiz-adv-x="1024" d="M678 712Q677 729 696 724L805 701Q820 694 807 681L790 664Q774 569 712 425T540 165T191 -55Q173 -1 136 44V52Q325 95 442 204T616 452T680 646T678 712Z" />
<glyph unicode="&#x30cf;" glyph-name="null" horiz-adv-x="1024" d="M600 566L675 624Q750 533 831 406T983 124V119Q944 106 870 66Q819 235 746 362T600 566ZM310 572Q311 589 328 583L424 559Q441 552 426 541L412 528Q363 396 299 285T129 41Q101 83 55 114V127Q135
197 204 311T295 492T310 572Z" />
<glyph unicode="&#x30d0;" glyph-name="null" horiz-adv-x="1024" d="M600 566L675 624Q750 533 831 406T983 124V119Q944 106 870 66Q819 235 746 362T600 566ZM745 717Q814 670 877 605L825 552Q772 620 702 664L745 717ZM837 805Q914 754 972 701L921 649Q867
713 794 752L837 805ZM310 572Q311 589 328 583L424 559Q441 552 426 541L412 528Q363 396 299 285T129 41Q101 83 55 114V127Q135 197 204 311T295 492T310 572Z" />
<glyph unicode="&#x30d1;" glyph-name="null" horiz-adv-x="1024" d="M750 668Q750 707 777 735T845 763Q884 763 912 735T940 668Q940 628 912 601T845 573Q805 573 778 600T750 668ZM788 668Q788 641 802 627T843 613T885 627T901 668Q901 693 885 709T843 725T803
709T788 668ZM600 566L675 624Q750 533 831 406T983 124V119Q944 106 870 66Q819 235 746 362T600 566ZM310 572Q311 589 328 583L424 559Q441 552 426 541L412 528Q363 396 299 285T129 41Q101 83 55 114V127Q135 197 204 311T295 492T310 572Z" />
<glyph unicode="&#x30d2;" glyph-name="null" horiz-adv-x="1024" d="M810 505Q824 489 802 489L778 490Q605 419 309 366V183Q309 110 370 110H877L863 17H372Q214 17 214 180V683Q214 704 208 719Q202 732 216 735L318 729Q331 725 322 712L309 693V447Q533
486 622 526T716 580Q723 594 735 589L810 505Z" />
<glyph unicode="&#x30d3;" glyph-name="null" horiz-adv-x="1024" d="M741 741Q810 694 873 629L821 576Q768 644 698 688L741 741ZM833 829Q910 778 968 725L917 673Q863 737 790 776L833 829ZM810 505Q824 489 802 489L778 490Q605 419 309 366V183Q309 110
370 110H877L863 17H372Q214 17 214 180V683Q214 704 208 719Q202 732 216 735L318 729Q331 725 322 712L309 693V447Q533 486 622 526T716 580Q723 594 735 589L810 505Z" />
<glyph unicode="&#x30d4;" glyph-name="null" horiz-adv-x="1024" d="M731 707Q731 746 758 774T826 802Q865 802 893 774T921 707Q921 667 893 640T826 612Q786 612 759 639T731 707ZM769 707Q769 680 783 666T824 652T866 666T882 707Q882 732 866 748T824 764T784
748T769 707ZM810 505Q824 489 802 489L778 490Q605 419 309 366V183Q309 110 370 110H877L863 17H372Q214 17 214 180V683Q214 704 208 719Q202 732 216 735L318 729Q331 725 322 712L309 693V447Q533 486 622 526T716 580Q723 594 735 589L810 505Z" />
<glyph unicode="&#x30d5;" glyph-name="null" horiz-adv-x="1024" d="M147 658H785L786 659Q790 664 795 659L860 605Q873 590 859 575L846 564Q838 467 808 385T705 219T533 81T251 -17Q245 35 228 80V91Q369 107 461 147T616 256T709 400T743 569H147V658Z" />
<glyph unicode="&#x30d6;" glyph-name="null" horiz-adv-x="1024" d="M773 789Q842 746 895 689L841 632Q796 700 730 740L773 789ZM881 853Q958 810 1011 762L957 705Q912 764 838 804L881 853ZM147 658H785L786 659Q790 664 795 659L860 605Q873 590 859 575L846
564Q838 467 808 385T705 219T533 81T251 -17Q245 35 228 80V91Q369 107 461 147T616 256T709 400T743 569H147V658Z" />
<glyph unicode="&#x30d7;" glyph-name="null" horiz-adv-x="1024" d="M791 742Q791 781 818 809T886 837Q925 837 953 809T981 742Q981 702 953 675T886 647Q846 647 819 674T791 742ZM829 742Q829 715 843 701T884 687T926 701T942 742Q942 767 926 783T884 799T844
783T829 742ZM147 658H785L786 659Q790 664 795 659L860 605Q873 590 859 575L846 564Q838 467 808 385T705 219T533 81T251 -17Q245 35 228 80V91Q369 107 461 147T616 256T709 400T743 569H147V658Z" />
<glyph unicode="&#x30d8;" glyph-name="null" horiz-adv-x="1024" d="M417 636Q443 636 552 540T985 231L984 219Q950 190 910 130L506 460Q431 521 419 521Q404 521 380 494T133 267Q100 313 61 338L60 350Q291 516 343 576T417 636Z" />
<glyph unicode="&#x30d9;" glyph-name="null" horiz-adv-x="1024" d="M777 777Q863 725 923 660L857 607Q814 680 733 728L777 777ZM661 693Q747 641 807 576L741 523Q698 596 617 644L661 693ZM417 636Q443 636 552 540T985 231L984 219Q950 190 910 130L506
460Q431 521 419 521Q404 521 380 494T133 267Q100 313 61 338L60 350Q291 516 343 576T417 636Z" />
<glyph unicode="&#x30da;" glyph-name="null" horiz-adv-x="1024" d="M684 637Q684 677 710 704T777 732T844 705T872 637T845 571T777 544T711 570T684 637ZM718 637Q718 610 733 595T776 579Q801 579 818 594T836 637Q836 663 819 680T776 697Q749 697 734 680T718
637ZM417 636Q443 636 552 540T985 231L984 219Q950 190 910 130L506 460Q431 521 419 521Q404 521 380 494T133 267Q100 313 61 338L60 350Q291 516 343 576T417 636Z" />
<glyph unicode="&#x30db;" glyph-name="null" horiz-adv-x="1024" d="M92 590H457V726Q457 760 451 772Q449 790 464 788L558 785Q568 780 562 770L552 747V590H930V505H552V96Q553 55 551 31Q549 7 524 -16T456 -33T354 -8Q366 39 371 87L377 89Q412 72 429 65T452
66T457 91V505H92V590ZM341 314Q271 180 152 43Q121 83 76 112V123Q181 211 217 285T255 370Q260 385 275 376L357 343Q376 336 360 325L341 314ZM667 349L732 409Q836 288 976 173V168Q941 144 891 92L667 349Z" />
<glyph unicode="&#x30dc;" glyph-name="null" horiz-adv-x="1024" d="M92 590H457V726Q457 760 451 772Q449 790 464 788L558 785Q568 780 562 770L552 747V590H930V505H552V96Q553 55 551 31Q549 7 524 -16T456 -33T354 -8Q366 39 371 87L377 89Q412 72 429 65T452
66T457 91V505H92V590ZM341 314Q271 180 152 43Q121 83 76 112V123Q181 211 217 285T255 370Q260 385 275 376L357 343Q376 336 360 325L341 314ZM865 841Q942 790 1000 737L949 685Q895 749 822 788L865 841ZM757 769Q826 722 889 657L837 604Q784 672 714 716L757
769ZM667 349L732 409Q836 288 976 173V168Q941 144 891 92L667 349Z" />
<glyph unicode="&#x30dd;" glyph-name="null" horiz-adv-x="1024" d="M92 590H457V726Q457 760 451 772Q449 790 464 788L558 785Q568 780 562 770L552 747V590H930V505H552V96Q553 55 551 31Q549 7 524 -16T456 -33T354 -8Q366 39 371 87L377 89Q412 72 429 65T452
66T457 91V505H92V590ZM747 708Q747 747 774 775T842 803Q881 803 909 775T937 708Q937 668 909 641T842 613Q802 613 775 640T747 708ZM785 708Q785 681 799 667T840 653T882 667T898 708Q898 733 882 749T840 765T800 749T785 708ZM341 314Q271 180 152 43Q121
83 76 112V123Q181 211 217 285T255 370Q260 385 275 376L357 343Q376 336 360 325L341 314ZM667 349L732 409Q836 288 976 173V168Q941 144 891 92L667 349Z" />
<glyph unicode="&#x30de;" glyph-name="null" horiz-adv-x="1024" d="M92 638L840 667L845 672Q849 677 854 672L918 601Q930 583 914 573L887 563Q821 448 745 372T580 223Q651 163 714 103V93Q679 63 632 8Q552 110 467 187T283 319L338 397Q429 343 507 283Q575
329 645 398T776 584Q455 574 117 537Q108 593 87 631L92 638Z" />
<glyph unicode="&#x30df;" glyph-name="null" horiz-adv-x="1024" d="M268 676L294 761Q556 711 745 648V642Q722 606 702 554Q495 645 268 676ZM266 413L290 503Q516 454 714 391V383Q692 352 668 298Q471 381 266 413ZM162 147L190 247Q522 178 797 68V60Q772
19 744 -42Q477 99 162 147Z" />
<glyph unicode="&#x30e0;" glyph-name="null" horiz-adv-x="1024" d="M426 751Q427 768 444 762L549 737Q566 730 549 718L532 702Q493 550 449 440T324 164Q368 167 445 173T763 214Q720 297 646 389L725 446Q808 337 864 239T960 63L958 55Q910 36 848 1Q825
74 796 141Q579 107 477 94T161 44L148 25Q137 8 128 23L84 137Q82 154 96 148Q109 144 217 154Q309 329 354 453T416 657T426 751Z" />
<glyph unicode="&#x30e1;" glyph-name="null" horiz-adv-x="1024" d="M694 720Q697 737 716 732L819 712Q830 707 821 696L806 679Q788 574 744 479T680 352L865 203V194Q835 171 784 108Q709 189 623 262Q577 199 489 112T190 -63Q173 -18 138 32V40Q305 83 399
165T547 323Q440 402 292 471L347 557Q496 483 601 410Q687 588 694 648T694 720Z" />
<glyph unicode="&#x30e2;" glyph-name="null" horiz-adv-x="1024" d="M412 172V329H92V414H412V541Q412 562 406 577Q400 590 414 593L517 585Q528 582 519 570L507 551V414H914V329H507V175Q507 100 564 100H861L847 9H572Q412 9 412 172ZM166 678H778V593H414H166V678Z" />
<glyph unicode="&#x30e3;" glyph-name="null" horiz-adv-x="1024" d="M313 567L398 570Q415 569 407 556L401 539L428 410L667 454L669 458Q674 463 679 458Q720 436 759 407Q776 397 756 384L730 373Q635 236 572 170Q546 201 508 226L506 236Q572 280 637 379Q541
364 442 344Q482 163 529 -25L528 -32Q492 -41 437 -58Q392 183 361 327Q264 307 165 283Q150 329 133 353L137 363L346 396Q312 545 306 553Q302 566 313 567Z" />
<glyph unicode="&#x30e4;" glyph-name="null" horiz-adv-x="1024" d="M313 773L416 784Q430 783 425 770L419 749Q436 653 455 557Q639 588 822 626L825 630Q829 635 834 630Q883 603 935 567Q955 549 931 539L884 516H883Q755 335 661 247Q634 285 589 316L587
329Q677 388 767 529Q621 506 472 478Q524 232 592 -14L591 -24Q548 -35 485 -58L377 460Q242 434 105 403Q89 457 59 487L60 497Q210 517 360 541Q315 744 306 754Q298 772 313 773Z" />
<glyph unicode="&#x30e5;" glyph-name="null" horiz-adv-x="1024" d="M194 92H587L601 362H277V435H697L676 92H833V21H194V92Z" />
<glyph unicode="&#x30e6;" glyph-name="null" horiz-adv-x="1024" d="M88 152H628L648 527H198V612H751L723 152H940V67H88V152Z" />
<glyph unicode="&#x30e7;" glyph-name="null" horiz-adv-x="1024" d="M299 285H646V430H268V500H730V-60H646V-19H274V50H646V218H299V285Z" />
<glyph unicode="&#x30e8;" glyph-name="null" horiz-adv-x="1024" d="M802 -56H707V-5H182V80H707V315H234V396H707V595H182V680H802V-56Z" />
<glyph unicode="&#x30e9;" glyph-name="null" horiz-adv-x="1024" d="M256 753H734V666H256V753ZM143 538H792L795 541Q799 546 804 541Q830 521 870 487Q885 470 869 457L852 442Q844 376 812 304Q780 233 713 158Q646 83 550 33T254 -62Q248 -12 226 42V49Q389
61 481 102T628 199T715 322T749 453H143V538Z" />
<glyph unicode="&#x30ea;" glyph-name="null" horiz-adv-x="1024" d="M278 255V695Q278 716 272 731Q266 744 280 747L383 743Q396 739 387 728L375 708V255H278ZM361 15Q472 43 547 106T643 245T664 484V735Q664 756 658 771Q652 784 666 787L765 784Q778 778
771 770L761 747V484Q761 323 739 235T646 70T420 -81Q398 -31 361 4V15Z" />
<glyph unicode="&#x30eb;" glyph-name="null" horiz-adv-x="1024" d="M54 60Q178 140 236 263T290 601Q290 622 283 637Q277 650 291 653L389 647Q400 643 393 634L383 613Q384 385 322 242T130 -20Q93 26 54 48V60ZM492 73V83L528 97V661Q528 682 522 697Q516
710 530 713L630 709Q643 704 633 691L623 673V143Q681 176 750 238T882 446L893 448Q936 415 978 386Q892 248 798 162T546 1Q520 51 492 73Z" />
<glyph unicode="&#x30ec;" glyph-name="null" horiz-adv-x="1024" d="M246 71V81L274 86V669Q274 690 268 705Q262 718 276 721L374 717Q387 713 379 699L369 680V109Q435 127 506 163T661 279T790 476L801 478Q850 447 897 428Q831 320 747 231T554 85T298 -15Q278
33 246 71Z" />
<glyph unicode="&#x30ed;" glyph-name="null" horiz-adv-x="1024" d="M861 12H764V64H256V12H159V647H861V12ZM764 556H256V155H764V556Z" />
<glyph unicode="&#x30ee;" glyph-name="null" horiz-adv-x="1024" d="M259 177V443H731L732 444Q736 450 742 444L795 397Q804 383 792 372L778 364Q772 294 758 232T706 104T591 -8T400 -87Q389 -48 361 -16V-5Q462 10 526 43T628 136T677 253T693 376H343V177H259Z" />
<glyph unicode="&#x30ef;" glyph-name="null" horiz-adv-x="1024" d="M174 322V668H793L795 671Q799 676 804 671L869 617Q882 602 868 587L857 576Q852 479 837 395T756 217T592 62Q494 3 345 -37Q332 9 306 60V67Q426 82 514 125T665 252T742 414T758 583H269V322H174Z" />
<glyph unicode="&#x30f0;" glyph-name="null" horiz-adv-x="1024" d="M104 292H287V519H192V604H547V730Q547 764 541 776Q538 794 555 792L652 787Q662 782 654 771L642 749V604H822V519H642V292H956V207H642V-48H547V207H104V292ZM380 292H547V519H380V292Z" />
<glyph unicode="&#x30f1;" glyph-name="null" horiz-adv-x="1024" d="M88 156H469V436Q469 470 463 482Q461 498 476 498L567 491Q583 488 573 475L562 459V404Q697 475 742 551H222Q215 593 198 631V640H793L796 644Q800 649 805 644Q830 622 873 581Q893 567
869 551L850 542Q799 449 616 322Q595 362 562 394V156H940V67H88V156Z" />
<glyph unicode="&#x30f2;" glyph-name="null" horiz-adv-x="1024" d="M189 696H782L788 702Q792 707 797 702L871 643Q889 628 867 613L852 602Q845 481 824 396Q804 310 734 210Q664 110 570 53Q477 -4 326 -47Q313 0 284 46V57Q408 74 498 118T642 237T718 383H225V468H738Q749
533 751 611H189V696Z" />
<glyph unicode="&#x30f3;" glyph-name="null" horiz-adv-x="1024" d="M394 506Q291 606 185 653L235 740Q357 669 462 590Q433 557 394 506ZM856 598Q916 569 963 556Q906 433 804 312T553 112T271 -4L258 -21Q248 -35 240 -24L194 88Q191 105 208 107Q221 104
282 109T481 181T715 353T856 598Z" />
<glyph unicode="&#x30f4;" glyph-name="null" horiz-adv-x="1024" d="M777 763Q846 720 899 663L845 606Q800 674 734 714L777 763ZM869 847Q946 804 999 756L945 699Q900 758 826 798L869 847ZM162 258V612H456V745Q456 766 450 781Q444 794 458 797L557 793Q569
788 562 778L551 759V612H796L800 615Q804 620 809 615Q839 593 878 561Q894 546 878 531L866 519Q856 389 831 307T742 146T590 15T354 -68Q345 -20 318 25V36Q435 42 512 76T653 180T738 329T765 527H257V258H162Z" />
<glyph unicode="&#x30f5;" glyph-name="null" horiz-adv-x="1024" d="M201 13Q277 68 329 148T393 283T410 358Q304 353 204 345Q199 385 193 411V422L419 426Q422 463 422 502V550Q422 566 418 577Q413 587 424 589L513 585Q524 579 516 570L506 555V500Q506
464 502 427L667 430L670 434Q675 442 680 434Q709 419 749 396Q763 385 749 373L732 358Q729 222 725 154Q721 87 716 63T705 18T675 -23T613 -32L518 -5L537 71Q572 58 590 53T616 53T631 73T645 153T652 368L493 362Q488 336 473 275T412 132T263 -62Q236 -18
201 8V13Z" />
<glyph unicode="&#x30f6;" glyph-name="null" horiz-adv-x="1024" d="M322 21Q412 40 468 83T550 191T577 363H416Q406 343 376 290T266 144Q231 179 199 203V209Q274 270 321 353T383 492T392 558Q393 571 406 566L483 547Q500 541 487 530L472 518Q461 474 446
433H818V363H661Q661 254 634 182Q606 111 552 50Q499 -12 360 -65Q353 -28 322 15V21Z" />
<glyph unicode="&#x30f7;" glyph-name="null" horiz-adv-x="1024" d="M780 766Q843 718 892 654L832 603Q793 676 732 722L780 766ZM874 840Q950 787 994 736L934 685Q896 748 826 796L874 840ZM62 316V662H654L666 679Q671 684 676 679L772 611Q784 600 779 591Q776
585 768 581L744 569Q736 472 718 388Q701 307 638 210Q572 115 476 56Q378 -2 220 -43Q206 6 174 50V57Q307 73 400 118Q490 161 550 246Q608 332 624 410Q641 488 646 581H156V316H62Z" />
<glyph unicode="&#x30f8;" glyph-name="null" horiz-adv-x="1024" d="M765 791Q826 740 870 674L809 626Q772 702 715 750L765 791ZM867 843Q942 785 981 733L919 685Q883 750 817 802L867 843ZM91 290H274V517H179V602H534V728Q534 762 528 774Q526 785 532 789Q536
791 542 790L646 783Q661 778 656 770Q654 767 648 763L629 747V602H809V517H629V290H943V205H629V-50H534V205H91V290ZM367 290H534V517H367V290Z" />
<glyph unicode="&#x30f9;" glyph-name="null" horiz-adv-x="1024" d="M778 779Q845 733 895 672L838 618Q796 688 733 732L778 779ZM859 851Q938 801 984 753L927 699Q885 760 814 804L859 851ZM72 151H453V431Q453 465 447 477Q446 487 451 491Q454 493 460 493L559
486Q578 482 565 468L546 452V399Q681 470 726 546H206Q199 587 182 622V631H742L754 647Q757 651 763 647L786 632L787 631H798V623Q821 608 865 576Q877 565 873 556Q870 550 861 546L836 533L832 534Q780 442 604 317Q583 361 546 389V151H924V66H72V151Z" />
<glyph unicode="&#x30fa;" glyph-name="null" horiz-adv-x="1024" d="M786 770Q849 722 897 658L838 607Q798 680 738 726L786 770ZM880 839Q955 786 999 735L940 684Q901 747 832 795L880 839ZM72 689H645L659 707Q662 712 668 707L762 636Q774 625 770 616Q767
610 758 606L735 594Q723 473 701 396Q678 314 605 217Q528 117 445 60Q358 0 217 -50Q204 -4 167 39V50Q292 76 373 123Q456 171 514 246Q573 325 597 392H108V473H618Q628 529 634 608H72V689Z" />
<glyph unicode="&#x30fb;" glyph-name="null" horiz-adv-x="1024" d="M418 308V456H566V308H418Z" />
<glyph unicode="&#x30fc;" glyph-name="null" horiz-adv-x="1024" d="M110 324Q110 370 100 401V416H920V324H110Z" />
<glyph unicode="&#x30fd;" glyph-name="null" horiz-adv-x="1024" d="M381 497Q503 393 565 326T684 186Q740 113 787 40Q735 3 702 -31Q656 63 607 137T433 339L325 416L381 497Z" />
<glyph unicode="&#x30fe;" glyph-name="null" horiz-adv-x="1024" d="M643 546Q703 489 751 421L695 378Q654 447 597 497L643 546ZM743 611Q814 551 857 496L804 449Q759 519 698 564L743 611ZM381 497Q503 393 565 326T684 186Q740 113 787 40Q735 3 702 -31Q656
63 607 137T433 339L325 416L381 497Z" />
<glyph unicode="&#x3231;" glyph-name="null" horiz-adv-x="1024" d="M152 597H255V744Q255 763 253 773Q246 785 260 786L330 785Q340 782 335 773L329 758V597H447V559Q469 613 483 664T493 725Q491 734 503 733L568 711Q576 707 569 699L562 691Q555 660 544
624H603V745Q603 764 599 772Q594 784 609 787L677 785Q688 781 682 771L676 759V624H859V552H676V417H879V345H730Q747 288 767 245T822 162Q857 122 895 92V86Q863 47 836 9Q787 68 757 119T707 209T676 282V57Q676 -7 679 -58H599Q603 50 603 202V261Q588 218
552 150T436 0Q414 35 380 63V67Q443 109 490 194T549 345H428L439 328V319Q412 298 374 265Q354 323 329 369V-58H251Q255 50 255 206V260Q235 214 200 150Q173 193 143 214V220Q183 274 211 343T255 493V525H152V597ZM425 417H442Q424 448 398 477Q414 489 432
525H329V479Q388 405 425 350V417ZM208 -59L174 -87Q104 25 70 126T36 369T70 612T174 825L208 801Q146 699 113 605Q80 511 80 369Q80 227 113 135Q146 43 208 -59ZM826 -59Q888 43 921 135T954 369T921 605T826 801L860 825Q930 713 964 612Q998 511 998 369Q998
227 964 126Q930 25 860 -87L826 -59ZM603 552H520Q498 491 462 417H603V552Z" />
<glyph unicode="&#x3232;" glyph-name="null" horiz-adv-x="937" />
<glyph unicode="&#x3239;" glyph-name="null" horiz-adv-x="937" />
<glyph unicode="&#x32a4;" glyph-name="null" horiz-adv-x="937" />
<glyph unicode="&#x32a5;" glyph-name="null" horiz-adv-x="937" />
<glyph unicode="&#x32a6;" glyph-name="null" horiz-adv-x="937" />
<glyph unicode="&#x32a7;" glyph-name="null" horiz-adv-x="937" />
<glyph unicode="&#x32a8;" glyph-name="null" horiz-adv-x="937" />
<glyph unicode="&#x3303;" glyph-name="null" horiz-adv-x="937" />
<glyph unicode="&#x330d;" glyph-name="null" horiz-adv-x="937" />
<glyph unicode="&#x3314;" glyph-name="null" horiz-adv-x="937" />
<glyph unicode="&#x3318;" glyph-name="null" horiz-adv-x="937" />
<glyph unicode="&#x3322;" glyph-name="null" horiz-adv-x="937" />
<glyph unicode="&#x3323;" glyph-name="null" horiz-adv-x="937" />
<glyph unicode="&#x3326;" glyph-name="null" horiz-adv-x="937" />
<glyph unicode="&#x3327;" glyph-name="null" horiz-adv-x="937" />
<glyph unicode="&#x332b;" glyph-name="null" horiz-adv-x="937" />
<glyph unicode="&#x3336;" glyph-name="null" horiz-adv-x="937" />
<glyph unicode="&#x333b;" glyph-name="null" horiz-adv-x="937" />
<glyph unicode="&#x3349;" glyph-name="null" horiz-adv-x="937" />
<glyph unicode="&#x334a;" glyph-name="null" horiz-adv-x="937" />
<glyph unicode="&#x334d;" glyph-name="null" horiz-adv-x="937" />
<glyph unicode="&#x3351;" glyph-name="null" horiz-adv-x="937" />
<glyph unicode="&#x3357;" glyph-name="null" horiz-adv-x="937" />
<glyph unicode="&#x337b;" glyph-name="null" horiz-adv-x="937" />
<glyph unicode="&#x337c;" glyph-name="null" horiz-adv-x="937" />
<glyph unicode="&#x337d;" glyph-name="null" horiz-adv-x="937" />
<glyph unicode="&#x337e;" glyph-name="null" horiz-adv-x="937" />
<glyph unicode="&#x338e;" glyph-name="null" horiz-adv-x="937" />
<glyph unicode="&#x338f;" glyph-name="null" horiz-adv-x="937" />
<glyph unicode="&#x339c;" glyph-name="null" horiz-adv-x="937" />
<glyph unicode="&#x339d;" glyph-name="null" horiz-adv-x="937" />
<glyph unicode="&#x339e;" glyph-name="null" horiz-adv-x="937" />
<glyph unicode="&#x33a1;" glyph-name="null" horiz-adv-x="937" />
<glyph unicode="&#x33c4;" glyph-name="null" horiz-adv-x="937" />
<glyph unicode="&#x33cb;" glyph-name="null" horiz-adv-x="1024" d="M463 -12L464 342H194V-12H108V750H194V432H464L463 750H627Q827 750 885 666Q916 621 916 546Q916 415 814 371Q748 342 627 342H549V-12H463ZM825 546Q825 618 769 642Q725 660 627 660H549V432H627Q765
432 802 471Q825 496 825 546Z" />
<glyph unicode="&#x33cd;" glyph-name="null" horiz-adv-x="937" />
<glyph unicode="&#x4e00;" glyph-name="null" horiz-adv-x="1024" d="M74 311H952V377H74V311Z" />
<glyph unicode="&#x4e01;" glyph-name="null" horiz-adv-x="1024" d="M545 671H981V737H38V671H479V46Q479 -43 355 -41L385 -108Q490 -111 526 -43Q544 -8 545 46V671Z" />
<glyph unicode="&#x4e02;" glyph-name="null" horiz-adv-x="1024" d="M319 517Q353 641 371 713H986V780H38V713H302Q256 534 209 387L272 366L299 450H714Q672 112 642 14Q618 -68 500 -63Q495 -62 490 -62L523 -131Q624 -138 672 -80Q695 -51 706 -6Q737 96
784 470L743 517H319Z" />
<glyph unicode="&#x4e03;" glyph-name="null" horiz-adv-x="1024" d="M332 445L31 375L46 310L332 377V6Q332 -94 432 -94H755Q849 -94 864 -1L886 137L826 181L799 10Q793 -28 755 -28H432Q399 -28 399 6V393L993 532L978 597L399 461V781Q431 792 412 803Q394
813 332 818V445Z" />
<glyph unicode="&#x4e04;" glyph-name="null" horiz-adv-x="1024" d="M479 -25H85V-92H986V-25H545V781Q579 792 558 803Q540 813 479 818V-25Z" />
<glyph unicode="&#x4e05;" glyph-name="null" horiz-adv-x="1024" d="M479 713V-130H545V713H986V780H55V713H479Z" />
<glyph unicode="&#x4e07;" glyph-name="null" horiz-adv-x="1024" d="M425 537Q435 634 438 713H969V780H38V713H372Q340 50 61 -91L113 -138Q352 3 417 471H748Q741 141 712 33Q688 -62 568 -54Q563 -54 557 -53L586 -123Q690 -134 740 -69Q765 -36 777 16Q808
134 815 482Q815 486 815 491L769 537H425Z" />
<glyph unicode="&#x4e08;" glyph-name="null" horiz-adv-x="1024" d="M413 244Q306 -16 68 -103L115 -156Q345 -62 460 187Q620 9 936 -116L983 -63Q642 67 488 256Q527 361 548 489H986V556H558Q569 643 572 764Q605 778 585 794Q567 809 505 818Q505 680 491
556H87V489H481Q466 401 442 322Q412 370 393 428L330 407Q358 324 413 244Z" />
<glyph unicode="&#x4e09;" glyph-name="null" horiz-adv-x="1024" d="M119 713H905V780H119V713ZM201 334H825V401H201V334ZM38 -92H985V-25H38V-92Z" />
<glyph unicode="&#x4e0a;" glyph-name="null" horiz-adv-x="1024" d="M545 447V781Q579 792 558 803Q540 813 479 818V-25H114V-92H986V-25H545V380H871V447H545Z" />
</font>
</defs>
</svg>
