<?xml version="1.0" standalone="no"?> <!DOCTYPE svg PUBLIC "-//W3C//DTD SVG 1.0//EN" "http://www.w3.org/TR/2001/REC-SVG-20010904/DTD/svg10.dtd" > <svg xmlns="http://www.w3.org/2000/svg" width="100%" height="100%">
<defs >
<font horiz-adv-x="1263" ><font-face
    font-family="DejaVu Serif"
    units-per-em="2048"
    panose-1="2 6 6 3 5 6 5 2 2 4"
    ascent="1901"
    descent="-483"
    alphabetic="0" />
<missing-glyph horiz-adv-x="1100" d="M38 -362V1444H1062V-362H38ZM153 -248H948V1329H153V-248Z" />
<glyph unicode=" " glyph-name="space" horiz-adv-x="651" />
<glyph unicode="!" glyph-name="exclam" horiz-adv-x="314" d="M24 104Q24 160 62 199T157 238Q212 238 251 199T290 104Q290 49 251 10T157 -29Q100 -29 62 9T24 104ZM28 1493H286L218 672V420H95V672L28 1493Z" />
<glyph unicode="&quot;" glyph-name="quotedbl" horiz-adv-x="617" d="M197 1493V938H38V1493H197ZM578 1493V938H419V1493H578Z" />
<glyph unicode="#" glyph-name="numbersign" horiz-adv-x="1407" d="M887 901H605L521 567H806L887 901ZM746 1470L644 1055H926L1029 1470H1201L1096 1055H1404V901H1057L975 567H1289V414H937L834 0H662L767 414H484L380 0H210L312 414H3V567H351L433 901H117V1055H472L576
1470H746Z" />
<glyph unicode="$" glyph-name="dollar" horiz-adv-x="964" d="M519 68Q632 78 691 133T751 283Q751 369 692 429T519 520V68ZM419 1187Q316 1180 259 1128T202 987Q202 907 254 854T419 768V1187ZM5 72V348H113Q117 211 193 141T419 68V553Q189 617 96 700T3
922Q3 1082 113 1179T419 1288V1556H519V1288Q620 1280 713 1256T896 1190V928H787Q775 1044 706 1111T519 1187V735Q765 668 863 582T962 350Q962 184 846 84T519 -31V-301H419V-31Q323 -29 220 -4T5 72Z" />
<glyph unicode="%" glyph-name="percent" horiz-adv-x="1752" d="M362 1427Q274 1427 225 1344T175 1112Q175 965 225 881T362 797Q447 797 496 880T546 1112Q546 1260 497 1343T362 1427ZM1392 694Q1305 694 1256 610T1206 377Q1206 230 1256 147T1392 63Q1478
63 1527 146T1576 377Q1576 525 1527 609T1392 694ZM1392 784Q1550 784 1643 674T1736 377Q1736 190 1643 81T1392 -29Q1232 -29 1139 80T1046 377Q1046 565 1139 674T1392 784ZM1267 1520H1419L485 -29H333L1267 1520ZM360 1520Q518 1520 612 1411T706 1114Q706
925 613 816T360 707Q201 707 109 816T16 1114Q16 1300 109 1410T360 1520Z" />
<glyph unicode="&amp;" glyph-name="ampersand" horiz-adv-x="1600" d="M977 231L395 844Q308 766 265 676T221 483Q221 317 336 205T623 92Q725 92 815 127T977 231ZM1597 0H1196L1059 145Q954 57 835 14T578 -29Q320 -29 169 103T18 461Q18 594 94 709T326 926Q275
987 251 1047T227 1174Q227 1333 341 1426T653 1520Q720 1520 809 1503T1014 1452V1194H901Q887 1301 823 1357T649 1413Q546 1413 482 1357T418 1210Q418 1149 452 1089T594 915L1110 371Q1179 451 1218 543T1268 741H1088V848H1561V741H1389Q1372 611 1323 498T1190
289L1362 106H1597V0Z" />
<glyph unicode="&apos;" glyph-name="quotesingle" horiz-adv-x="238" d="M197 1493V938H38V1493H197Z" />
<glyph unicode="(" glyph-name="parenleft" horiz-adv-x="507" d="M494 -319Q251 -210 127 26T3 618Q3 974 127 1210T494 1556V1458Q340 1352 273 1160T206 618Q206 270 273 78T494 -221V-319Z" />
<glyph unicode=")" glyph-name="parenright" horiz-adv-x="508" d="M13 -319V-221Q167 -115 234 77T302 618Q302 967 235 1159T13 1458V1556Q257 1447 381 1211T505 618Q505 263 381 27T13 -319Z" />
<glyph unicode="*" glyph-name="asterisk" horiz-adv-x="962" d="M960 1237L569 1055L960 870L884 752L536 969L549 588H413L426 969L78 752L2 870L393 1053L2 1237L78 1356L426 1139L413 1520H549L536 1139L884 1356L960 1237Z" />
<glyph unicode="+" glyph-name="plus" horiz-adv-x="1282" d="M721 1284V723H1282V561H721V0H561V561H0V723H561V1284H721Z" />
<glyph unicode="," glyph-name="comma" horiz-adv-x="383" d="M1 -199Q95 -130 139 -37T183 190V227H380Q372 56 300 -66T81 -279L1 -199Z" />
<glyph unicode="-" glyph-name="hyphen" horiz-adv-x="589" d="M38 627H550V471H38V627Z" />
<glyph unicode="." glyph-name="period" horiz-adv-x="303" d="M19 104Q19 160 57 199T152 238Q207 238 246 199T285 104Q285 49 246 10T152 -29Q95 -29 57 9T19 104Z" />
<glyph unicode="/" glyph-name="slash" horiz-adv-x="690" d="M530 1493H690L160 -190H0L530 1493Z" />
<glyph unicode="0" glyph-name="zero" horiz-adv-x="1074" d="M537 70Q690 70 766 238T842 745Q842 1085 766 1253T537 1421Q384 1421 308 1253T232 745Q232 406 308 238T537 70ZM537 -29Q294 -29 158 175T21 745Q21 1112 157 1316T537 1520Q781 1520 917 1316T1053
745Q1053 379 917 175T537 -29Z" />
<glyph unicode="1" glyph-name="one" horiz-adv-x="768" d="M46 0V106H306V1348L5 1153V1284L369 1520H507V106H767V0H46Z" />
<glyph unicode="2" glyph-name="two" horiz-adv-x="1015" d="M150 1137H38V1403Q145 1460 253 1490T466 1520Q699 1520 834 1407T969 1100Q969 881 663 576Q639 553 627 541L250 164H873V348H990V0H27V109L480 561Q630 711 694 836T758 1100Q758 1251 680 1336T463
1421Q320 1421 242 1350T150 1137Z" />
<glyph unicode="3" glyph-name="three" horiz-adv-x="1040" d="M69 1430Q186 1474 293 1497T495 1520Q714 1520 837 1426T960 1163Q960 1028 875 938T634 815Q818 789 919 682T1021 403Q1021 194 881 83T476 -29Q359 -29 248 -4T26 72V362H138Q148 218 235 144T480
70Q633 70 721 158T810 401Q810 577 719 667T452 758H357V860H407Q582 860 669 932T757 1151Q757 1282 685 1351T478 1421Q343 1421 269 1357T181 1167H69V1430Z" />
<glyph unicode="4" glyph-name="four" horiz-adv-x="1143" d="M652 506V1300L142 506H652ZM1092 0H412V106H652V399H0V508L654 1520H852V506H1137V399H852V106H1092V0Z" />
<glyph unicode="5" glyph-name="five" horiz-adv-x="1007" d="M882 1493V1329H198V901Q250 937 319 955T475 973Q717 973 857 839T997 473Q997 236 856 104T458 -29Q355 -29 247 -4T26 72V362H139Q148 220 229 145T458 70Q616 70 701 174T786 473Q786 667 702
770T458 874Q368 874 300 842T178 743H92V1493H882Z" />
<glyph unicode="6" glyph-name="six" horiz-adv-x="1078" d="M553 70Q694 70 770 173T846 471Q846 665 770 768T553 872Q410 872 335 772T260 483Q260 284 336 177T553 70ZM227 822Q295 897 381 934T575 971Q798 971 927 837T1057 471Q1057 244 918 108T545 -29Q292
-29 156 159T20 698Q20 1090 181 1305T635 1520Q714 1520 801 1505T979 1460V1214H866Q854 1315 789 1368T614 1421Q420 1421 325 1274T227 822Z" />
<glyph unicode="7" glyph-name="seven" horiz-adv-x="994" d="M993 1391L409 0H260L817 1329H127V1145H10V1493H993V1391Z" />
<glyph unicode="8" glyph-name="eight" horiz-adv-x="1068" d="M837 408Q837 568 758 656T534 745Q390 745 311 657T231 408Q231 247 310 159T534 70Q678 70 757 158T837 408ZM796 1133Q796 1269 727 1345T534 1421Q411 1421 342 1345T272 1133Q272 996 341 920T534
844Q658 844 727 920T796 1133ZM688 795Q858 772 953 670T1048 408Q1048 198 915 85T534 -29Q287 -29 154 84T20 408Q20 567 115 669T381 795Q230 822 150 909T69 1133Q69 1313 193 1416T534 1520Q751 1520 875 1417T999 1133Q999 997 919 910T688 795Z" />
<glyph unicode="9" glyph-name="nine" horiz-adv-x="1077" d="M850 669Q783 594 696 557T500 520Q278 520 150 654T21 1020Q21 1247 160 1383T533 1520Q786 1520 921 1332T1057 793Q1057 401 896 186T443 -29Q364 -29 277 -14T99 31V279H211Q224 178 289 124T463
70Q657 70 752 216T850 669ZM525 1421Q383 1421 308 1318T232 1020Q232 826 307 722T525 618Q667 618 742 718T818 1008Q818 1207 742 1314T525 1421Z" />
<glyph unicode=":" glyph-name="colon" horiz-adv-x="314" d="M24 104Q24 160 62 199T157 238Q213 238 251 199T290 104Q290 48 252 10T157 -29Q100 -29 62 9T24 104ZM24 756Q24 812 62 850T157 889Q214 889 252 851T290 756Q290 699 252 661T157 623Q101 623
63 661T24 756Z" />
<glyph unicode=";" glyph-name="semicolon" horiz-adv-x="414" d="M1 -199Q95 -130 139 -37T183 190V227H380Q372 56 300 -66T81 -279L1 -199ZM144 756Q144 812 182 850T277 889Q333 889 371 850T410 756Q410 700 372 662T277 623Q221 623 183 661T144 756Z" />
<glyph unicode="&lt;" glyph-name="less" horiz-adv-x="1320" d="M1282 1020L244 641L1282 264V94L0 559V725L1282 1190V1020Z" />
<glyph unicode="=" glyph-name="equal" horiz-adv-x="1323" d="M38 926H1320V766H38V926ZM38 518H1320V358H38V518Z" />
<glyph unicode="&gt;" glyph-name="greater" horiz-adv-x="1320" d="M38 1020V1190L1320 725V559L38 94V264L1076 641L38 1020Z" />
<glyph unicode="?" glyph-name="question" horiz-adv-x="871" d="M230 104Q230 160 268 199T364 238Q419 238 458 199T497 104Q497 49 458 10T364 -29Q307 -29 269 9T230 104ZM9 1427Q115 1474 210 1497T390 1520Q612 1520 740 1413T869 1124Q869 938 759 820T425
651V397H302V725Q479 768 568 869T658 1126Q658 1263 585 1342T386 1421Q272 1421 200 1356T106 1167H9V1427Z" />
<glyph unicode="@" glyph-name="at" horiz-adv-x="1799" d="M1177 248Q1118 166 1045 126T878 86Q703 86 594 211T485 537Q485 738 594 862T878 987Q971 987 1044 947T1177 825V967H1333V195Q1503 232 1597 357T1691 670Q1691 781 1657 880T1556 1063Q1450 1196
1298 1266T966 1337Q876 1337 788 1318T614 1260Q412 1167 300 979T188 543Q188 376 238 236T383 -8Q492 -127 641 -189T964 -252Q1093 -252 1205 -214T1413 -100L1466 -170Q1358 -263 1221 -309T921 -356Q738 -356 572 -290T280 -100Q151 27 85 190T18 543Q18
727 85 890T280 1180Q407 1306 579 1374T946 1442Q1160 1442 1336 1359T1632 1120Q1708 1022 1747 907T1786 668Q1786 400 1623 245T1178 86L1177 248ZM1177 485V590Q1177 715 1106 792T919 870Q798 870 731 783T663 537Q663 378 731 291T921 203Q1035 203 1106
281T1177 485Z" />
<glyph unicode="A" glyph-name="A" horiz-adv-x="1515" d="M424 541H972L698 1251L424 541ZM2 0V106H133L665 1493H833L1366 106H1513V0H970V106H1136L1011 434H383L258 106H422V0H2Z" />
<glyph unicode="B" glyph-name="B" horiz-adv-x="1311" d="M415 106H714Q894 106 977 184T1060 432Q1060 601 978 678T714 756H415V106ZM415 862H669Q833 862 908 925T984 1124Q984 1261 909 1323T669 1386H415V862ZM22 0V106H212V1386H22V1493H759Q985 1493 1099
1401T1214 1124Q1214 991 1135 912T902 815Q1092 791 1190 694T1289 432Q1289 210 1149 105T712 0H22Z" />
<glyph unicode="C" glyph-name="C" horiz-adv-x="1364" d="M1347 395Q1281 186 1126 79T732 -29Q586 -29 461 21T239 168Q127 280 73 422T18 745Q18 1093 219 1306T749 1520Q871 1520 1009 1488T1306 1391V1047H1193Q1156 1235 1045 1324T732 1413Q493 1413 370
1244T247 745Q247 417 370 248T732 78Q899 78 1007 157T1163 395H1347Z" />
<glyph unicode="D" glyph-name="D" horiz-adv-x="1452" d="M416 106H602Q893 106 1048 272T1204 748Q1204 1058 1049 1222T602 1386H416V106ZM23 0V106H213V1386H23V1493H617Q1003 1493 1218 1296T1434 748Q1434 396 1218 198T617 0H23Z" />
<glyph unicode="E" glyph-name="E" horiz-adv-x="1275" d="M21 0V106H211V1386H21V1493H1223V1161H1100V1370H414V870H903V1057H1026V561H903V748H414V123H1116V332H1239V0H21Z" />
<glyph unicode="F" glyph-name="F" horiz-adv-x="1245" d="M21 0V106H211V1386H21V1493H1243V1161H1120V1370H414V870H924V1057H1047V561H924V748H414V106H653V0H21Z" />
<glyph unicode="G" glyph-name="G" horiz-adv-x="1405" d="M1214 1047Q1179 1234 1068 1323T759 1413Q501 1413 374 1247T247 745Q247 416 378 247T763 78Q876 78 979 106T1175 190V575H894V682H1378V125Q1245 48 1092 10T763 -29Q425 -29 222 182T18 745Q18 1099
222 1309T771 1520Q899 1520 1035 1491T1326 1401V1047H1214Z" />
<glyph unicode="H" glyph-name="H" horiz-adv-x="1608" d="M24 0V106H214V1386H24V1493H607V1386H417V870H1191V1386H1001V1493H1584V1386H1394V106H1584V0H1001V106H1191V748H417V106H607V0H24Z" />
<glyph unicode="I" glyph-name="I" horiz-adv-x="601" d="M402 106H592V0H9V106H199V1386H9V1493H592V1386H402V106Z" />
<glyph unicode="J" glyph-name="J" horiz-adv-x="904" d="M1 -358V-123H115Q118 -222 162 -270T294 -319Q413 -319 460 -244T507 49V1386H275V1493H900V1386H710V41Q710 -206 611 -316T292 -426Q221 -426 148 -409T1 -358Z" />
<glyph unicode="K" glyph-name="K" horiz-adv-x="1486" d="M23 0V106H213V1386H23V1493H606V1386H416V821L1059 1386H897V1493H1393V1386H1225L584 823L1301 106H1471V0H1124L416 709V106H606V0H23Z" />
<glyph unicode="L" glyph-name="L" horiz-adv-x="1219" d="M21 0V106H211V1386H21V1493H604V1386H414V123H1096V373H1219V0H21Z" />
<glyph unicode="M" glyph-name="M" horiz-adv-x="1941" d="M36 0V106H226V1386H25V1493H460L984 430L1508 1493H1916V1386H1717V106H1908V0H1324V106H1514V1260L1002 219H861L349 1260V106H539V0H36Z" />
<glyph unicode="N" glyph-name="N" horiz-adv-x="1636" d="M17 0V106H218V1386H17V1493H400L1295 315V1386H1095V1493H1619V1386H1418V-29H1297L341 1229V106H542V0H17Z" />
<glyph unicode="O" glyph-name="O" horiz-adv-x="1486" d="M743 78Q988 78 1113 246T1238 745Q1238 1076 1113 1244T743 1413Q497 1413 372 1245T247 745Q247 415 372 247T743 78ZM743 -29Q591 -29 464 21T239 168Q127 280 73 422T18 745Q18 926 72 1068T239 1323Q337
1421 463 1470T743 1520Q1068 1520 1268 1307T1468 745Q1468 566 1413 423T1246 168Q1148 70 1022 21T743 -29Z" />
<glyph unicode="P" glyph-name="P" horiz-adv-x="1213" d="M413 760H677Q826 760 904 840T982 1073Q982 1226 904 1306T677 1386H413V760ZM20 0V106H210V1386H20V1493H726Q950 1493 1081 1380T1212 1073Q1212 881 1081 767T726 653H413V106H644V0H20Z" />
<glyph unicode="Q" glyph-name="Q" horiz-adv-x="1473" d="M756 -29Q413 -29 210 181T7 745Q7 926 61 1068T228 1323Q326 1421 452 1470T732 1520Q1057 1520 1257 1307T1457 745Q1457 449 1307 248T893 -12Q947 -79 1024 -111T1211 -143H1242V-328Q1073 -320 953
-246T756 -29ZM732 78Q977 78 1102 246T1227 745Q1227 1076 1102 1244T732 1413Q486 1413 361 1245T236 745Q236 415 361 247T732 78Z" />
<glyph unicode="R" glyph-name="R" horiz-adv-x="1509" d="M891 741Q961 722 1011 677T1102 549L1319 106H1501V0H1149L916 475Q849 613 793 653T639 694H416V106H627V0H23V106H213V1386H23V1493H780Q998 1493 1116 1389T1235 1094Q1235 940 1149 852T891 741ZM416
801H711Q862 801 934 872T1006 1094Q1006 1244 934 1315T711 1386H416V801Z" />
<glyph unicode="S" glyph-name="S" horiz-adv-x="1125" d="M42 72V412L157 411Q162 241 255 160T540 78Q718 78 811 148T905 354Q905 462 849 520T610 633L413 692Q199 757 112 854T24 1120Q24 1310 159 1415T538 1520Q642 1520 766 1498T1030 1432V1114H917Q900
1272 812 1342T542 1413Q384 1413 302 1349T219 1161Q219 1054 281 993T544 872L729 817Q932 756 1018 662T1105 408Q1105 191 966 81T552 -29Q429 -29 302 -4T42 72Z" />
<glyph unicode="T" glyph-name="T" horiz-adv-x="1340" d="M378 0V106H569V1374H130V1141H7V1493H1333V1141H1210V1374H771V106H962V0H378Z" />
<glyph unicode="U" glyph-name="U" horiz-adv-x="1562" d="M203 1386H12V1493H596V1386H405V614Q405 328 498 215T821 102Q1050 102 1143 215T1237 614V1386H1046V1493H1550V1386H1360V594Q1360 253 1229 112T784 -29Q470 -29 337 113T203 594V1386Z" />
<glyph unicode="V" glyph-name="V" horiz-adv-x="1533" d="M380 1386L821 240L1261 1386H1093V1493H1531V1386H1386L853 0H681L151 1386H2V1493H546V1386H380Z" />
<glyph unicode="W" glyph-name="W" horiz-adv-x="2109" d="M1561 0H1397L1055 1214L713 0H549L158 1386H10V1493H555V1386H369L680 283L1020 1493H1182L1528 270L1841 1386H1669V1493H2099V1386H1952L1561 0Z" />
<glyph unicode="X" glyph-name="X" horiz-adv-x="1473" d="M686 639L321 106H514V0H20V106H192L622 733L186 1386H26V1493H618V1386H442L762 905L1091 1386H899V1493H1388V1386H1220L825 811L1296 106H1456V0H864V106H1042L686 639Z" />
<glyph unicode="Y" glyph-name="Y" horiz-adv-x="1399" d="M413 0V106H604V643L143 1386H3V1493H558V1386H384L757 782L1130 1386H962V1493H1396V1386H1255L806 662V106H997V0H413Z" />
<glyph unicode="Z" glyph-name="Z" horiz-adv-x="1309" d="M29 0V72L959 1370H187V1147H64V1493H1244V1421L314 123H1158V332H1280V0H29Z" />
<glyph unicode="[" glyph-name="bracketleft" horiz-adv-x="500" d="M35 1556H500V1450H226V-164H500V-270H35V1556Z" />
<glyph unicode="\" glyph-name="backslash" horiz-adv-x="690" d="M160 1493L690 -190H530L0 1493H160Z" />
<glyph unicode="]" glyph-name="bracketright" horiz-adv-x="501" d="M465 1556V-270H0V-164H274V1450H0V1556H465Z" />
<glyph unicode="^" glyph-name="asciicircum" horiz-adv-x="1290" d="M743 1493L1286 936H1133L645 1317L158 936H4L547 1493H743Z" />
<glyph unicode="_" glyph-name="underscore" horiz-adv-x="1094" d="M1059 -403V-483H35V-403H1059Z" />
<glyph unicode="`" glyph-name="grave" horiz-adv-x="458" d="M197 1636L457 1260H340L0 1636H197Z" />
<glyph unicode="a" glyph-name="a" horiz-adv-x="1089" d="M733 334V559H496Q359 559 292 500T225 319Q225 208 293 143T477 78Q592 78 662 149T733 334ZM917 664V106H1081V0H733V115Q672 41 592 6T405 -29Q228 -29 124 65T20 319Q20 484 139 575T475 666H733V739Q733
860 660 926T453 993Q343 993 278 943T197 795H102V1010Q198 1051 288 1071T465 1092Q686 1092 801 983T917 664Z" />
<glyph unicode="b" glyph-name="b" horiz-adv-x="1167" d="M193 106V1450H16V1556H377V897Q431 997 514 1044T721 1092Q917 1092 1041 937T1165 532Q1165 282 1041 127T721 -29Q598 -29 515 18T377 166V0H16V106H193ZM377 479Q377 287 450 187T664 86Q805 86 877
199T950 532Q950 753 878 865T664 977Q524 977 451 876T377 584V479Z" />
<glyph unicode="c" glyph-name="c" horiz-adv-x="985" d="M968 319Q929 149 818 60T531 -29Q299 -29 158 124T17 532Q17 787 158 939T531 1092Q632 1092 732 1069T933 997V725H826Q805 865 735 929T533 993Q384 993 308 878T232 532Q232 302 307 186T533 70Q652
70 723 132T820 319H968Z" />
<glyph unicode="d" glyph-name="d" horiz-adv-x="1164" d="M977 106H1153V0H793V166Q739 66 656 19T449 -29Q253 -29 129 126T4 532Q4 782 128 937T449 1092Q572 1092 655 1045T793 897V1450H619V1556H977V106ZM793 479V584Q793 775 720 876T506 977Q364 977 292
865T219 532Q219 312 291 199T506 86Q646 86 719 186T793 479Z" />
<glyph unicode="e" glyph-name="e" horiz-adv-x="1040" d="M1026 512H233V504Q233 289 314 180T553 70Q674 70 751 133T860 322H1008Q964 147 846 59T534 -29Q301 -29 160 124T18 532Q18 784 157 938T522 1092Q763 1092 892 944T1026 512ZM809 618Q803 804 731
898T522 993Q395 993 322 898T233 618H809Z" />
<glyph unicode="f" glyph-name="f" horiz-adv-x="815" d="M812 1305H715Q714 1380 673 1419T552 1458Q449 1458 407 1402T365 1200V1063H662V956H365V106H601V0H5V106H181V956H5V1063H181V1196Q181 1374 273 1465T545 1556Q612 1556 679 1544T812 1507V1305Z" />
<glyph unicode="g" glyph-name="g" horiz-adv-x="1177" d="M993 956V23Q993 -206 867 -330T508 -455Q403 -455 307 -436T123 -379V-156H219Q237 -260 304 -308T496 -356Q658 -356 733 -265T809 23V166Q755 66 672 19T465 -29Q269 -29 145 126T20 532Q20 782 144
937T465 1092Q588 1092 671 1045T809 897V1063H1169V956H993ZM809 584Q809 775 736 876T522 977Q380 977 308 865T235 532Q235 312 307 199T522 86Q662 86 735 186T809 479V584Z" />
<glyph unicode="h" glyph-name="h" horiz-adv-x="1207" d="M29 0V106H195V1450H19V1556H379V874Q430 982 511 1037T701 1092Q877 1092 960 991T1043 676V106H1207V0H699V106H858V618Q858 813 811 884T641 956Q513 956 446 863T379 592V106H539V0H29Z" />
<glyph unicode="i" glyph-name="i" horiz-adv-x="537" d="M128 1393Q128 1439 161 1473T242 1507Q288 1507 321 1473T355 1393Q355 1346 322 1313T242 1280Q195 1280 162 1313T128 1393ZM363 106H537V0H3V106H179V956H3V1063H363V106Z" />
<glyph unicode="j" glyph-name="j" horiz-adv-x="656" d="M402 1393Q402 1439 435 1473T516 1507Q562 1507 595 1473T629 1393Q629 1346 597 1313T516 1280Q469 1280 436 1313T402 1393ZM447 956H273V1063H631V-104Q631 -268 534 -361T265 -455Q193 -455 128 -439T0
-389V-170H95Q102 -266 144 -311T269 -356Q360 -356 403 -295T447 -104V956Z" />
<glyph unicode="k" glyph-name="k" horiz-adv-x="1215" d="M546 0H30V106H196V1450H19V1556H380V543L828 956H675V1063H1156V956H974L658 664L1062 106H1215V0H691V106H843L525 543L380 408V106H546V0Z" />
<glyph unicode="l" glyph-name="l" horiz-adv-x="543" d="M368 106H542V0H7V106H184V1450H7V1556H368V106Z" />
<glyph unicode="m" glyph-name="m" horiz-adv-x="1855" d="M1012 856Q1065 973 1147 1032T1340 1092Q1507 1092 1589 989T1671 676V106H1837V0H1327V106H1487V655Q1487 818 1439 887T1280 956Q1157 956 1093 863T1028 592V106H1188V0H684V106H844V662Q844 821
796 888T637 956Q514 956 450 863T385 592V106H545V0H35V106H201V958H25V1063H385V874Q436 980 515 1036T694 1092Q818 1092 901 1031T1012 856Z" />
<glyph unicode="n" glyph-name="n" horiz-adv-x="1220" d="M30 0V106H196V956H20V1063H380V874Q431 982 512 1037T702 1092Q878 1092 961 991T1044 676V106H1208V0H700V106H859V618Q859 813 811 885T642 958Q514 958 447 865T380 592V106H540V0H30Z" />
<glyph unicode="o" glyph-name="o" horiz-adv-x="1064" d="M532 70Q680 70 755 187T831 532Q831 760 756 876T532 993Q384 993 309 877T233 532Q233 304 309 187T532 70ZM532 -29Q300 -29 159 124T18 532Q18 786 158 939T532 1092Q765 1092 905 939T1046 532Q1046
278 906 125T532 -29Z" />
<glyph unicode="p" glyph-name="p" horiz-adv-x="1171" d="M378 584V479Q378 287 451 187T665 86Q806 86 878 199T951 532Q951 753 879 865T665 977Q525 977 452 876T378 584ZM194 956H17V1063H378V897Q432 997 515 1044T722 1092Q918 1092 1042 937T1166 532Q1166
282 1042 127T722 -29Q599 -29 516 18T378 166V-319H552V-426H17V-319H194V956Z" />
<glyph unicode="q" glyph-name="q" horiz-adv-x="1171" d="M978 956V-319H1154V-426H620V-319H794V166Q740 66 657 19T450 -29Q254 -29 130 126T5 532Q5 782 129 937T450 1092Q573 1092 656 1045T794 897V1063H1154V956H978ZM794 584Q794 775 721 876T507 977Q365
977 293 865T220 532Q220 312 292 199T507 86Q647 86 720 186T794 479V584Z" />
<glyph unicode="r" glyph-name="r" horiz-adv-x="924" d="M921 1065V799H815Q810 878 771 917T657 956Q521 956 449 862T376 592V106H589V0H26V106H192V958H16V1063H376V874Q430 985 515 1038T722 1092Q767 1092 816 1085T921 1065Z" />
<glyph unicode="s" glyph-name="s" horiz-adv-x="873" d="M24 59V307H130Q134 188 204 129T413 70Q537 70 602 116T667 252Q667 322 620 365T419 457L286 502Q149 546 88 612T26 780Q26 926 133 1009T429 1092Q513 1092 606 1070T798 1006V774H692Q688 877 620
935T435 993Q319 993 260 952T200 829Q200 762 245 722T425 639L571 594Q722 547 788 477T855 295Q855 144 740 58T421 -29Q318 -29 220 -7T24 59Z" />
<glyph unicode="t" glyph-name="t" horiz-adv-x="752" d="M165 956H3V1063H165V1393H350V1063H696V956H350V281Q350 146 376 108T472 70Q544 70 577 112T612 250H751Q743 105 672 38T456 -29Q297 -29 231 41T165 281V956Z" />
<glyph unicode="u" glyph-name="u" horiz-adv-x="1213" d="M682 1063H1026V106H1200V0H842V188Q791 82 710 27T522 -29Q345 -29 262 71T178 387V956H12V1063H363V444Q363 250 410 178T580 106Q708 106 775 200T842 473V956H682V1063Z" />
<glyph unicode="v" glyph-name="v" horiz-adv-x="1161" d="M514 0L123 956H2V1063H491V956H321L620 225L919 956H760V1063H1159V956H1040L649 0H514Z" />
<glyph unicode="w" glyph-name="w" horiz-adv-x="1715" d="M961 1063L1233 233L1473 956H1319V1063H1704V956H1586L1270 0H1117L855 795L592 0H445L130 956H11V1063H492V956H320L558 233L832 1063H961Z" />
<glyph unicode="x" glyph-name="x" horiz-adv-x="1150" d="M595 649L818 956H675V1063H1084V956H943L658 563L990 106H1129V0H638V106H773L542 424L310 106H448V0H44V106H185L478 510L155 956H24V1063H499V956H372L595 649Z" />
<glyph unicode="y" glyph-name="y" horiz-adv-x="1177" d="M468 -195L538 -18L141 956H20V1063H509V956H339L638 225L937 956H778V1063H1177V956H1058L571 -240Q521 -364 460 -409T288 -455Q241 -455 192 -447T92 -424V-221H186Q192 -289 220 -318T309 -348Q364
-348 397 -318T468 -195Z" />
<glyph unicode="z" glyph-name="z" horiz-adv-x="983" d="M30 0V86L696 956H169V772H63V1063H933V977L267 106H845V299H952V0H30Z" />
<glyph unicode="{" glyph-name="braceleft" horiz-adv-x="795" d="M791 -229V-334H729Q480 -334 396 -260T311 35V293Q311 443 257 501T61 559H0V664H61Q203 664 257 722T311 930V1188Q311 1409 395 1482T729 1556H791V1452H723Q582 1452 539 1408T496 1223V936Q496
778 446 710T266 612Q398 578 447 511T496 287V0Q496 -141 539 -185T723 -229H791Z" />
<glyph unicode="|" glyph-name="bar" horiz-adv-x="235" d="M197 1565V-483H35V1565H197Z" />
<glyph unicode="}" glyph-name="braceright" horiz-adv-x="795" d="M4 -229H74Q214 -229 256 -186T299 0V287Q299 444 348 511T528 612Q398 642 349 710T299 936V1223Q299 1365 257 1408T74 1452H4V1556H67Q316 1556 399 1483T483 1188V930Q483 780 537 722T733
664H795V559H733Q591 559 537 501T483 293V35Q483 -186 400 -260T67 -334H4V-229Z" />
<glyph unicode="~" glyph-name="asciitilde" horiz-adv-x="1327" d="M1305 807V659Q1205 571 1115 529T932 487Q836 487 662 553L652 557Q641 561 619 570Q472 627 377 627Q285 627 199 591T23 477V629Q123 716 212 756T396 797Q492 797 666 731L676 727Q687 723
707 715Q852 657 949 657Q1041 657 1129 694T1305 807Z" />
<glyph unicode="&#xa0;" glyph-name="nbspace" horiz-adv-x="651" />
<glyph unicode="&#xa1;" glyph-name="exclamdown" horiz-adv-x="310" d="M22 1389Q22 1445 60 1483T155 1522Q210 1522 249 1483T288 1389Q288 1333 249 1294T155 1255Q98 1255 60 1294T22 1389ZM26 0L93 821V1073H216V821L284 0H26Z" />
<glyph unicode="&#xa2;" glyph-name="cent" horiz-adv-x="953" d="M477 991Q348 976 284 861T219 532Q219 317 283 202T477 72V991ZM952 319Q917 165 823 79T577 -27V-297H477V-27Q257 -8 130 142T2 532Q2 774 129 923T477 1090V1356H577V1090Q669 1082 753 1059T917
997V725H811Q792 848 735 913T577 991V72Q667 84 725 147T804 319H952Z" />
<glyph unicode="&#xa3;" glyph-name="sterling" horiz-adv-x="1025" d="M972 1225H867Q857 1320 801 1370T648 1421Q521 1421 461 1344T400 1102V807H812V700H400V121H878V348H994V0H7V106H200V700H7V807H200V1102Q200 1307 314 1413T650 1520Q735 1520 816 1508T972
1470V1225Z" />
<glyph unicode="&#xa4;" glyph-name="currency" horiz-adv-x="1151" d="M823 985L1032 1192L1126 1098L917 889Q960 829 980 768T1001 641Q1001 572 981 513T915 397L1122 190L1026 96L819 301Q763 257 704 236T575 215Q511 215 449 235T325 297L121 92L26 186L231
393Q190 455 170 516T149 641Q149 711 170 770T235 887L28 1094L123 1188L330 981Q386 1025 446 1046T575 1067Q641 1067 702 1047T823 985ZM844 643Q844 755 767 832T575 909Q463 909 385 832T307 643Q307 529 384 451T575 373Q688 373 766 451T844 643Z" />
<glyph unicode="&#xa5;" glyph-name="yen" horiz-adv-x="1334" d="M380 0V106H571V473H167V578H571V643L489 784H167V889H430L143 1386H4V1493H557V1386H382L725 782L1064 1386H897V1493H1329V1386H1187L903 889H1175V784H843L772 662V578H1175V473H772V106H962V0H380Z" />
<glyph unicode="&#xa6;" glyph-name="brokenbar" horiz-adv-x="219" d="M197 408V-350H35V408H197ZM197 1432V674H35V1432H197Z" />
<glyph unicode="&#xa7;" glyph-name="section" horiz-adv-x="867" d="M302 936Q234 890 207 849T179 754Q179 622 542 419L574 401Q632 439 661 487T691 592Q691 667 622 734T302 936ZM752 1464V1262H660Q658 1334 606 1375T466 1417Q366 1417 309 1369T251 1237Q251
1140 497 1003Q523 988 535 981Q730 872 792 797T855 623Q855 528 803 465T636 358Q714 311 750 248T787 94Q787 -37 685 -116T410 -195Q320 -195 240 -182T83 -139V70L175 69Q177 -11 231 -51T392 -92Q496 -92 556 -43T617 90Q617 203 389 330Q368 342 357 348Q141
470 78 545T15 719Q15 813 74 879T242 977Q160 1026 121 1089T81 1231Q81 1361 181 1440T447 1520Q525 1520 601 1506T752 1464Z" />
<glyph unicode="&#xa8;" glyph-name="dieresis" horiz-adv-x="678" d="M144 1569Q192 1569 226 1535T261 1452Q261 1401 228 1368T144 1335Q94 1335 61 1368T28 1452Q28 1500 62 1534T144 1569ZM534 1569Q581 1569 615 1535T650 1452Q650 1401 617 1368T534 1335Q483
1335 450 1368T417 1452Q417 1500 451 1534T534 1569Z" />
<glyph unicode="&#xa9;" glyph-name="copyright" horiz-adv-x="1515" d="M1109 573Q1082 442 992 372T759 301Q572 301 461 421T349 741Q349 942 461 1063T759 1184Q839 1184 916 1166T1081 1108V895H997Q980 1004 923 1055T761 1106Q642 1106 582 1015T521 741Q521
560 581 470T759 379Q856 379 912 426T990 573H1109ZM757 1485Q909 1485 1040 1430T1281 1266Q1390 1157 1444 1026T1498 741Q1498 589 1444 459T1281 219Q1172 110 1041 55T757 0Q605 0 474 55T233 219Q124 328 70 458T16 741Q16 895 70 1026T233 1266Q342 1375
473 1430T757 1485ZM757 1382Q626 1382 513 1335T306 1194Q213 1101 166 987T118 741Q118 611 165 498T306 291Q400 197 513 150T757 102Q889 102 1002 149T1210 291Q1303 384 1349 497T1396 741Q1396 874 1349 987T1210 1194Q1116 1288 1003 1335T757 1382Z" />
<glyph unicode="&#xaa;" glyph-name="ordfeminine" horiz-adv-x="817" d="M727 1219V840H807V756H579V836Q531 785 469 761T319 737Q178 737 96 802T14 979Q14 1093 109 1157T374 1221H579V1266Q579 1350 521 1397T358 1444Q271 1444 220 1409T155 1305H79V1462Q156
1491 228 1505T366 1520Q543 1520 635 1443T727 1219ZM579 997V1145H391Q286 1145 232 1105T178 987Q178 906 228 864T376 821Q468 821 523 869T579 997ZM55 639H753V535H55V639Z" />
<glyph unicode="&#xab;" glyph-name="guillemotleft" horiz-adv-x="940" d="M905 1059V944L608 600L905 256V141L436 559V641L905 1059ZM471 1059V944L174 600L471 256V141L2 559V641L471 1059Z" />
<glyph unicode="&#xac;" glyph-name="logicalnot" horiz-adv-x="1317" d="M0 862H1282V287H1122V700H0V862Z" />
<glyph unicode="&#xad;" glyph-name="sfthyphen" horiz-adv-x="583" d="M35 627H547V471H35V627Z" />
<glyph unicode="&#xae;" glyph-name="registered" horiz-adv-x="1515" d="M628 791H753Q836 791 877 829T919 942Q919 1016 877 1054T753 1092H628V791ZM874 754Q916 740 945 715T995 649L1111 420H1187V352H997L866 606Q831 676 800 699T720 723H628V420H712V352H395V420H478V1092H395V1159H810Q938
1159 1003 1103T1068 938Q1068 855 1020 810T874 754ZM757 1382Q626 1382 513 1335T306 1194Q213 1101 166 987T118 741Q118 611 165 498T306 291Q400 197 513 150T757 102Q889 102 1002 149T1210 291Q1303 384 1349 497T1396 741Q1396 874 1349 987T1210 1194Q1116
1288 1003 1335T757 1382ZM757 1485Q909 1485 1040 1430T1281 1266Q1390 1157 1444 1026T1498 741Q1498 589 1444 459T1281 219Q1172 110 1041 55T757 0Q605 0 474 55T233 219Q124 328 70 458T16 741Q16 895 70 1026T233 1266Q342 1375 473 1430T757 1485Z" />
<glyph unicode="&#xaf;" glyph-name="overscore" horiz-adv-x="669" d="M35 1526H633V1378H35V1526Z" />
<glyph unicode="&#xb0;" glyph-name="degree" horiz-adv-x="668" d="M334 1382Q258 1382 206 1330T154 1200Q154 1124 205 1073T334 1022Q410 1022 462 1073T514 1200Q514 1275 461 1328T334 1382ZM334 1520Q398 1520 457 1496T559 1425Q605 1380 628 1323T651
1200Q651 1068 559 977T332 885Q197 885 107 975T17 1200Q17 1334 109 1427T334 1520Z" />
<glyph unicode="&#xb1;" glyph-name="plusminus" horiz-adv-x="1284" d="M722 1284V893H1283V731H722V340H562V731H1V893H562V1284H722ZM1 160H1283V0H1V160Z" />
<glyph unicode="&#xb2;" glyph-name="twosuperior" horiz-adv-x="652" d="M106 1296H36V1454Q102 1486 172 1503T311 1520Q449 1520 534 1454T620 1284Q620 1162 426 988L407 971L169 756H554V864H628V668H26V743L311 997Q397 1074 434 1135T471 1262Q471 1347
423 1396T290 1446Q212 1446 165 1408T106 1296Z" />
<glyph unicode="&#xb3;" glyph-name="threesuperior" horiz-adv-x="658" d="M49 1468Q122 1494 189 1507T315 1520Q453 1520 527 1466T602 1313Q602 1241 549 1191T401 1124Q520 1108 580 1049T641 889Q641 775 554 714T303 653Q231 653 162 667T24 709V879L94
878Q99 804 148 766T289 727Q383 727 434 771T485 897Q485 990 434 1037T282 1085H229V1159H256Q353 1159 402 1196T452 1307Q452 1374 412 1410T295 1446Q213 1446 170 1414T119 1317H49V1468Z" />
<glyph unicode="&#xb4;" glyph-name="acute" horiz-adv-x="458" d="M259 1638H458L118 1262H1L259 1638Z" />
<glyph unicode="&#xb5;" glyph-name="mu" horiz-adv-x="1219" d="M700 1063H1044V104H1218V0H860V188Q808 82 735 27T571 -29Q514 -29 467 -11T381 43V-319H555V-426H20V-319H197V956H31V1063H381V444Q381 250 429 178T598 106Q726 106 793 200T860 473V956H700V1063Z" />
<glyph unicode="&#xb6;" glyph-name="paragraph" horiz-adv-x="1032" d="M477 1493H1015V1386H897V-197H790V1386H559V-197H452V649Q237 666 120 776T2 1071Q2 1261 132 1377T477 1493Z" />
<glyph unicode="&#xb7;" glyph-name="middot" horiz-adv-x="301" d="M17 711Q17 767 55 805T151 844Q206 844 245 805T284 711Q284 655 245 617T151 578Q94 578 56 616T17 711Z" />
<glyph unicode="&#xb8;" glyph-name="cedilla" horiz-adv-x="433" d="M290 0Q354 -64 385 -120T417 -225Q417 -306 354 -350T179 -395Q137 -395 93 -389T3 -371V-240Q44 -257 83 -265T158 -274Q215 -274 248 -248T281 -176Q281 -148 259 -104T193 0H290Z" />
<glyph unicode="&#xb9;" glyph-name="onesuperior" horiz-adv-x="526" d="M37 668V752H209V1386L8 1280V1374L248 1503H350V752H523V668H37Z" />
<glyph unicode="&#xba;" glyph-name="ordmasculine" horiz-adv-x="802" d="M401 813Q507 813 560 892T614 1128Q614 1284 560 1364T401 1444Q297 1444 243 1363T188 1128Q188 973 242 893T401 813ZM401 737Q226 737 120 844T14 1128Q14 1305 120 1412T401 1520Q576
1520 682 1413T788 1128Q788 951 683 844T401 737ZM57 639H745V535H57V639Z" />
<glyph unicode="&#xbb;" glyph-name="guillemotright" horiz-adv-x="940" d="M469 1059L938 641V559L469 141V256L766 600L469 944V1059ZM35 1059L504 641V559L35 141V256L331 600L35 944V1059Z" />
<glyph unicode="&#xbc;" glyph-name="onequarter" horiz-adv-x="1985" d="M1561 304V711L1253 304H1561ZM1849 1H1415V85H1561V222H1163V306L1563 836H1704V304H1868V222H1704V85H1849V1ZM37 668V752H209V1386L8 1280V1374L248 1503H350V752H523V668H37ZM1763
1520H1913L971 -29H821L1763 1520Z" />
<glyph unicode="&#xbd;" glyph-name="onehalf" horiz-adv-x="1985" d="M37 668V752H209V1386L8 1280V1374L248 1503H350V752H523V668H37ZM1763 1520H1913L971 -29H821L1763 1520ZM1269 629H1199V787Q1265 819 1335 836T1474 853Q1612 853 1697 787T1783 617Q1783
495 1589 321L1570 304L1332 89H1717V197H1791V1H1189V76L1474 330Q1560 407 1597 468T1634 595Q1634 680 1586 729T1453 779Q1375 779 1328 741T1269 629Z" />
<glyph unicode="&#xbe;" glyph-name="threequarters" horiz-adv-x="1985" d="M1561 304V711L1253 304H1561ZM1849 1H1415V85H1561V222H1163V306L1563 836H1704V304H1868V222H1704V85H1849V1ZM49 1468Q122 1494 189 1507T315 1520Q453 1520 527 1466T602 1313Q602
1241 549 1191T401 1124Q520 1108 580 1049T641 889Q641 775 554 714T303 653Q231 653 162 667T24 709V879L94 878Q99 804 148 766T289 727Q383 727 434 771T485 897Q485 990 434 1037T282 1085H229V1159H256Q353 1159 402 1196T452 1307Q452 1374 412 1410T295
1446Q213 1446 170 1414T119 1317H49V1468ZM1763 1520H1913L971 -29H821L1763 1520Z" />
<glyph unicode="&#xbf;" glyph-name="questiondown" horiz-adv-x="871" d="M641 1389Q641 1333 603 1294T508 1255Q453 1255 414 1294T375 1389Q375 1444 414 1483T508 1522Q565 1522 603 1484T641 1389ZM862 66Q756 19 661 -4T481 -27Q260 -27 131 80T2 369Q2
555 113 673T447 842V1096H570V768Q393 725 303 624T213 367Q213 230 286 151T486 72Q599 72 672 137T766 326H862V66Z" />
<glyph unicode="&#xc0;" glyph-name="Agrave" horiz-adv-x="1479" d="M424 541H972L698 1251L424 541ZM2 0V106H133L665 1493H833L1366 106H1513V0H970V106H1136L1011 434H383L258 106H422V0H2ZM1447 1899L1630 1635H1513L1251 1899H1447Z" />
<glyph unicode="&#xc1;" glyph-name="Aacute" horiz-adv-x="1479" d="M424 541H972L698 1251L424 541ZM2 0V106H133L665 1493H833L1366 106H1513V0H970V106H1136L1011 434H383L258 106H422V0H2ZM1436 1899H1633L1371 1635H1254L1436 1899Z" />
<glyph unicode="&#xc2;" glyph-name="Acircumflex" horiz-adv-x="1479" d="M424 541H972L698 1251L424 541ZM2 0V106H133L665 1493H833L1366 106H1513V0H970V106H1136L1011 434H383L258 106H422V0H2ZM1489 1899H1665L1896 1635H1780L1577 1796L1374 1635H1258L1489 1899Z" />
<glyph unicode="&#xc3;" glyph-name="Atilde" horiz-adv-x="1479" d="M424 541H972L698 1251L424 541ZM2 0V106H133L665 1493H833L1366 106H1513V0H970V106H1136L1011 434H383L258 106H422V0H2ZM1592 1715L1544 1743Q1524 1756 1504 1763T1466 1770Q1427 1770
1401 1742T1371 1667L1275 1668Q1277 1768 1328 1827T1464 1886Q1500 1886 1531 1877T1617 1837L1666 1811Q1689 1798 1711 1791T1750 1784Q1791 1784 1814 1811T1838 1886H1935Q1933 1781 1882 1724T1736 1667Q1669 1667 1597 1712L1592 1715Z" />
<glyph unicode="&#xc4;" glyph-name="Adieresis" horiz-adv-x="1479" d="M424 541H972L698 1251L424 541ZM2 0V106H133L665 1493H833L1366 106H1513V0H970V106H1136L1011 434H383L258 106H422V0H2ZM1394 1884Q1442 1884 1476 1849T1511 1768Q1511 1718 1478 1685T1394
1651Q1345 1651 1312 1684T1278 1768Q1278 1814 1312 1849T1394 1884ZM1784 1884Q1831 1884 1865 1849T1900 1768Q1900 1718 1867 1685T1784 1651Q1734 1651 1701 1684T1667 1768Q1667 1814 1701 1849T1784 1884Z" />
<glyph unicode="&#xc5;" glyph-name="Aring" horiz-adv-x="1518" d="M903 1626Q903 1689 859 1733T751 1778Q687 1778 644 1735T600 1626Q600 1563 643 1519T751 1475Q814 1475 858 1519T903 1626ZM426 541H972L700 1251L426 541ZM4 0V106H135L624 1384Q552 1421
515 1482T477 1626Q477 1740 557 1820T751 1901Q865 1901 945 1821T1026 1626Q1026 1546 987 1483T876 1384L1368 106H1515V0H972V106H1138L1013 434H385L260 106H424V0H4Z" />
<glyph unicode="&#xc6;" glyph-name="AE" horiz-adv-x="2020" d="M468 541H957V1386H857L468 541ZM767 0V106H957V434H419L267 106H431V0H7V106H138L728 1386H513V1493H1969V1161H1846V1370H1158V870H1650V1057H1773V561H1650V748H1158V123H1863V332H1986V0H767Z" />
<glyph unicode="&#xc7;" glyph-name="Ccedilla" horiz-adv-x="1567" d="M1347 395Q1281 186 1126 79T732 -29Q586 -29 461 21T239 168Q127 280 73 422T18 745Q18 1093 219 1306T749 1520Q871 1520 1009 1488T1306 1391V1047H1193Q1156 1235 1045 1324T732 1413Q493
1413 370 1244T247 745Q247 417 370 248T732 78Q899 78 1007 157T1163 395H1347ZM622 0Q686 -64 717 -120T749 -225Q749 -306 686 -350T511 -395Q469 -395 425 -389T335 -371V-240Q376 -257 415 -265T490 -274Q547 -274 580 -248T613 -176Q613 -148 591 -104T525
0H622Z" />
<glyph unicode="&#xc8;" glyph-name="Egrave" horiz-adv-x="1495" d="M21 0V106H211V1386H21V1493H1223V1161H1100V1370H414V870H903V1057H1026V561H903V748H414V123H1116V332H1239V0H21ZM1456 1899L1639 1635H1522L1260 1899H1456Z" />
<glyph unicode="&#xc9;" glyph-name="Eacute" horiz-adv-x="1495" d="M21 0V106H211V1386H21V1493H1223V1161H1100V1370H414V870H903V1057H1026V561H903V748H414V123H1116V332H1239V0H21ZM1445 1899H1642L1380 1635H1263L1445 1899Z" />
<glyph unicode="&#xca;" glyph-name="Ecircumflex" horiz-adv-x="1495" d="M21 0V106H211V1386H21V1493H1223V1161H1100V1370H414V870H903V1057H1026V561H903V748H414V123H1116V332H1239V0H21ZM1498 1899H1674L1905 1635H1789L1586 1796L1383 1635H1267L1498 1899Z" />
<glyph unicode="&#xcb;" glyph-name="Edieresis" horiz-adv-x="1495" d="M21 0V106H211V1386H21V1493H1223V1161H1100V1370H414V870H903V1057H1026V561H903V748H414V123H1116V332H1239V0H21ZM1403 1884Q1451 1884 1485 1849T1520 1768Q1520 1718 1487 1685T1403
1651Q1354 1651 1321 1684T1287 1768Q1287 1814 1321 1849T1403 1884ZM1793 1884Q1840 1884 1874 1849T1909 1768Q1909 1718 1876 1685T1793 1651Q1743 1651 1710 1684T1676 1768Q1676 1814 1710 1849T1793 1884Z" />
<glyph unicode="&#xcc;" glyph-name="Igrave" horiz-adv-x="809" d="M402 106H592V0H9V106H199V1386H9V1493H592V1386H402V106ZM1114 1899L1297 1635H1180L918 1899H1114Z" />
<glyph unicode="&#xcd;" glyph-name="Iacute" horiz-adv-x="809" d="M402 106H592V0H9V106H199V1386H9V1493H592V1386H402V106ZM1103 1899H1300L1038 1635H921L1103 1899Z" />
<glyph unicode="&#xce;" glyph-name="Icircumflex" horiz-adv-x="809" d="M402 106H592V0H9V106H199V1386H9V1493H592V1386H402V106ZM1156 1899H1332L1563 1635H1447L1244 1796L1041 1635H925L1156 1899Z" />
<glyph unicode="&#xcf;" glyph-name="Idieresis" horiz-adv-x="809" d="M402 106H592V0H9V106H199V1386H9V1493H592V1386H402V106ZM1061 1884Q1109 1884 1143 1849T1178 1768Q1178 1718 1145 1685T1061 1651Q1012 1651 979 1684T945 1768Q945 1814 979 1849T1061
1884ZM1451 1884Q1498 1884 1532 1849T1567 1768Q1567 1718 1534 1685T1451 1651Q1401 1651 1368 1684T1334 1768Q1334 1814 1368 1849T1451 1884Z" />
<glyph unicode="&#xd0;" glyph-name="Eth" horiz-adv-x="1460" d="M423 106H611Q902 106 1058 272T1214 748Q1214 1058 1059 1222T611 1386H423V844H759V719H423V106ZM32 0V106H222V719H22V844H222V1386H32V1493H626Q1012 1493 1227 1296T1443 748Q1443 396 1227
198T626 0H32Z" />
<glyph unicode="&#xd1;" glyph-name="Ntilde" horiz-adv-x="1792" d="M17 0V106H218V1386H17V1493H400L1295 315V1386H1095V1493H1619V1386H1418V-29H1297L341 1229V106H542V0H17ZM1750 1715L1702 1743Q1682 1756 1662 1763T1624 1770Q1585 1770 1559 1742T1529
1667L1433 1668Q1435 1768 1486 1827T1622 1886Q1658 1886 1689 1877T1775 1837L1824 1811Q1847 1798 1869 1791T1908 1784Q1949 1784 1972 1811T1996 1886H2093Q2091 1781 2040 1724T1894 1667Q1827 1667 1755 1712L1750 1715Z" />
<glyph unicode="&#xd2;" glyph-name="Ograve" horiz-adv-x="1679" d="M743 78Q988 78 1113 246T1238 745Q1238 1076 1113 1244T743 1413Q497 1413 372 1245T247 745Q247 415 372 247T743 78ZM743 -29Q591 -29 464 21T239 168Q127 280 73 422T18 745Q18 926 72
1068T239 1323Q337 1421 463 1470T743 1520Q1068 1520 1268 1307T1468 745Q1468 566 1413 423T1246 168Q1148 70 1022 21T743 -29ZM1548 1899L1731 1635H1614L1352 1899H1548Z" />
<glyph unicode="&#xd3;" glyph-name="Oacute" horiz-adv-x="1679" d="M743 78Q988 78 1113 246T1238 745Q1238 1076 1113 1244T743 1413Q497 1413 372 1245T247 745Q247 415 372 247T743 78ZM743 -29Q591 -29 464 21T239 168Q127 280 73 422T18 745Q18 926 72
1068T239 1323Q337 1421 463 1470T743 1520Q1068 1520 1268 1307T1468 745Q1468 566 1413 423T1246 168Q1148 70 1022 21T743 -29ZM1537 1899H1734L1472 1635H1355L1537 1899Z" />
<glyph unicode="&#xd4;" glyph-name="Ocircumflex" horiz-adv-x="1679" d="M743 78Q988 78 1113 246T1238 745Q1238 1076 1113 1244T743 1413Q497 1413 372 1245T247 745Q247 415 372 247T743 78ZM743 -29Q591 -29 464 21T239 168Q127 280 73 422T18 745Q18 926
72 1068T239 1323Q337 1421 463 1470T743 1520Q1068 1520 1268 1307T1468 745Q1468 566 1413 423T1246 168Q1148 70 1022 21T743 -29ZM1590 1899H1766L1997 1635H1881L1678 1796L1475 1635H1359L1590 1899Z" />
<glyph unicode="&#xd5;" glyph-name="Otilde" horiz-adv-x="1679" d="M743 78Q988 78 1113 246T1238 745Q1238 1076 1113 1244T743 1413Q497 1413 372 1245T247 745Q247 415 372 247T743 78ZM743 -29Q591 -29 464 21T239 168Q127 280 73 422T18 745Q18 926 72
1068T239 1323Q337 1421 463 1470T743 1520Q1068 1520 1268 1307T1468 745Q1468 566 1413 423T1246 168Q1148 70 1022 21T743 -29ZM1693 1715L1645 1743Q1625 1756 1605 1763T1567 1770Q1528 1770 1502 1742T1472 1667L1376 1668Q1378 1768 1429 1827T1565 1886Q1601
1886 1632 1877T1718 1837L1767 1811Q1790 1798 1812 1791T1851 1784Q1892 1784 1915 1811T1939 1886H2036Q2034 1781 1983 1724T1837 1667Q1770 1667 1698 1712L1693 1715Z" />
<glyph unicode="&#xd6;" glyph-name="Odieresis" horiz-adv-x="1679" d="M743 78Q988 78 1113 246T1238 745Q1238 1076 1113 1244T743 1413Q497 1413 372 1245T247 745Q247 415 372 247T743 78ZM743 -29Q591 -29 464 21T239 168Q127 280 73 422T18 745Q18 926
72 1068T239 1323Q337 1421 463 1470T743 1520Q1068 1520 1268 1307T1468 745Q1468 566 1413 423T1246 168Q1148 70 1022 21T743 -29ZM1495 1884Q1543 1884 1577 1849T1612 1768Q1612 1718 1579 1685T1495 1651Q1446 1651 1413 1684T1379 1768Q1379 1814 1413 1849T1495
1884ZM1885 1884Q1932 1884 1966 1849T2001 1768Q2001 1718 1968 1685T1885 1651Q1835 1651 1802 1684T1768 1768Q1768 1814 1802 1849T1885 1884Z" />
<glyph unicode="&#xd7;" glyph-name="multiply" horiz-adv-x="1205" d="M1178 1104L715 641L1178 180L1063 68L602 528L141 68L27 180L487 641L27 1104L141 1217L602 756L1063 1217L1178 1104Z" />
<glyph unicode="&#xd8;" glyph-name="Oslash" horiz-adv-x="1514" d="M1133 1239Q1068 1327 976 1370T759 1413Q513 1413 388 1245T263 745Q263 626 279 530T329 352L1133 1239ZM382 256Q446 167 540 123T759 78Q1004 78 1129 246T1254 745Q1254 862 1238 960T1187
1141L382 256ZM1310 1276Q1397 1168 1440 1037T1484 745Q1484 400 1284 186T759 -29Q618 -29 499 14T279 143L97 -57L19 12L206 219Q119 324 77 454T34 745Q34 1091 235 1305T759 1520Q900 1520 1020 1478T1236 1352L1414 1550L1494 1479L1310 1276Z" />
<glyph unicode="&#xd9;" glyph-name="Ugrave" horiz-adv-x="1726" d="M203 1386H12V1493H596V1386H405V614Q405 328 498 215T821 102Q1050 102 1143 215T1237 614V1386H1046V1493H1550V1386H1360V594Q1360 253 1229 112T784 -29Q470 -29 337 113T203 594V1386ZM1611
1899L1794 1635H1677L1415 1899H1611Z" />
<glyph unicode="&#xda;" glyph-name="Uacute" horiz-adv-x="1726" d="M203 1386H12V1493H596V1386H405V614Q405 328 498 215T821 102Q1050 102 1143 215T1237 614V1386H1046V1493H1550V1386H1360V594Q1360 253 1229 112T784 -29Q470 -29 337 113T203 594V1386ZM1600
1899H1797L1535 1635H1418L1600 1899Z" />
<glyph unicode="&#xdb;" glyph-name="Ucircumflex" horiz-adv-x="1726" d="M203 1386H12V1493H596V1386H405V614Q405 328 498 215T821 102Q1050 102 1143 215T1237 614V1386H1046V1493H1550V1386H1360V594Q1360 253 1229 112T784 -29Q470 -29 337 113T203 594V1386ZM1653
1899H1829L2060 1635H1944L1741 1796L1538 1635H1422L1653 1899Z" />
<glyph unicode="&#xdc;" glyph-name="Udieresis" horiz-adv-x="1726" d="M203 1386H12V1493H596V1386H405V614Q405 328 498 215T821 102Q1050 102 1143 215T1237 614V1386H1046V1493H1550V1386H1360V594Q1360 253 1229 112T784 -29Q470 -29 337 113T203 594V1386ZM1558
1884Q1606 1884 1640 1849T1675 1768Q1675 1718 1642 1685T1558 1651Q1509 1651 1476 1684T1442 1768Q1442 1814 1476 1849T1558 1884ZM1948 1884Q1995 1884 2029 1849T2064 1768Q2064 1718 2031 1685T1948 1651Q1898 1651 1865 1684T1831 1768Q1831 1814 1865
1849T1948 1884Z" />
<glyph unicode="&#xdd;" glyph-name="Yacute" horiz-adv-x="1352" d="M413 0V106H604V643L143 1386H3V1493H558V1386H384L757 782L1130 1386H962V1493H1396V1386H1255L806 662V106H997V0H413ZM1373 1899H1570L1308 1635H1191L1373 1899Z" />
<glyph unicode="&#xde;" glyph-name="Thorn" horiz-adv-x="1211" d="M412 434H676Q825 434 903 514T981 748Q981 900 903 980T676 1061H412V434ZM19 0V106H209V1386H19V1493H643V1386H412V1167H725Q949 1167 1080 1054T1211 748Q1211 554 1080 440T725 326H412V106H643V0H19Z"
/>
<glyph unicode="&#xdf;" glyph-name="germandbls" horiz-adv-x="1241" d="M890 1210Q882 1329 813 1393T624 1458Q492 1458 431 1394T370 1190V0H9V106H186V1186Q186 1362 300 1459T624 1556Q837 1556 948 1452T1072 1137H1050Q905 1137 822 1083T738 936Q738
884 765 846T865 760L954 705Q1109 606 1168 521T1228 322Q1228 167 1113 69T812 -29Q727 -29 643 -11T480 43V276H589Q593 175 648 123T806 70Q917 70 980 130T1044 295Q1044 379 1004 437T847 569L761 623Q657 688 613 752T568 899Q568 1021 652 1103T890 1210Z"
/>
<glyph unicode="&#xe0;" glyph-name="agrave" horiz-adv-x="1221" d="M733 334V559H496Q359 559 292 500T225 319Q225 208 293 143T477 78Q592 78 662 149T733 334ZM917 664V106H1081V0H733V115Q672 41 592 6T405 -29Q228 -29 124 65T20 319Q20 484 139 575T475
666H733V739Q733 860 660 926T453 993Q343 993 278 943T197 795H102V1010Q198 1051 288 1071T465 1092Q686 1092 801 983T917 664ZM254 1636L514 1260H397L57 1636H254Z" />
<glyph unicode="&#xe1;" glyph-name="aacute" horiz-adv-x="1221" d="M733 334V559H496Q359 559 292 500T225 319Q225 208 293 143T477 78Q592 78 662 149T733 334ZM917 664V106H1081V0H733V115Q672 41 592 6T405 -29Q228 -29 124 65T20 319Q20 484 139 575T475
666H733V739Q733 860 660 926T453 993Q343 993 278 943T197 795H102V1010Q198 1051 288 1071T465 1092Q686 1092 801 983T917 664ZM316 1638H515L175 1262H58L316 1638Z" />
<glyph unicode="&#xe2;" glyph-name="acircumflex" horiz-adv-x="1221" d="M733 334V559H496Q359 559 292 500T225 319Q225 208 293 143T477 78Q592 78 662 149T733 334ZM917 664V106H1081V0H733V115Q672 41 592 6T405 -29Q228 -29 124 65T20 319Q20 484 139 575T475
666H733V739Q733 860 660 926T453 993Q343 993 278 943T197 795H102V1010Q198 1051 288 1071T465 1092Q686 1092 801 983T917 664ZM299 1638H467L702 1262H586L383 1522L180 1262H64L299 1638Z" />
<glyph unicode="&#xe3;" glyph-name="atilde" horiz-adv-x="1221" d="M733 334V559H496Q359 559 292 500T225 319Q225 208 293 143T477 78Q592 78 662 149T733 334ZM917 664V106H1081V0H733V115Q672 41 592 6T405 -29Q228 -29 124 65T20 319Q20 484 139 575T475
666H733V739Q733 860 660 926T453 993Q343 993 278 943T197 795H102V1010Q198 1051 288 1071T465 1092Q686 1092 801 983T917 664ZM408 1370L351 1425Q325 1449 309 1456T273 1464Q231 1464 207 1425T178 1309H82Q84 1444 135 1517T277 1591Q315 1591 347 1577T416
1530L473 1475Q496 1452 513 1444T551 1436Q594 1436 618 1476T646 1591H742Q740 1456 689 1383T547 1309Q509 1309 477 1323T408 1370Z" />
<glyph unicode="&#xe4;" glyph-name="adieresis" horiz-adv-x="1221" d="M733 334V559H496Q359 559 292 500T225 319Q225 208 293 143T477 78Q592 78 662 149T733 334ZM917 664V106H1081V0H733V115Q672 41 592 6T405 -29Q228 -29 124 65T20 319Q20 484 139 575T475
666H733V739Q733 860 660 926T453 993Q343 993 278 943T197 795H102V1010Q198 1051 288 1071T465 1092Q686 1092 801 983T917 664ZM201 1569Q249 1569 283 1535T318 1452Q318 1401 285 1368T201 1335Q151 1335 118 1368T85 1452Q85 1500 119 1534T201 1569ZM591
1569Q638 1569 672 1535T707 1452Q707 1401 674 1368T591 1335Q540 1335 507 1368T474 1452Q474 1500 508 1534T591 1569Z" />
<glyph unicode="&#xe5;" glyph-name="aring" horiz-adv-x="1221" d="M733 334V559H496Q359 559 292 500T225 319Q225 208 293 143T477 78Q592 78 662 149T733 334ZM917 664V106H1081V0H733V115Q672 41 592 6T405 -29Q228 -29 124 65T20 319Q20 484 139 575T475
666H733V739Q733 860 660 926T453 993Q343 993 278 943T197 795H102V1010Q198 1051 288 1071T465 1092Q686 1092 801 983T917 664ZM622 1524Q622 1409 543 1329T348 1249Q233 1249 154 1329T74 1524Q74 1639 153 1718T348 1798Q463 1798 542 1719T622 1524ZM500
1524Q500 1587 456 1631T348 1675Q283 1675 240 1632T196 1524Q196 1459 239 1416T348 1372Q412 1372 456 1416T500 1524Z" />
<glyph unicode="&#xe6;" glyph-name="ae" horiz-adv-x="1768" d="M739 334V559H502Q365 559 298 500T231 319Q231 208 299 143T483 78Q598 78 668 149T739 334ZM848 150Q765 59 664 15T438 -29Q241 -29 134 62T26 319Q26 484 145 575T481 666H739V739Q739 859
667 926T467 993Q351 993 285 944T203 795H108V1010Q204 1051 294 1071T471 1092Q612 1092 708 1049T860 915Q934 1003 1030 1047T1243 1092Q1484 1092 1613 943T1746 512H954V504Q954 289 1034 180T1274 70Q1395 70 1472 133T1581 322H1728Q1685 147 1566 59T1255
-29Q1133 -29 1030 16T848 150ZM1530 618Q1524 804 1452 898T1243 993Q1116 993 1043 898T954 618H1530Z" />
<glyph unicode="&#xe7;" glyph-name="ccedilla" horiz-adv-x="1147" d="M968 319Q929 149 818 60T531 -29Q299 -29 158 124T17 532Q17 787 158 939T531 1092Q632 1092 732 1069T933 997V725H826Q805 865 735 929T533 993Q384 993 308 878T232 532Q232 302 307
186T533 70Q652 70 723 132T820 319H968ZM390 0Q454 -64 485 -120T517 -225Q517 -306 454 -350T279 -395Q237 -395 193 -389T103 -371V-240Q144 -257 183 -265T258 -274Q315 -274 348 -248T381 -176Q381 -148 359 -104T293 0H390Z" />
<glyph unicode="&#xe8;" glyph-name="egrave" horiz-adv-x="1212" d="M1026 512H233V504Q233 289 314 180T553 70Q674 70 751 133T860 322H1008Q964 147 846 59T534 -29Q301 -29 160 124T18 532Q18 784 157 938T522 1092Q763 1092 892 944T1026 512ZM809 618Q803
804 731 898T522 993Q395 993 322 898T233 618H809ZM291 1636L551 1260H434L94 1636H291Z" />
<glyph unicode="&#xe9;" glyph-name="eacute" horiz-adv-x="1212" d="M1026 512H233V504Q233 289 314 180T553 70Q674 70 751 133T860 322H1008Q964 147 846 59T534 -29Q301 -29 160 124T18 532Q18 784 157 938T522 1092Q763 1092 892 944T1026 512ZM809 618Q803
804 731 898T522 993Q395 993 322 898T233 618H809ZM353 1638H552L212 1262H95L353 1638Z" />
<glyph unicode="&#xea;" glyph-name="ecircumflex" horiz-adv-x="1212" d="M1026 512H233V504Q233 289 314 180T553 70Q674 70 751 133T860 322H1008Q964 147 846 59T534 -29Q301 -29 160 124T18 532Q18 784 157 938T522 1092Q763 1092 892 944T1026 512ZM809
618Q803 804 731 898T522 993Q395 993 322 898T233 618H809ZM336 1638H504L739 1262H623L420 1522L217 1262H101L336 1638Z" />
<glyph unicode="&#xeb;" glyph-name="edieresis" horiz-adv-x="1212" d="M1026 512H233V504Q233 289 314 180T553 70Q674 70 751 133T860 322H1008Q964 147 846 59T534 -29Q301 -29 160 124T18 532Q18 784 157 938T522 1092Q763 1092 892 944T1026 512ZM809 618Q803
804 731 898T522 993Q395 993 322 898T233 618H809ZM238 1569Q286 1569 320 1535T355 1452Q355 1401 322 1368T238 1335Q188 1335 155 1368T122 1452Q122 1500 156 1534T238 1569ZM628 1569Q675 1569 709 1535T744 1452Q744 1401 711 1368T628 1335Q577 1335 544
1368T511 1452Q511 1500 545 1534T628 1569Z" />
<glyph unicode="&#xec;" glyph-name="igrave" horiz-adv-x="655" d="M375 106H549V0H15V106H191V956H15V1063H375V106ZM14 1636L274 1260H157L-183 1636H14Z" />
<glyph unicode="&#xed;" glyph-name="iacute" horiz-adv-x="655" d="M375 106H549V0H15V106H191V956H15V1063H375V106ZM76 1638H275L-65 1262H-182L76 1638Z" />
<glyph unicode="&#xee;" glyph-name="icircumflex" horiz-adv-x="655" d="M375 106H549V0H15V106H191V956H15V1063H375V106ZM59 1638H227L462 1262H346L143 1522L-60 1262H-176L59 1638Z" />
<glyph unicode="&#xef;" glyph-name="idieresis" horiz-adv-x="655" d="M375 106H549V0H15V106H191V956H15V1063H375V106ZM-39 1569Q9 1569 43 1535T78 1452Q78 1401 45 1368T-39 1335Q-89 1335 -122 1368T-155 1452Q-155 1500 -121 1534T-39 1569ZM351 1569Q398
1569 432 1535T467 1452Q467 1401 434 1368T351 1335Q300 1335 267 1368T234 1452Q234 1500 268 1534T351 1569Z" />
<glyph unicode="&#xf0;" glyph-name="eth" horiz-adv-x="1055" d="M731 928Q686 937 646 941T565 946Q392 946 310 839T227 508Q227 298 305 184T526 70Q670 70 747 184T825 512Q825 624 802 729T731 928ZM670 1307Q853 1140 946 945T1040 532Q1040 278 900 125T526
-29Q297 -29 155 122T12 518Q12 754 153 899T522 1044Q557 1044 594 1041T684 1030Q662 1083 626 1136T539 1245L217 1096L180 1174L473 1309Q412 1367 334 1407T160 1470L178 1556Q297 1530 401 1483T598 1368L920 1518L957 1440L670 1307Z" />
<glyph unicode="&#xf1;" glyph-name="ntilde" horiz-adv-x="1319" d="M30 0V106H196V956H20V1063H380V874Q431 982 512 1037T702 1092Q878 1092 961 991T1044 676V106H1208V0H700V106H859V618Q859 813 811 885T642 958Q514 958 447 865T380 592V106H540V0H30ZM498
1370L441 1425Q415 1449 399 1456T363 1464Q321 1464 297 1425T268 1309H172Q174 1444 225 1517T367 1591Q405 1591 437 1577T506 1530L563 1475Q586 1452 603 1444T641 1436Q684 1436 708 1476T736 1591H832Q830 1456 779 1383T637 1309Q599 1309 567 1323T498
1370Z" />
<glyph unicode="&#xf2;" glyph-name="ograve" horiz-adv-x="1233" d="M532 70Q680 70 755 187T831 532Q831 760 756 876T532 993Q384 993 309 877T233 532Q233 304 309 187T532 70ZM532 -29Q300 -29 159 124T18 532Q18 786 158 939T532 1092Q765 1092 905 939T1046
532Q1046 278 906 125T532 -29ZM301 1636L561 1260H444L104 1636H301Z" />
<glyph unicode="&#xf3;" glyph-name="oacute" horiz-adv-x="1233" d="M532 70Q680 70 755 187T831 532Q831 760 756 876T532 993Q384 993 309 877T233 532Q233 304 309 187T532 70ZM532 -29Q300 -29 159 124T18 532Q18 786 158 939T532 1092Q765 1092 905 939T1046
532Q1046 278 906 125T532 -29ZM363 1638H562L222 1262H105L363 1638Z" />
<glyph unicode="&#xf4;" glyph-name="ocircumflex" horiz-adv-x="1233" d="M532 70Q680 70 755 187T831 532Q831 760 756 876T532 993Q384 993 309 877T233 532Q233 304 309 187T532 70ZM532 -29Q300 -29 159 124T18 532Q18 786 158 939T532 1092Q765 1092 905
939T1046 532Q1046 278 906 125T532 -29ZM346 1638H514L749 1262H633L430 1522L227 1262H111L346 1638Z" />
<glyph unicode="&#xf5;" glyph-name="otilde" horiz-adv-x="1233" d="M532 70Q680 70 755 187T831 532Q831 760 756 876T532 993Q384 993 309 877T233 532Q233 304 309 187T532 70ZM532 -29Q300 -29 159 124T18 532Q18 786 158 939T532 1092Q765 1092 905 939T1046
532Q1046 278 906 125T532 -29ZM455 1370L398 1425Q372 1449 356 1456T320 1464Q278 1464 254 1425T225 1309H129Q131 1444 182 1517T324 1591Q362 1591 394 1577T463 1530L520 1475Q543 1452 560 1444T598 1436Q641 1436 665 1476T693 1591H789Q787 1456 736 1383T594
1309Q556 1309 524 1323T455 1370Z" />
<glyph unicode="&#xf6;" glyph-name="odieresis" horiz-adv-x="1233" d="M532 70Q680 70 755 187T831 532Q831 760 756 876T532 993Q384 993 309 877T233 532Q233 304 309 187T532 70ZM532 -29Q300 -29 159 124T18 532Q18 786 158 939T532 1092Q765 1092 905 939T1046
532Q1046 278 906 125T532 -29ZM248 1569Q296 1569 330 1535T365 1452Q365 1401 332 1368T248 1335Q198 1335 165 1368T132 1452Q132 1500 166 1534T248 1569ZM638 1569Q685 1569 719 1535T754 1452Q754 1401 721 1368T638 1335Q587 1335 554 1368T521 1452Q521
1500 555 1534T638 1569Z" />
<glyph unicode="&#xf7;" glyph-name="divide" horiz-adv-x="1282" d="M508 1012Q508 1068 546 1106T641 1145Q696 1145 735 1106T774 1012Q774 956 735 918T641 879Q584 879 546 917T508 1012ZM508 272Q508 328 546 367T641 406Q696 406 735 367T774 272Q774 217
735 178T641 139Q584 139 546 177T508 272ZM0 723H1282V561H0V723Z" />
<glyph unicode="&#xf8;" glyph-name="oslash" horiz-adv-x="1104" d="M779 879Q741 936 685 964T555 993Q408 993 332 876T256 532Q256 460 263 401T285 293L779 879ZM330 190Q370 129 425 100T555 70Q702 70 778 187T854 532Q854 608 847 668T824 780L330 190ZM943
922Q1005 848 1037 749T1069 532Q1069 278 929 125T555 -29Q461 -29 381 -3T234 78L91 -94L15 -31L164 147Q103 224 72 320T41 532Q41 786 181 939T555 1092Q649 1092 729 1067T873 991L1012 1157L1088 1094L943 922Z" />
<glyph unicode="&#xf9;" glyph-name="ugrave" horiz-adv-x="1319" d="M682 1063H1026V106H1200V0H842V188Q791 82 710 27T522 -29Q345 -29 262 71T178 387V956H12V1063H363V444Q363 250 410 178T580 106Q708 106 775 200T842 473V956H682V1063ZM269 1636L529 1260H412L72
1636H269Z" />
<glyph unicode="&#xfa;" glyph-name="uacute" horiz-adv-x="1319" d="M682 1063H1026V106H1200V0H842V188Q791 82 710 27T522 -29Q345 -29 262 71T178 387V956H12V1063H363V444Q363 250 410 178T580 106Q708 106 775 200T842 473V956H682V1063ZM331 1638H530L190
1262H73L331 1638Z" />
<glyph unicode="&#xfb;" glyph-name="ucircumflex" horiz-adv-x="1319" d="M682 1063H1026V106H1200V0H842V188Q791 82 710 27T522 -29Q345 -29 262 71T178 387V956H12V1063H363V444Q363 250 410 178T580 106Q708 106 775 200T842 473V956H682V1063ZM314 1638H482L717
1262H601L398 1522L195 1262H79L314 1638Z" />
<glyph unicode="&#xfc;" glyph-name="udieresis" horiz-adv-x="1319" d="M682 1063H1026V106H1200V0H842V188Q791 82 710 27T522 -29Q345 -29 262 71T178 387V956H12V1063H363V444Q363 250 410 178T580 106Q708 106 775 200T842 473V956H682V1063ZM216 1569Q264
1569 298 1535T333 1452Q333 1401 300 1368T216 1335Q166 1335 133 1368T100 1452Q100 1500 134 1534T216 1569ZM606 1569Q653 1569 687 1535T722 1452Q722 1401 689 1368T606 1335Q555 1335 522 1368T489 1452Q489 1500 523 1534T606 1569Z" />
<glyph unicode="&#xfd;" glyph-name="yacute" horiz-adv-x="1157" d="M468 -195L538 -18L141 956H20V1063H509V956H339L638 225L937 956H778V1063H1177V956H1058L571 -240Q521 -364 460 -409T288 -455Q241 -455 192 -447T92 -424V-221H186Q192 -289 220 -318T309
-348Q364 -348 397 -318T468 -195ZM327 1638H526L186 1262H69L327 1638Z" />
<glyph unicode="&#xfe;" glyph-name="thorn" horiz-adv-x="1166" d="M378 584V479Q378 287 451 187T665 86Q806 86 878 199T951 532Q951 753 879 865T665 977Q525 977 452 876T378 584ZM194 1450H17V1556H378V897Q432 997 515 1044T722 1092Q918 1092 1042 937T1166
532Q1166 282 1042 127T722 -29Q599 -29 516 18T378 166V-319H552V-426H17V-319H194V1450Z" />
<glyph unicode="&#xff;" glyph-name="ydieresis" horiz-adv-x="1157" d="M468 -195L538 -18L141 956H20V1063H509V956H339L638 225L937 956H778V1063H1177V956H1058L571 -240Q521 -364 460 -409T288 -455Q241 -455 192 -447T92 -424V-221H186Q192 -289 220 -318T309
-348Q364 -348 397 -318T468 -195ZM212 1569Q260 1569 294 1535T329 1452Q329 1401 296 1368T212 1335Q162 1335 129 1368T96 1452Q96 1500 130 1534T212 1569ZM602 1569Q649 1569 683 1535T718 1452Q718 1401 685 1368T602 1335Q551 1335 518 1368T485 1452Q485
1500 519 1534T602 1569Z" />
<glyph unicode="&#x100;" glyph-name="Amacron" horiz-adv-x="1479" d="M258 1841H856V1693H258V1841ZM424 541H972L698 1251L424 541ZM2 0V106H133L665 1493H833L1366 106H1513V0H970V106H1136L1011 434H383L258 106H422V0H2Z" />
<glyph unicode="&#x101;" glyph-name="amacron" horiz-adv-x="1221" d="M70 1526H668V1378H70V1526ZM733 334V559H496Q359 559 292 500T225 319Q225 208 293 143T477 78Q592 78 662 149T733 334ZM917 664V106H1081V0H733V115Q672 41 592 6T405 -29Q228 -29 124
65T20 319Q20 484 139 575T475 666H733V739Q733 860 660 926T453 993Q343 993 278 943T197 795H102V1010Q198 1051 288 1071T465 1092Q686 1092 801 983T917 664Z" />
<glyph unicode="&#x102;" glyph-name="Abreve" horiz-adv-x="1479" d="M254 1897H350Q363 1818 415 1783T567 1747Q667 1747 719 1782T784 1897H880Q870 1754 791 1682T567 1610Q422 1610 343 1682T254 1897ZM424 541H972L698 1251L424 541ZM2 0V106H133L665 1493H833L1366
106H1513V0H970V106H1136L1011 434H383L258 106H422V0H2Z" />
<glyph unicode="&#x103;" glyph-name="abreve" horiz-adv-x="1221" d="M101 1838H197Q210 1759 262 1724T414 1688Q514 1688 566 1723T631 1838H727Q717 1695 638 1623T414 1551Q269 1551 190 1623T101 1838ZM733 334V559H496Q359 559 292 500T225 319Q225 208
293 143T477 78Q592 78 662 149T733 334ZM917 664V106H1081V0H733V115Q672 41 592 6T405 -29Q228 -29 124 65T20 319Q20 484 139 575T475 666H733V739Q733 860 660 926T453 993Q343 993 278 943T197 795H102V1010Q198 1051 288 1071T465 1092Q686 1092 801 983T917
664Z" />
<glyph unicode="&#x104;" glyph-name="Aogonek" horiz-adv-x="1479" d="M644 0H738L737 -2Q650 -125 650 -172Q650 -218 683 -246T773 -274Q800 -274 829 -268T888 -248L887 -375Q851 -384 818 -388T752 -393Q639 -393 577 -349T515 -223Q515 -174 545 -122T644
0ZM424 541H972L698 1251L424 541ZM2 0V106H133L665 1493H833L1366 106H1513V0H970V106H1136L1011 434H383L258 106H422V0H2Z" />
<glyph unicode="&#x105;" glyph-name="aogonek" horiz-adv-x="1221" d="M498 0H592L591 -2Q504 -125 504 -172Q504 -218 537 -246T627 -274Q654 -274 683 -268T742 -248L741 -375Q705 -384 672 -388T606 -393Q493 -393 431 -349T369 -223Q369 -174 399 -122T498
0ZM733 334V559H496Q359 559 292 500T225 319Q225 208 293 143T477 78Q592 78 662 149T733 334ZM917 664V106H1081V0H733V115Q672 41 592 6T405 -29Q228 -29 124 65T20 319Q20 484 139 575T475 666H733V739Q733 860 660 926T453 993Q343 993 278 943T197 795H102V1010Q198
1051 288 1071T465 1092Q686 1092 801 983T917 664Z" />
<glyph unicode="&#x106;" glyph-name="Cacute" horiz-adv-x="1567" d="M1347 395Q1281 186 1126 79T732 -29Q586 -29 461 21T239 168Q127 280 73 422T18 745Q18 1093 219 1306T749 1520Q871 1520 1009 1488T1306 1391V1047H1193Q1156 1235 1045 1324T732 1413Q493
1413 370 1244T247 745Q247 417 370 248T732 78Q899 78 1007 157T1163 395H1347ZM1518 1899H1715L1453 1635H1336L1518 1899Z" />
<glyph unicode="&#x107;" glyph-name="cacute" horiz-adv-x="1147" d="M968 319Q929 149 818 60T531 -29Q299 -29 158 124T17 532Q17 787 158 939T531 1092Q632 1092 732 1069T933 997V725H826Q805 865 735 929T533 993Q384 993 308 878T232 532Q232 302 307 186T533
70Q652 70 723 132T820 319H968ZM353 1638H552L212 1262H95L353 1638Z" />
<glyph unicode="&#x108;" glyph-name="Ccircumflex" horiz-adv-x="1567" d="M1579 1899H1755L1986 1635H1870L1667 1796L1464 1635H1348L1579 1899ZM1347 395Q1281 186 1126 79T732 -29Q586 -29 461 21T239 168Q127 280 73 422T18 745Q18 1093 219 1306T749 1520Q871
1520 1009 1488T1306 1391V1047H1193Q1156 1235 1045 1324T732 1413Q493 1413 370 1244T247 745Q247 417 370 248T732 78Q899 78 1007 157T1163 395H1347Z" />
<glyph unicode="&#x109;" glyph-name="ccircumflex" horiz-adv-x="1147" d="M346 1638H514L749 1262H633L430 1522L227 1262H111L346 1638ZM968 319Q929 149 818 60T531 -29Q299 -29 158 124T17 532Q17 787 158 939T531 1092Q632 1092 732 1069T933 997V725H826Q805
865 735 929T533 993Q384 993 308 878T232 532Q232 302 307 186T533 70Q652 70 723 132T820 319H968Z" />
<glyph unicode="&#x10a;" glyph-name="Cdotaccent" horiz-adv-x="1567" d="M1475 1886Q1522 1886 1557 1851T1592 1770Q1592 1720 1559 1687T1475 1653Q1425 1653 1392 1686T1358 1770Q1358 1816 1393 1851T1475 1886ZM1347 395Q1281 186 1126 79T732 -29Q586
-29 461 21T239 168Q127 280 73 422T18 745Q18 1093 219 1306T749 1520Q871 1520 1009 1488T1306 1391V1047H1193Q1156 1235 1045 1324T732 1413Q493 1413 370 1244T247 745Q247 417 370 248T732 78Q899 78 1007 157T1163 395H1347Z" />
<glyph unicode="&#x10b;" glyph-name="cdotaccent" horiz-adv-x="1147" d="M239 1569Q287 1569 321 1535T356 1452Q356 1401 323 1368T239 1335Q188 1335 155 1368T122 1452Q122 1500 156 1534T239 1569ZM968 319Q929 149 818 60T531 -29Q299 -29 158 124T17 532Q17
787 158 939T531 1092Q632 1092 732 1069T933 997V725H826Q805 865 735 929T533 993Q384 993 308 878T232 532Q232 302 307 186T533 70Q652 70 723 132T820 319H968Z" />
<glyph unicode="&#x10c;" glyph-name="Ccaron" horiz-adv-x="1567" d="M1347 395Q1281 186 1126 79T732 -29Q586 -29 461 21T239 168Q127 280 73 422T18 745Q18 1093 219 1306T749 1520Q871 1520 1009 1488T1306 1391V1047H1193Q1156 1235 1045 1324T732 1413Q493
1413 370 1244T247 745Q247 417 370 248T732 78Q899 78 1007 157T1163 395H1347ZM1570 1635L1339 1899H1455L1658 1737L1861 1899H1977L1746 1635H1570Z" />
<glyph unicode="&#x10d;" glyph-name="ccaron" horiz-adv-x="1147" d="M968 319Q929 149 818 60T531 -29Q299 -29 158 124T17 532Q17 787 158 939T531 1092Q632 1092 732 1069T933 997V725H826Q805 865 735 929T533 993Q384 993 308 878T232 532Q232 302 307 186T533
70Q652 70 723 132T820 319H968ZM335 1262L100 1638H216L419 1378L622 1638H738L503 1262H335Z" />
<glyph unicode="&#x10e;" glyph-name="Dcaron" horiz-adv-x="1642" d="M416 106H602Q893 106 1048 272T1204 748Q1204 1058 1049 1222T602 1386H416V106ZM23 0V106H213V1386H23V1493H617Q1003 1493 1218 1296T1434 748Q1434 396 1218 198T617 0H23ZM1492 1635L1261
1899H1377L1580 1737L1783 1899H1899L1668 1635H1492Z" />
<glyph unicode="&#x10f;" glyph-name="dcaron" horiz-adv-x="1311" d="M977 106H1153V0H793V166Q739 66 656 19T449 -29Q253 -29 129 126T4 532Q4 782 128 937T449 1092Q572 1092 655 1045T793 897V1450H619V1556H977V106ZM793 479V584Q793 775 720 876T506 977Q364
977 292 865T219 532Q219 312 291 199T506 86Q646 86 719 186T793 479ZM1958 1555H2157L2013 1179H1896L1958 1555Z" />
<glyph unicode="&#x110;" glyph-name="Dcroat" horiz-adv-x="1653" d="M423 106H611Q902 106 1058 272T1214 748Q1214 1058 1059 1222T611 1386H423V844H759V719H423V106ZM32 0V106H222V719H22V844H222V1386H32V1493H626Q1012 1493 1227 1296T1443 748Q1443 396
1227 198T626 0H32Z" />
<glyph unicode="&#x111;" glyph-name="" horiz-adv-x="1168" d="M978 106H1154V0H794V166Q740 66 657 19T450 -29Q254 -29 130 126T5 532Q5 782 129 937T450 1092Q573 1092 656 1045T794 897V1227H468V1333H794V1450H620V1556H978V1333H1154V1227H978V106ZM794
479V584Q794 775 721 876T507 977Q365 977 293 865T220 532Q220 312 292 199T507 86Q647 86 720 186T794 479Z" />
<glyph unicode="&#x112;" glyph-name="Emacron" horiz-adv-x="1495" d="M237 1842H835V1694H237V1842ZM21 0V106H211V1386H21V1493H1223V1161H1100V1370H414V870H903V1057H1026V561H903V748H414V123H1116V332H1239V0H21Z" />
<glyph unicode="&#x113;" glyph-name="emacron" horiz-adv-x="1212" d="M129 1527H727V1379H129V1527ZM1026 512H233V504Q233 289 314 180T553 70Q674 70 751 133T860 322H1008Q964 147 846 59T534 -29Q301 -29 160 124T18 532Q18 784 157 938T522 1092Q763 1092
892 944T1026 512ZM809 618Q803 804 731 898T522 993Q395 993 322 898T233 618H809Z" />
<glyph unicode="&#x114;" glyph-name="Ebreve" horiz-adv-x="1495" d="M1275 1901H1369Q1387 1846 1440 1819T1586 1792Q1678 1792 1731 1819T1803 1901H1897Q1877 1784 1797 1722T1586 1659Q1454 1659 1375 1721T1275 1901ZM21 0V106H211V1386H21V1493H1223V1161H1100V1370H414V870H903V1057H1026V561H903V748H414V123H1116V332H1239V0H21Z"
/>
<glyph unicode="&#x115;" glyph-name="ebreve" horiz-adv-x="1212" d="M112 1608H208Q221 1529 273 1494T425 1458Q525 1458 577 1493T642 1608H738Q728 1465 649 1393T425 1321Q280 1321 201 1393T112 1608ZM1026 512H233V504Q233 289 314 180T553 70Q674 70
751 133T860 322H1008Q964 147 846 59T534 -29Q301 -29 160 124T18 532Q18 784 157 938T522 1092Q763 1092 892 944T1026 512ZM809 618Q803 804 731 898T522 993Q395 993 322 898T233 618H809Z" />
<glyph unicode="&#x116;" glyph-name="Edotaccent" horiz-adv-x="1495" d="M1394 1886Q1441 1886 1476 1851T1511 1770Q1511 1720 1478 1687T1394 1653Q1344 1653 1311 1686T1277 1770Q1277 1816 1312 1851T1394 1886ZM21 0V106H211V1386H21V1493H1223V1161H1100V1370H414V870H903V1057H1026V561H903V748H414V123H1116V332H1239V0H21Z"
/>
<glyph unicode="&#x117;" glyph-name="edotaccent" horiz-adv-x="1212" d="M229 1569Q277 1569 311 1535T346 1452Q346 1401 313 1368T229 1335Q178 1335 145 1368T112 1452Q112 1500 146 1534T229 1569ZM1026 512H233V504Q233 289 314 180T553 70Q674 70 751
133T860 322H1008Q964 147 846 59T534 -29Q301 -29 160 124T18 532Q18 784 157 938T522 1092Q763 1092 892 944T1026 512ZM809 618Q803 804 731 898T522 993Q395 993 322 898T233 618H809Z" />
<glyph unicode="&#x118;" glyph-name="Eogonek" horiz-adv-x="1495" d="M769 0H863L862 -2Q775 -125 775 -172Q775 -218 808 -246T898 -274Q925 -274 954 -268T1013 -248L1012 -375Q976 -384 943 -388T877 -393Q764 -393 702 -349T640 -223Q640 -174 670 -122T769
0ZM21 0V106H211V1386H21V1493H1223V1161H1100V1370H414V870H903V1057H1026V561H903V748H414V123H1116V332H1239V0H21Z" />
<glyph unicode="&#x119;" glyph-name="eogonek" horiz-adv-x="1212" d="M405 0H499L498 -2Q411 -125 411 -172Q411 -218 444 -246T534 -274Q561 -274 590 -268T649 -248L648 -375Q612 -384 579 -388T513 -393Q400 -393 338 -349T276 -223Q276 -174 306 -122T405
0ZM1026 512H233V504Q233 289 314 180T553 70Q674 70 751 133T860 322H1008Q964 147 846 59T534 -29Q301 -29 160 124T18 532Q18 784 157 938T522 1092Q763 1092 892 944T1026 512ZM809 618Q803 804 731 898T522 993Q395 993 322 898T233 618H809Z" />
<glyph unicode="&#x11a;" glyph-name="Ecaron" horiz-adv-x="1495" d="M21 0V106H211V1386H21V1493H1223V1161H1100V1370H414V870H903V1057H1026V561H903V748H414V123H1116V332H1239V0H21ZM1570 1635L1339 1899H1455L1658 1737L1861 1899H1977L1746 1635H1570Z" />
<glyph unicode="&#x11b;" glyph-name="ecaron" horiz-adv-x="1212" d="M1026 512H233V504Q233 289 314 180T553 70Q674 70 751 133T860 322H1008Q964 147 846 59T534 -29Q301 -29 160 124T18 532Q18 784 157 938T522 1092Q763 1092 892 944T1026 512ZM809 618Q803
804 731 898T522 993Q395 993 322 898T233 618H809ZM335 1262L100 1638H216L419 1378L622 1638H738L503 1262H335Z" />
<glyph unicode="&#x11c;" glyph-name="Gcircumflex" horiz-adv-x="1636" d="M1606 1899H1782L2013 1635H1897L1694 1796L1491 1635H1375L1606 1899ZM1214 1047Q1179 1234 1068 1323T759 1413Q501 1413 374 1247T247 745Q247 416 378 247T763 78Q876 78 979 106T1175
190V575H894V682H1378V125Q1245 48 1092 10T763 -29Q425 -29 222 182T18 745Q18 1099 222 1309T771 1520Q899 1520 1035 1491T1326 1401V1047H1214Z" />
<glyph unicode="&#x11d;" glyph-name="gcircumflex" horiz-adv-x="1311" d="M334 1638H502L737 1262H621L418 1522L215 1262H99L334 1638ZM993 956V23Q993 -206 867 -330T508 -455Q403 -455 307 -436T123 -379V-156H219Q237 -260 304 -308T496 -356Q658 -356 733
-265T809 23V166Q755 66 672 19T465 -29Q269 -29 145 126T20 532Q20 782 144 937T465 1092Q588 1092 671 1045T809 897V1063H1169V956H993ZM809 584Q809 775 736 876T522 977Q380 977 308 865T235 532Q235 312 307 199T522 86Q662 86 735 186T809 479V584Z" />
<glyph unicode="&#x11e;" glyph-name="Gbreve" horiz-adv-x="1636" d="M1214 1047Q1179 1234 1068 1323T759 1413Q501 1413 374 1247T247 745Q247 416 378 247T763 78Q876 78 979 106T1175 190V575H894V682H1378V125Q1245 48 1092 10T763 -29Q425 -29 222 182T18
745Q18 1099 222 1309T771 1520Q899 1520 1035 1491T1326 1401V1047H1214ZM1346 1901H1440Q1458 1846 1511 1819T1657 1792Q1749 1792 1802 1819T1874 1901H1968Q1948 1784 1868 1722T1657 1659Q1525 1659 1446 1721T1346 1901Z" />
<glyph unicode="&#x11f;" glyph-name="gbreve" horiz-adv-x="1311" d="M993 956V23Q993 -206 867 -330T508 -455Q403 -455 307 -436T123 -379V-156H219Q237 -260 304 -308T496 -356Q658 -356 733 -265T809 23V166Q755 66 672 19T465 -29Q269 -29 145 126T20 532Q20
782 144 937T465 1092Q588 1092 671 1045T809 897V1063H1169V956H993ZM809 584Q809 775 736 876T522 977Q380 977 308 865T235 532Q235 312 307 199T522 86Q662 86 735 186T809 479V584ZM161 1608H257Q270 1529 322 1494T474 1458Q574 1458 626 1493T691 1608H787Q777
1465 698 1393T474 1321Q329 1321 250 1393T161 1608Z" />
<glyph unicode="&#x120;" glyph-name="Gdotaccent" horiz-adv-x="1636" d="M1502 1886Q1549 1886 1584 1851T1619 1770Q1619 1720 1586 1687T1502 1653Q1452 1653 1419 1686T1385 1770Q1385 1816 1420 1851T1502 1886ZM1214 1047Q1179 1234 1068 1323T759 1413Q501
1413 374 1247T247 745Q247 416 378 247T763 78Q876 78 979 106T1175 190V575H894V682H1378V125Q1245 48 1092 10T763 -29Q425 -29 222 182T18 745Q18 1099 222 1309T771 1520Q899 1520 1035 1491T1326 1401V1047H1214Z" />
<glyph unicode="&#x121;" glyph-name="gdotaccent" horiz-adv-x="1311" d="M227 1569Q275 1569 309 1535T344 1452Q344 1401 311 1368T227 1335Q176 1335 143 1368T110 1452Q110 1500 144 1534T227 1569ZM993 956V23Q993 -206 867 -330T508 -455Q403 -455 307
-436T123 -379V-156H219Q237 -260 304 -308T496 -356Q658 -356 733 -265T809 23V166Q755 66 672 19T465 -29Q269 -29 145 126T20 532Q20 782 144 937T465 1092Q588 1092 671 1045T809 897V1063H1169V956H993ZM809 584Q809 775 736 876T522 977Q380 977 308 865T235
532Q235 312 307 199T522 86Q662 86 735 186T809 479V584Z" />
<glyph unicode="&#x122;" glyph-name="Gcommaaccent" horiz-adv-x="1636" d="M1420 -410Q1496 -368 1531 -312T1566 -176V-154H1724Q1717 -257 1659 -330Q1601 -404 1484 -458L1420 -410ZM1214 1047Q1179 1234 1068 1323T759 1413Q501 1413 374 1247T247 745Q247
416 378 247T763 78Q876 78 979 106T1175 190V575H894V682H1378V125Q1245 48 1092 10T763 -29Q425 -29 222 182T18 745Q18 1099 222 1309T771 1520Q899 1520 1035 1491T1326 1401V1047H1214Z" />
<glyph unicode="&#x123;" glyph-name="gcommaaccent" horiz-adv-x="1311" d="M1423 1470Q1347 1428 1312 1372T1277 1236V1214H1119Q1126 1317 1184 1390Q1242 1464 1359 1518L1423 1470ZM993 956V23Q993 -206 867 -330T508 -455Q403 -455 307 -436T123 -379V-156H219Q237
-260 304 -308T496 -356Q658 -356 733 -265T809 23V166Q755 66 672 19T465 -29Q269 -29 145 126T20 532Q20 782 144 937T465 1092Q588 1092 671 1045T809 897V1063H1169V956H993ZM809 584Q809 775 736 876T522 977Q380 977 308 865T235 532Q235 312 307 199T522
86Q662 86 735 186T809 479V584Z" />
<glyph unicode="&#x124;" glyph-name="Hcircumflex" horiz-adv-x="1786" d="M1643 1899H1819L2050 1635H1934L1731 1796L1528 1635H1412L1643 1899ZM24 0V106H214V1386H24V1493H607V1386H417V870H1191V1386H1001V1493H1584V1386H1394V106H1584V0H1001V106H1191V748H417V106H607V0H24Z"
/>
<glyph unicode="&#x125;" glyph-name="hcircumflex" horiz-adv-x="1319" d="M1008 1899H1184L1415 1635H1299L1096 1796L893 1635H777L1008 1899ZM29 0V106H195V1450H19V1556H379V874Q430 982 511 1037T701 1092Q877 1092 960 991T1043 676V106H1207V0H699V106H858V618Q858
813 811 884T641 956Q513 956 446 863T379 592V106H539V0H29Z" />
<glyph unicode="&#x126;" glyph-name="Hbar" horiz-adv-x="1608" d="M417 870H1191V1067H417V870ZM24 0V106H214V1067H24V1189H214V1386H24V1493H607V1386H417V1189H1191V1386H1001V1493H1584V1386H1394V1189H1584V1067H1394V106H1584V0H1001V106H1191V748H417V106H607V0H24Z"
/>
<glyph unicode="&#x127;" glyph-name="hbar" horiz-adv-x="1211" d="M32 0V106H198V1210H22V1332H198V1450H22V1556H382V1332H698V1210H382V874Q433 982 514 1037T704 1092Q880 1092 963 991T1046 676V106H1210V0H702V106H861V618Q861 813 814 884T644 956Q516
956 449 863T382 592V106H542V0H32Z" />
<glyph unicode="&#x128;" glyph-name="Itilde" horiz-adv-x="809" d="M1257 1715L1209 1743Q1189 1756 1169 1763T1131 1770Q1092 1770 1066 1742T1036 1667L940 1668Q942 1768 993 1827T1129 1886Q1165 1886 1196 1877T1282 1837L1331 1811Q1354 1798 1376 1791T1415
1784Q1456 1784 1479 1811T1503 1886H1600Q1598 1781 1547 1724T1401 1667Q1334 1667 1262 1712L1257 1715ZM402 106H592V0H9V106H199V1386H9V1493H592V1386H402V106Z" />
<glyph unicode="&#x129;" glyph-name="itilde" horiz-adv-x="655" d="M167 1370L110 1425Q84 1449 68 1456T32 1464Q-10 1464 -34 1425T-63 1309H-159Q-157 1444 -106 1517T36 1591Q74 1591 106 1577T175 1530L232 1475Q255 1452 272 1444T310 1436Q353 1436 377
1476T405 1591H501Q499 1456 448 1383T306 1309Q268 1309 236 1323T167 1370ZM375 106H549V0H15V106H191V956H15V1063H375V106Z" />
<glyph unicode="&#x12a;" glyph-name="Imacron" horiz-adv-x="809" d="M-72 1842H526V1694H-72V1842ZM402 106H592V0H9V106H199V1386H9V1493H592V1386H402V106Z" />
<glyph unicode="&#x12b;" glyph-name="imacron" horiz-adv-x="655" d="M-222 1526H376V1378H-222V1526ZM375 106H549V0H15V106H191V956H15V1063H375V106Z" />
<glyph unicode="&#x12c;" glyph-name="Ibreve" horiz-adv-x="809" d="M931 1901H1025Q1043 1846 1096 1819T1242 1792Q1334 1792 1387 1819T1459 1901H1553Q1533 1784 1453 1722T1242 1659Q1110 1659 1031 1721T931 1901ZM402 106H592V0H9V106H199V1386H9V1493H592V1386H402V106Z"
/>
<glyph unicode="&#x12d;" glyph-name="ibreve" horiz-adv-x="655" d="M-166 1608H-70Q-57 1529 -5 1494T147 1458Q247 1458 299 1493T364 1608H460Q450 1465 371 1393T147 1321Q2 1321 -77 1393T-166 1608ZM375 106H549V0H15V106H191V956H15V1063H375V106Z" />
<glyph unicode="&#x12e;" glyph-name="Iogonek" horiz-adv-x="809" d="M402 106H592V0H9V106H199V1386H9V1493H592V1386H402V106ZM352 0H446L445 -2Q358 -125 358 -172Q358 -218 391 -246T481 -274Q508 -274 537 -268T596 -248L595 -375Q559 -384 526 -388T460
-393Q347 -393 285 -349T223 -223Q223 -174 253 -122T352 0Z" />
<glyph unicode="&#x12f;" glyph-name="iogonek" horiz-adv-x="655" d="M128 1393Q128 1439 161 1473T242 1507Q288 1507 321 1473T355 1393Q355 1346 322 1313T242 1280Q195 1280 162 1313T128 1393ZM363 106H537V0H3V106H179V956H3V1063H363V106ZM280 0H374L373
-2Q286 -125 286 -172Q286 -218 319 -246T409 -274Q436 -274 465 -268T524 -248L523 -375Q487 -384 454 -388T388 -393Q275 -393 213 -349T151 -223Q151 -174 181 -122T280 0Z" />
<glyph unicode="&#x130;" glyph-name="Idot" horiz-adv-x="809" d="M402 106H592V0H9V106H199V1386H9V1493H592V1386H402V106ZM1052 1886Q1099 1886 1134 1851T1169 1770Q1169 1720 1136 1687T1052 1653Q1002 1653 969 1686T935 1770Q935 1816 970 1851T1052 1886Z" />
<glyph unicode="&#x131;" glyph-name="dotlessi" horiz-adv-x="552" d="M375 106H549V0H15V106H191V956H15V1063H375V106Z" />
<glyph unicode="&#x132;" glyph-name="IJ" horiz-adv-x="1641" d="M402 106H592V0H9V106H199V1386H9V1493H592V1386H402V106ZM821 -358V-123H935Q938 -222 982 -270T1114 -319Q1233 -319 1280 -244T1327 49V1386H1095V1493H1720V1386H1530V41Q1530 -206 1431 -316T1112
-426Q1041 -426 968 -409T821 -358Z" />
<glyph unicode="&#x133;" glyph-name="ij" horiz-adv-x="1092" d="M128 1393Q128 1439 161 1473T242 1507Q288 1507 321 1473T355 1393Q355 1346 322 1313T242 1280Q195 1280 162 1313T128 1393ZM363 106H537V0H3V106H179V956H3V1063H363V106ZM986 1393Q986 1439
1019 1473T1100 1507Q1146 1507 1179 1473T1213 1393Q1213 1346 1181 1313T1100 1280Q1053 1280 1020 1313T986 1393ZM1031 956H857V1063H1215V-104Q1215 -268 1118 -361T849 -455Q777 -455 712 -439T584 -389V-170H679Q686 -266 728 -311T853 -356Q944 -356 987
-295T1031 -104V956Z" />
<glyph unicode="&#x134;" glyph-name="Jcircumflex" horiz-adv-x="821" d="M1164 1899H1340L1571 1635H1455L1252 1796L1049 1635H933L1164 1899ZM1 -358V-123H115Q118 -222 162 -270T294 -319Q413 -319 460 -244T507 49V1386H275V1493H900V1386H710V41Q710 -206
611 -316T292 -426Q221 -426 148 -409T1 -358Z" />
<glyph unicode="&#x135;" glyph-name="jcircumflex" horiz-adv-x="635" d="M-7 1638H161L396 1262H280L77 1522L-126 1262H-242L-7 1638ZM447 956H273V1063H631V-104Q631 -268 534 -361T265 -455Q193 -455 128 -439T0 -389V-170H95Q102 -266 144 -311T269 -356Q360
-356 403 -295T447 -104V956Z" />
<glyph unicode="&#x136;" glyph-name="Kcommaaccent" horiz-adv-x="1530" d="M1397 -381Q1473 -339 1508 -283T1543 -147V-125H1701Q1694 -228 1636 -301Q1578 -375 1461 -429L1397 -381ZM23 0V106H213V1386H23V1493H606V1386H416V821L1059 1386H897V1493H1393V1386H1225L584
823L1301 106H1471V0H1124L416 709V106H606V0H23Z" />
<glyph unicode="&#x137;" glyph-name="kcommaaccent" horiz-adv-x="1241" d="M1223 -381Q1299 -339 1334 -283T1369 -147V-125H1527Q1520 -228 1462 -301Q1404 -375 1287 -429L1223 -381ZM546 0H30V106H196V1450H19V1556H380V543L828 956H675V1063H1156V956H974L658
664L1062 106H1215V0H691V106H843L525 543L380 408V106H546V0Z" />
<glyph unicode="&#x138;" glyph-name="kgreenlandic" horiz-adv-x="1241" d="M586 0H70V106H236V953H59V1060H420V541L868 953H715V1060H1196V953H1014L698 662L1102 106H1255V0H731V106H883L565 541L420 406V106H586V0Z" />
<glyph unicode="&#x139;" glyph-name="Lacute" horiz-adv-x="1360" d="M1055 1901H1252L990 1637H873L1055 1901ZM21 0V106H211V1386H21V1493H604V1386H414V123H1096V373H1219V0H21Z" />
<glyph unicode="&#x13a;" glyph-name="lacute" horiz-adv-x="655" d="M956 1900H1153L891 1636H774L956 1900ZM368 106H542V0H7V106H184V1450H7V1556H368V106Z" />
<glyph unicode="&#x13b;" glyph-name="Lcommaaccent" horiz-adv-x="1360" d="M1272 -381Q1348 -339 1383 -283T1418 -147V-125H1576Q1569 -228 1511 -301Q1453 -375 1336 -429L1272 -381ZM21 0V106H211V1386H21V1493H604V1386H414V123H1096V373H1219V0H21Z" />
<glyph unicode="&#x13c;" glyph-name="lcommaaccent" horiz-adv-x="655" d="M817 -376Q893 -334 928 -278T963 -142V-120H1121Q1114 -223 1056 -296Q998 -370 881 -424L817 -376ZM368 106H542V0H7V106H184V1450H7V1556H368V106Z" />
<glyph unicode="&#x13d;" glyph-name="Lcaron" horiz-adv-x="1360" d="M1567 1493H1766L1622 1117H1505L1567 1493ZM21 0V106H211V1386H21V1493H604V1386H414V123H1096V373H1219V0H21Z" />
<glyph unicode="&#x13e;" glyph-name="lcaron" horiz-adv-x="655" d="M1302 1557H1501L1357 1181H1240L1302 1557ZM368 106H542V0H7V106H184V1450H7V1556H368V106Z" />
<glyph unicode="&#x13f;" glyph-name="Ldot" horiz-adv-x="1360" d="M825 845Q825 901 863 939T959 978Q1014 978 1053 939T1092 845Q1092 789 1053 751T959 712Q902 712 864 750T825 845ZM21 0V106H211V1386H21V1493H604V1386H414V123H1096V373H1219V0H21Z" />
<glyph unicode="&#x140;" glyph-name="ldot" horiz-adv-x="655" d="M397 836Q397 892 435 930T531 969Q586 969 625 930T664 836Q664 780 625 742T531 703Q474 703 436 741T397 836ZM368 106H542V0H7V106H184V1450H7V1556H368V106Z" />
<glyph unicode="&#x141;" glyph-name="Lslash" horiz-adv-x="1252" d="M54 0V106H244V586L87 473L17 565L244 727V1386H54V1493H636V1386H445V870L752 1096L822 1004L445 729V123H1129V373H1252V0H54Z" />
<glyph unicode="&#x142;" glyph-name="lslash" horiz-adv-x="597" d="M389 106H565V0H31V106H205V680L67 584L6 670L205 811V1450H31V1556H389V940L536 1038L596 952L389 811V106Z" />
<glyph unicode="&#x143;" glyph-name="Nacute" horiz-adv-x="1792" d="M1571 1900H1768L1506 1636H1389L1571 1900ZM17 0V106H218V1386H17V1493H400L1295 315V1386H1095V1493H1619V1386H1418V-29H1297L341 1229V106H542V0H17Z" />
<glyph unicode="&#x144;" glyph-name="nacute" horiz-adv-x="1319" d="M334 1847H533L193 1471H76L334 1847ZM30 0V106H196V956H20V1063H380V874Q431 982 512 1037T702 1092Q878 1092 961 991T1044 676V106H1208V0H700V106H859V618Q859 813 811 885T642 958Q514
958 447 865T380 592V106H540V0H30Z" />
<glyph unicode="&#x145;" glyph-name="Ncommaaccent" horiz-adv-x="1792" d="M1415 -395Q1491 -353 1526 -297T1561 -161V-139H1719Q1712 -242 1654 -315Q1596 -389 1479 -443L1415 -395ZM17 0V106H218V1386H17V1493H400L1295 315V1386H1095V1493H1619V1386H1418V-29H1297L341
1229V106H542V0H17Z" />
<glyph unicode="&#x146;" glyph-name="ncommaaccent" horiz-adv-x="1319" d="M1233 -381Q1309 -339 1344 -283T1379 -147V-125H1537Q1530 -228 1472 -301Q1414 -375 1297 -429L1233 -381ZM30 0V106H196V956H20V1063H380V874Q431 982 512 1037T702 1092Q878 1092
961 991T1044 676V106H1208V0H700V106H859V618Q859 813 811 885T642 958Q514 958 447 865T380 592V106H540V0H30Z" />
<glyph unicode="&#x147;" glyph-name="Ncaron" horiz-adv-x="1792" d="M17 0V106H218V1386H17V1493H400L1295 315V1386H1095V1493H1619V1386H1418V-29H1297L341 1229V106H542V0H17ZM1620 1645L1389 1909H1505L1708 1747L1911 1909H2027L1796 1645H1620Z" />
<glyph unicode="&#x148;" glyph-name="ncaron" horiz-adv-x="1319" d="M30 0V106H196V956H20V1063H380V874Q431 982 512 1037T702 1092Q878 1092 961 991T1044 676V106H1208V0H700V106H859V618Q859 813 811 885T642 958Q514 958 447 865T380 592V106H540V0H30ZM335
1262L100 1638H216L419 1378L622 1638H738L503 1262H335Z" />
<glyph unicode="&#x149;" glyph-name="napostrophe" horiz-adv-x="1774" d="M162 1094Q239 1158 273 1243T308 1457V1520H502Q501 1346 439 1226T240 1014L162 1094ZM429 0V106H595V956H419V1063H779V874Q830 982 911 1037T1101 1092Q1277 1092 1360 991T1443
676V106H1607V0H1099V106H1258V618Q1258 813 1210 885T1041 958Q913 958 846 865T779 592V106H939V0H429Z" />
<glyph unicode="&#x14a;" glyph-name="Eng" horiz-adv-x="1383" d="M4 0V107H195V1386H19V1493H398V1292Q472 1406 589 1464T861 1522Q1114 1522 1233 1377T1352 922V41Q1352 -206 1253 -316T934 -426Q863 -426 790 -409T643 -358V-123H755Q755 -222 800 -270T934
-319Q1051 -319 1100 -244Q1147 -171 1147 49V881Q1147 1173 1072 1282T807 1391Q607 1391 503 1263T398 887V107H588V0H4Z" />
<glyph unicode="&#x14b;" glyph-name="eng" horiz-adv-x="1059" d="M14 0V106H180V956H4V1063H364V874Q415 982 496 1037T686 1092Q860 1092 945 991Q1028 892 1028 676V-104Q1028 -268 931 -361T662 -455Q590 -455 525 -439T397 -389V-170H492Q499 -266 541 -311T666
-356Q757 -356 800 -294Q843 -234 843 -104V618Q843 813 795 885T626 958Q498 958 431 865T364 592V106H524V0H14Z" />
<glyph unicode="&#x14c;" glyph-name="Omacron" horiz-adv-x="1679" d="M363 1842H961V1694H363V1842ZM743 78Q988 78 1113 246T1238 745Q1238 1076 1113 1244T743 1413Q497 1413 372 1245T247 745Q247 415 372 247T743 78ZM743 -29Q591 -29 464 21T239 168Q127
280 73 422T18 745Q18 926 72 1068T239 1323Q337 1421 463 1470T743 1520Q1068 1520 1268 1307T1468 745Q1468 566 1413 423T1246 168Q1148 70 1022 21T743 -29Z" />
<glyph unicode="&#x14d;" glyph-name="omacron" horiz-adv-x="1233" d="M139 1526H737V1378H139V1526ZM532 70Q680 70 755 187T831 532Q831 760 756 876T532 993Q384 993 309 877T233 532Q233 304 309 187T532 70ZM532 -29Q300 -29 159 124T18 532Q18 786 158
939T532 1092Q765 1092 905 939T1046 532Q1046 278 906 125T532 -29Z" />
<glyph unicode="&#x14e;" glyph-name="Obreve" horiz-adv-x="1679" d="M1367 1901H1461Q1479 1846 1532 1819T1678 1792Q1770 1792 1823 1819T1895 1901H1989Q1969 1784 1889 1722T1678 1659Q1546 1659 1467 1721T1367 1901ZM743 78Q988 78 1113 246T1238 745Q1238
1076 1113 1244T743 1413Q497 1413 372 1245T247 745Q247 415 372 247T743 78ZM743 -29Q591 -29 464 21T239 168Q127 280 73 422T18 745Q18 926 72 1068T239 1323Q337 1421 463 1470T743 1520Q1068 1520 1268 1307T1468 745Q1468 566 1413 423T1246 168Q1148 70
1022 21T743 -29Z" />
<glyph unicode="&#x14f;" glyph-name="obreve" horiz-adv-x="1233" d="M122 1608H218Q231 1529 283 1494T435 1458Q535 1458 587 1493T652 1608H748Q738 1465 659 1393T435 1321Q290 1321 211 1393T122 1608ZM532 70Q680 70 755 187T831 532Q831 760 756 876T532
993Q384 993 309 877T233 532Q233 304 309 187T532 70ZM532 -29Q300 -29 159 124T18 532Q18 786 158 939T532 1092Q765 1092 905 939T1046 532Q1046 278 906 125T532 -29Z" />
<glyph unicode="&#x150;" glyph-name="Ohungarumlaut" horiz-adv-x="1679" d="M1864 1899H2061L1799 1635H1682L1864 1899ZM1547 1899H1744L1482 1635H1365L1547 1899ZM743 78Q988 78 1113 246T1238 745Q1238 1076 1113 1244T743 1413Q497 1413 372 1245T247 745Q247
415 372 247T743 78ZM743 -29Q591 -29 464 21T239 168Q127 280 73 422T18 745Q18 926 72 1068T239 1323Q337 1421 463 1470T743 1520Q1068 1520 1268 1307T1468 745Q1468 566 1413 423T1246 168Q1148 70 1022 21T743 -29Z" />
<glyph unicode="&#x151;" glyph-name="ohungarumlaut" horiz-adv-x="1233" d="M368 1638H538L294 1262H180L368 1638ZM698 1638H876L589 1262H473L698 1638ZM532 70Q680 70 755 187T831 532Q831 760 756 876T532 993Q384 993 309 877T233 532Q233 304 309 187T532
70ZM532 -29Q300 -29 159 124T18 532Q18 786 158 939T532 1092Q765 1092 905 939T1046 532Q1046 278 906 125T532 -29Z" />
<glyph unicode="&#x152;" glyph-name="OE" horiz-adv-x="2102" d="M1040 106V1386H853Q561 1386 406 1222T251 750Q251 439 406 273T853 106H1040ZM2068 0H839Q454 0 238 198T22 750Q22 1101 237 1297T839 1493H2051V1161H1928V1370H1242V870H1734V1057H1855V561H1734V748H1242V123H1945V332H2068V0Z"
/>
<glyph unicode="&#x153;" glyph-name="oe" horiz-adv-x="1869" d="M539 70Q687 70 762 187T838 532Q838 760 763 876T539 993Q391 993 316 877T240 532Q240 304 316 187T539 70ZM1846 512H1053V504Q1053 289 1134 180T1373 70Q1494 70 1571 133T1680 322H1828Q1784
147 1666 59T1355 -29Q1225 -29 1122 20T945 166Q876 70 773 21T539 -29Q307 -29 166 124T25 532Q25 786 165 939T539 1092Q671 1092 774 1043T947 897Q1020 993 1120 1042T1342 1092Q1584 1092 1712 944T1846 512ZM1629 618Q1623 804 1551 898T1342 993Q1215 993
1142 898T1053 618H1629Z" />
<glyph unicode="&#x154;" glyph-name="Racute" horiz-adv-x="1542" d="M1466 1900H1663L1401 1636H1284L1466 1900ZM891 741Q961 722 1011 677T1102 549L1319 106H1501V0H1149L916 475Q849 613 793 653T639 694H416V106H627V0H23V106H213V1386H23V1493H780Q998
1493 1116 1389T1235 1094Q1235 940 1149 852T891 741ZM416 801H711Q862 801 934 872T1006 1094Q1006 1244 934 1315T711 1386H416V801Z" />
<glyph unicode="&#x155;" glyph-name="racute" horiz-adv-x="979" d="M334 1847H533L193 1471H76L334 1847ZM921 1065V799H815Q810 878 771 917T657 956Q521 956 449 862T376 592V106H589V0H26V106H192V958H16V1063H376V874Q430 985 515 1038T722 1092Q767 1092
816 1085T921 1065Z" />
<glyph unicode="&#x156;" glyph-name="Rcommaaccent" horiz-adv-x="1542" d="M1412 -381Q1488 -339 1523 -283T1558 -147V-125H1716Q1709 -228 1651 -301Q1593 -375 1476 -429L1412 -381ZM891 741Q961 722 1011 677T1102 549L1319 106H1501V0H1149L916 475Q849
613 793 653T639 694H416V106H627V0H23V106H213V1386H23V1493H780Q998 1493 1116 1389T1235 1094Q1235 940 1149 852T891 741ZM416 801H711Q862 801 934 872T1006 1094Q1006 1244 934 1315T711 1386H416V801Z" />
<glyph unicode="&#x157;" glyph-name="rcommaaccent" horiz-adv-x="979" d="M821 -381Q897 -339 932 -283T967 -147V-125H1125Q1118 -228 1060 -301Q1002 -375 885 -429L821 -381ZM921 1065V799H815Q810 878 771 917T657 956Q521 956 449 862T376 592V106H589V0H26V106H192V958H16V1063H376V874Q430
985 515 1038T722 1092Q767 1092 816 1085T921 1065Z" />
<glyph unicode="&#x158;" glyph-name="Rcaron" horiz-adv-x="1542" d="M891 741Q961 722 1011 677T1102 549L1319 106H1501V0H1149L916 475Q849 613 793 653T639 694H416V106H627V0H23V106H213V1386H23V1493H780Q998 1493 1116 1389T1235 1094Q1235 940 1149 852T891
741ZM416 801H711Q862 801 934 872T1006 1094Q1006 1244 934 1315T711 1386H416V801ZM1480 1635L1249 1899H1365L1568 1737L1771 1899H1887L1656 1635H1480Z" />
<glyph unicode="&#x159;" glyph-name="rcaron" horiz-adv-x="979" d="M921 1065V799H815Q810 878 771 917T657 956Q521 956 449 862T376 592V106H589V0H26V106H192V958H16V1063H376V874Q430 985 515 1038T722 1092Q767 1092 816 1085T921 1065ZM293 1262L58 1638H174L377
1378L580 1638H696L461 1262H293Z" />
<glyph unicode="&#x15a;" glyph-name="Sacute" horiz-adv-x="1403" d="M1466 1900H1663L1401 1636H1284L1466 1900ZM42 72V412L157 411Q162 241 255 160T540 78Q718 78 811 148T905 354Q905 462 849 520T610 633L413 692Q199 757 112 854T24 1120Q24 1310 159
1415T538 1520Q642 1520 766 1498T1030 1432V1114H917Q900 1272 812 1342T542 1413Q384 1413 302 1349T219 1161Q219 1054 281 993T544 872L729 817Q932 756 1018 662T1105 408Q1105 191 966 81T552 -29Q429 -29 302 -4T42 72Z" />
<glyph unicode="&#x15b;" glyph-name="sacute" horiz-adv-x="1051" d="M334 1847H533L193 1471H76L334 1847ZM24 59V307H130Q134 188 204 129T413 70Q537 70 602 116T667 252Q667 322 620 365T419 457L286 502Q149 546 88 612T26 780Q26 926 133 1009T429 1092Q513
1092 606 1070T798 1006V774H692Q688 877 620 935T435 993Q319 993 260 952T200 829Q200 762 245 722T425 639L571 594Q722 547 788 477T855 295Q855 144 740 58T421 -29Q318 -29 220 -7T24 59Z" />
<glyph unicode="&#x15c;" glyph-name="Scircumflex" horiz-adv-x="1403" d="M1452 1899H1628L1859 1635H1743L1540 1796L1337 1635H1221L1452 1899ZM42 72V412L157 411Q162 241 255 160T540 78Q718 78 811 148T905 354Q905 462 849 520T610 633L413 692Q199 757
112 854T24 1120Q24 1310 159 1415T538 1520Q642 1520 766 1498T1030 1432V1114H917Q900 1272 812 1342T542 1413Q384 1413 302 1349T219 1161Q219 1054 281 993T544 872L729 817Q932 756 1018 662T1105 408Q1105 191 966 81T552 -29Q429 -29 302 -4T42 72Z" />
<glyph unicode="&#x15d;" glyph-name="scircumflex" horiz-adv-x="1051" d="M256 1638H424L659 1262H543L340 1522L137 1262H21L256 1638ZM24 59V307H130Q134 188 204 129T413 70Q537 70 602 116T667 252Q667 322 620 365T419 457L286 502Q149 546 88 612T26 780Q26
926 133 1009T429 1092Q513 1092 606 1070T798 1006V774H692Q688 877 620 935T435 993Q319 993 260 952T200 829Q200 762 245 722T425 639L571 594Q722 547 788 477T855 295Q855 144 740 58T421 -29Q318 -29 220 -7T24 59Z" />
<glyph unicode="&#x15e;" glyph-name="Scedilla" horiz-adv-x="1403" d="M42 72V412L157 411Q162 241 255 160T540 78Q718 78 811 148T905 354Q905 462 849 520T610 633L413 692Q199 757 112 854T24 1120Q24 1310 159 1415T538 1520Q642 1520 766 1498T1030 1432V1114H917Q900
1272 812 1342T542 1413Q384 1413 302 1349T219 1161Q219 1054 281 993T544 872L729 817Q932 756 1018 662T1105 408Q1105 191 966 81T552 -29Q429 -29 302 -4T42 72ZM480 0Q544 -64 575 -120T607 -225Q607 -306 544 -350T369 -395Q327 -395 283 -389T193 -371V-240Q234
-257 273 -265T348 -274Q405 -274 438 -248T471 -176Q471 -148 449 -104T383 0H480Z" />
<glyph unicode="&#x15f;" glyph-name="scedilla" horiz-adv-x="1051" d="M24 59V307H130Q134 188 204 129T413 70Q537 70 602 116T667 252Q667 322 620 365T419 457L286 502Q149 546 88 612T26 780Q26 926 133 1009T429 1092Q513 1092 606 1070T798 1006V774H692Q688
877 620 935T435 993Q319 993 260 952T200 829Q200 762 245 722T425 639L571 594Q722 547 788 477T855 295Q855 144 740 58T421 -29Q318 -29 220 -7T24 59ZM304 0Q368 -64 399 -120T431 -225Q431 -306 368 -350T193 -395Q151 -395 107 -389T17 -371V-240Q58 -257
97 -265T172 -274Q229 -274 262 -248T295 -176Q295 -148 273 -104T207 0H304Z" />
<glyph unicode="&#x160;" glyph-name="Scaron" horiz-adv-x="1403" d="M42 72V412L157 411Q162 241 255 160T540 78Q718 78 811 148T905 354Q905 462 849 520T610 633L413 692Q199 757 112 854T24 1120Q24 1310 159 1415T538 1520Q642 1520 766 1498T1030 1432V1114H917Q900
1272 812 1342T542 1413Q384 1413 302 1349T219 1161Q219 1054 281 993T544 872L729 817Q932 756 1018 662T1105 408Q1105 191 966 81T552 -29Q429 -29 302 -4T42 72ZM1451 1635L1220 1899H1336L1539 1737L1742 1899H1858L1627 1635H1451Z" />
<glyph unicode="&#x161;" glyph-name="scaron" horiz-adv-x="1051" d="M24 59V307H130Q134 188 204 129T413 70Q537 70 602 116T667 252Q667 322 620 365T419 457L286 502Q149 546 88 612T26 780Q26 926 133 1009T429 1092Q513 1092 606 1070T798 1006V774H692Q688
877 620 935T435 993Q319 993 260 952T200 829Q200 762 245 722T425 639L571 594Q722 547 788 477T855 295Q855 144 740 58T421 -29Q318 -29 220 -7T24 59ZM255 1262L20 1638H136L339 1378L542 1638H658L423 1262H255Z" />
<glyph unicode="&#x162;" glyph-name="Tcommaaccent" horiz-adv-x="1366" d="M437 0Q501 -64 532 -120T564 -225Q564 -306 501 -350T326 -395Q284 -395 240 -389T150 -371V-240Q191 -257 230 -265T305 -274Q362 -274 395 -248T428 -176Q428 -148 406 -104T340
0H437ZM378 0V106H569V1374H130V1141H7V1493H1333V1141H1210V1374H771V106H962V0H378Z" />
<glyph unicode="&#x163;" glyph-name="tcommaaccent" horiz-adv-x="823" d="M517 0Q581 -64 612 -120T644 -225Q644 -306 581 -350T406 -395Q364 -395 320 -389T230 -371V-240Q271 -257 310 -265T385 -274Q442 -274 475 -248T508 -176Q508 -148 486 -104T420 0H517ZM165
956H3V1063H165V1393H350V1063H696V956H350V281Q350 146 376 108T472 70Q544 70 577 112T612 250H751Q743 105 672 38T456 -29Q297 -29 231 41T165 281V956Z" />
<glyph unicode="&#x164;" glyph-name="Tcaron" horiz-adv-x="1366" d="M378 0V106H569V1374H130V1141H7V1493H1333V1141H1210V1374H771V106H962V0H378ZM1426 1635L1195 1899H1311L1514 1737L1717 1899H1833L1602 1635H1426Z" />
<glyph unicode="&#x165;" glyph-name="tcaron" horiz-adv-x="823" d="M165 956H3V1063H165V1393H350V1063H696V956H350V281Q350 146 376 108T472 70Q544 70 577 112T612 250H751Q743 105 672 38T456 -29Q297 -29 231 41T165 281V956ZM1240 1614H1439L1295 1238H1178L1240
1614Z" />
<glyph unicode="&#x166;" glyph-name="Tbar" horiz-adv-x="1340" d="M378 0V106H569V719H233V844H569V1374H130V1141H7V1493H1333V1141H1210V1374H771V844H1107V719H771V106H962V0H378Z" />
<glyph unicode="&#x167;" glyph-name="tbar" horiz-adv-x="754" d="M167 281V616H5V723H167V956H5V1063H167V1393H352V1063H698V956H352V723H698V616H352V281Q352 146 378 108T474 70Q546 70 579 112T614 250H753Q745 105 674 38T458 -29Q299 -29 233 41T167 281Z" />
<glyph unicode="&#x168;" glyph-name="Utilde" horiz-adv-x="1726" d="M1756 1715L1708 1743Q1688 1756 1668 1763T1630 1770Q1591 1770 1565 1742T1535 1667L1439 1668Q1441 1768 1492 1827T1628 1886Q1664 1886 1695 1877T1781 1837L1830 1811Q1853 1798 1875
1791T1914 1784Q1955 1784 1978 1811T2002 1886H2099Q2097 1781 2046 1724T1900 1667Q1833 1667 1761 1712L1756 1715ZM203 1386H12V1493H596V1386H405V614Q405 328 498 215T821 102Q1050 102 1143 215T1237 614V1386H1046V1493H1550V1386H1360V594Q1360 253 1229
112T784 -29Q470 -29 337 113T203 594V1386Z" />
<glyph unicode="&#x169;" glyph-name="utilde" horiz-adv-x="1319" d="M423 1370L366 1425Q340 1449 324 1456T288 1464Q246 1464 222 1425T193 1309H97Q99 1444 150 1517T292 1591Q330 1591 362 1577T431 1530L488 1475Q511 1452 528 1444T566 1436Q609 1436
633 1476T661 1591H757Q755 1456 704 1383T562 1309Q524 1309 492 1323T423 1370ZM682 1063H1026V106H1200V0H842V188Q791 82 710 27T522 -29Q345 -29 262 71T178 387V956H12V1063H363V444Q363 250 410 178T580 106Q708 106 775 200T842 473V956H682V1063Z" />
<glyph unicode="&#x16a;" glyph-name="Umacron" horiz-adv-x="1726" d="M388 1842H986V1694H388V1842ZM203 1386H12V1493H596V1386H405V614Q405 328 498 215T821 102Q1050 102 1143 215T1237 614V1386H1046V1493H1550V1386H1360V594Q1360 253 1229 112T784 -29Q470
-29 337 113T203 594V1386Z" />
<glyph unicode="&#x16b;" glyph-name="umacron" horiz-adv-x="1319" d="M155 1526H753V1378H155V1526ZM682 1063H1026V106H1200V0H842V188Q791 82 710 27T522 -29Q345 -29 262 71T178 387V956H12V1063H363V444Q363 250 410 178T580 106Q708 106 775 200T842 473V956H682V1063Z"
/>
<glyph unicode="&#x16c;" glyph-name="Ubreve" horiz-adv-x="1726" d="M1430 1901H1524Q1542 1846 1595 1819T1741 1792Q1833 1792 1886 1819T1958 1901H2052Q2032 1784 1952 1722T1741 1659Q1609 1659 1530 1721T1430 1901ZM203 1386H12V1493H596V1386H405V614Q405
328 498 215T821 102Q1050 102 1143 215T1237 614V1386H1046V1493H1550V1386H1360V594Q1360 253 1229 112T784 -29Q470 -29 337 113T203 594V1386Z" />
<glyph unicode="&#x16d;" glyph-name="ubreve" horiz-adv-x="1319" d="M90 1608H186Q199 1529 251 1494T403 1458Q503 1458 555 1493T620 1608H716Q706 1465 627 1393T403 1321Q258 1321 179 1393T90 1608ZM682 1063H1026V106H1200V0H842V188Q791 82 710 27T522
-29Q345 -29 262 71T178 387V956H12V1063H363V444Q363 250 410 178T580 106Q708 106 775 200T842 473V956H682V1063Z" />
<glyph unicode="&#x16e;" glyph-name="Uring" horiz-adv-x="1726" d="M203 1386H12V1493H596V1386H405V614Q405 328 498 215T821 102Q1050 102 1143 215T1237 614V1386H1046V1493H1550V1386H1360V594Q1360 253 1229 112T784 -29Q470 -29 337 113T203 594V1386ZM930
1879Q930 1764 851 1684T656 1604Q541 1604 462 1684T382 1879Q382 1994 461 2073T656 2153Q771 2153 850 2074T930 1879ZM808 1879Q808 1942 764 1986T656 2030Q591 2030 548 1987T504 1879Q504 1814 547 1771T656 1727Q720 1727 764 1771T808 1879Z" />
<glyph unicode="&#x16f;" glyph-name="uring" horiz-adv-x="1319" d="M682 1063H1026V106H1200V0H842V188Q791 82 710 27T522 -29Q345 -29 262 71T178 387V956H12V1063H363V444Q363 250 410 178T580 106Q708 106 775 200T842 473V956H682V1063ZM650 1761Q650 1646
571 1566T376 1486Q261 1486 182 1566T102 1761Q102 1876 181 1955T376 2035Q491 2035 570 1956T650 1761ZM528 1761Q528 1824 484 1868T376 1912Q311 1912 268 1869T224 1761Q224 1696 267 1653T376 1609Q440 1609 484 1653T528 1761Z" />
<glyph unicode="&#x170;" glyph-name="Uhungarumlaut" horiz-adv-x="1726" d="M1927 1899H2124L1862 1635H1745L1927 1899ZM1610 1899H1807L1545 1635H1428L1610 1899ZM203 1386H12V1493H596V1386H405V614Q405 328 498 215T821 102Q1050 102 1143 215T1237 614V1386H1046V1493H1550V1386H1360V594Q1360
253 1229 112T784 -29Q470 -29 337 113T203 594V1386Z" />
<glyph unicode="&#x171;" glyph-name="uhungarumlaut" horiz-adv-x="1319" d="M314 1638H484L240 1262H126L314 1638ZM644 1638H822L535 1262H419L644 1638ZM682 1063H1026V106H1200V0H842V188Q791 82 710 27T522 -29Q345 -29 262 71T178 387V956H12V1063H363V444Q363
250 410 178T580 106Q708 106 775 200T842 473V956H682V1063Z" />
<glyph unicode="&#x172;" glyph-name="Uogonek" horiz-adv-x="1726" d="M203 1386H12V1493H596V1386H405V614Q405 328 498 215T821 102Q1050 102 1143 215T1237 614V1386H1046V1493H1550V1386H1360V594Q1360 253 1229 112T784 -29Q470 -29 337 113T203 594V1386ZM504
-15H598L597 -17Q510 -140 510 -187Q510 -233 543 -261T633 -289Q660 -289 689 -283T748 -263L747 -390Q711 -399 678 -403T612 -408Q499 -408 437 -364T375 -238Q375 -189 405 -137T504 -15Z" />
<glyph unicode="&#x173;" glyph-name="uogonek" horiz-adv-x="1319" d="M682 1063H1026V106H1200V0H842V188Q791 82 710 27T522 -29Q345 -29 262 71T178 387V956H12V1063H363V444Q363 250 410 178T580 106Q708 106 775 200T842 473V956H682V1063ZM760 0H854L853
-2Q766 -125 766 -172Q766 -218 799 -246T889 -274Q916 -274 945 -268T1004 -248L1003 -375Q967 -384 934 -388T868 -393Q755 -393 693 -349T631 -223Q631 -174 661 -122T760 0Z" />
<glyph unicode="&#x174;" glyph-name="Wcircumflex" horiz-adv-x="2105" d="M1804 1906H1980L2211 1642H2095L1892 1803L1689 1642H1573L1804 1906ZM1561 0H1397L1055 1214L713 0H549L158 1386H10V1493H555V1386H369L680 283L1020 1493H1182L1528 270L1841 1386H1669V1493H2099V1386H1952L1561
0Z" />
<glyph unicode="&#x175;" glyph-name="wcircumflex" horiz-adv-x="1753" d="M610 1638H778L1013 1262H897L694 1522L491 1262H375L610 1638ZM961 1063L1233 233L1473 956H1319V1063H1704V956H1586L1270 0H1117L855 795L592 0H445L130 956H11V1063H492V956H320L558
233L832 1063H961Z" />
<glyph unicode="&#x176;" glyph-name="Ycircumflex" horiz-adv-x="1352" d="M1423 1906H1599L1830 1642H1714L1511 1803L1308 1642H1192L1423 1906ZM413 0V106H604V643L143 1386H3V1493H558V1386H384L757 782L1130 1386H962V1493H1396V1386H1255L806 662V106H997V0H413Z" />
<glyph unicode="&#x177;" glyph-name="ycircumflex" horiz-adv-x="1157" d="M302 1638H470L705 1262H589L386 1522L183 1262H67L302 1638ZM468 -195L538 -18L141 956H20V1063H509V956H339L638 225L937 956H778V1063H1177V956H1058L571 -240Q521 -364 460 -409T288
-455Q241 -455 192 -447T92 -424V-221H186Q192 -289 220 -318T309 -348Q364 -348 397 -318T468 -195Z" />
<glyph unicode="&#x178;" glyph-name="Ydieresis" horiz-adv-x="1352" d="M413 0V106H604V643L143 1386H3V1493H558V1386H384L757 782L1130 1386H962V1493H1396V1386H1255L806 662V106H997V0H413ZM1331 1884Q1379 1884 1413 1849T1448 1768Q1448 1718 1415 1685T1331
1651Q1282 1651 1249 1684T1215 1768Q1215 1814 1249 1849T1331 1884ZM1721 1884Q1768 1884 1802 1849T1837 1768Q1837 1718 1804 1685T1721 1651Q1671 1651 1638 1684T1604 1768Q1604 1814 1638 1849T1721 1884Z" />
<glyph unicode="&#x179;" glyph-name="Zacute" horiz-adv-x="1423" d="M1466 1900H1663L1401 1636H1284L1466 1900ZM29 0V72L959 1370H187V1147H64V1493H1244V1421L314 123H1158V332H1280V0H29Z" />
<glyph unicode="&#x17a;" glyph-name="zacute" horiz-adv-x="1079" d="M334 1847H533L193 1471H76L334 1847ZM30 0V86L696 956H169V772H63V1063H933V977L267 106H845V299H952V0H30Z" />
<glyph unicode="&#x17b;" glyph-name="Zdotaccent" horiz-adv-x="1423" d="M1368 1904Q1415 1904 1450 1869T1485 1788Q1485 1738 1452 1705T1368 1671Q1318 1671 1285 1704T1251 1788Q1251 1834 1286 1869T1368 1904ZM29 0V72L959 1370H187V1147H64V1493H1244V1421L314
123H1158V332H1280V0H29Z" />
<glyph unicode="&#x17c;" glyph-name="zdotaccent" horiz-adv-x="1079" d="M195 1760Q243 1760 277 1726T312 1643Q312 1592 279 1559T195 1526Q144 1526 111 1559T78 1643Q78 1691 112 1725T195 1760ZM30 0V86L696 956H169V772H63V1063H933V977L267 106H845V299H952V0H30Z"
/>
<glyph unicode="&#x17d;" glyph-name="Zcaron" horiz-adv-x="1423" d="M29 0V72L959 1370H187V1147H64V1493H1244V1421L314 123H1158V332H1280V0H29ZM1462 1635L1231 1899H1347L1550 1737L1753 1899H1869L1638 1635H1462Z" />
<glyph unicode="&#x17e;" glyph-name="zcaron" horiz-adv-x="1079" d="M30 0V86L696 956H169V772H63V1063H933V977L267 106H845V299H952V0H30ZM270 1262L35 1638H151L354 1378L557 1638H673L438 1262H270Z" />
<glyph unicode="&#x17f;" glyph-name="longs" horiz-adv-x="815" d="M365 106H601V0H5V106H181V956H5V1063H181V1196Q181 1374 273 1465T545 1556Q612 1556 679 1544T812 1507V1305H715Q714 1380 673 1419T552 1458Q449 1458 407 1402Q365 1343 365 1200V106Z" />
<glyph unicode="&#x180;" glyph-name="uni0180" horiz-adv-x="1172" d="M196 106V1210H20V1332H196V1450H20V1556H380V1332H696V1210H380V897Q434 997 517 1044T724 1092Q920 1092 1044 937T1168 532T1044 127T724 -29Q601 -29 518 18T380 166V0H19V106H196ZM380
479Q380 287 453 187T667 86Q808 86 880 199T953 532Q953 753 881 865T667 977Q527 977 454 876T380 584V479Z" />
<glyph unicode="&#x181;" glyph-name="uni0181" horiz-adv-x="1607" d="M507 1386Q280 1386 212 1297Q141 1206 141 1020H12V1364Q114 1440 294 1476Q409 1493 507 1493H1054Q1278 1493 1394 1400Q1509 1308 1509 1124Q1509 991 1430 912Q1350 833 1197 815Q1389
791 1486 694Q1584 596 1584 432Q1584 210 1444 105T1007 0H317V106H507V1386ZM710 862H964Q1128 862 1204 925Q1279 988 1279 1124Q1279 1281 1204 1324Q1097 1386 964 1386H710V862ZM710 106H1009Q1189 106 1272 184T1355 432Q1355 599 1272 678Q1190 756 1009
756H710V106Z" />
<glyph unicode="&#x182;" glyph-name="uni0182" horiz-adv-x="1505" d="M413 106H712Q892 106 975 184T1058 432Q1058 601 976 678T712 756H413V106ZM20 1493H1221V1160H1098V1370H413V862H667Q1047 862 1167 719T1287 432Q1287 210 1147 105T710 0H20V106H210V1386H20V1493Z"
/>
<glyph unicode="&#x183;" glyph-name="uni0183" horiz-adv-x="1182" d="M377 479Q377 287 451 186Q524 86 664 86Q805 86 877 199Q950 312 950 532Q950 753 877 865Q805 977 664 977Q524 977 451 876Q377 775 377 584V479ZM969 1556V1289H864V1433H377V897Q431
997 515 1044Q598 1092 721 1092Q917 1092 1041 937T1165 532T1041 126Q917 -29 721 -29Q598 -29 515 18Q431 66 377 166V0H16V106H193V1450H16V1556H969Z" />
<glyph unicode="&#x184;" glyph-name="uni0184" horiz-adv-x="1281" d="M407 106H706Q886 106 969 184T1052 432Q1052 601 970 678T706 756H407V106ZM14 1098L407 1493V862H661Q1041 862 1183 694Q1281 576 1281 432Q1281 210 1141 105T704 0H14V106H204V992H14V1098Z" />
<glyph unicode="&#x185;" glyph-name="uni0185" horiz-adv-x="1163" d="M373 479Q373 287 446 187T660 86Q801 86 873 199T946 532Q946 753 874 865T660 977Q520 977 447 876T373 584V479ZM373 1556V897Q427 997 510 1044T717 1092Q913 1092 1037 937T1161 532T1037
127T717 -29Q594 -29 511 18T373 166V0H12V106H189V1125H12V1251L373 1556Z" />
<glyph unicode="&#x186;" glyph-name="uni0186" horiz-adv-x="1362" d="M16 1096Q82 1305 237 1412T631 1520Q777 1520 902 1470T1124 1323Q1236 1211 1290 1069T1345 746Q1345 398 1144 185T614 -29Q492 -29 354 3T57 100V444H170Q207 256 318 167T631 78Q870
78 993 247T1116 746Q1116 1074 993 1243T631 1413Q464 1413 356 1334T200 1096H16Z" />
<glyph unicode="&#x187;" glyph-name="uni0187" horiz-adv-x="1756" d="M1345 395Q1279 186 1123 78Q968 -29 730 -29Q584 -29 459 21T237 168Q125 280 71 422Q16 565 16 745Q16 1093 217 1306Q418 1520 747 1520Q869 1520 1007 1488Q1106 1465 1215 1425Q1215
1512 1296 1570Q1371 1630 1485 1630Q1557 1630 1623 1614Q1688 1597 1750 1564V1345H1655Q1655 1441 1605 1486Q1563 1531 1481 1531Q1390 1531 1347 1470T1304 1279V1047H1191Q1154 1235 1043 1324Q931 1413 730 1413Q491 1413 368 1244Q245 1074 245 745Q245
417 368 248Q491 78 730 78Q897 78 1005 158Q1113 237 1161 395H1345Z" />
<glyph unicode="&#x188;" glyph-name="uni0188" horiz-adv-x="1375" d="M960 319Q921 149 810 60T523 -29Q291 -29 150 124Q9 278 9 532Q9 787 150 940Q291 1092 523 1092Q624 1092 724 1068Q773 1057 823 1039Q840 1183 922 1255Q982 1308 1106 1308Q1178 1308
1243 1292Q1309 1275 1371 1242V1023H1276Q1276 1119 1227 1164Q1184 1209 1102 1209Q1011 1209 967 1148Q925 1087 925 957V725H818Q797 865 727 929Q656 993 525 993Q376 993 300 878Q224 762 224 532T299 186Q375 70 525 70Q644 70 715 132T812 319H960Z" />
<glyph unicode="&#x189;" glyph-name="uni0189" horiz-adv-x="1653" d="M423 106H611Q902 106 1058 272T1214 748Q1214 1058 1059 1222T611 1386H423V844H759V719H423V106ZM32 0V106H222V719H22V844H222V1386H32V1493H626Q1012 1493 1227 1296T1443 748Q1443 396
1227 198T626 0H32Z" />
<glyph unicode="&#x18a;" glyph-name="uni018A" horiz-adv-x="1749" d="M508 1386Q281 1386 213 1297Q142 1206 142 1020H13V1364Q151 1467 295 1476Q389 1493 508 1493H912Q1298 1493 1513 1296Q1729 1099 1729 748Q1729 396 1513 198T912 0H318V106H508V1386ZM711
106H897Q1188 106 1343 272Q1499 438 1499 748T1344 1222T897 1386H711V106Z" />
<glyph unicode="&#x18b;" glyph-name="uni018B" horiz-adv-x="1310" d="M897 106V756H598Q417 756 334 678Q252 601 252 432Q252 262 335 184T598 106H897ZM1290 1493V1386H1100V106H1290V0H600Q303 0 163 105T23 432Q23 576 121 694Q263 862 643 862H897V1370H212V1161H89V1493H1290Z"
/>
<glyph unicode="&#x18c;" glyph-name="uni018C" horiz-adv-x="1182" d="M805 479V584Q805 775 732 876Q658 977 518 977Q377 977 304 865Q232 753 232 532Q232 312 304 199Q377 86 518 86Q658 86 732 186Q805 287 805 479ZM213 1556H1166V1450H989V106H1166V0H805V166Q751
66 668 18Q584 -29 461 -29Q265 -29 141 126Q17 282 17 532T141 937T461 1092Q584 1092 668 1044Q751 997 805 897V1433H318V1289H213V1556Z" />
<glyph unicode="&#x18d;" glyph-name="uni018D" horiz-adv-x="1060" d="M780 27Q846 2 879 -47Q917 -103 917 -240Q917 -369 819 -437Q721 -504 525 -504Q471 -504 367 -488Q263 -471 151 -440V-243L259 -218Q271 -307 343 -353Q415 -398 509 -398T672 -349Q745
-297 742 -231Q742 -136 705 -104Q628 -29 530 -29Q297 -29 156 124Q16 277 16 531T156 938Q297 1092 530 1092Q762 1092 903 938Q1044 785 1044 531T904 124Q841 57 780 27ZM530 993Q382 993 306 876Q231 759 231 531T306 186Q382 70 530 70T754 186Q829 303 829
531T753 876T530 993Z" />
<glyph unicode="&#x18e;" glyph-name="uni018E" horiz-adv-x="1272" d="M1252 0H34V332H157V123H859V748H370V561H247V1057H370V870H859V1370H173V1161H50V1493H1252V1386H1062V106H1252V0Z" />
<glyph unicode="&#x18f;" glyph-name="uni018F" horiz-adv-x="1480" d="M748 1413Q570 1413 462 1334Q354 1254 306 1096H122Q188 1305 343 1412Q499 1520 737 1520Q1062 1520 1262 1307T1462 745Q1462 566 1407 422Q1352 280 1240 168Q1141 70 1016 20Q890 -29
737 -29Q585 -29 457 21Q330 71 233 168Q121 280 67 422Q12 564 12 745V816H1230Q1230 1095 1107 1244Q982 1413 748 1413ZM1231 694H242Q242 402 366 246Q491 78 737 78Q982 78 1107 246Q1231 402 1231 694Z" />
<glyph unicode="&#x190;" glyph-name="uni0190" horiz-adv-x="1076" d="M1040 1430V1167H928Q915 1293 841 1357T596 1421Q426 1421 354 1352T282 1144Q282 1005 368 934T673 862H723V756H628Q409 756 319 667T229 412Q229 247 317 159T543 70Q679 70 773 139T874
265H1058Q1020 160 900 66T539 -29Q299 -29 159 82T18 403Q18 574 119 681T405 815Q249 847 164 937T79 1163Q79 1331 202 1425T594 1520Q801 1520 1040 1430Z" />
<glyph unicode="&#x191;" glyph-name="uni0191" horiz-adv-x="1547" d="M300 -426Q155 -426 9 -358V-123H123Q123 -319 302 -319Q421 -319 468 -244Q516 -167 515 49V1386H325V1493H1547V1161H1424V1370H718V870H1228V1057H1351V561H1228V748H718V41Q718 -272
552 -371Q459 -426 300 -426Z" />
<glyph unicode="&#x192;" glyph-name="florin" horiz-adv-x="1078" d="M1078 1305H981Q981 1326 977 1345Q968 1391 939 1419Q897 1458 818 1458Q715 1458 673 1402Q631 1345 631 1200V1063H928V956H631V-19Q631 -197 539 -288Q446 -379 267 -379Q200 -379 133
-367T0 -330V-128H97Q97 -149 101 -168Q110 -214 139 -242Q181 -281 260 -281Q363 -281 405 -224Q447 -168 447 -19V956H271V1063H447V1196Q447 1374 539 1465Q632 1556 811 1556Q878 1556 945 1544T1078 1507V1305Z" />
<glyph unicode="&#x193;" glyph-name="uni0193" horiz-adv-x="1780" d="M1501 1531Q1376 1531 1340 1413Q1324 1359 1324 1279V1047H1211V1052Q1159 1319 944 1387Q863 1413 757 1413Q499 1413 372 1247T245 745Q245 215 577 105Q660 78 761 78Q987 78 1173 190V575H892V682H1376V125Q1110
-29 761 -29Q423 -29 219 182Q16 394 16 745Q16 1099 220 1310Q424 1520 769 1520Q981 1520 1230 1436Q1255 1513 1316 1570Q1380 1630 1505 1630Q1646 1630 1770 1564V1345H1675Q1675 1492 1565 1522Q1537 1531 1501 1531Z" />
<glyph unicode="&#x194;" glyph-name="uni0194" horiz-adv-x="1383" d="M605 733L169 1386H9V1493H601V1386H425L745 905L1074 1386H882V1493H1371V1386H1203L808 811Q1363 126 1179 -44Q1023 -188 671 -188Q316 -188 255 12Q199 193 605 733ZM671 636Q383 258
383 56Q383 -82 671 -82Q943 -82 943 56Q943 268 671 636Z" />
<glyph unicode="&#x195;" glyph-name="uni0195" horiz-adv-x="1756" d="M32 0V106H198V1450H22V1556H382V874Q433 982 514 1037Q596 1092 704 1092Q882 1092 963 991Q1046 888 1046 676V351Q1046 220 1088 160Q1131 100 1223 99Q1348 99 1460 229Q1551 336 1551
526Q1551 680 1490 783Q1429 885 1311 931V990H1423Q1577 926 1666 797Q1756 667 1756 510Q1756 399 1714 303Q1671 205 1590 131Q1518 64 1424 29Q1329 -7 1223 -7Q1059 -7 954 94Q861 177 861 351V618Q861 813 814 884Q766 956 644 956Q516 956 449 863T382 592V106H542V0H32Z"
/>
<glyph unicode="&#x196;" glyph-name="uni0196" horiz-adv-x="593" d="M393 351Q393 220 435 160Q479 99 570 99H583V0H570Q369 0 307 54Q190 155 190 351V1386H0V1493H583V1386H393V351Z" />
<glyph unicode="&#x197;" glyph-name="uni0197" horiz-adv-x="619" d="M412 106H602V0H19V106H209V719H9V844H209V1386H19V1493H602V1386H412V844H610V719H412V106Z" />
<glyph unicode="&#x198;" glyph-name="uni0198" horiz-adv-x="1606" d="M1054 1386Q1203 1517 1327 1517Q1394 1517 1459 1500Q1530 1482 1587 1451V1232H1492Q1492 1328 1443 1373Q1406 1411 1345 1416Q1258 1416 1183 1356L579 823L1296 106H1466V0H1119L411
709V106H601V0H18V106H208V1386H18V1493H601V1386H411V821L1054 1386Z" />
<glyph unicode="&#x199;" glyph-name="uni0199" horiz-adv-x="1200" d="M362 543L809 956H656V1063H1137V956H955L639 664L1043 106H1196V0H672V106H824L506 543L361 408V106H527V0H11V106H177V1205Q177 1367 275 1462Q372 1556 543 1556Q620 1556 681 1540Q746
1523 808 1490V1271H713Q713 1367 663 1412Q621 1457 539 1457Q448 1457 405 1396Q362 1337 362 1205V543Z" />
<glyph unicode="&#x19a;" glyph-name="uni019A" horiz-adv-x="546" d="M10 464V570H186V1450H9V1556H370V570H544V464H370V106H544V0H9V106H186V464H10Z" />
<glyph unicode="&#x19b;" glyph-name="uni019B" horiz-adv-x="1177" d="M467 1307Q430 1399 396 1429Q361 1460 308 1460Q248 1460 220 1431Q191 1401 185 1333H91V1536Q141 1551 190 1559Q240 1567 287 1567Q398 1567 459 1521Q520 1476 570 1352L717 1450L777
1364L610 1249L1057 107H1176V0H777V107H936L653 841L338 107H508V0H19V107H140L553 1084L515 1183L248 996L187 1082L475 1285L467 1307Z" />
<glyph unicode="&#x19c;" glyph-name="uni019C" horiz-adv-x="1852" d="M843 207Q790 90 708 31T515 -29Q349 -29 266 74Q184 177 184 387V1389H18V1495H528V1389H368V408Q368 245 416 176T575 107Q698 107 762 200Q827 294 827 471V1389H667V1495H1171V1389H1011V401Q1011
242 1059 175T1218 107Q1341 107 1406 200Q1470 294 1470 471V1389H1310V1495H1820V1389H1654V105H1830V0H1470V189Q1419 83 1340 27T1161 -29Q1037 -29 954 32T843 207Z" />
<glyph unicode="&#x19d;" glyph-name="uni019D" horiz-adv-x="1923" d="M13 -358V-123H127Q127 -222 174 -270Q218 -319 306 -319Q425 -319 472 -244T519 49V1386H318V1493H701L1596 315V1386H1396V1493H1920V1386H1719V-29H1598L643 1228V41Q643 -206 544 -316T253
-426Q233 -426 160 -409Q86 -392 13 -358Z" />
<glyph unicode="&#x19e;" glyph-name="uni019E" horiz-adv-x="1201" d="M11 0V106H177V956H1V1063H361V874Q412 982 493 1037T683 1092Q859 1092 942 991T1025 676V-320H1189V-426H681V-320H840V618Q840 813 792 885T623 958Q495 958 428 865T361 592V106H521V0H11Z" />
<glyph unicode="&#x19f;" glyph-name="uni019F" horiz-adv-x="1486" d="M743 -29Q591 -29 464 21T239 168Q127 280 73 422T18 745T72 1068T239 1323Q337 1421 463 1470T743 1520Q1068 1520 1268 1307T1468 745Q1468 566 1413 422Q1358 280 1246 168Q1147 70 1022
20Q896 -29 743 -29ZM743 78Q988 78 1113 246Q1228 402 1237 694H248Q257 402 372 246Q497 78 743 78ZM1236 816Q1224 1095 1113 1244Q988 1413 743 1413Q497 1413 372 1244Q261 1095 249 816H1236Z" />
<glyph unicode="&#x1a0;" glyph-name="Ohorn" horiz-adv-x="1679" d="M995 78Q1240 78 1365 246T1490 745Q1490 1076 1365 1244T995 1413Q749 1413 624 1245T499 745Q499 415 624 247T995 78ZM995 -29Q843 -29 716 21T491 168Q379 280 325 422T270 745Q270 926
324 1068T491 1323Q589 1421 715 1470T995 1520Q1320 1520 1520 1307T1720 745Q1720 566 1665 423T1498 168Q1400 70 1274 21T995 -29ZM1526 1313V1407L1528 1406Q1650 1319 1698 1319Q1744 1319 1772 1352T1800 1442Q1800 1469 1794 1498T1774 1557L1902 1556Q1911
1520 1915 1487T1920 1421Q1920 1308 1875 1246T1750 1184Q1701 1184 1648 1214T1526 1313Z" />
<glyph unicode="&#x1a1;" glyph-name="ohorn" horiz-adv-x="1233" d="M786 70Q934 70 1009 187T1085 532Q1085 760 1010 876T786 993Q638 993 563 877T487 532Q487 304 563 187T786 70ZM786 -29Q554 -29 413 124T272 532Q272 786 412 939T786 1092Q1019 1092 1159
939T1300 532Q1300 278 1160 125T786 -29ZM1233 845V939L1235 938Q1357 851 1405 851Q1451 851 1479 884T1507 974Q1507 1001 1501 1030T1481 1089L1609 1088Q1618 1052 1622 1019T1627 953Q1627 840 1582 778T1457 716Q1408 716 1355 746T1233 845Z" />
<glyph unicode="&#x1a2;" glyph-name="uni01A2" horiz-adv-x="1980" d="M732 -29Q580 -29 453 21T228 168Q116 280 62 422T7 745T61 1068T228 1323Q326 1421 452 1470T732 1520Q936 1520 1090 1436Q1151 1462 1212 1476Q1285 1493 1356 1493Q1576 1493 1675 1383T1774
1026V-214H1964V-321H1339V-214H1571V1018Q1571 1236 1524 1311T1358 1386Q1270 1386 1226 1338Q1242 1323 1257 1307Q1457 1094 1457 745Q1457 566 1402 422Q1347 280 1235 168Q1136 70 1011 20Q885 -29 732 -29ZM732 78Q977 78 1102 246T1227 745Q1227 1076 1102
1244T732 1413Q486 1413 361 1245T236 745Q236 415 361 247T732 78Z" />
<glyph unicode="&#x1a3;" glyph-name="uni01A3" horiz-adv-x="1507" d="M770 1033Q770 1035 815 1046Q880 1063 952 1063Q1123 1063 1220 970T1318 712V-319H1494V-426H960V-319H1134V712Q1134 841 1091 902T956 964Q891 964 879 951L891 939Q1031 786 1031 532T891
125T517 -29Q285 -29 144 124T3 532T143 939T517 1092Q661 1092 770 1033ZM517 70Q665 70 740 187T816 532T741 876T517 993T294 877T218 532T294 187T517 70Z" />
<glyph unicode="&#x1a4;" glyph-name="uni01A4" horiz-adv-x="1512" d="M506 1493H1022Q1246 1493 1377 1380Q1508 1266 1508 1073Q1508 881 1377 767T1022 653H709V106H940V0H316V106H506V1386Q279 1386 211 1297Q140 1206 140 1020H11V1364Q109 1437 293 1476Q408
1493 506 1493ZM709 760H973Q1122 760 1200 840Q1278 921 1278 1073Q1278 1226 1200 1306T973 1386H709V760Z" />
<glyph unicode="&#x1a5;" glyph-name="uni01A5" horiz-adv-x="1161" d="M371 584V479Q371 287 445 186Q518 86 658 86Q799 86 871 199Q944 312 944 532Q944 753 871 865Q799 977 658 977Q518 977 445 876Q371 775 371 584ZM186 1115Q186 1281 283 1373Q381 1466
552 1466Q619 1466 689 1449Q755 1433 817 1400V1181H722Q722 1277 673 1322Q630 1367 548 1367Q457 1367 413 1305Q371 1245 371 1115V897Q425 997 509 1044Q592 1092 715 1092Q911 1092 1035 937T1159 532T1035 126Q911 -29 715 -29Q592 -29 509 18Q425 66 371
166V-319H545V-426H10V-319H186V1115Z" />
<glyph unicode="&#x1a6;" glyph-name="uni01A6" horiz-adv-x="1481" d="M193 1386H3V1493H607V1386H396V1168H760Q978 1168 1096 1064T1215 769Q1215 615 1129 527T871 416Q941 397 992 352Q1042 306 1082 224L1299 -219H1481V-325H1129L896 150Q828 289 773 328Q717
369 619 369H396V106H607V0H3V106H193V1386ZM396 476H691Q842 476 914 547T986 769T914 990T691 1061H396V476Z" />
<glyph unicode="&#x1a7;" glyph-name="uni01A7" horiz-adv-x="1123" d="M1082 72Q950 21 823 -4Q695 -29 572 -29Q297 -29 158 81T19 408Q19 567 105 662Q192 756 395 817L580 872Q781 932 843 993T905 1161Q905 1284 823 1348Q740 1413 582 1413Q401 1413 313
1342Q224 1272 207 1114H94V1432Q234 1475 358 1498Q482 1520 586 1520Q830 1520 965 1415T1100 1120Q1100 951 1013 854Q925 757 711 692L514 633Q332 578 275 520Q219 462 219 354Q219 219 313 148Q406 78 584 78Q775 78 869 160Q962 241 967 412H1082V72Z" />
<glyph unicode="&#x1a8;" glyph-name="uni01A8" horiz-adv-x="873" d="M849 59Q751 15 653 -7T452 -29Q249 -29 133 58Q18 144 18 295Q18 406 85 476Q151 547 302 594L448 639Q583 681 628 722Q673 762 673 829Q673 911 613 952Q554 993 438 993Q321 993 253 935T181
774H75V1006Q174 1048 267 1070T444 1092Q633 1092 740 1009T847 780Q847 678 785 612Q724 546 587 502L454 457Q301 408 253 365Q206 322 206 252Q206 163 271 116Q336 70 460 70Q598 70 669 129Q739 188 743 307H849V59Z" />
<glyph unicode="&#x1a9;" glyph-name="uni01A9" horiz-adv-x="1448" d="M896 814L343 188H1123V332H1246V0H19L683 748L19 1493H1246V1161H1123V1370H428L896 814Z" />
<glyph unicode="&#x1aa;" glyph-name="uni01AA" horiz-adv-x="1006" d="M384 1459Q225 1459 225 1352Q225 1229 536 1229Q550 1229 564 1230Q572 1325 519 1397Q473 1459 384 1459ZM737 1333Q768 1394 768 1489V1553H868L867 1489Q864 1269 742 1183Q653 643 545
-105Q529 -214 588 -295Q631 -357 722 -357Q804 -357 847 -311Q889 -267 896 -171H991V-389Q929 -423 864 -439Q798 -455 726 -455Q555 -455 458 -362Q338 -247 360 -105Q355 -91 549 1129Q544 1129 540 1129Q2 1129 7 1359Q11 1558 386 1558Q547 1558 649 1465Q714
1404 737 1333Z" />
<glyph unicode="&#x1ab;" glyph-name="uni01AB" horiz-adv-x="754" d="M166 956H4V1063H166V1393H351V1063H697V956H351V281Q351 146 377 108T473 70Q545 70 578 112T613 250H752V-104Q752 -268 655 -361T386 -455Q314 -455 249 -439T121 -389V-170H216Q223 -266
265 -311T390 -356Q481 -356 525 -294Q567 -234 567 -104V-17Q519 -29 457 -29Q298 -29 232 41T166 281V956Z" />
<glyph unicode="&#x1ac;" glyph-name="uni01AC" horiz-adv-x="1273" d="M503 1493H1267V1141H1144V1374H705V106H896V0H312V106H503V1374Q276 1374 207 1285Q137 1194 137 1008H8V1364Q110 1440 290 1476Q410 1493 503 1493Z" />
<glyph unicode="&#x1ad;" glyph-name="uni01AD" horiz-adv-x="818" d="M350 1063H696V956H350V281Q350 146 376 108T472 70Q544 70 577 112Q610 155 612 250H751Q751 105 672 38Q601 -29 456 -29Q297 -29 231 42Q165 112 165 281V956H3V1063H165V1205Q165 1367
263 1462Q360 1556 531 1556Q608 1556 669 1540Q734 1523 796 1490V1271H701Q701 1367 651 1412Q609 1457 527 1457Q436 1457 393 1396Q350 1337 350 1205V1063Z" />
<glyph unicode="&#x1ae;" glyph-name="uni01AE" horiz-adv-x="1356" d="M1272 -358Q1199 -392 1126 -409Q1052 -426 981 -426Q761 -426 662 -316T564 41V1374H125V1141H2V1493H1328V1141H1205V1374H766V49Q766 -166 813 -244Q858 -319 979 -319Q1067 -319 1111
-270Q1155 -222 1158 -123H1272V-358Z" />
<glyph unicode="&#x1af;" glyph-name="Uhorn" horiz-adv-x="1726" d="M454 1386H263V1493H847V1386H656V614Q656 328 749 215T1072 102Q1301 102 1394 215T1488 614V1386H1297V1493H1801V1386H1611V594Q1611 253 1480 112T1035 -29Q721 -29 588 113T454 594V1386ZM1932
1399V1493L1934 1492Q2056 1405 2104 1405Q2150 1405 2178 1438T2206 1528Q2206 1555 2200 1584T2180 1643L2308 1642Q2317 1606 2321 1573T2326 1507Q2326 1394 2281 1332T2156 1270Q2107 1270 2054 1300T1932 1399Z" />
<glyph unicode="&#x1b0;" glyph-name="uhorn" horiz-adv-x="1319" d="M928 1063H1272V106H1446V0H1088V188Q1037 82 956 27T768 -29Q591 -29 508 71T424 387V956H258V1063H609V444Q609 250 656 178T826 106Q954 106 1021 200T1088 473V956H928V1063ZM1319 845V939L1321
938Q1443 851 1491 851Q1537 851 1565 884T1593 974Q1593 1001 1587 1030T1567 1089L1695 1088Q1704 1052 1708 1019T1713 953Q1713 840 1668 778T1543 716Q1494 716 1441 746T1319 845Z" />
<glyph unicode="&#x1b1;" glyph-name="uni01B1" horiz-adv-x="1498" d="M479 1356H143V1219H26V1520H618V1338Q438 1268 345 1112Q253 957 253 725Q253 446 390 276Q527 107 749 107T1108 276Q1245 446 1245 725Q1245 958 1153 1113T882 1338V1520H1472V1219H1355V1356H1021Q1230
1269 1352 1093T1474 703Q1474 552 1417 421Q1359 290 1249 187Q1150 96 1022 48T749 0T477 48Q350 95 251 187Q140 290 82 422Q24 553 24 703Q24 916 147 1092Q269 1269 479 1356Z" />
<glyph unicode="&#x1b2;" glyph-name="uni01B2" horiz-adv-x="1344" d="M606 0Q393 -11 318 54Q201 155 201 351V1386H11V1493H594V1386H404V351Q404 226 446 160Q476 113 606 107Q820 98 965 276Q1102 446 1102 725Q1102 974 1010 1113Q922 1244 770 1272V1386H878Q1100
1303 1206 1128Q1331 920 1331 703Q1331 552 1274 421Q1215 287 1106 187Q1007 96 879 48Q774 9 606 0Z" />
<glyph unicode="&#x1b3;" glyph-name="uni01B3" horiz-adv-x="1666" d="M809 106H1000V0H416V106H607V643L146 1386H6V1493H561V1386H387L760 782L1133 1386Q1263 1493 1399 1493Q1466 1493 1536 1476Q1602 1460 1664 1427V1208H1569Q1562 1304 1520 1349Q1477
1394 1395 1394Q1269 1394 1218 1322L809 662V106Z" />
<glyph unicode="&#x1b4;" glyph-name="uni01B4" horiz-adv-x="1381" d="M1005 825L569 -240Q519 -364 458 -409T286 -455Q239 -455 190 -447T90 -424V-221H184Q190 -289 218 -318T307 -348Q362 -348 395 -318T466 -195L536 -18L139 956H18V1063H507V956H337L636
225L902 870Q952 994 1013 1039T1185 1085Q1232 1085 1281 1077T1381 1054V851H1287Q1281 919 1253 948T1164 978Q1109 978 1076 948T1005 825Z" />
<glyph unicode="&#x1b5;" glyph-name="uni01B5" horiz-adv-x="1309" d="M29 0V72L493 719H187V844H582L959 1370H187V1147H64V1493H1244V1421L831 844H1158V719H741L314 123H1158V332H1280V0H29Z" />
<glyph unicode="&#x1b6;" glyph-name="uni01B6" horiz-adv-x="983" d="M30 0V86L319 464H169V570H401L696 956H169V772H63V1063H933V977L622 570H845V464H541L267 106H845V299H952V0H30Z" />
<glyph unicode="&#x1b7;" glyph-name="uni01B7" horiz-adv-x="1040" d="M454 852H359V954L703 1370H176V1147H53V1493H926V1368L557 923L636 916Q820 887 922 766Q1023 646 1023 454Q1023 220 882 95Q742 -29 478 -29Q361 -29 250 -1Q138 27 28 84V408H140Q150
247 237 164T482 81Q635 81 724 181Q812 280 812 452Q812 649 721 751Q630 852 454 852Z" />
<glyph unicode="&#x1b8;" glyph-name="uni01B8" horiz-adv-x="1040" d="M586 852Q410 852 319 751Q228 649 228 452Q228 280 316 181Q405 81 558 81Q716 81 803 164T900 408H1012V84Q902 27 790 -1Q679 -29 562 -29Q298 -29 158 95Q17 220 17 454Q17 646 118 766Q220
887 404 916L483 923L114 1368V1493H987V1147H864V1370H337L681 954V852H586Z" />
<glyph unicode="&#x1b9;" glyph-name="uni01B9" horiz-adv-x="1040" d="M586 423Q410 423 319 322Q228 220 228 23Q228 -149 316 -248Q405 -348 558 -348Q716 -348 803 -265T900 -21H1012V-345Q902 -402 790 -430Q679 -458 562 -458Q298 -458 158 -334Q17 -209
17 25Q17 217 118 337Q220 458 404 487L483 494L114 977V1063H984V772H878V956H351L681 525V423H586Z" />
<glyph unicode="&#x1ba;" glyph-name="uni01BA" horiz-adv-x="986" d="M428 423H333V525L663 956H136V772H30V1063H900V977L531 494Q970 455 970 282Q970 89 594 -19T218 -231Q218 -348 497 -348T821 -130H916V-284Q796 -458 413 -458T30 -246Q30 -62 396 25T762
292Q762 423 428 423Z" />
<glyph unicode="&#x1bb;" glyph-name="uni01BB" horiz-adv-x="1029" d="M148 1137H36V1403Q143 1460 251 1490T464 1520Q697 1520 832 1407T967 1100Q967 984 881 844H1008V719H792Q736 650 661 576L625 541L248 164H871V348H988V0H25V109L478 561Q561 644 617
719H148V844H696Q756 966 756 1100Q756 1251 678 1336T461 1421Q318 1421 240 1350T148 1137Z" />
<glyph unicode="&#x1bc;" glyph-name="uni01BC" horiz-adv-x="1176" d="M766 840Q950 814 1051 707T1153 403Q1153 194 1013 83T608 -29Q491 -29 380 -4T158 72V362H270Q280 218 367 144T612 70Q765 70 853 158T942 401Q942 577 851 667T584 758H202V1386H12V1493H1097V1161H974V1370H405V860H539Q624
860 766 840Z" />
<glyph unicode="&#x1bd;" glyph-name="uni01BD" horiz-adv-x="1094" d="M506 525L688 504Q872 475 974 354Q1075 234 1075 25Q1075 -209 934 -334Q794 -458 530 -458Q413 -458 302 -430Q190 -402 80 -345V-21H192Q202 -182 289 -265T534 -348Q687 -348 776 -248Q864
-149 864 23Q864 220 773 322Q682 423 506 423H194V958H17V1063H970V796H865V940H378V525H506Z" />
<glyph unicode="&#x1be;" glyph-name="uni01BE" horiz-adv-x="669" d="M186 1393H370V1064H544V958H370V787Q484 779 566 702Q664 608 664 380Q664 156 566 63Q469 -30 298 -30Q226 -30 160 -14Q95 2 33 36V254H128Q135 158 178 114Q220 68 302 68Q393 68 436
130Q479 190 479 380Q479 574 436 634Q393 696 302 696H186V958H10V1064H186V1393Z" />
<glyph unicode="&#x1bf;" glyph-name="uni01BF" horiz-adv-x="1142" d="M373 950Q528 1147 801 1147Q985 1147 1062 1035T1140 769Q1140 315 373 -122V-319H547V-426H12V-319H189V956H12V1063H373V950ZM373 -10Q956 358 956 769Q956 902 896 977T716 1052Q546
1052 373 813V-10Z" />
<glyph unicode="&#x1c0;" glyph-name="uni01C0" horiz-adv-x="235" d="M197 1493V0H35V1493H197Z" />
<glyph unicode="&#x1c1;" glyph-name="uni01C1" horiz-adv-x="1008" d="M601 1493V0H439V1493H601ZM197 1493V0H35V1493H197Z" />
<glyph unicode="&#x1c2;" glyph-name="uni01C2" horiz-adv-x="904" d="M371 851H0V1013H371V1493H533V1013H904V851H533V642H904V480H533V0H371V480H0V642H371V851Z" />
<glyph unicode="&#x1c3;" glyph-name="uni01C3" horiz-adv-x="221" d="M190 156V0H28V156H190ZM190 1493V312H28V1493H190Z" />
<glyph unicode="&#x1c4;" glyph-name="uni01C4" horiz-adv-x="2895" d="M1626 0V72L2556 1370H1784V1147H1661V1493H2841V1421L1911 123H2755V332H2877V0H1626ZM2159 1635L1928 1899H2044L2247 1737L2450 1899H2566L2335 1635H2159ZM398 106H584Q875 106 1030
272T1186 748Q1186 1058 1031 1222T584 1386H398V106ZM5 0V106H195V1386H5V1493H599Q985 1493 1200 1296T1416 748Q1416 396 1200 198T599 0H5Z" />
<glyph unicode="&#x1c5;" glyph-name="uni01C5" horiz-adv-x="2577" d="M1628 0V86L2294 956H1767V772H1661V1063H2531V977L1865 106H2443V299H2550V0H1628ZM2003 1262L1768 1638H1884L2087 1378L2290 1638H2406L2171 1262H2003ZM410 106H596Q887 106 1042 272T1198
748Q1198 1058 1043 1222T596 1386H410V106ZM17 0V106H207V1386H17V1493H611Q997 1493 1212 1296T1428 748Q1428 396 1212 198T611 0H17Z" />
<glyph unicode="&#x1c6;" glyph-name="uni01C6" horiz-adv-x="2246" d="M1302 0V86L1968 956H1441V772H1335V1063H2205V977L1539 106H2117V299H2224V0H1302ZM1677 1262L1442 1638H1558L1761 1378L1964 1638H2080L1845 1262H1677ZM984 106H1160V0H800V166Q746 66
663 19T456 -29Q260 -29 136 126T11 532Q11 782 135 937T456 1092Q579 1092 662 1045T800 897V1450H626V1556H984V106ZM800 479V584Q800 775 727 876T513 977Q371 977 299 865T226 532Q226 312 298 199T513 86Q653 86 726 186T800 479Z" />
<glyph unicode="&#x1c7;" glyph-name="uni01C7" horiz-adv-x="2181" d="M1361 -358V-123H1475Q1478 -222 1522 -270T1654 -319Q1773 -319 1820 -244T1867 49V1386H1635V1493H2260V1386H2070V41Q2070 -206 1971 -316T1652 -426Q1581 -426 1508 -409T1361 -358ZM21
0V106H211V1386H21V1493H604V1386H414V123H1096V373H1219V0H21Z" />
<glyph unicode="&#x1c8;" glyph-name="uni01C8" horiz-adv-x="1995" d="M1762 1393Q1762 1439 1795 1473T1876 1507Q1922 1507 1955 1473T1989 1393Q1989 1346 1957 1313T1876 1280Q1829 1280 1796 1313T1762 1393ZM1807 956H1633V1063H1991V-104Q1991 -268 1894
-361T1625 -455Q1553 -455 1488 -439T1360 -389V-170H1455Q1462 -266 1504 -311T1629 -356Q1720 -356 1763 -295T1807 -104V956ZM21 0V106H211V1386H21V1493H604V1386H414V123H1096V373H1219V0H21Z" />
<glyph unicode="&#x1c9;" glyph-name="uni01C9" horiz-adv-x="1290" d="M1057 1393Q1057 1439 1090 1473T1171 1507Q1217 1507 1250 1473T1284 1393Q1284 1346 1252 1313T1171 1280Q1124 1280 1091 1313T1057 1393ZM1102 956H928V1063H1286V-104Q1286 -268 1189
-361T920 -455Q848 -455 783 -439T655 -389V-170H750Q757 -266 799 -311T924 -356Q1015 -356 1058 -295T1102 -104V956ZM368 106H542V0H7V106H184V1450H7V1556H368V106Z" />
<glyph unicode="&#x1ca;" glyph-name="uni01CA" horiz-adv-x="2613" d="M1793 -358V-123H1907Q1910 -222 1954 -270T2086 -319Q2205 -319 2252 -244T2299 49V1386H2067V1493H2692V1386H2502V41Q2502 -206 2403 -316T2084 -426Q2013 -426 1940 -409T1793 -358ZM17
0V106H218V1386H17V1493H400L1295 315V1386H1095V1493H1619V1386H1418V-29H1297L341 1229V106H542V0H17Z" />
<glyph unicode="&#x1cb;" glyph-name="uni01CB" horiz-adv-x="2427" d="M2194 1393Q2194 1439 2227 1473T2308 1507Q2354 1507 2387 1473T2421 1393Q2421 1346 2389 1313T2308 1280Q2261 1280 2228 1313T2194 1393ZM2239 956H2065V1063H2423V-104Q2423 -268 2326
-361T2057 -455Q1985 -455 1920 -439T1792 -389V-170H1887Q1894 -266 1936 -311T2061 -356Q2152 -356 2195 -295T2239 -104V956ZM17 0V106H218V1386H17V1493H400L1295 315V1386H1095V1493H1619V1386H1418V-29H1297L341 1229V106H542V0H17Z" />
<glyph unicode="&#x1cc;" glyph-name="uni01CC" horiz-adv-x="1954" d="M1721 1393Q1721 1439 1754 1473T1835 1507Q1881 1507 1914 1473T1948 1393Q1948 1346 1916 1313T1835 1280Q1788 1280 1755 1313T1721 1393ZM1766 956H1592V1063H1950V-104Q1950 -268 1853
-361T1584 -455Q1512 -455 1447 -439T1319 -389V-170H1414Q1421 -266 1463 -311T1588 -356Q1679 -356 1722 -295T1766 -104V956ZM30 0V106H196V956H20V1063H380V874Q431 982 512 1037T702 1092Q878 1092 961 991T1044 676V106H1208V0H700V106H859V618Q859 813 811
885T642 958Q514 958 447 865T380 592V106H540V0H30Z" />
<glyph unicode="&#x1cd;" glyph-name="uni01CD" horiz-adv-x="1479" d="M424 541H972L698 1251L424 541ZM2 0V106H133L665 1493H833L1366 106H1513V0H970V106H1136L1011 434H383L258 106H422V0H2ZM1486 1635L1255 1899H1371L1574 1737L1777 1899H1893L1662 1635H1486Z" />
<glyph unicode="&#x1ce;" glyph-name="uni01CE" horiz-adv-x="1221" d="M733 334V559H496Q359 559 292 500T225 319Q225 208 293 143T477 78Q592 78 662 149T733 334ZM917 664V106H1081V0H733V115Q672 41 592 6T405 -29Q228 -29 124 65T20 319Q20 484 139 575T475
666H733V739Q733 860 660 926T453 993Q343 993 278 943T197 795H102V1010Q198 1051 288 1071T465 1092Q686 1092 801 983T917 664ZM297 1262L62 1638H178L381 1378L584 1638H700L465 1262H297Z" />
<glyph unicode="&#x1cf;" glyph-name="uni01CF" horiz-adv-x="809" d="M402 106H592V0H9V106H199V1386H9V1493H592V1386H402V106ZM1154 1635L923 1899H1039L1242 1737L1445 1899H1561L1330 1635H1154Z" />
<glyph unicode="&#x1d0;" glyph-name="uni01D0" horiz-adv-x="655" d="M375 106H549V0H15V106H191V956H15V1063H375V106ZM57 1262L-178 1638H-62L141 1378L344 1638H460L225 1262H57Z" />
<glyph unicode="&#x1d1;" glyph-name="uni01D1" horiz-adv-x="1679" d="M743 78Q988 78 1113 246T1238 745Q1238 1076 1113 1244T743 1413Q497 1413 372 1245T247 745Q247 415 372 247T743 78ZM743 -29Q591 -29 464 21T239 168Q127 280 73 422T18 745Q18 926 72
1068T239 1323Q337 1421 463 1470T743 1520Q1068 1520 1268 1307T1468 745Q1468 566 1413 423T1246 168Q1148 70 1022 21T743 -29ZM1588 1635L1357 1899H1473L1676 1737L1879 1899H1995L1764 1635H1588Z" />
<glyph unicode="&#x1d2;" glyph-name="uni01D2" horiz-adv-x="1233" d="M532 70Q680 70 755 187T831 532Q831 760 756 876T532 993Q384 993 309 877T233 532Q233 304 309 187T532 70ZM532 -29Q300 -29 159 124T18 532Q18 786 158 939T532 1092Q765 1092 905 939T1046
532Q1046 278 906 125T532 -29ZM344 1262L109 1638H225L428 1378L631 1638H747L512 1262H344Z" />
<glyph unicode="&#x1d3;" glyph-name="uni01D3" horiz-adv-x="1726" d="M203 1386H12V1493H596V1386H405V614Q405 328 498 215T821 102Q1050 102 1143 215T1237 614V1386H1046V1493H1550V1386H1360V594Q1360 253 1229 112T784 -29Q470 -29 337 113T203 594V1386ZM1652
1635L1421 1899H1537L1740 1737L1943 1899H2059L1828 1635H1652Z" />
<glyph unicode="&#x1d4;" glyph-name="uni01D4" horiz-adv-x="1319" d="M682 1063H1026V106H1200V0H842V188Q791 82 710 27T522 -29Q345 -29 262 71T178 387V956H12V1063H363V444Q363 250 410 178T580 106Q708 106 775 200T842 473V956H682V1063ZM312 1262L77
1638H193L396 1378L599 1638H715L480 1262H312Z" />
<glyph unicode="&#x1d5;" glyph-name="uni01D5" horiz-adv-x="1547" d="M616 1852Q664 1852 698 1817T733 1736Q733 1686 700 1653T616 1619Q567 1619 534 1652T500 1736Q500 1782 534 1817T616 1852ZM1006 1852Q1053 1852 1087 1817T1122 1736Q1122 1686 1089
1653T1006 1619Q956 1619 923 1652T889 1736Q889 1782 923 1817T1006 1852ZM513 2099H1111V1951H513V2099ZM195 1386H4V1493H588V1386H397V614Q397 328 490 215T813 102Q1042 102 1135 215T1229 614V1386H1038V1493H1542V1386H1352V594Q1352 253 1221 112T776 -29Q462
-29 329 113T195 594V1386Z" />
<glyph unicode="&#x1d6;" glyph-name="uni01D6" horiz-adv-x="1194" d="M337 1568Q385 1568 419 1533T454 1452Q454 1402 421 1369T337 1335Q288 1335 255 1368T221 1452Q221 1498 255 1533T337 1568ZM727 1568Q774 1568 808 1533T843 1452Q843 1402 810 1369T727
1335Q677 1335 644 1368T610 1452Q610 1498 644 1533T727 1568ZM234 1815H832V1667H234V1815ZM674 1063H1018V106H1192V0H834V188Q783 82 702 27T514 -29Q337 -29 254 71T170 387V956H4V1063H355V444Q355 250 402 178T572 106Q700 106 767 200T834 473V956H674V1063Z"
/>
<glyph unicode="&#x1d7;" glyph-name="uni01D7" horiz-adv-x="1545" d="M193 1386H2V1493H586V1386H395V614Q395 328 488 215T811 102Q1040 102 1133 215T1227 614V1386H1036V1493H1540V1386H1350V594Q1350 253 1219 112T774 -29Q460 -29 327 113T193 594V1386ZM614
1852Q662 1852 696 1817T731 1736Q731 1686 698 1653T614 1619Q565 1619 532 1652T498 1736Q498 1782 532 1817T614 1852ZM1004 1852Q1051 1852 1085 1817T1120 1736Q1120 1686 1087 1653T1004 1619Q954 1619 921 1652T887 1736Q887 1782 921 1817T1004 1852ZM924
2138H1121L859 1874H742L924 2138Z" />
<glyph unicode="&#x1d8;" glyph-name="uni01D8" horiz-adv-x="1193" d="M336 1568Q384 1568 418 1533T453 1452Q453 1402 420 1369T336 1335Q287 1335 254 1368T220 1452Q220 1498 254 1533T336 1568ZM726 1568Q773 1568 807 1533T842 1452Q842 1402 809 1369T726
1335Q676 1335 643 1368T609 1452Q609 1498 643 1533T726 1568ZM646 1854H843L581 1590H464L646 1854ZM672 1063H1016V106H1190V0H832V188Q781 82 700 27T512 -29Q335 -29 252 71T168 387V956H2V1063H353V444Q353 250 400 178T570 106Q698 106 765 200T832 473V956H672V1063Z"
/>
<glyph unicode="&#x1d9;" glyph-name="uni01D9" horiz-adv-x="1547" d="M195 1386H4V1493H588V1386H397V614Q397 328 490 215T813 102Q1042 102 1135 215T1229 614V1386H1038V1493H1542V1386H1352V594Q1352 253 1221 112T776 -29Q462 -29 329 113T195 594V1386ZM616
1852Q664 1852 698 1817T733 1736Q733 1686 700 1653T616 1619Q567 1619 534 1652T500 1736Q500 1782 534 1817T616 1852ZM1006 1852Q1053 1852 1087 1817T1122 1736Q1122 1686 1089 1653T1006 1619Q956 1619 923 1652T889 1736Q889 1782 923 1817T1006 1852ZM723
1872L492 2136H608L811 1974L1014 2136H1130L899 1872H723Z" />
<glyph unicode="&#x1da;" glyph-name="uni01DA" horiz-adv-x="1196" d="M339 1568Q387 1568 421 1533T456 1452Q456 1402 423 1369T339 1335Q290 1335 257 1368T223 1452Q223 1498 257 1533T339 1568ZM729 1568Q776 1568 810 1533T845 1452Q845 1402 812 1369T729
1335Q679 1335 646 1368T612 1452Q612 1498 646 1533T729 1568ZM446 1588L215 1852H331L534 1690L737 1852H853L622 1588H446ZM675 1063H1019V106H1193V0H835V188Q784 82 703 27T515 -29Q338 -29 255 71T171 387V956H5V1063H356V444Q356 250 403 178T573 106Q701
106 768 200T835 473V956H675V1063Z" />
<glyph unicode="&#x1db;" glyph-name="uni01DB" horiz-adv-x="1545" d="M616 1852Q664 1852 698 1817T733 1736Q733 1686 700 1653T616 1619Q567 1619 534 1652T500 1736Q500 1782 534 1817T616 1852ZM1006 1852Q1053 1852 1087 1817T1122 1736Q1122 1686 1089
1653T1006 1619Q956 1619 923 1652T889 1736Q889 1782 923 1817T1006 1852ZM693 2138L876 1874H759L497 2138H693ZM195 1386H4V1493H588V1386H397V614Q397 328 490 215T813 102Q1042 102 1135 215T1229 614V1386H1038V1493H1542V1386H1352V594Q1352 253 1221 112T776
-29Q462 -29 329 113T195 594V1386Z" />
<glyph unicode="&#x1dc;" glyph-name="uni01DC" horiz-adv-x="1194" d="M339 1568Q387 1568 421 1533T456 1452Q456 1402 423 1369T339 1335Q290 1335 257 1368T223 1452Q223 1498 257 1533T339 1568ZM729 1568Q776 1568 810 1533T845 1452Q845 1402 812 1369T729
1335Q679 1335 646 1368T612 1452Q612 1498 646 1533T729 1568ZM416 1854L599 1590H482L220 1854H416ZM675 1063H1019V106H1193V0H835V188Q784 82 703 27T515 -29Q338 -29 255 71T171 387V956H5V1063H356V444Q356 250 403 178T573 106Q701 106 768 200T835 473V956H675V1063Z"
/>
<glyph unicode="&#x1dd;" glyph-name="uni01DD" horiz-adv-x="1212" d="M15 551H808V559Q808 774 727 884Q646 993 488 993Q367 993 289 930Q212 866 181 741H33Q77 916 195 1004Q314 1092 507 1092Q740 1092 881 938Q1023 785 1023 531Q1023 279 884 125T519
-29Q278 -29 149 120Q20 268 15 551ZM232 445Q238 259 311 164Q383 70 519 70Q646 70 719 165T808 445H232Z" />
<glyph unicode="&#x1de;" glyph-name="uni01DE" horiz-adv-x="1513" d="M557 1852Q605 1852 639 1817T674 1736Q674 1686 641 1653T557 1619Q508 1619 475 1652T441 1736Q441 1782 475 1817T557 1852ZM947 1852Q994 1852 1028 1817T1063 1736Q1063 1686 1030 1653T947
1619Q897 1619 864 1652T830 1736Q830 1782 864 1817T947 1852ZM454 2099H1052V1951H454V2099ZM423 541H971L697 1251L423 541ZM1 0V106H132L664 1493H832L1365 106H1512V0H969V106H1135L1010 434H382L257 106H421V0H1Z" />
<glyph unicode="&#x1df;" glyph-name="uni01DF" horiz-adv-x="1072" d="M281 1568Q329 1568 363 1533T398 1452Q398 1402 365 1369T281 1335Q232 1335 199 1368T165 1452Q165 1498 199 1533T281 1568ZM671 1568Q718 1568 752 1533T787 1452Q787 1402 754 1369T671
1335Q621 1335 588 1368T554 1452Q554 1498 588 1533T671 1568ZM178 1815H776V1667H178V1815ZM722 334V559H485Q348 559 281 500T214 319Q214 208 282 143T466 78Q581 78 651 149T722 334ZM906 664V106H1070V0H722V115Q661 41 581 6T394 -29Q217 -29 113 65T9 319Q9
484 128 575T464 666H722V739Q722 860 649 926T442 993Q332 993 267 943T186 795H91V1010Q187 1051 277 1071T454 1092Q675 1092 790 983T906 664Z" />
<glyph unicode="&#x1e0;" glyph-name="uni01E0" horiz-adv-x="1511" d="M452 2099H1050V1951H452V2099ZM750 1849Q797 1849 832 1814T867 1733Q867 1683 834 1650T750 1616Q700 1616 667 1649T633 1733Q633 1779 668 1814T750 1849ZM422 541H970L696 1251L422
541ZM0 0V106H131L663 1493H831L1364 106H1511V0H968V106H1134L1009 434H381L256 106H420V0H0Z" />
<glyph unicode="&#x1e1;" glyph-name="uni01E1" horiz-adv-x="1068" d="M175 1818H773V1670H175V1818ZM473 1568Q520 1568 555 1533T590 1452Q590 1402 557 1369T473 1335Q423 1335 390 1368T356 1452Q356 1498 391 1533T473 1568ZM719 334V559H482Q345 559 278
500T211 319Q211 208 279 143T463 78Q578 78 648 149T719 334ZM903 664V106H1067V0H719V115Q658 41 578 6T391 -29Q214 -29 110 65T6 319Q6 484 125 575T461 666H719V739Q719 860 646 926T439 993Q329 993 264 943T183 795H88V1010Q184 1051 274 1071T451 1092Q672
1092 787 983T903 664Z" />
<glyph unicode="&#x1e2;" glyph-name="uni01E2" horiz-adv-x="2050" d="M722 1841H1320V1693H722V1841ZM468 541H957V1386H857L468 541ZM767 0V106H957V434H419L267 106H431V0H7V106H138L728 1386H513V1493H1969V1161H1846V1370H1158V870H1650V1057H1773V561H1650V748H1158V123H1863V332H1986V0H767Z"
/>
<glyph unicode="&#x1e3;" glyph-name="uni01E3" horiz-adv-x="1925" d="M456 1526H1054V1378H456V1526ZM739 334V559H502Q365 559 298 500T231 319Q231 208 299 143T483 78Q598 78 668 149T739 334ZM848 150Q765 59 664 15T438 -29Q241 -29 134 62T26 319Q26 484
145 575T481 666H739V739Q739 859 667 926T467 993Q351 993 285 944T203 795H108V1010Q204 1051 294 1071T471 1092Q612 1092 708 1049T860 915Q934 1003 1030 1047T1243 1092Q1484 1092 1613 943T1746 512H954V504Q954 289 1034 180T1274 70Q1395 70 1472 133T1581
322H1728Q1685 147 1566 59T1255 -29Q1133 -29 1030 16T848 150ZM1530 618Q1524 804 1452 898T1243 993Q1116 993 1043 898T954 618H1530Z" />
<glyph unicode="&#x1e4;" glyph-name="uni01E4" horiz-adv-x="1588" d="M1215 1047Q1180 1234 1069 1323T760 1413Q502 1413 375 1247T248 745Q248 416 379 247T764 78Q877 78 980 106T1176 190V320H732V427H1176V575H895V682H1379V427H1580V320H1379V125Q1246
48 1093 10T764 -29Q426 -29 223 182T19 745Q19 1099 223 1309T772 1520Q900 1520 1036 1491T1327 1401V1047H1215Z" />
<glyph unicode="&#x1e5;" glyph-name="uni01E5" horiz-adv-x="1178" d="M809 479H568V586H809Q809 776 736 876Q662 977 522 977Q380 977 308 865T235 532Q235 312 307 199T522 86Q662 86 735 186T809 479ZM993 479V23Q993 -206 867 -330T508 -455Q403 -455 307
-436T123 -379V-156H219Q237 -260 304 -308T496 -356Q658 -356 733 -265T809 23V166Q755 66 672 19T465 -29Q269 -29 145 126T20 532T144 937T465 1092Q588 1092 671 1045T809 897V1063H1169V956H993V586H1169V479H993Z" />
<glyph unicode="&#x1e6;" glyph-name="Gcaron" horiz-adv-x="1636" d="M1606 1635L1375 1899H1491L1694 1737L1897 1899H2013L1782 1635H1606ZM1214 1047Q1179 1234 1068 1323T759 1413Q501 1413 374 1247T247 745Q247 416 378 247T763 78Q876 78 979 106T1175
190V575H894V682H1378V125Q1245 48 1092 10T763 -29Q425 -29 222 182T18 745Q18 1099 222 1309T771 1520Q899 1520 1035 1491T1326 1401V1047H1214Z" />
<glyph unicode="&#x1e7;" glyph-name="gcaron" horiz-adv-x="1164" d="M430 1262L195 1638H311L514 1378L717 1638H833L598 1262H430ZM985 956V23Q985 -206 859 -330T500 -455Q395 -455 299 -436T115 -379V-156H211Q229 -260 296 -308T488 -356Q650 -356 725 -265T801
23V166Q747 66 664 19T457 -29Q261 -29 137 126T12 532Q12 782 136 937T457 1092Q580 1092 663 1045T801 897V1063H1161V956H985ZM801 584Q801 775 728 876T514 977Q372 977 300 865T227 532Q227 312 299 199T514 86Q654 86 727 186T801 479V584Z" />
<glyph unicode="&#x1e8;" glyph-name="uni01E8" horiz-adv-x="1530" d="M1588 1635L1357 1899H1473L1676 1737L1879 1899H1995L1764 1635H1588ZM23 0V106H213V1386H23V1493H606V1386H416V821L1059 1386H897V1493H1393V1386H1225L584 823L1301 106H1471V0H1124L416
709V106H606V0H23Z" />
<glyph unicode="&#x1e9;" glyph-name="uni01E9" horiz-adv-x="1241" d="M1080 1705L849 1969H965L1168 1807L1371 1969H1487L1256 1705H1080ZM546 0H30V106H196V1450H19V1556H380V543L828 956H675V1063H1156V956H974L658 664L1062 106H1215V0H691V106H843L525
543L380 408V106H546V0Z" />
<glyph unicode="&#x1ea;" glyph-name="uni01EA" horiz-adv-x="1679" d="M476 -15H570L569 -17Q482 -140 482 -187Q482 -233 515 -261T605 -289Q632 -289 661 -283T720 -263L719 -390Q683 -399 650 -403T584 -408Q471 -408 409 -364T347 -238Q347 -189 377 -137T476
-15ZM743 78Q988 78 1113 246T1238 745Q1238 1076 1113 1244T743 1413Q497 1413 372 1245T247 745Q247 415 372 247T743 78ZM743 -29Q591 -29 464 21T239 168Q127 280 73 422T18 745Q18 926 72 1068T239 1323Q337 1421 463 1470T743 1520Q1068 1520 1268 1307T1468
745Q1468 566 1413 423T1246 168Q1148 70 1022 21T743 -29Z" />
<glyph unicode="&#x1eb;" glyph-name="uni01EB" horiz-adv-x="1233" d="M252 241H346L345 239Q258 116 258 69Q258 23 291 -5T381 -33Q408 -33 437 -27T496 -7L495 -134Q459 -143 426 -147T360 -152Q247 -152 185 -108T123 18Q123 67 153 119T252 241ZM532 70Q680
70 755 187T831 532Q831 760 756 876T532 993Q384 993 309 877T233 532Q233 304 309 187T532 70ZM532 -29Q300 -29 159 124T18 532Q18 786 158 939T532 1092Q765 1092 905 939T1046 532Q1046 278 906 125T532 -29Z" />
<glyph unicode="&#x1ec;" glyph-name="uni01EC" horiz-adv-x="1457" d="M430 1842H1028V1694H430V1842ZM682 -16H776L775 -18Q688 -141 688 -188Q688 -234 721 -262T811 -290Q838 -290 867 -284T926 -264L925 -391Q889 -400 856 -404T790 -409Q677 -409 615 -365T553
-239Q553 -190 583 -138T682 -16ZM729 78Q974 78 1099 246T1224 745Q1224 1076 1099 1244T729 1413Q483 1413 358 1245T233 745Q233 415 358 247T729 78ZM729 -29Q577 -29 450 21T225 168Q113 280 59 422T4 745Q4 926 58 1068T225 1323Q323 1421 449 1470T729 1520Q1054
1520 1254 1307T1454 745Q1454 566 1399 423T1232 168Q1134 70 1008 21T729 -29Z" />
<glyph unicode="&#x1ed;" glyph-name="uni01ED" horiz-adv-x="1031" d="M217 1526H815V1378H217V1526ZM469 -16H563L562 -18Q475 -141 475 -188Q475 -234 508 -262T598 -290Q625 -290 654 -284T713 -264L712 -391Q676 -400 643 -404T577 -409Q464 -409 402 -365T340
-239Q340 -190 370 -138T469 -16ZM516 70Q664 70 739 187T815 532Q815 760 740 876T516 993Q368 993 293 877T217 532Q217 304 293 187T516 70ZM516 -29Q284 -29 143 124T2 532Q2 786 142 939T516 1092Q749 1092 889 939T1030 532Q1030 278 890 125T516 -29Z" />
<glyph unicode="&#x1ee;" glyph-name="uni01EE" horiz-adv-x="1156" d="M1336 1635L1105 1899H1221L1424 1737L1627 1899H1743L1512 1635H1336ZM454 852H359V954L703 1370H176V1147H53V1493H926V1368L557 923L636 916Q820 887 922 766Q1023 646 1023 454Q1023
220 882 95Q742 -29 478 -29Q361 -29 250 -1Q138 27 28 84V408H140Q150 247 237 164T482 81Q635 81 724 181Q812 280 812 452Q812 649 721 751Q630 852 454 852Z" />
<glyph unicode="&#x1ef;" glyph-name="uni01EF" horiz-adv-x="1156" d="M270 1262L35 1638H151L354 1378L557 1638H673L438 1262H270ZM454 423H359V525L689 956H162V772H56V1063H926V977L557 494L636 487Q820 458 922 337Q1023 217 1023 25Q1023 -209 882 -334Q742
-458 478 -458Q361 -458 250 -430Q138 -402 28 -345V-21H140Q150 -182 237 -265T482 -348Q635 -348 724 -248Q812 -149 812 23Q812 220 721 322Q630 423 454 423Z" />
<glyph unicode="&#x1f0;" glyph-name="uni01F0" horiz-adv-x="655" d="M447 956H273V1063H631V-104Q631 -268 534 -361T265 -455Q193 -455 128 -439T0 -389V-170H95Q102 -266 144 -311T269 -356Q360 -356 403 -295T447 -104V956ZM57 1262L-178 1638H-62L141 1378L344
1638H460L225 1262H57Z" />
<glyph unicode="&#x1f1;" glyph-name="uni01F1" horiz-adv-x="3065" d="M1671 0V72L2601 1370H1829V1147H1706V1493H2886V1421L1956 123H2800V332H2922V0H1671ZM416 106H602Q893 106 1048 272T1204 748Q1204 1058 1049 1222T602 1386H416V106ZM23 0V106H213V1386H23V1493H617Q1003
1493 1218 1296T1434 748Q1434 396 1218 198T617 0H23Z" />
<glyph unicode="&#x1f2;" glyph-name="uni01F2" horiz-adv-x="2721" d="M1672 0V86L2338 956H1811V772H1705V1063H2575V977L1909 106H2487V299H2594V0H1672ZM416 106H602Q893 106 1048 272T1204 748Q1204 1058 1049 1222T602 1386H416V106ZM23 0V106H213V1386H23V1493H617Q1003
1493 1218 1296T1434 748Q1434 396 1218 198T617 0H23Z" />
<glyph unicode="&#x1f3;" glyph-name="uni01F3" horiz-adv-x="2390" d="M1341 0V86L2007 956H1480V772H1374V1063H2244V977L1578 106H2156V299H2263V0H1341ZM977 106H1153V0H793V166Q739 66 656 19T449 -29Q253 -29 129 126T4 532Q4 782 128 937T449 1092Q572
1092 655 1045T793 897V1450H619V1556H977V106ZM793 479V584Q793 775 720 876T506 977Q364 977 292 865T219 532Q219 312 291 199T506 86Q646 86 719 186T793 479Z" />
<glyph unicode="&#x1f4;" glyph-name="uni01F4" horiz-adv-x="1636" d="M1550 1899H1747L1485 1635H1368L1550 1899ZM1214 1047Q1179 1234 1068 1323T759 1413Q501 1413 374 1247T247 745Q247 416 378 247T763 78Q876 78 979 106T1175 190V575H894V682H1378V125Q1245
48 1092 10T763 -29Q425 -29 222 182T18 745Q18 1099 222 1309T771 1520Q899 1520 1035 1491T1326 1401V1047H1214Z" />
<glyph unicode="&#x1f5;" glyph-name="uni01F5" horiz-adv-x="1158" d="M647 1638H846L506 1262H389L647 1638ZM979 956V23Q979 -206 853 -330T494 -455Q389 -455 293 -436T109 -379V-156H205Q223 -260 290 -308T482 -356Q644 -356 719 -265T795 23V166Q741 66
658 19T451 -29Q255 -29 131 126T6 532Q6 782 130 937T451 1092Q574 1092 657 1045T795 897V1063H1155V956H979ZM795 584Q795 775 722 876T508 977Q366 977 294 865T221 532Q221 312 293 199T508 86Q648 86 721 186T795 479V584Z" />
<glyph unicode="&#x1f6;" glyph-name="uni01F6" horiz-adv-x="2197" d="M1188 594V748H414V106H604V0H21V106H211V1386H21V1493H604V1386H414V870H1188V1386H998V1493H1581V1386H1391V614Q1391 328 1484 215Q1578 102 1708 102Q1852 102 1922 215Q1996 333 1996
614V955H1822V1063H2180V594Q2180 253 2048 112Q1918 -29 1718 -29Q1457 -29 1322 113Q1188 255 1188 594Z" />
<glyph unicode="&#x1f7;" glyph-name="uni01F7" horiz-adv-x="1238" d="M408 281Q1031 711 1031 1114Q1031 1257 971 1335T781 1413Q594 1413 408 1156V281ZM408 1308Q573 1520 872 1520Q1070 1520 1153 1399T1237 1114Q1237 629 408 156V-320H639V-426H15V-320H205V1386H15V1493H408V1308Z"
/>
<glyph unicode="&#x1f8;" glyph-name="uni01F8" horiz-adv-x="1792" d="M1591 1899L1774 1635H1657L1395 1899H1591ZM17 0V106H218V1386H17V1493H400L1295 315V1386H1095V1493H1619V1386H1418V-29H1297L341 1229V106H542V0H17Z" />
<glyph unicode="&#x1f9;" glyph-name="uni01F9" horiz-adv-x="1198" d="M390 1636L650 1260H533L193 1636H390ZM19 0V106H185V956H9V1063H369V874Q420 982 501 1037T691 1092Q867 1092 950 991T1033 676V106H1197V0H689V106H848V618Q848 813 800 885T631 958Q503
958 436 865T369 592V106H529V0H19Z" />
<glyph unicode="&#x1fa;" glyph-name="Aringacute" horiz-adv-x="1514" d="M715 1206L681 1208L423 541H971L715 1206ZM748 1611Q684 1611 641 1568T597 1459Q597 1396 640 1352T748 1308Q811 1308 855 1352T900 1459T856 1566T748 1611ZM841 1899H1038L828 1723Q892
1704 943 1654Q1023 1573 1023 1459Q1023 1379 984 1316Q961 1278 925 1250L1365 106H1512V0H969V106H1135L1010 434H382L257 106H421V0H1V106H132L570 1249Q535 1278 511 1315Q474 1376 474 1459Q474 1573 554 1654Q617 1717 701 1730L841 1899Z" />
<glyph unicode="&#x1fb;" glyph-name="aringacute" horiz-adv-x="1071" d="M721 334V559H484Q347 559 280 500T213 319Q213 208 281 143T465 78Q580 78 650 149T721 334ZM905 664V106H1069V0H721V115Q660 41 580 6T393 -29Q216 -29 112 65T8 319Q8 484 127 575T463
666H721V739Q721 860 648 926T441 993Q331 993 266 943T185 795H90V1010Q186 1051 276 1071T453 1092Q674 1092 789 983T905 664ZM567 1899H764L580 1714Q629 1694 670 1654Q749 1574 749 1459T670 1264T475 1184T281 1264T201 1459T280 1654Q352 1725 452 1732L567
1899ZM627 1459Q627 1522 583 1566T475 1610Q410 1610 367 1567T323 1459Q323 1394 366 1351T475 1307Q539 1307 583 1351T627 1459Z" />
<glyph unicode="&#x1fc;" glyph-name="AEacute" horiz-adv-x="2050" d="M1893 1899H2090L1828 1635H1711L1893 1899ZM468 541H957V1386H857L468 541ZM767 0V106H957V434H419L267 106H431V0H7V106H138L728 1386H513V1493H1969V1161H1846V1370H1158V870H1650V1057H1773V561H1650V748H1158V123H1863V332H1986V0H767Z"
/>
<glyph unicode="&#x1fd;" glyph-name="aeacute" horiz-adv-x="1733" d="M968 1643H1167L827 1267H710L968 1643ZM718 334V559H481Q344 559 277 500T210 319Q210 208 278 143T462 78Q577 78 647 149T718 334ZM827 150Q744 59 643 15T417 -29Q220 -29 113 62T5 319Q5
484 124 575T460 666H718V739Q718 859 646 926T446 993Q330 993 264 944T182 795H87V1010Q183 1051 273 1071T450 1092Q591 1092 687 1049T839 915Q913 1003 1009 1047T1222 1092Q1463 1092 1592 943T1725 512H933V504Q933 289 1013 180T1253 70Q1374 70 1451 133T1560
322H1707Q1664 147 1545 59T1234 -29Q1112 -29 1009 16T827 150ZM1509 618Q1503 804 1431 898T1222 993Q1095 993 1022 898T933 618H1509Z" />
<glyph unicode="&#x1fe;" glyph-name="Oslashacute" horiz-adv-x="1679" d="M1538 1899H1735L1473 1635H1356L1538 1899ZM1133 1239Q1068 1327 976 1370T759 1413Q513 1413 388 1245T263 745Q263 626 279 530T329 352L1133 1239ZM382 256Q446 167 540 123T759
78Q1004 78 1129 246T1254 745Q1254 862 1238 960T1187 1141L382 256ZM1310 1276Q1397 1168 1440 1037T1484 745Q1484 400 1284 186T759 -29Q618 -29 499 14T279 143L97 -57L19 12L206 219Q119 324 77 454T34 745Q34 1091 235 1305T759 1520Q900 1520 1020 1478T1236
1352L1414 1550L1494 1479L1310 1276Z" />
<glyph unicode="&#x1ff;" glyph-name="oslashacute" horiz-adv-x="1087" d="M786 1638H985L645 1262H528L786 1638ZM766 879Q728 936 672 964T542 993Q395 993 319 876T243 532Q243 460 250 401T272 293L766 879ZM317 190Q357 129 412 100T542 70Q689 70 765 187T841
532Q841 608 834 668T811 780L317 190ZM930 922Q992 848 1024 749T1056 532Q1056 278 916 125T542 -29Q448 -29 368 -3T221 78L78 -94L2 -31L151 147Q90 224 59 320T28 532Q28 786 168 939T542 1092Q636 1092 716 1067T860 991L999 1157L1075 1094L930 922Z" />
<glyph unicode="&#x200;" glyph-name="uni0200" horiz-adv-x="1479" d="M1434 1899L1616 1635H1499L1237 1899H1434ZM1751 1899L1933 1635H1816L1554 1899H1751ZM424 541H972L698 1251L424 541ZM2 0V106H133L665 1493H833L1366 106H1513V0H970V106H1136L1011 434H383L258
106H422V0H2Z" />
<glyph unicode="&#x201;" glyph-name="uni0201" horiz-adv-x="1221" d="M1593 1638L1781 1262H1667L1423 1638H1593ZM1263 1638L1488 1262H1372L1085 1638H1263ZM733 334V559H496Q359 559 292 500T225 319Q225 208 293 143T477 78Q592 78 662 149T733 334ZM917
664V106H1081V0H733V115Q672 41 592 6T405 -29Q228 -29 124 65T20 319Q20 484 139 575T475 666H733V739Q733 860 660 926T453 993Q343 993 278 943T197 795H102V1010Q198 1051 288 1071T465 1092Q686 1092 801 983T917 664Z" />
<glyph unicode="&#x202;" glyph-name="uni0202" horiz-adv-x="1479" d="M1895 1694H1799Q1786 1773 1734 1808T1582 1844T1430 1809T1365 1694H1269Q1279 1837 1358 1909T1582 1981T1806 1909T1895 1694ZM424 541H972L698 1251L424 541ZM2 0V106H133L665 1493H833L1366
106H1513V0H970V106H1136L1011 434H383L258 106H422V0H2Z" />
<glyph unicode="&#x203;" glyph-name="uni0203" horiz-adv-x="1221" d="M1725 1321H1629Q1616 1400 1564 1435T1412 1471T1260 1436T1195 1321H1099Q1109 1464 1188 1536T1412 1608T1636 1536T1725 1321ZM733 334V559H496Q359 559 292 500T225 319Q225 208 293
143T477 78Q592 78 662 149T733 334ZM917 664V106H1081V0H733V115Q672 41 592 6T405 -29Q228 -29 124 65T20 319Q20 484 139 575T475 666H733V739Q733 860 660 926T453 993Q343 993 278 943T197 795H102V1010Q198 1051 288 1071T465 1092Q686 1092 801 983T917
664Z" />
<glyph unicode="&#x204;" glyph-name="uni0204" horiz-adv-x="1495" d="M1464 1899L1646 1635H1529L1267 1899H1464ZM1781 1899L1963 1635H1846L1584 1899H1781ZM21 0V106H211V1386H21V1493H1223V1161H1100V1370H414V870H903V1057H1026V561H903V748H414V123H1116V332H1239V0H21Z"
/>
<glyph unicode="&#x205;" glyph-name="uni0205" horiz-adv-x="1212" d="M1630 1638L1818 1262H1704L1460 1638H1630ZM1300 1638L1525 1262H1409L1122 1638H1300ZM1026 512H233V504Q233 289 314 180T553 70Q674 70 751 133T860 322H1008Q964 147 846 59T534 -29Q301
-29 160 124T18 532Q18 784 157 938T522 1092Q763 1092 892 944T1026 512ZM809 618Q803 804 731 898T522 993Q395 993 322 898T233 618H809Z" />
<glyph unicode="&#x206;" glyph-name="uni0206" horiz-adv-x="1495" d="M1904 1694H1808Q1795 1773 1743 1808T1591 1844T1439 1809T1374 1694H1278Q1288 1837 1367 1909T1591 1981T1815 1909T1904 1694ZM21 0V106H211V1386H21V1493H1223V1161H1100V1370H414V870H903V1057H1026V561H903V748H414V123H1116V332H1239V0H21Z"
/>
<glyph unicode="&#x207;" glyph-name="uni0207" horiz-adv-x="1212" d="M1762 1321H1666Q1653 1400 1601 1435T1449 1471T1297 1436T1232 1321H1136Q1146 1464 1225 1536T1449 1608T1673 1536T1762 1321ZM1026 512H233V504Q233 289 314 180T553 70Q674 70 751
133T860 322H1008Q964 147 846 59T534 -29Q301 -29 160 124T18 532Q18 784 157 938T522 1092Q763 1092 892 944T1026 512ZM809 618Q803 804 731 898T522 993Q395 993 322 898T233 618H809Z" />
<glyph unicode="&#x208;" glyph-name="uni0208" horiz-adv-x="809" d="M1104 1899L1286 1635H1169L907 1899H1104ZM1421 1899L1603 1635H1486L1224 1899H1421ZM402 106H592V0H9V106H199V1386H9V1493H592V1386H402V106Z" />
<glyph unicode="&#x209;" glyph-name="uni0209" horiz-adv-x="655" d="M375 106H549V0H15V106H191V956H15V1063H375V106ZM1349 1638L1537 1262H1423L1179 1638H1349ZM1019 1638L1244 1262H1128L841 1638H1019Z" />
<glyph unicode="&#x20a;" glyph-name="uni020A" horiz-adv-x="809" d="M1562 1694H1466Q1453 1773 1401 1808T1249 1844T1097 1809T1032 1694H936Q946 1837 1025 1909T1249 1981T1473 1909T1562 1694ZM402 106H592V0H9V106H199V1386H9V1493H592V1386H402V106Z" />
<glyph unicode="&#x20b;" glyph-name="uni020B" horiz-adv-x="655" d="M1484 1321H1388Q1375 1400 1323 1435T1171 1471T1019 1436T954 1321H858Q868 1464 947 1536T1171 1608T1395 1536T1484 1321ZM375 106H549V0H15V106H191V956H15V1063H375V106Z" />
<glyph unicode="&#x20c;" glyph-name="uni020C" horiz-adv-x="1679" d="M1536 1899L1718 1635H1601L1339 1899H1536ZM1853 1899L2035 1635H1918L1656 1899H1853ZM743 78Q988 78 1113 246T1238 745Q1238 1076 1113 1244T743 1413Q497 1413 372 1245T247 745Q247
415 372 247T743 78ZM743 -29Q591 -29 464 21T239 168Q127 280 73 422T18 745Q18 926 72 1068T239 1323Q337 1421 463 1470T743 1520Q1068 1520 1268 1307T1468 745Q1468 566 1413 423T1246 168Q1148 70 1022 21T743 -29Z" />
<glyph unicode="&#x20d;" glyph-name="uni020D" horiz-adv-x="1233" d="M1640 1638L1828 1262H1714L1470 1638H1640ZM1310 1638L1535 1262H1419L1132 1638H1310ZM532 70Q680 70 755 187T831 532Q831 760 756 876T532 993Q384 993 309 877T233 532Q233 304 309
187T532 70ZM532 -29Q300 -29 159 124T18 532Q18 786 158 939T532 1092Q765 1092 905 939T1046 532Q1046 278 906 125T532 -29Z" />
<glyph unicode="&#x20e;" glyph-name="uni020E" horiz-adv-x="1679" d="M1996 1694H1900Q1887 1773 1835 1808T1683 1844T1531 1809T1466 1694H1370Q1380 1837 1459 1909T1683 1981T1907 1909T1996 1694ZM743 78Q988 78 1113 246T1238 745Q1238 1076 1113 1244T743
1413Q497 1413 372 1245T247 745Q247 415 372 247T743 78ZM743 -29Q591 -29 464 21T239 168Q127 280 73 422T18 745Q18 926 72 1068T239 1323Q337 1421 463 1470T743 1520Q1068 1520 1268 1307T1468 745Q1468 566 1413 423T1246 168Q1148 70 1022 21T743 -29Z"
/>
<glyph unicode="&#x20f;" glyph-name="uni020F" horiz-adv-x="1233" d="M1772 1321H1676Q1663 1400 1611 1435T1459 1471T1307 1436T1242 1321H1146Q1156 1464 1235 1536T1459 1608T1683 1536T1772 1321ZM532 70Q680 70 755 187T831 532Q831 760 756 876T532 993Q384
993 309 877T233 532Q233 304 309 187T532 70ZM532 -29Q300 -29 159 124T18 532Q18 786 158 939T532 1092Q765 1092 905 939T1046 532Q1046 278 906 125T532 -29Z" />
<glyph unicode="&#x210;" glyph-name="uni0210" horiz-adv-x="1542" d="M1428 1899L1610 1635H1493L1231 1899H1428ZM1745 1899L1927 1635H1810L1548 1899H1745ZM891 741Q961 722 1011 677T1102 549L1319 106H1501V0H1149L916 475Q849 613 793 653T639 694H416V106H627V0H23V106H213V1386H23V1493H780Q998
1493 1116 1389T1235 1094Q1235 940 1149 852T891 741ZM416 801H711Q862 801 934 872T1006 1094Q1006 1244 934 1315T711 1386H416V801Z" />
<glyph unicode="&#x211;" glyph-name="uni0211" horiz-adv-x="979" d="M1576 1638L1764 1262H1650L1406 1638H1576ZM1246 1638L1471 1262H1355L1068 1638H1246ZM921 1065V799H815Q810 878 771 917T657 956Q521 956 449 862T376 592V106H589V0H26V106H192V958H16V1063H376V874Q430
985 515 1038T722 1092Q767 1092 816 1085T921 1065Z" />
<glyph unicode="&#x212;" glyph-name="uni0212" horiz-adv-x="1542" d="M1887 1694H1791Q1778 1773 1726 1808T1574 1844T1422 1809T1357 1694H1261Q1271 1837 1350 1909T1574 1981T1798 1909T1887 1694ZM891 741Q961 722 1011 677T1102 549L1319 106H1501V0H1149L916
475Q849 613 793 653T639 694H416V106H627V0H23V106H213V1386H23V1493H780Q998 1493 1116 1389T1235 1094Q1235 940 1149 852T891 741ZM416 801H711Q862 801 934 872T1006 1094Q1006 1244 934 1315T711 1386H416V801Z" />
<glyph unicode="&#x213;" glyph-name="uni0213" horiz-adv-x="979" d="M1708 1321H1612Q1599 1400 1547 1435T1395 1471T1243 1436T1178 1321H1082Q1092 1464 1171 1536T1395 1608T1619 1536T1708 1321ZM921 1065V799H815Q810 878 771 917T657 956Q521 956 449
862T376 592V106H589V0H26V106H192V958H16V1063H376V874Q430 985 515 1038T722 1092Q767 1092 816 1085T921 1065Z" />
<glyph unicode="&#x214;" glyph-name="uni0214" horiz-adv-x="1726" d="M1598 1899L1780 1635H1663L1401 1899H1598ZM1915 1899L2097 1635H1980L1718 1899H1915ZM203 1386H12V1493H596V1386H405V614Q405 328 498 215T821 102Q1050 102 1143 215T1237 614V1386H1046V1493H1550V1386H1360V594Q1360
253 1229 112T784 -29Q470 -29 337 113T203 594V1386Z" />
<glyph unicode="&#x215;" glyph-name="uni0215" horiz-adv-x="1319" d="M1608 1638L1796 1262H1682L1438 1638H1608ZM1278 1638L1503 1262H1387L1100 1638H1278ZM682 1063H1026V106H1200V0H842V188Q791 82 710 27T522 -29Q345 -29 262 71T178 387V956H12V1063H363V444Q363
250 410 178T580 106Q708 106 775 200T842 473V956H682V1063Z" />
<glyph unicode="&#x216;" glyph-name="uni0216" horiz-adv-x="1726" d="M2059 1694H1963Q1950 1773 1898 1808T1746 1844T1594 1809T1529 1694H1433Q1443 1837 1522 1909T1746 1981T1970 1909T2059 1694ZM203 1386H12V1493H596V1386H405V614Q405 328 498 215T821
102Q1050 102 1143 215T1237 614V1386H1046V1493H1550V1386H1360V594Q1360 253 1229 112T784 -29Q470 -29 337 113T203 594V1386Z" />
<glyph unicode="&#x217;" glyph-name="uni0217" horiz-adv-x="1319" d="M1740 1321H1644Q1631 1400 1579 1435T1427 1471T1275 1436T1210 1321H1114Q1124 1464 1203 1536T1427 1608T1651 1536T1740 1321ZM682 1063H1026V106H1200V0H842V188Q791 82 710 27T522
-29Q345 -29 262 71T178 387V956H12V1063H363V444Q363 250 410 178T580 106Q708 106 775 200T842 473V956H682V1063Z" />
<glyph unicode="&#x218;" glyph-name="Scommaaccent" horiz-adv-x="1403" d="M42 72V412L157 411Q162 241 255 160T540 78Q718 78 811 148T905 354Q905 462 849 520T610 633L413 692Q199 757 112 854T24 1120Q24 1310 159 1415T538 1520Q642 1520 766 1498T1030
1432V1114H917Q900 1272 812 1342T542 1413Q384 1413 302 1349T219 1161Q219 1054 281 993T544 872L729 817Q932 756 1018 662T1105 408Q1105 191 966 81T552 -29Q429 -29 302 -4T42 72ZM1242 -412Q1318 -370 1353 -314T1388 -178V-156H1546Q1539 -259 1481 -332Q1423
-406 1306 -460L1242 -412Z" />
<glyph unicode="&#x219;" glyph-name="scommaaccent" horiz-adv-x="1051" d="M24 59V307H130Q134 188 204 129T413 70Q537 70 602 116T667 252Q667 322 620 365T419 457L286 502Q149 546 88 612T26 780Q26 926 133 1009T429 1092Q513 1092 606 1070T798 1006V774H692Q688
877 620 935T435 993Q319 993 260 952T200 829Q200 762 245 722T425 639L571 594Q722 547 788 477T855 295Q855 144 740 58T421 -29Q318 -29 220 -7T24 59ZM1025 -412Q1101 -370 1136 -314T1171 -178V-156H1329Q1322 -259 1264 -332Q1206 -406 1089 -460L1025 -412Z"
/>
<glyph unicode="&#x21a;" glyph-name="uni021A" horiz-adv-x="1366" d="M378 0V106H569V1374H130V1141H7V1493H1333V1141H1210V1374H771V106H962V0H378ZM1160 -412Q1236 -370 1271 -314T1306 -178V-156H1464Q1457 -259 1399 -332Q1341 -406 1224 -460L1160 -412Z" />
<glyph unicode="&#x21b;" glyph-name="uni021B" horiz-adv-x="823" d="M165 956H3V1063H165V1393H350V1063H696V956H350V281Q350 146 376 108T472 70Q544 70 577 112T612 250H751Q743 105 672 38T456 -29Q297 -29 231 41T165 281V956ZM976 -412Q1052 -370 1087
-314T1122 -178V-156H1280Q1273 -259 1215 -332Q1157 -406 1040 -460L976 -412Z" />
<glyph unicode="&#x21c;" glyph-name="uni021C" horiz-adv-x="1009" d="M17 1391Q333 1520 516 1520T832 1416T965 1137T889 857T692 674Q830 655 915 541T1000 314Q1000 96 860 -36T480 -263T17 -430V-315Q209 -246 385 -160T669 41T777 291T707 498Q588 619
420 537L189 424V532L423 655Q561 728 662 864Q738 967 738 1123T654 1346T452 1418T238 1320Q157 1217 130 1047H17V1391Z" />
<glyph unicode="&#x21d;" glyph-name="uni021D" horiz-adv-x="912" d="M253 943Q150 876 125 708H18V980Q108 1023 235 1056T501 1086T755 999T871 792T803 580T626 431Q750 416 826 329T903 160Q903 -17 776 -125T415 -317T18 -433V-333Q175 -290 339 -221T613
-49Q697 31 697 133T635 293Q538 381 379 319L173 239V339L379 425Q495 473 581 576Q658 670 658 774T587 933T427 988Q322 988 253 943Z" />
<glyph unicode="&#x21e;" glyph-name="uni021E" horiz-adv-x="1786" d="M1647 1635L1416 1899H1532L1735 1737L1938 1899H2054L1823 1635H1647ZM24 0V106H214V1386H24V1493H607V1386H417V870H1191V1386H1001V1493H1584V1386H1394V106H1584V0H1001V106H1191V748H417V106H607V0H24Z"
/>
<glyph unicode="&#x21f;" glyph-name="uni021F" horiz-adv-x="1319" d="M1080 1705L849 1969H965L1168 1807L1371 1969H1487L1256 1705H1080ZM29 0V106H195V1450H19V1556H379V874Q430 982 511 1037T701 1092Q877 1092 960 991T1043 676V106H1207V0H699V106H858V618Q858
813 811 884T641 956Q513 956 446 863T379 592V106H539V0H29Z" />
<glyph unicode="&#x220;" glyph-name="uni0220" horiz-adv-x="1553" d="M3 0V107H194V1386H18V1493H397V1292Q471 1406 588 1464T860 1522Q1113 1522 1232 1377T1351 922V-319H1541V-426H955V-319H1146V881Q1146 1173 1071 1282T806 1391Q606 1391 502 1263T397
887V107H587V0H3Z" />
<glyph unicode="&#x221;" glyph-name="uni0221" horiz-adv-x="1546" d="M1159 -51Q1426 -51 1426 56Q1426 179 1007 179Q993 179 979 178Q971 83 1024 11Q1070 -51 1159 -51ZM795 479V584Q795 775 722 876T508 977Q366 977 294 865T221 532Q221 312 293 199T508
86Q648 86 721 186T795 479ZM979 279Q986 279 994 279H1003Q1541 279 1536 49Q1532 -150 1157 -150Q996 -150 894 -57Q829 4 806 75Q775 14 775 -81V-145H675L676 -81Q677 -15 689 39Q674 28 658 18Q574 -29 451 -29Q255 -29 131 126T6 532T130 937T451 1092Q574
1092 657 1045T795 897V1450H621V1556H979V279Z" />
<glyph unicode="&#x222;" glyph-name="uni0222" horiz-adv-x="1062" d="M237 1156Q237 1051 581 882Q802 998 802 1194Q802 1423 582 1423V1520Q967 1520 967 1170Q967 970 688 823Q1045 611 1045 368Q1045 -29 516 -29Q13 -29 13 368Q13 603 337 772Q67 929 67
1110Q67 1384 420 1382V1284Q237 1284 237 1156ZM516 70Q815 70 815 368Q815 543 445 715Q180 583 180 368Q180 70 516 70Z" />
<glyph unicode="&#x223;" glyph-name="uni0223" horiz-adv-x="964" d="M482 70Q761 70 761 378Q761 588 417 757Q166 629 166 378Q166 70 482 70ZM737 1252Q737 1348 607 1497L719 1556Q886 1400 886 1208Q886 989 645 860Q945 668 945 378Q945 -29 482 -29T19
378Q19 649 314 814Q63 965 63 1189Q63 1339 241 1556L324 1504Q203 1347 203 1238Q203 1095 540 920Q737 1028 737 1252Z" />
<glyph unicode="&#x224;" glyph-name="uni0224" horiz-adv-x="1270" d="M0 0V72L930 1370H158V1147H35V1493H1215V1421L285 123H1054H1251Q1243 -48 1171 -170T952 -383L872 -303Q966 -234 1010 -140Q1039 -79 1049 0H0Z" />
<glyph unicode="&#x225;" glyph-name="uni0225" horiz-adv-x="940" d="M1 0V86L667 956H140V772H34V1063H904V977L238 106H726H923Q915 -65 843 -187T624 -400L544 -320Q638 -251 682 -158Q714 -89 723 0H1Z" />
<glyph unicode="&#x226;" glyph-name="uni0226" horiz-adv-x="1479" d="M1385 1886Q1432 1886 1467 1851T1502 1770Q1502 1720 1469 1687T1385 1653Q1335 1653 1302 1686T1268 1770Q1268 1816 1303 1851T1385 1886ZM424 541H972L698 1251L424 541ZM2 0V106H133L665
1493H833L1366 106H1513V0H970V106H1136L1011 434H383L258 106H422V0H2Z" />
<glyph unicode="&#x227;" glyph-name="uni0227" horiz-adv-x="1069" d="M474 1569Q522 1569 556 1535T591 1452Q591 1401 558 1368T474 1335Q423 1335 390 1368T357 1452Q357 1500 391 1534T474 1569ZM720 334V559H483Q346 559 279 500T212 319Q212 208 280 143T464
78Q579 78 649 149T720 334ZM904 664V106H1068V0H720V115Q659 41 579 6T392 -29Q215 -29 111 65T7 319Q7 484 126 575T462 666H720V739Q720 860 647 926T440 993Q330 993 265 943T184 795H89V1010Q185 1051 275 1071T452 1092Q673 1092 788 983T904 664Z" />
<glyph unicode="&#x228;" glyph-name="uni0228" horiz-adv-x="1236" d="M751 0Q815 -64 846 -120T878 -225Q878 -306 815 -350T640 -395Q598 -395 554 -389T464 -371V-240Q505 -257 544 -265T619 -274Q676 -274 709 -248T742 -176Q742 -148 720 -104T654 0H751ZM5
0V106H195V1386H5V1493H1207V1161H1084V1370H398V870H887V1057H1010V561H887V748H398V123H1100V332H1223V0H5Z" />
<glyph unicode="&#x229;" glyph-name="uni0229" horiz-adv-x="1025" d="M569 0Q633 -64 664 -120T696 -225Q696 -306 633 -350T458 -395Q416 -395 372 -389T282 -371V-240Q323 -257 362 -265T437 -274Q494 -274 527 -248T560 -176Q560 -148 538 -104T472 0H569ZM1018
512H225V504Q225 289 306 180T545 70Q666 70 743 133T852 322H1000Q956 147 838 59T526 -29Q293 -29 152 124T10 532Q10 784 149 938T514 1092Q755 1092 884 944T1018 512ZM801 618Q795 804 723 898T514 993Q387 993 314 898T225 618H801Z" />
<glyph unicode="&#x22a;" glyph-name="uni022A" horiz-adv-x="1466" d="M538 1852Q586 1852 620 1817T655 1736Q655 1686 622 1653T538 1619Q489 1619 456 1652T422 1736Q422 1782 456 1817T538 1852ZM928 1852Q975 1852 1009 1817T1044 1736Q1044 1686 1011 1653T928
1619Q878 1619 845 1652T811 1736Q811 1782 845 1817T928 1852ZM435 2099H1033V1951H435V2099ZM733 78Q978 78 1103 246T1228 745Q1228 1076 1103 1244T733 1413Q487 1413 362 1245T237 745Q237 415 362 247T733 78ZM733 -29Q581 -29 454 21T229 168Q117 280 63
422T8 745Q8 926 62 1068T229 1323Q327 1421 453 1470T733 1520Q1058 1520 1258 1307T1458 745Q1458 566 1403 423T1236 168Q1138 70 1012 21T733 -29Z" />
<glyph unicode="&#x22b;" glyph-name="uni022B" horiz-adv-x="1042" d="M326 1568Q374 1568 408 1533T443 1452Q443 1402 410 1369T326 1335Q277 1335 244 1368T210 1452Q210 1498 244 1533T326 1568ZM716 1568Q763 1568 797 1533T832 1452Q832 1402 799 1369T716
1335Q666 1335 633 1368T599 1452Q599 1498 633 1533T716 1568ZM223 1815H821V1667H223V1815ZM521 70Q669 70 744 187T820 532Q820 760 745 876T521 993Q373 993 298 877T222 532Q222 304 298 187T521 70ZM521 -29Q289 -29 148 124T7 532Q7 786 147 939T521 1092Q754
1092 894 939T1035 532Q1035 278 895 125T521 -29Z" />
<glyph unicode="&#x22c;" glyph-name="uni022C" horiz-adv-x="1466" d="M431 2099H1029V1951H431V2099ZM720 1690L672 1718Q652 1731 632 1738T594 1745Q555 1745 529 1717T499 1642L403 1643Q405 1743 456 1802T592 1861Q628 1861 659 1852T745 1812L794 1786Q817
1773 839 1766T878 1759Q919 1759 942 1786T966 1861H1063Q1061 1756 1010 1699T864 1642Q797 1642 725 1687L720 1690ZM733 78Q978 78 1103 246T1228 745Q1228 1076 1103 1244T733 1413Q487 1413 362 1245T237 745Q237 415 362 247T733 78ZM733 -29Q581 -29 454
21T229 168Q117 280 63 422T8 745Q8 926 62 1068T229 1323Q327 1421 453 1470T733 1520Q1058 1520 1258 1307T1458 745Q1458 566 1403 423T1236 168Q1138 70 1012 21T733 -29Z" />
<glyph unicode="&#x22d;" glyph-name="uni022D" horiz-adv-x="1044" d="M220 1766H818V1618H220V1766ZM509 1357L461 1385Q441 1398 421 1405T383 1412Q344 1412 318 1384T288 1309L192 1310Q194 1410 245 1469T381 1528Q417 1528 448 1519T534 1479L583 1453Q606
1440 628 1433T667 1426Q708 1426 731 1453T755 1528H852Q850 1423 799 1366T653 1309Q586 1309 514 1354L509 1357ZM522 70Q670 70 745 187T821 532Q821 760 746 876T522 993Q374 993 299 877T223 532Q223 304 299 187T522 70ZM522 -29Q290 -29 149 124T8 532Q8
786 148 939T522 1092Q755 1092 895 939T1036 532Q1036 278 896 125T522 -29Z" />
<glyph unicode="&#x22e;" glyph-name="uni022E" horiz-adv-x="1679" d="M1486 1884Q1533 1884 1568 1849T1603 1768Q1603 1718 1570 1685T1486 1651Q1436 1651 1403 1684T1369 1768Q1369 1814 1404 1849T1486 1884ZM743 78Q988 78 1113 246T1238 745Q1238 1076
1113 1244T743 1413Q497 1413 372 1245T247 745Q247 415 372 247T743 78ZM743 -29Q591 -29 464 21T239 168Q127 280 73 422T18 745Q18 926 72 1068T239 1323Q337 1421 463 1470T743 1520Q1068 1520 1268 1307T1468 745Q1468 566 1413 423T1246 168Q1148 70 1022
21T743 -29Z" />
<glyph unicode="&#x22f;" glyph-name="uni022F" horiz-adv-x="1233" d="M239 1569Q287 1569 321 1535T356 1452Q356 1401 323 1368T239 1335Q188 1335 155 1368T122 1452Q122 1500 156 1534T239 1569ZM532 70Q680 70 755 187T831 532Q831 760 756 876T532 993Q384
993 309 877T233 532Q233 304 309 187T532 70ZM532 -29Q300 -29 159 124T18 532Q18 786 158 939T532 1092Q765 1092 905 939T1046 532Q1046 278 906 125T532 -29Z" />
<glyph unicode="&#x230;" glyph-name="uni0230" horiz-adv-x="1462" d="M433 2099H1031V1951H433V2099ZM731 1849Q778 1849 813 1814T848 1733Q848 1683 815 1650T731 1616Q681 1616 648 1649T614 1733Q614 1779 649 1814T731 1849ZM731 78Q976 78 1101 246T1226
745Q1226 1076 1101 1244T731 1413Q485 1413 360 1245T235 745Q235 415 360 247T731 78ZM731 -29Q579 -29 452 21T227 168Q115 280 61 422T6 745Q6 926 60 1068T227 1323Q325 1421 451 1470T731 1520Q1056 1520 1256 1307T1456 745Q1456 566 1401 423T1234 168Q1136
70 1010 21T731 -29Z" />
<glyph unicode="&#x231;" glyph-name="uni0231" horiz-adv-x="1036" d="M220 1817H818V1669H220V1817ZM518 1567Q565 1567 600 1532T635 1451Q635 1401 602 1368T518 1334Q468 1334 435 1367T401 1451Q401 1497 436 1532T518 1567ZM518 70Q666 70 741 187T817
532Q817 760 742 876T518 993Q370 993 295 877T219 532Q219 304 295 187T518 70ZM518 -29Q286 -29 145 124T4 532Q4 786 144 939T518 1092Q751 1092 891 939T1032 532Q1032 278 892 125T518 -29Z" />
<glyph unicode="&#x232;" glyph-name="uni0232" horiz-adv-x="1352" d="M197 1842H795V1694H197V1842ZM413 0V106H604V643L143 1386H3V1493H558V1386H384L757 782L1130 1386H962V1493H1396V1386H1255L806 662V106H997V0H413Z" />
<glyph unicode="&#x233;" glyph-name="uni0233" horiz-adv-x="1157" d="M95 1526H693V1378H95V1526ZM468 -195L538 -18L141 956H20V1063H509V956H339L638 225L937 956H778V1063H1177V956H1058L571 -240Q521 -364 460 -409T288 -455Q241 -455 192 -447T92 -424V-221H186Q192
-289 220 -318T309 -348Q364 -348 397 -318T468 -195Z" />
<glyph unicode="&#x234;" glyph-name="uni0234" horiz-adv-x="935" d="M460 164Q528 70 666 70Q825 68 825 177Q825 301 714 300Q534 298 460 164ZM365 532Q365 373 401 268Q542 408 731 408Q935 408 935 170Q935 -29 664 -29Q511 -29 404 42Q395 10 396 -75V-219H282L283
-75Q286 26 310 105L291 124Q181 295 181 532V1450H4V1556H365V532Z" />
<glyph unicode="&#x235;" glyph-name="uni0235" horiz-adv-x="1602" d="M1126 164Q1194 70 1332 70Q1491 68 1491 177Q1491 301 1380 300Q1200 298 1126 164ZM846 618Q846 813 798 885T629 958Q501 958 434 865T367 592V106H527V0H17V106H183V956H7V1063H367V874Q418
982 499 1037T689 1092Q865 1092 948 991T1031 676V532Q1031 355 1067 268Q1208 408 1397 408Q1601 408 1601 170Q1601 -29 1330 -29Q1177 -29 1070 42Q1061 10 1062 -75V-219H948L949 -75Q952 26 976 105L957 124Q846 296 846 532V618Z" />
<glyph unicode="&#x236;" glyph-name="uni0236" horiz-adv-x="921" d="M446 164Q514 70 652 70Q811 68 811 177Q811 301 700 300Q520 298 446 164ZM351 956V532Q351 373 387 268Q528 408 717 408Q921 408 921 170Q921 -29 650 -29Q497 -29 390 42Q381 10 382 -75V-219H268L269
-75Q272 26 296 105L277 124Q166 296 166 532V956H4V1063H166V1393H351V1063H697V956H351Z" />
<glyph unicode="&#x237;" glyph-name="dotlessj" horiz-adv-x="663" d="M447 956H273V1063H631V-104Q631 -268 534 -361T265 -455Q193 -455 128 -439T0 -389V-170H95Q102 -266 144 -311T269 -356Q360 -356 403 -295T447 -104V956Z" />
<glyph unicode="&#x238;" glyph-name="uni0238" horiz-adv-x="1781" d="M800 479V584Q800 775 727 876T513 977Q371 977 299 865T226 532Q226 312 298 199T513 86Q653 86 726 186T800 479ZM984 479Q984 287 1057 187T1271 86Q1412 86 1484 199T1557 532Q1557 753
1485 865T1271 977Q1131 977 1058 876T984 584V479ZM800 0V166Q746 66 663 19T456 -29Q260 -29 136 126T11 532T135 937T456 1092Q579 1092 662 1045T800 897V1450H623V1556H984V897Q1038 997 1121 1044T1328 1092Q1524 1092 1648 937T1772 532T1648 127T1328 -29Q1205
-29 1122 18T984 166V0H800Z" />
<glyph unicode="&#x239;" glyph-name="uni0239" horiz-adv-x="1785" d="M801 584Q801 775 728 876T514 977Q372 977 300 865T227 532Q227 312 299 199T514 86Q654 86 727 186T801 479V584ZM801 956V1063H985V956V897Q1039 997 1122 1044T1329 1092Q1525 1092 1649
937T1773 532T1649 127T1329 -29Q1206 -29 1123 18T985 166V-319H1159H1161V-426H1159H627V-319H801V166Q747 66 664 19T457 -29Q261 -29 137 126T12 532T136 937T457 1092Q580 1092 663 1045T801 897V956ZM985 584V479Q985 287 1058 187T1272 86Q1413 86 1485
199T1558 532Q1558 753 1486 865T1272 977Q1132 977 1059 876T985 584Z" />
<glyph unicode="&#x23a;" glyph-name="uni023A" horiz-adv-x="1525" d="M1 0V106H100L155 167L664 1493H832L989 1085L1410 1550L1490 1479L1031 975L1365 106H1512V0H969V106H1135L1010 434H540L268 136L257 106H421V0H145L93 -57L29 0H1ZM371 404L398 434H382L371
404ZM829 909L697 1251L423 541H495L829 909ZM637 541H971L871 799L637 541Z" />
<glyph unicode="&#x23b;" glyph-name="uni023B" horiz-adv-x="1501" d="M93 -57L15 12L232 252Q174 331 139 422Q84 565 84 745Q84 1093 285 1306T815 1520Q937 1520 1075 1488Q1178 1464 1293 1422L1410 1550L1490 1479L1372 1349V1047H1259Q1244 1121 1218 1180L409
290Q421 268 436 248Q559 78 798 78Q965 78 1073 157T1229 395H1413Q1347 186 1192 79T798 -29Q652 -29 527 21T305 168L301 172L93 -57ZM362 394L1160 1275Q1138 1302 1111 1324Q999 1413 798 1413Q559 1413 436 1244T313 745Q313 538 362 394Z" />
<glyph unicode="&#x23c;" glyph-name="uni023C" horiz-adv-x="1091" d="M87 -94L11 -31L180 170Q76 314 76 532Q76 787 217 939T590 1092Q691 1092 791 1068Q848 1055 905 1034L1008 1157L1084 1094L992 984V725H885Q876 782 860 827L348 218Q357 201 366 186Q442
70 592 70Q711 70 782 132T879 319H1027Q988 149 877 60T590 -29Q381 -29 246 95L87 -94ZM311 326L806 916Q800 923 794 929Q723 993 592 993Q443 993 367 878T291 532Q291 414 311 326Z" />
<glyph unicode="&#x23d;" glyph-name="uni023D" horiz-adv-x="1228" d="M30 0V106H220V719H20V844H220V1386H30V1493H613V1386H423V844H759V719H423V123H1105V373H1228V0H30Z" />
<glyph unicode="&#x23e;" glyph-name="uni023E" horiz-adv-x="1491" d="M1044 0H460V106H651V557L93 -57L15 12L651 714V1374H212V1141H89V1493H1358L1409 1550L1489 1479L1415 1397V1141H1292V1262L853 779V106H1044V0ZM1250 1374H853V936L1250 1374Z" />
<glyph unicode="&#x23f;" glyph-name="uni023F" horiz-adv-x="861" d="M306 -33L380 -195Q422 -288 450 -318Q479 -348 559 -348Q602 -348 630 -319T665 -221H759V-424Q709 -439 660 -447T549 -455Q407 -455 345 -415Q252 -355 202 -240L123 -57Q94 10 62 39Q37
48 13 59V307H119Q123 188 193 129T402 70Q526 70 591 116T656 252Q656 322 609 365T408 457L275 502Q138 546 77 612T15 780Q15 926 122 1009T418 1092Q502 1092 595 1070T787 1006V774H681Q677 877 609 935T424 993Q308 993 249 952T189 829Q189 762 234 722T414
639L560 594Q711 547 777 477T844 295Q844 144 729 58T410 -29Q355 -29 301 -23L306 -33Z" />
<glyph unicode="&#x240;" glyph-name="uni0240" horiz-adv-x="1020" d="M217 0H3V86L669 956H142V772H36V1063H906V977L240 106H288Q516 106 625 -122L660 -195Q707 -292 731 -318Q759 -348 800 -348Q843 -348 871 -319T906 -221H1000V-424Q950 -439 901 -447T790
-455Q687 -455 625 -415Q531 -355 482 -240L442 -146Q380 0 217 0Z" />
<glyph unicode="&#x241;" glyph-name="uni0241" horiz-adv-x="1066" d="M281 1387Q196 1387 160 1349Q117 1305 111 1209H15V1427Q77 1461 143 1477T281 1493H575Q799 1493 930 1380T1061 1074Q1061 880 930 766T575 652Q575 652 527 652V106H758V0H134V106H324V760H526Q675
760 753 840T831 1074Q831 1226 753 1306T526 1387H281Z" />
<glyph unicode="&#x242;" glyph-name="uni0242" horiz-adv-x="830" d="M283 359Q432 359 510 440Q588 520 588 673Q588 825 510 906Q432 986 283 986Q198 986 162 948Q119 904 113 808H17V1026Q79 1060 145 1076T283 1092H332Q556 1092 687 978Q818 865 818 673Q818
479 687 365Q597 288 466 263V106H698V0H93V106H283V359Z" />
<glyph unicode="&#x243;" glyph-name="uni0243" horiz-adv-x="1317" d="M30 0V106H220V369H20V494H220V1386H30V1493H767Q993 1493 1107 1401T1222 1124Q1222 991 1143 912T910 815Q1100 791 1198 694T1297 432Q1297 210 1157 105T720 0H30ZM423 862H677Q841 862
916 925T992 1124Q992 1261 917 1323T677 1386H423V862ZM423 106H722Q902 106 985 184T1068 432Q1068 601 986 678T722 756H423V494H757V369H423V106Z" />
<glyph unicode="&#x244;" glyph-name="uni0244" horiz-adv-x="1582" d="M213 1386H22V1493H606V1386H415V844H1247V1386H1056V1493H1560V1386H1370V844H1570V719H1370V594Q1370 253 1239 112T794 -29T347 113T213 594V719H12V844H213V1386ZM1247 719H415V614Q415
328 508 215T831 102T1153 215T1247 614V719Z" />
<glyph unicode="&#x245;" glyph-name="uni0245" horiz-adv-x="1479" d="M1136 106L698 1251L258 106H422V0H2V106H133L665 1493H833L1366 106H1513V0H970V106H1136Z" />
<glyph unicode="&#x246;" glyph-name="uni0246" horiz-adv-x="1242" d="M868 1604L969 1572L944 1493H1211V1161H1088V1370H905L748 870H891V1057H1014V561H891V748H710L513 123H1104V332H1227V0H474L439 -111L338 -79L363 0H9V106H199V1386H9V1493H833L868 1604ZM402
124L598 748H402V124ZM637 870L794 1370H402V870H637Z" />
<glyph unicode="&#x247;" glyph-name="uni0247" horiz-adv-x="1027" d="M803 618Q796 804 724 898Q705 923 681 942L582 618H803ZM388 -13L359 -111L264 -83L295 19Q216 56 154 124Q12 278 12 532Q12 784 151 938T516 1092Q571 1092 621 1084L652 1185L747 1157L717
1060Q817 1024 886 944Q1015 796 1020 512H549L421 92Q476 70 547 70Q668 70 745 133T854 322H1002Q958 147 840 59T528 -29Q453 -29 388 -13ZM590 985Q555 993 516 993Q389 993 316 898T227 618H478L590 985ZM446 512H227V504Q227 290 308 180Q320 163 335 149L446
512Z" />
<glyph unicode="&#x248;" glyph-name="uni0248" horiz-adv-x="915" d="M2 -358V-123H116Q119 -222 163 -270T295 -319Q414 -319 461 -244T508 49V719H266V844H508V1386H276V1493H901V1386H711V844H911V719H711V41Q711 -206 612 -316T293 -426Q222 -426 149 -409T2 -358Z" />
<glyph unicode="&#x249;" glyph-name="uni0249" horiz-adv-x="645" d="M17 1393Q17 1439 50 1473Q84 1507 131 1507Q177 1507 210 1473Q244 1439 244 1393Q244 1346 211 1313T131 1280T50 1313Q17 1346 17 1393ZM449 956H275V1063H633V570H807V464H633V-104Q633
-268 536 -361T267 -455Q195 -455 130 -439T2 -389V-170H97Q104 -266 146 -311T271 -356Q362 -356 405 -295T449 -104V464H273V570H449V956Z" />
<glyph unicode="&#x24a;" glyph-name="uni024A" horiz-adv-x="1729" d="M610 78Q718 78 796 123T921 252T988 442T1010 682V810Q1010 942 989 1048T921 1238T796 1367T610 1413Q519 1413 449 1380T335 1288T262 1144T223 962T211 746Q211 644 219 558T242 409T279
294T324 209T378 150T435 112T495 90T554 80T610 78ZM573 1520Q736 1520 839 1462T1010 1288V1493H1389V1386H1213V49Q1213 -169 1260 -244T1426 -319Q1514 -319 1558 -271T1605 -123H1719V-358Q1646 -392 1573 -409T1428 -426Q1208 -426 1109 -316T1010 41V202Q983
155 951 119T867 46T742 -9T573 -29Q324 -29 165 186Q7 399 7 746Q7 974 77 1149T276 1422T573 1520Z" />
<glyph unicode="&#x24b;" glyph-name="uni024B" horiz-adv-x="1435" d="M794 479V584Q794 775 721 876T507 977Q365 977 293 865T220 532Q220 312 292 199T507 86Q647 86 720 186T794 479ZM794 166Q740 66 657 19T450 -29Q254 -29 130 126T5 532T129 937T450 1092Q573
1092 656 1045T794 897V1063H1154V956H978L979 -104Q979 -235 1022 -295T1156 -356Q1238 -356 1280 -311T1330 -170H1425V-389Q1368 -420 1300 -437T1160 -455Q987 -455 891 -362T794 -104V166Z" />
<glyph unicode="&#x24c;" glyph-name="uni024C" horiz-adv-x="1518" d="M425 801H720Q871 801 943 872T1015 1094T943 1315T720 1386H425V801ZM900 741Q971 722 1021 676Q1071 631 1111 549L1328 106H1510V0H1158L925 475Q857 614 802 654Q746 694 648 694H425V106H636V0H32V106H222V694H22V801H222V1386H32V1493H789Q1007
1493 1125 1389T1244 1094Q1244 940 1158 852T900 741Z" />
<glyph unicode="&#x24d;" glyph-name="uni024D" horiz-adv-x="926" d="M923 1065V799H817Q812 878 773 917T659 956Q523 956 451 862T378 592V570H669V464H378V106H591V0H28V106H194V464H18V570H194V958H18V1063H378V874Q432 985 517 1038T724 1092Q769 1092 818
1085T923 1065Z" />
<glyph unicode="&#x24e;" glyph-name="uni024E" horiz-adv-x="1401" d="M414 0V106H605V643L342 1067H4V1189H266L144 1386H4V1493H559V1386H385L507 1189H1009L1131 1386H963V1493H1397V1386H1256L1134 1189H1397V1067H1058L807 662V106H998V0H414ZM934 1067H582L758
782L934 1067Z" />
<glyph unicode="&#x24f;" glyph-name="uni024F" horiz-adv-x="1178" d="M469 -195L539 -18L273 634H21V740H230L142 956H21V1063H510V956H340L428 740H850L938 956H779V1063H1178V956H1059L971 740H1178V634H928L572 -240Q521 -366 461 -410Q400 -456 289 -455Q242
-455 193 -447T93 -424V-221H187Q193 -289 221 -318T310 -348Q365 -348 398 -318T469 -195ZM806 634H472L639 225L806 634Z" />
<glyph unicode="&#x250;" glyph-name="uni0250" horiz-adv-x="1089" d="M356 729V504H593Q730 504 797 563T864 744Q864 855 796 920T612 985Q497 985 426 914Q356 843 356 729ZM172 399V957H8V1063H356V948Q417 1022 497 1057T684 1092Q861 1092 965 998T1069
744Q1069 579 950 488T614 397H356V324Q356 203 430 136Q503 70 636 70Q746 70 811 120T892 268H987V53Q891 12 800 -8Q710 -29 624 -29Q403 -29 288 80Q172 190 172 399Z" />
<glyph unicode="&#x251;" glyph-name="uni0251" horiz-adv-x="1187" d="M994 107H1170V0H810V166Q756 66 673 19T466 -29Q270 -29 146 126T21 532Q21 782 145 937T466 1092Q589 1092 672 1045T810 897V1063H1170V956H994V107ZM810 479V584Q810 775 737 876T523
977Q381 977 309 865T236 532Q236 312 308 199T523 86Q663 86 736 186T810 479Z" />
<glyph unicode="&#x252;" glyph-name="uni0252" horiz-adv-x="1186" d="M376 166V0H16V107H192V957H16V1063H376V897Q430 997 514 1044Q597 1092 720 1092Q916 1092 1040 936Q1165 781 1165 531T1041 126T720 -29Q597 -29 514 18Q430 66 376 166ZM376 584V479Q376
288 450 187Q523 86 663 86Q805 86 878 198Q950 310 950 531Q950 751 878 864Q805 977 663 977Q523 977 450 876Q376 776 376 584Z" />
<glyph unicode="&#x253;" glyph-name="uni0253" horiz-adv-x="1169" d="M371 966L370 897Q424 997 508 1044Q591 1092 714 1092Q910 1092 1034 937T1158 532T1034 126Q910 -29 714 -29Q591 -29 508 18Q424 66 370 166V0H9V106H186V973V1205Q186 1369 284 1462Q381
1556 552 1556Q624 1556 690 1540Q755 1523 817 1490V1271H722Q715 1367 672 1412Q630 1457 548 1457Q457 1457 414 1396Q371 1337 371 1205V966ZM370 479Q370 287 444 186Q517 86 657 86Q798 86 870 199Q943 312 943 532Q943 753 870 865Q798 977 657 977Q517
977 444 876Q370 775 370 584V479Z" />
<glyph unicode="&#x254;" glyph-name="uni0254" horiz-adv-x="985" d="M17 744Q56 914 167 1003T454 1092Q686 1092 827 939Q968 785 968 531Q968 276 827 123Q686 -29 454 -29Q353 -29 253 -5Q153 18 52 66V338H159Q180 198 251 134Q321 70 452 70Q601 70 677
185Q753 301 753 531Q753 761 677 877Q602 993 452 993Q333 993 262 931T165 744H17Z" />
<glyph unicode="&#x255;" glyph-name="uni0255" horiz-adv-x="937" d="M327 164Q394 72 533 70Q799 68 799 177Q799 302 581 300Q401 298 327 164ZM268 268Q393 400 650 400Q915 400 910 170Q906 -29 531 -29Q378 -29 271 42Q262 10 263 -75V-219H149L150 -75Q153
26 177 105Q167 115 158 124Q17 278 17 532Q17 787 158 940Q299 1092 531 1092Q632 1092 732 1068Q832 1045 933 997V725H826Q805 865 735 929Q664 993 533 993Q384 993 308 878Q232 762 232 532Q232 373 268 268Z" />
<glyph unicode="&#x256;" glyph-name="uni0256" horiz-adv-x="1426" d="M974 -104Q974 -234 1016 -294Q1060 -356 1151 -356Q1233 -356 1276 -311Q1318 -266 1325 -170H1420V-389Q1358 -422 1292 -438Q1227 -455 1155 -455Q984 -455 886 -362Q789 -268 789 -104V128V166Q735
66 652 18Q568 -29 445 -29Q249 -29 124 126Q0 282 0 532T124 937T445 1092Q568 1092 652 1044Q735 997 789 897V1450H615V1556H973Q974 726 974 -104ZM789 479V584Q789 775 716 876Q642 977 502 977Q360 977 288 865Q215 753 215 532Q215 312 288 199Q360 86 502
86Q642 86 716 186Q789 287 789 479Z" />
<glyph unicode="&#x257;" glyph-name="uni0257" horiz-adv-x="1433" d="M792 897V1205Q792 1369 890 1462Q987 1556 1158 1556Q1230 1556 1296 1540Q1361 1523 1423 1490V1271H1328Q1321 1367 1278 1412Q1236 1457 1154 1457Q1063 1457 1020 1396Q977 1337 977
1205V106H1153V0H793V166Q739 66 656 18Q572 -29 449 -29Q253 -29 128 126Q4 282 4 532T128 937T449 1092Q572 1092 656 1044Q738 997 792 897ZM793 479V584Q793 775 720 876Q646 977 506 977Q364 977 292 865Q219 753 219 532Q219 312 292 199Q364 86 506 86Q646
86 720 186Q793 287 793 479Z" />
<glyph unicode="&#x258;" glyph-name="uni0258" horiz-adv-x="1041" d="M15 512Q20 795 149 944Q278 1092 519 1092Q745 1092 884 938T1023 532Q1023 278 881 124Q740 -29 507 -29Q314 -29 195 59Q77 147 33 322H181Q212 197 289 134Q367 70 488 70Q646 70 727
180Q808 289 808 504V512H15ZM232 618H808Q792 803 719 898T519 993Q383 993 311 898Q238 804 232 618Z" />
<glyph unicode="&#x259;" glyph-name="uni0259" horiz-adv-x="1041" d="M15 551H808V559Q808 774 727 884Q646 993 488 993Q367 993 289 930Q212 866 181 741H33Q77 916 195 1004Q314 1092 507 1092Q740 1092 881 938Q1023 785 1023 531Q1023 279 884 125T519
-29Q278 -29 149 120Q20 268 15 551ZM232 445Q238 259 311 164Q383 70 519 70Q646 70 719 165T808 445H232Z" />
<glyph unicode="&#x25a;" glyph-name="uni025A" horiz-adv-x="1751" d="M1676 757L1751 679Q1674 631 1671 630Q1624 613 1529 613Q1416 613 1320 706Q1236 787 1225 919L970 773Q1011 666 1011 531Q1011 279 872 125T507 -29Q265 -29 137 120Q36 238 23 350L767
778Q748 840 715 884Q634 993 476 993Q355 993 277 930Q201 868 169 741H21Q65 916 183 1004Q302 1092 495 1092Q728 1092 869 938Q899 905 923 868L1196 1025H1310V964Q1310 833 1375 774Q1444 712 1526 712Q1664 712 1676 757ZM790 669L233 350Q235 249 299 164Q371
70 507 70Q641 70 707 165Q772 257 796 531V559Q796 618 790 669Z" />
<glyph unicode="&#x25b;" glyph-name="uni025B" horiz-adv-x="907" d="M76 810Q76 939 174 1007Q272 1074 468 1074Q522 1074 626 1058Q730 1041 842 1010V789H734Q722 878 650 923T484 968Q251 968 251 801Q251 610 508 610H601V505H509Q351 505 274 443Q200
383 200 267Q200 188 253 138Q340 56 482 56Q598 56 682 109T776 264H884V33Q778 -3 670 -21Q566 -39 486 -39Q262 -39 139 40Q17 119 18 269Q18 404 123 482Q194 536 314 562Q232 581 178 616Q76 683 76 810Z" />
<glyph unicode="&#x25c;" glyph-name="uni025C" horiz-adv-x="904" d="M421 968Q327 968 255 923Q183 877 171 788H63V1010Q175 1041 279 1058Q383 1074 437 1074Q633 1074 731 1007Q829 939 829 810Q829 683 727 616Q673 581 591 562Q711 536 782 482Q885 404
887 269Q887 119 766 40Q641 -40 419 -39Q339 -39 235 -21Q127 -3 24 33V264H129Q129 162 223 109Q307 56 423 56Q565 56 652 138Q705 188 705 267Q705 383 631 443Q554 505 396 505H304V610H397Q654 610 654 801Q654 968 421 968Z" />
<glyph unicode="&#x25d;" glyph-name="uni025D" horiz-adv-x="1632" d="M428 968Q334 968 262 923Q190 877 178 788L70 789V1010Q182 1041 286 1058Q390 1074 444 1074Q640 1074 738 1007Q829 944 836 827L1077 1040H1191V979Q1191 848 1257 789Q1325 727 1407
727Q1513 727 1558 772L1632 694Q1587 656 1552 645Q1498 628 1411 628Q1296 629 1201 721Q1118 802 1106 934L782 657Q762 634 734 616Q680 581 598 562Q718 536 789 482Q892 404 894 269Q895 119 773 40Q648 -40 426 -39Q347 -39 242 -21Q134 -3 28 33V264H136Q146
162 230 109T430 56Q572 56 659 138Q712 188 712 267Q712 383 638 443Q561 505 403 505H311V610H404Q661 610 661 801Q661 968 428 968Z" />
<glyph unicode="&#x25e;" glyph-name="uni025E" horiz-adv-x="1099" d="M637 987Q625 987 537 969Q496 960 425 923Q185 800 185 525Q185 266 425 127Q441 111 537 81Q575 70 637 70Q745 70 803 121Q860 172 860 268Q860 373 790 426Q719 478 581 478H543V578H581Q719
578 790 631Q860 683 860 789Q860 884 803 935Q745 987 637 987ZM354 38Q13 189 13 528Q13 836 354 1018Q412 1049 513 1074Q591 1092 665 1092Q861 1092 968 1015Q1074 938 1074 797Q1074 695 999 624Q923 552 788 528Q923 504 999 433Q1074 362 1074 259Q1074
118 968 41T665 -36Q625 -36 513 -17Q458 -12 354 38Z" />
<glyph unicode="&#x25f;" glyph-name="uni025F" horiz-adv-x="810" d="M449 956H275V1063H633V570H807V464H633V-104Q633 -268 536 -361T267 -455Q195 -455 130 -439T2 -389V-170H97Q104 -266 146 -311T271 -356Q362 -356 405 -295T449 -104V464H273V570H449V956Z" />
<glyph unicode="&#x260;" glyph-name="uni0260" horiz-adv-x="1427" d="M793 584L794 956H506Q364 956 292 844T219 532Q219 312 291 199T506 86Q646 86 719 186T793 479V584ZM977 1191V23Q977 -206 851 -330Q725 -455 492 -455Q387 -455 291 -436T107 -379V-156H203Q221
-260 288 -308T480 -356Q642 -356 717 -265T793 23V166Q739 66 656 19T449 -29Q253 -29 129 126T4 532Q4 753 128 908T449 1063H793V1205Q793 1369 890 1462Q988 1556 1159 1556Q1231 1556 1296 1540Q1362 1523 1424 1490V1271H1329Q1322 1367 1280 1412Q1237 1457
1155 1457Q1064 1457 1020 1396Q978 1336 978 1205L977 1191Z" />
<glyph unicode="&#x261;" glyph-name="uni0261" horiz-adv-x="1177" d="M465 1063H1169V956H993V23Q993 -206 867 -330T508 -455Q403 -455 307 -436T123 -379V-156H219Q237 -260 304 -308T496 -356Q658 -356 733 -265T809 23V166Q755 66 672 19T465 -29Q269 -29
145 126T20 532Q20 753 144 908T465 1063ZM809 584L810 956H522Q380 956 308 844T235 532Q235 312 307 199T522 86Q662 86 735 186T809 479V584Z" />
<glyph unicode="&#x262;" glyph-name="uni0262" horiz-adv-x="995" d="M826 725Q797 882 735 929Q653 993 533 993Q403 993 312 872Q223 753 223 512Q223 270 315 154Q394 54 632 54Q693 54 764 84Q817 106 829 114L827 400H630V477H969V75Q876 19 768 -9Q661
-37 539 -37Q302 -37 159 116Q17 269 17 523Q17 778 160 931Q303 1083 544 1083Q628 1083 729 1061Q825 1040 933 997V725H826Z" />
<glyph unicode="&#x263;" glyph-name="uni0263" horiz-adv-x="1195" d="M526 465L166 960H6V1067H598V960H422L666 637L886 956H694V1063H1183V956H1015L729 543Q880 332 963 168Q1060 -27 1060 -157Q1060 -307 944 -382Q829 -456 600 -456Q390 -456 308 -353Q256
-288 256 -181Q256 -60 353 148Q418 287 526 465ZM371 -208Q371 -262 404 -296Q457 -350 595 -350Q726 -350 780 -303Q819 -269 819 -212Q819 -65 753 92Q697 226 592 368Q507 223 455 104Q371 -86 371 -208Z" />
<glyph unicode="&#x264;" glyph-name="uni0264" horiz-adv-x="915" d="M16 1020Q104 1089 216 1089T474 883Q621 1086 823 1086H826Q874 1086 904 1029V954H799V973Q799 1020 752 1020H751Q683 1020 537 797Q632 643 691 519Q788 315 788 195Q788 117 746 74Q640
-33 412 -33Q266 -33 154 74Q105 120 105 200Q105 302 184 459Q248 584 361 744Q208 1017 159 1017Q118 1017 118 930V912H16V1020ZM235 185Q235 126 286 98Q331 74 414 74Q504 74 562 139Q599 181 599 219Q599 283 543 414Q499 516 421 658Q332 531 285 417Q235
293 235 185Z" />
<glyph unicode="&#x265;" glyph-name="uni0265" horiz-adv-x="1204" d="M657 -320H831V188Q780 82 699 26Q618 -29 511 -29Q334 -29 250 72Q167 172 167 387V956H1V1063H352V444Q352 250 400 178Q447 106 569 106Q697 106 764 200T831 473V956H671V1063H1015V-320H1189V-426H831L657
-424V-320Z" />
<glyph unicode="&#x266;" glyph-name="uni0266" horiz-adv-x="1194" d="M362 874Q413 982 493 1037Q575 1092 683 1092Q859 1092 942 991T1025 676V106H1189V0H681V106H840V618Q840 813 793 884Q745 956 623 956Q495 956 428 863T361 592V106H521V0H11V106H177V973V1205Q177
1369 275 1462Q372 1556 543 1556Q615 1556 681 1540Q746 1523 808 1490V1271H713Q706 1367 663 1412Q621 1457 539 1457Q448 1457 405 1396Q362 1339 362 1205V874Z" />
<glyph unicode="&#x267;" glyph-name="uni0267" horiz-adv-x="1037" d="M354 874Q405 982 485 1037Q567 1092 675 1092Q851 1092 934 991T1017 676V128V-104Q1017 -268 919 -362Q822 -455 651 -455Q579 -455 513 -438Q448 -422 386 -389V-170H481Q488 -266 531
-311Q573 -356 655 -356Q746 -356 789 -294Q832 -234 832 -104V128V618Q832 813 785 884Q737 956 615 956Q487 956 420 863T353 592V106H513V0H3V106H169V973V1205Q169 1369 267 1462Q364 1556 535 1556Q607 1556 673 1540Q738 1523 800 1490V1271H705Q698 1367
655 1412Q613 1457 531 1457Q440 1457 397 1396Q354 1337 354 1205V966V874Z" />
<glyph unicode="&#x268;" glyph-name="uni0268" horiz-adv-x="655" d="M17 1393Q17 1439 50 1473Q84 1507 131 1507Q177 1507 210 1473Q244 1439 244 1393Q244 1346 211 1313T131 1280T50 1313Q17 1346 17 1393ZM377 106H551V0H17V106H193V464H17V570H193V956H17V1063H377V570H551V464H377V106Z"
/>
<glyph unicode="&#x269;" glyph-name="uni0269" horiz-adv-x="541" d="M175 351L176 956H0V1063H360V351Q360 220 402 160Q446 99 537 99V0Q366 0 268 94Q175 183 175 351Z" />
<glyph unicode="&#x26a;" glyph-name="uni026A" horiz-adv-x="564" d="M375 106H549V0H15V106H191V956H15V1063H549V960H375V106Z" />
<glyph unicode="&#x26b;" glyph-name="uni026B" horiz-adv-x="666" d="M423 106H597V0H62V106H239V744Q235 746 232 748Q215 756 196 756Q154 756 130 716Q106 677 101 601H5Q7 736 58 810Q109 883 200 883Q220 883 239 879V1450H62V1556H423V744Q430 739 436
736Q453 728 474 728Q517 728 541 768T569 883H665Q663 748 612 674Q561 601 470 601Q445 601 423 607V106Z" />
<glyph unicode="&#x26c;" glyph-name="uni026C" horiz-adv-x="812" d="M566 106H740V0H205V106H381V468Q2 469 1 664Q0 893 236 894Q323 894 382 838V1450H205V1556H566V564H810V465H566V106ZM371 564Q350 787 278 786Q219 785 219 671Q219 566 371 564Z" />
<glyph unicode="&#x26d;" glyph-name="uni026D" horiz-adv-x="811" d="M181 1450H4V1556H365V-104Q365 -234 407 -294Q451 -356 542 -356Q624 -356 667 -311Q709 -266 716 -170H811V-389Q749 -422 683 -438Q618 -455 546 -455Q375 -455 277 -362Q180 -268 180
-104Q180 673 181 1450Z" />
<glyph unicode="&#x26e;" glyph-name="uni026E" horiz-adv-x="1334" d="M764 423H669V525L999 956H472L370 772V106H544V0H9V106H186V1450H9V1556H370V1063H1236V977L867 494L946 487Q1118 472 1232 337Q1333 217 1333 25Q1333 -209 1192 -334Q1052 -458 788 -458Q671
-458 560 -430Q448 -402 338 -345V-21H450Q460 -182 547 -265T792 -348Q945 -348 1034 -248Q1122 -149 1122 23Q1122 220 1031 322Q940 423 764 423Z" />
<glyph unicode="&#x26f;" glyph-name="uni026F" horiz-adv-x="1849" d="M843 236Q790 119 708 60Q625 0 515 0Q348 0 266 104Q184 207 184 416V986H18V1092H368V437Q368 274 416 205T575 136Q698 136 762 229Q827 322 827 500V986H667V1092H1011V430Q1011 271
1059 204Q1107 136 1218 136Q1341 136 1406 229Q1470 322 1470 500V986H1310V1092H1654V134H1830V29H1470V218Q1419 112 1340 56T1161 0Q1037 0 954 62Q871 123 843 236Z" />
<glyph unicode="&#x270;" glyph-name="uni0270" horiz-adv-x="1833" d="M1637 -319H1813V-426H1279V-319H1453V218Q1402 112 1323 56T1144 0Q1020 0 937 62Q854 123 826 236Q773 119 691 60Q608 0 498 0Q331 0 249 104Q167 207 167 416V986H1V1092H351V437Q351
274 399 205T558 136Q681 136 745 229Q810 322 810 500V986H650V1092H994V430Q994 271 1042 204Q1090 136 1201 136Q1324 136 1389 229Q1453 322 1453 500V986H1293V1092H1637V-319Z" />
<glyph unicode="&#x271;" glyph-name="uni0271" horiz-adv-x="1681" d="M1649 -104Q1649 -268 1552 -362Q1454 -455 1283 -455Q1211 -455 1146 -438Q1080 -422 1018 -389V-170H1113Q1120 -266 1162 -311Q1205 -356 1287 -356Q1378 -356 1422 -294Q1464 -234 1464
-104V655Q1464 818 1416 887T1257 956Q1134 956 1070 863Q1005 770 1005 592V106H1165V0H661V106H821V662Q821 821 773 888Q725 956 614 956Q491 956 426 863Q362 770 362 592V106H522V0H12V106H178V958H2V1063H362V874Q413 980 492 1036T671 1092Q795 1092 878
1030Q961 969 989 856Q1042 973 1124 1032Q1207 1092 1317 1092Q1484 1092 1566 988Q1648 885 1648 676Q1649 283 1649 -104Z" />
<glyph unicode="&#x272;" glyph-name="uni0272" horiz-adv-x="1469" d="M641 -104Q641 -268 543 -362Q446 -455 275 -455Q203 -455 137 -438Q72 -422 10 -389V-170H105Q112 -266 155 -311Q197 -356 279 -356Q370 -356 413 -294Q456 -234 456 -104V956H280V1063H640V874Q691
982 773 1037Q854 1092 962 1092Q1138 1092 1221 991T1304 676V106H1468V0H960V106H1119V618Q1119 813 1071 886Q1023 958 902 958Q774 958 707 864Q640 771 640 592Q641 242 641 -104Z" />
<glyph unicode="&#x273;" glyph-name="uni0273" horiz-adv-x="1478" d="M841 618Q841 813 793 886Q745 958 624 958Q496 958 429 864Q362 771 362 592V106H522V0H12V106H178V956H2V1063H362V874Q413 982 494 1037Q576 1092 684 1092Q858 1092 943 991Q1026 892
1026 676V-104Q1026 -234 1068 -294Q1112 -356 1203 -356Q1285 -356 1328 -311Q1370 -266 1377 -170H1472V-389Q1410 -422 1344 -438Q1279 -455 1207 -455Q1036 -455 938 -362Q841 -268 841 -104V618Z" />
<glyph unicode="&#x274;" glyph-name="uni0274" horiz-adv-x="1243" d="M18 0V106H184V956H18V1063H367L937 278V956H771V1063H1226V956H1060V-29H938L307 829V106H473V0H18Z" />
<glyph unicode="&#x275;" glyph-name="uni0275" horiz-adv-x="1064" d="M532 70Q680 70 756 187Q819 286 829 464H235Q245 286 309 187Q385 70 532 70ZM234 570H830Q825 770 756 876Q680 993 532 993T308 876Q239 770 234 570ZM532 -29Q300 -29 159 124Q18 278
18 532T158 939Q299 1092 532 1092T906 939Q1046 786 1046 532T906 124Q765 -29 532 -29Z" />
<glyph unicode="&#x276;" glyph-name="uni0276" horiz-adv-x="1513" d="M634 948Q452 954 343 837Q239 725 239 525Q239 323 343 211Q445 100 634 98L662 97L706 106V956L660 947L634 948ZM1479 0H604Q330 0 176 141T22 534Q22 783 175 923Q329 1063 604 1063H1467V826H1370L1371
956H891V628H1233L1232 752H1327V399H1232L1233 522H891V106H1382V236H1479V0Z" />
<glyph unicode="&#x277;" glyph-name="uni0277" horiz-adv-x="1170" d="M693 529V489Q693 369 727 263Q789 66 850 66Q939 66 939 430Q938 603 883 772Q791 969 584 973Q384 977 288 772Q233 603 232 430Q232 66 321 66Q382 66 444 263Q478 369 478 489V529H693ZM584
272Q560 130 489 50Q418 -29 315 -29Q174 -29 97 83Q20 194 20 400Q20 479 39 560Q63 666 94 727Q276 1085 584 1085Q895 1085 1077 727Q1108 666 1132 560Q1151 479 1151 400Q1151 194 1074 83Q997 -29 856 -29Q753 -29 682 50Q611 130 584 272Z" />
<glyph unicode="&#x278;" glyph-name="uni0278" horiz-adv-x="1036" d="M612 -320H786V-426H252V-320H428V-23Q258 2 145 124Q4 278 4 532T144 939Q257 1061 428 1086V1449H252V1556H786V1453H612V1085Q781 1060 892 939Q1032 786 1032 532T892 124Q781 3 612
-22V-320ZM428 83V980Q345 954 294 876Q219 760 219 532T295 187Q346 109 428 83ZM612 979V84Q692 111 742 187Q817 304 817 532T742 876Q692 952 612 979Z" />
<glyph unicode="&#x279;" glyph-name="uni0279" horiz-adv-x="924" d="M3 -2V264H109Q114 185 153 146T267 107Q403 107 475 201Q548 295 548 471V957H335V1063H898V957H732V105H908V0H548V189Q494 78 409 24Q324 -29 202 -29Q157 -29 107 -22Q58 -15 3 -2Z" />
<glyph unicode="&#x27a;" glyph-name="uni027A" horiz-adv-x="919" d="M2 -2V264H108Q113 185 152 146T266 107Q399 107 474 201Q547 292 547 471V1449H334V1555H897V1449H731V105H907V0H547V189Q493 78 408 24Q323 -29 201 -29Q156 -29 106 -22Q57 -15 2 -2Z" />
<glyph unicode="&#x27b;" glyph-name="uni027B" horiz-adv-x="1186" d="M545 0V189Q491 78 406 24Q321 -29 199 -29Q154 -29 104 -22Q55 -15 0 -2V264H106Q111 185 150 146T264 107Q400 107 472 201Q545 295 545 471V957H332V1063H895V957H732V128V-104Q732 -234
775 -294Q818 -356 910 -356Q992 -356 1034 -311T1084 -170H1178V-389Q1116 -422 1051 -438Q986 -455 914 -455Q742 -455 645 -362Q552 -272 548 -104L545 0Z" />
<glyph unicode="&#x27c;" glyph-name="uni027C" horiz-adv-x="920" d="M918 1065V799H812Q807 878 768 917T654 956Q518 956 445 862Q373 768 373 592V-318H586V-424H23V-318H189V958H13V1063H373V874Q427 985 512 1038Q597 1092 719 1092Q764 1092 813 1085Q863
1078 918 1065Z" />
<glyph unicode="&#x27d;" glyph-name="uni027D" horiz-adv-x="932" d="M910 1065V799H804Q799 878 760 917T646 956Q510 956 437 862Q365 768 365 592Q366 244 363 -104Q363 -234 405 -294Q449 -356 540 -356Q622 -356 665 -311Q707 -266 714 -170H809V-389Q747
-422 681 -438Q616 -455 544 -455Q373 -455 275 -362Q178 -268 178 -104V0Q179 472 178 958H5V1063H365V874Q419 985 504 1038Q589 1092 711 1092Q756 1092 805 1085Q855 1078 910 1065Z" />
<glyph unicode="&#x27e;" glyph-name="uni027E" horiz-adv-x="806" d="M355 106H568V0H5V106H170V628V734Q170 898 267 992Q365 1085 536 1085Q608 1085 673 1068Q739 1052 801 1019V800H706Q699 896 657 941Q614 986 532 986Q441 986 397 924Q355 864 355 734V628V106Z" />
<glyph unicode="&#x27f;" glyph-name="uni027F" horiz-adv-x="806" d="M451 106V628V734Q451 864 409 924Q365 986 274 986Q192 986 149 941Q107 896 100 800H5V1019Q67 1052 133 1068Q198 1085 270 1085Q441 1085 539 992Q636 898 636 734V628V106H801V0H238V106H451Z" />
<glyph unicode="&#x280;" glyph-name="uni0280" horiz-adv-x="1155" d="M709 536Q759 522 795 490Q823 464 859 391L1000 103H1145L1143 0H858L692 338Q644 436 604 465Q564 494 495 494H373V103H505L503 0H24L26 103H193L191 960H24V1063H630Q785 1063 870 989Q954
915 954 779Q954 677 892 614Q831 551 709 536ZM373 597H546Q655 597 705 648Q756 699 756 779T705 909Q653 960 546 960H373V597Z" />
<glyph unicode="&#x281;" glyph-name="uni0281" horiz-adv-x="1155" d="M709 527Q831 512 892 449Q954 386 954 284Q954 148 870 74Q785 0 630 0H24V103H191L193 960H26L24 1063H503L505 960H373V569H495Q564 569 604 598Q644 627 692 725L858 1063H1143L1145
960H1000L859 672Q823 599 795 573Q759 541 709 527ZM373 466V103H546Q653 103 705 154Q756 204 756 284T705 415Q655 466 546 466H373Z" />
<glyph unicode="&#x282;" glyph-name="uni0282" horiz-adv-x="867" d="M25 307H131Q135 188 205 129T414 70Q538 70 603 116T668 252Q668 322 621 365T420 457L287 502Q150 546 89 612T27 780Q27 926 134 1009T430 1092Q514 1092 607 1070T799 1006V774H693Q689
877 621 935T436 993Q320 993 261 952T201 829Q201 762 246 722Q292 681 426 639L572 594Q722 548 790 476Q856 406 856 295Q856 144 741 58T422 -29Q319 -29 221 -7L209 -4V-104Q209 -233 252 -294T387 -356Q469 -356 511 -311T561 -170H656V-389Q594 -422 529
-438T391 -455Q220 -455 123 -362T25 -104V307Z" />
<glyph unicode="&#x283;" glyph-name="uni0283" horiz-adv-x="883" d="M635 -104Q658 -246 537 -362Q440 -455 269 -455Q197 -455 131 -438Q66 -422 4 -389V-170H99Q106 -266 149 -311Q191 -356 273 -356Q362 -356 407 -294Q467 -214 450 -104Q344 546 249 1208Q228
1351 347 1465Q444 1558 615 1558Q687 1558 753 1542Q818 1526 880 1492V1274H785Q778 1370 735 1414Q693 1460 611 1460Q520 1460 477 1398Q418 1317 434 1208Q528 545 635 -104Z" />
<glyph unicode="&#x284;" glyph-name="uni0284" horiz-adv-x="1079" d="M632 956V570H806V464H632V-104Q632 -268 535 -361T266 -455Q194 -455 129 -439T1 -389V-170H96Q103 -266 145 -311T270 -356Q361 -356 404 -295T448 -104V464H272V570H448V956H274H272V1063H274H448V1196Q448
1374 540 1465T812 1556Q879 1556 946 1544T1079 1507V1305H982Q981 1380 940 1419T819 1458Q716 1458 674 1402Q632 1343 632 1200V1063V956Z" />
<glyph unicode="&#x285;" glyph-name="uni0285" horiz-adv-x="886" d="M250 -104L451 735Q467 845 408 926Q365 987 274 987Q192 987 150 942Q107 897 100 801H5V1020Q67 1053 132 1070Q198 1086 270 1086Q441 1086 538 992Q668 868 636 735L435 -104Q418 -214
478 -294Q523 -356 612 -356Q694 -356 736 -311Q779 -266 786 -170H881V-389Q819 -422 754 -438Q688 -455 616 -455Q445 -455 348 -362Q218 -237 250 -104Z" />
<glyph unicode="&#x286;" glyph-name="uni0286" horiz-adv-x="1006" d="M384 -356Q473 -356 519 -294Q572 -222 564 -127Q550 -126 536 -126Q225 -126 225 -249Q225 -356 384 -356ZM737 -230Q714 -301 649 -362Q547 -455 386 -455Q11 -455 7 -256Q2 -26 540 -26Q544
-26 549 -26Q355 1194 360 1208Q338 1350 458 1465Q555 1558 726 1558Q798 1558 864 1542Q929 1526 991 1492V1274H896Q889 1370 847 1414Q804 1460 722 1460Q631 1460 588 1398Q529 1317 545 1208Q653 460 742 -80Q864 -166 867 -386L868 -450H768V-386Q768 -291
737 -230Z" />
<glyph unicode="&#x287;" glyph-name="uni0287" horiz-adv-x="751" d="M586 107H748V0H586V-330H401V0H55V107H401V782Q401 917 375 955T279 993Q207 993 174 950Q141 908 139 813H0Q8 958 79 1025T295 1092Q454 1092 520 1022Q586 951 586 782V107Z" />
<glyph unicode="&#x288;" glyph-name="uni0288" horiz-adv-x="751" d="M165 956H3V1063H165V1393H350V1063H696V956H350V-116Q350 -251 376 -289T472 -327Q544 -327 577 -284Q610 -242 612 -147H751Q743 -292 672 -359T456 -426Q297 -426 231 -356Q165 -285 165
-116V956Z" />
<glyph unicode="&#x289;" glyph-name="uni0289" horiz-adv-x="1217" d="M684 1063H1028V570H1202V464H1028V106H1202V0H844V188Q793 82 712 26Q631 -29 524 -29Q347 -29 263 72Q180 172 180 387V464H14V570H180V956H14V1063H365V570H844V956H684V1063ZM844 464H365V444Q365
250 413 178Q460 106 582 106Q710 106 777 200Q842 292 844 464Z" />
</font>
</defs>
</svg>
