<?xml version="1.0" standalone="no"?> <!DOCTYPE svg PUBLIC "-//W3C//DTD SVG 1.0//EN" "http://www.w3.org/TR/2001/REC-SVG-20010904/DTD/svg10.dtd" > <svg xmlns="http://www.w3.org/2000/svg" width="100%" height="100%">
<defs >
<font horiz-adv-x="1303" ><font-face
    font-family="DejaVu Serif"
    units-per-em="2048"
    panose-1="2 6 6 3 5 3 5 11 2 4"
    ascent="1901"
    descent="-483"
    alphabetic="0" />
<missing-glyph horiz-adv-x="1100" d="M38 -362V1444H1062V-362H38ZM153 -248H948V1329H153V-248Z" />
<glyph unicode=" " glyph-name="space" horiz-adv-x="651" />
<glyph unicode="!" glyph-name="exclam" horiz-adv-x="543" d="M170 238Q225 238 256 199T277 104Q266 49 220 10T118 -29Q61 -29 31 9T11 104T67 199T170 238ZM285 1493H543L315 672L266 420H143L192 672L285 1493Z" />
<glyph unicode="&quot;" glyph-name="quotedbl" horiz-adv-x="617" d="M197 1493V938H38V1493H197ZM578 1493V938H419V1493H578Z" />
<glyph unicode="#" glyph-name="numbersign" horiz-adv-x="1407" d="M887 901H605L521 567H806L887 901ZM746 1470L644 1055H926L1029 1470H1201L1096 1055H1404V901H1057L975 567H1289V414H937L834 0H662L767 414H484L380 0H210L312 414H3V567H351L433 901H117V1055H472L576
1470H746Z" />
<glyph unicode="$" glyph-name="dollar" horiz-adv-x="1109" d="M513 68Q628 78 698 133T787 283Q804 369 757 429T601 520L513 68ZM631 1187Q526 1180 459 1128T375 987Q359 907 401 854T549 768L631 1187ZM0 72L54 348H162Q139 211 201 141T413 68L508 553Q290
617 213 700T163 922Q194 1082 323 1179T650 1288L702 1556H802L750 1288Q850 1280 938 1256T1108 1190L1057 928H948Q959 1044 903 1111T731 1187L643 735Q876 668 957 582T1011 350Q979 184 844 84T494 -31L442 -301H342L394 -31Q298 -29 200 -4T0 72Z" />
<glyph unicode="%" glyph-name="percent" horiz-adv-x="1688" d="M462 1427Q374 1427 309 1344T214 1112Q186 965 220 881T340 797Q425 797 490 880T585 1112T581 1343T462 1427ZM1350 694Q1263 694 1197 610T1102 377Q1074 230 1107 147T1227 63T1378 146T1472
377Q1501 525 1468 609T1350 694ZM1367 784Q1525 784 1597 674T1633 377T1481 81T1209 -29Q1049 -29 978 80T942 377Q979 565 1093 674T1367 784ZM1386 1520H1538L302 -29H150L1386 1520ZM746 1114Q709 925 595 816T321 707T91 816T56 1114Q92 1300 206 1410T479
1520T709 1411T746 1114Z" />
<glyph unicode="&amp;" glyph-name="ampersand" horiz-adv-x="1646" d="M938 231L475 844Q373 766 312 676T231 483Q223 440 223 401Q223 288 292 204Q385 92 557 92Q659 92 756 127T938 231ZM1513 0H1112L1003 145Q881 57 754 14T488 -29Q230 -29 105 103Q12
201 12 350Q12 402 24 461Q50 594 148 709T422 926Q383 987 371 1048Q365 1077 365 1108Q365 1140 371 1174Q402 1333 535 1426T865 1520Q932 1520 1018 1503T1212 1452L1162 1194H1049Q1050 1206 1050 1218Q1050 1307 1003 1357Q950 1413 840 1413Q737 1413 662
1357T569 1210Q565 1189 565 1168Q565 1128 580 1088Q601 1030 688 915L1098 371Q1183 451 1240 543T1328 741L1349 848H1642L1621 741H1449Q1407 611 1336 498T1162 289L1299 106H1534L1513 0Z" />
<glyph unicode="&apos;" glyph-name="quotesingle" horiz-adv-x="238" d="M197 1493V938H38V1493H197Z" />
<glyph unicode="(" glyph-name="parenleft" horiz-adv-x="744" d="M380 -319Q158 -210 80 26T71 618Q140 974 310 1210T744 1556L725 1458Q551 1352 447 1160T274 618Q206 270 235 78T399 -221L380 -319Z" />
<glyph unicode=")" glyph-name="parenright" horiz-adv-x="745" d="M0 -319L19 -221Q193 -115 298 77T471 618Q539 967 509 1159T345 1458L364 1556Q587 1447 665 1211T674 618Q605 263 435 27T0 -319Z" />
<glyph unicode="*" glyph-name="asterisk" horiz-adv-x="962" d="M960 1237L569 1055L960 870L884 752L536 969L549 588H413L426 969L78 752L2 870L393 1053L2 1237L78 1356L426 1139L413 1520H549L536 1139L884 1356L960 1237Z" />
<glyph unicode="+" glyph-name="plus" horiz-adv-x="1282" d="M721 1284V723H1282V561H721V0H561V561H0V723H561V1284H721Z" />
<glyph unicode="," glyph-name="comma" horiz-adv-x="462" d="M0 -199Q108 -130 170 -37T258 190L265 227H462Q421 56 325 -66T65 -279L0 -199Z" />
<glyph unicode="-" glyph-name="hyphen" horiz-adv-x="606" d="M62 627H574L544 471H32L62 627Z" />
<glyph unicode="." glyph-name="period" horiz-adv-x="315" d="M184 238Q239 238 270 199T291 104Q280 49 234 10T132 -29Q75 -29 45 9T25 104T81 199T184 238Z" />
<glyph unicode="/" glyph-name="slash" horiz-adv-x="1018" d="M858 1493H1018L160 -190H0L858 1493Z" />
<glyph unicode="0" glyph-name="zero" horiz-adv-x="1199" d="M905 745Q971 1085 928 1253T731 1421T470 1253T295 745Q229 406 272 238T469 70T730 238T905 745ZM449 -29Q206 -29 110 175T84 745Q155 1112 331 1316T751 1520Q995 1520 1091 1316T1116 745Q1045
379 869 175T449 -29Z" />
<glyph unicode="1" glyph-name="one" horiz-adv-x="773" d="M0 0L21 106H281L522 1348L183 1153L209 1284L619 1520H757L482 106H742L721 0H0Z" />
<glyph unicode="2" glyph-name="two" horiz-adv-x="1217" d="M352 1137H240L292 1403Q410 1460 524 1490T743 1520Q976 1520 1089 1407T1164 1100Q1122 881 756 576Q728 553 713 541L263 164H886L922 348H1039L971 0H8L29 109L570 561Q749 711 837 836T953 1100Q982
1251 920 1336T720 1421Q577 1421 486 1350T352 1137Z" />
<glyph unicode="3" glyph-name="three" horiz-adv-x="1201" d="M316 1430Q442 1474 554 1497T760 1520Q979 1520 1083 1426T1155 1163Q1129 1028 1027 938T762 815Q940 789 1021 682T1068 403Q1028 194 866 83T439 -29Q322 -29 216 -4T9 72L65 362H177Q159 218
232 144T463 70Q616 70 721 158T857 401Q891 577 818 667T568 758H473L493 860H543Q718 860 819 932T950 1151Q975 1282 917 1351T723 1421T501 1357T377 1167H265L316 1430Z" />
<glyph unicode="4" glyph-name="four" horiz-adv-x="1169" d="M673 506L827 1300L163 506H673ZM1014 0H334L355 106H595L652 399H0L21 508L872 1520H1070L873 506H1158L1137 399H852L795 106H1035L1014 0Z" />
<glyph unicode="5" glyph-name="five" horiz-adv-x="1150" d="M1141 1493L1109 1329H425L342 901Q401 937 474 955T633 973Q875 973 989 839T1058 473Q1012 236 845 104T421 -29Q318 -29 215 -4T9 72L65 362H178Q159 220 226 145T440 70Q598 70 703 174T847 473Q884
667 820 770T597 874Q507 874 432 842T291 743H205L351 1493H1141Z" />
<glyph unicode="6" glyph-name="six" horiz-adv-x="1200" d="M646 872Q503 872 409 772T277 483Q238 284 293 177T490 70T727 173T860 471T843 768T646 872ZM310 822Q392 897 485 934T687 971Q910 971 1013 837T1072 471Q1028 244 862 108T462 -29Q209 -29 110
159T79 698Q155 1090 358 1305T854 1520Q933 1520 1017 1505T1186 1460L1138 1214H1025Q1033 1315 978 1368T813 1421Q619 1421 496 1274T310 822Z" />
<glyph unicode="7" glyph-name="seven" horiz-adv-x="1075" d="M1055 1391L201 0H52L867 1329H177L141 1145H24L92 1493H1075L1055 1391Z" />
<glyph unicode="8" glyph-name="eight" horiz-adv-x="1217" d="M866 408Q897 568 835 656T629 745T388 657T260 408Q229 247 291 159T498 70T738 158T866 408ZM966 1133Q993 1269 939 1345T760 1421Q637 1421 553 1345T442 1133Q416 996 470 920T648 844Q772 844
856 920T966 1133ZM793 795Q958 772 1033 670T1077 408Q1037 198 882 85T478 -29Q231 -29 120 84T49 408Q80 567 195 669T486 795Q340 822 277 909T239 1133Q274 1313 418 1416T780 1520T1100 1417T1169 1133Q1143 997 1046 910T793 795Z" />
<glyph unicode="9" glyph-name="nine" horiz-adv-x="1199" d="M889 669Q808 594 714 557T510 520Q288 520 186 654T128 1020Q172 1247 338 1383T738 1520Q991 1520 1089 1332T1120 793Q1044 401 841 186T346 -29Q267 -29 183 -14T14 31L62 279H174Q168 178 222
124T386 70Q580 70 703 216T889 669ZM710 1421Q568 1421 473 1318T340 1020T357 722T554 618T791 718T923 1008Q962 1207 907 1314T710 1421Z" />
<glyph unicode=":" glyph-name="colon" horiz-adv-x="420" d="M33 9Q3 48 14 104T71 199T173 238T260 199T280 104T224 10T121 -29T33 9ZM299 889Q356 889 386 851T406 756T350 661T248 623Q192 623 161 661T140 756T197 850T299 889Z" />
<glyph unicode=";" glyph-name="semicolon" horiz-adv-x="605" d="M0 -199Q107 -130 169 -37T258 190L265 227H462Q421 56 325 -66T64 -279L0 -199ZM595 756Q584 700 538 662T436 623T349 661T329 756T386 850T488 889T574 850T595 756Z" />
<glyph unicode="&lt;" glyph-name="less" horiz-adv-x="1320" d="M1282 1020L244 641L1282 264V94L0 559V725L1282 1190V1020Z" />
<glyph unicode="=" glyph-name="equal" horiz-adv-x="1323" d="M38 926H1320V766H38V926ZM38 518H1320V358H38V518Z" />
<glyph unicode="&gt;" glyph-name="greater" horiz-adv-x="1320" d="M38 1020V1190L1320 725V559L38 94V264L1076 641L38 1020Z" />
<glyph unicode="?" glyph-name="question" horiz-adv-x="912" d="M199 238Q254 238 285 199T306 104Q296 49 249 10T147 -29Q90 -29 59 9T39 104T96 199T199 238ZM75 1427Q191 1474 291 1497T475 1520Q697 1520 804 1413T877 1124Q840 938 707 820T341 651L291
397H168L232 725Q417 768 526 869T666 1126Q693 1263 635 1342T451 1421Q337 1421 252 1356T122 1167H25L75 1427Z" />
<glyph unicode="@" glyph-name="at" horiz-adv-x="1878" d="M1154 248Q1079 166 998 126T823 86Q648 86 564 211T518 537T690 862T998 987Q1091 987 1157 947T1266 825L1293 967H1449L1299 195Q1477 232 1595 357T1750 670Q1771 781 1757 880T1691 1063Q1611 1196
1472 1266T1154 1337Q1064 1337 973 1318T787 1260Q567 1167 419 979T222 543Q190 376 212 236T310 -8Q396 -127 533 -189T843 -252Q972 -252 1091 -214T1322 -100L1361 -170Q1235 -263 1089 -309T780 -356Q597 -356 444 -290T189 -100Q85 27 50 190T52 543Q88
727 186 890T438 1180Q589 1306 775 1374T1155 1442Q1369 1442 1529 1359T1778 1120Q1835 1022 1851 907T1844 668Q1792 400 1599 245T1123 86L1154 248ZM1200 485L1220 590Q1244 715 1188 792T1017 870Q896 870 812 783T696 537Q665 378 716 291T889 203Q1003
203 1089 281T1200 485Z" />
<glyph unicode="A" glyph-name="A" horiz-adv-x="1540" d="M527 541H1075L939 1251L527 541ZM0 0L20 106H151L953 1493H1121L1385 106H1531L1511 0H968L988 106H1154L1093 434H465L276 106H440L420 0H0Z" />
<glyph unicode="B" glyph-name="B" horiz-adv-x="1473" d="M421 106H720Q900 106 998 184T1130 432Q1163 601 1096 678T847 756H548L421 106ZM568 862H822Q986 862 1074 925T1188 1124Q1215 1261 1152 1323T924 1386H670L568 862ZM8 0L28 106H218L467 1386H277L298
1493H1035Q1261 1493 1357 1401T1418 1124Q1393 991 1298 912T1046 815Q1232 791 1311 694T1359 432Q1316 210 1156 105T698 0H8Z" />
<glyph unicode="C" glyph-name="C" horiz-adv-x="1473" d="M1311 395Q1204 186 1028 79T613 -29Q467 -29 352 21T159 168Q69 280 42 422T50 745Q118 1093 360 1306T932 1520Q1054 1520 1185 1488T1463 1391L1397 1047H1284Q1283 1235 1189 1324T894 1413Q655 1413
499 1244T279 745Q215 417 305 248T634 78Q801 78 924 157T1127 395H1311Z" />
<glyph unicode="D" glyph-name="D" horiz-adv-x="1648" d="M423 106H609Q900 106 1088 272T1336 748T1274 1222T858 1386H672L423 106ZM10 0L30 106H220L469 1386H279L300 1493H894Q1280 1493 1457 1296T1566 748Q1498 396 1244 198T604 0H10Z" />
<glyph unicode="E" glyph-name="E" horiz-adv-x="1520" d="M9 0L29 106H219L468 1386H278L299 1493H1501L1437 1161H1314L1354 1370H668L571 870H1060L1096 1057H1219L1123 561H1000L1036 748H547L426 123H1128L1168 332H1291L1227 0H9Z" />
<glyph unicode="F" glyph-name="F" horiz-adv-x="1521" d="M9 0L29 106H219L468 1386H278L299 1493H1521L1457 1161H1334L1374 1370H668L571 870H1081L1117 1057H1240L1144 561H1021L1057 748H547L422 106H661L641 0H9Z" />
<glyph unicode="G" glyph-name="G" horiz-adv-x="1535" d="M1336 1047Q1337 1234 1244 1323T952 1413Q694 1413 535 1247T310 745Q246 416 344 247T696 78Q809 78 917 106T1130 190L1205 575H924L945 682H1429L1320 125Q1172 48 1011 10T675 -29Q337 -29 175 182T81
745Q150 1099 395 1309T985 1520Q1113 1520 1243 1491T1516 1401L1448 1047H1336Z" />
<glyph unicode="H" glyph-name="H" horiz-adv-x="1876" d="M13 0L33 106H223L472 1386H282L303 1493H886L865 1386H675L575 870H1349L1449 1386H1259L1280 1493H1863L1842 1386H1652L1403 106H1593L1573 0H990L1010 106H1201L1325 748H551L426 106H616L596 0H13Z" />
<glyph unicode="I" glyph-name="I" horiz-adv-x="873" d="M413 106H603L583 0H0L20 106H210L459 1386H269L290 1493H873L852 1386H662L413 106Z" />
<glyph unicode="J" glyph-name="J" horiz-adv-x="1259" d="M0 -358L45 -123H159Q143 -222 177 -270T300 -319Q419 -319 480 -244T585 49L845 1386H613L634 1493H1259L1238 1386H1048L786 41Q738 -206 618 -316T277 -426Q206 -426 136 -409T0 -358Z" />
<glyph unicode="K" glyph-name="K" horiz-adv-x="1683" d="M11 0L31 106H221L470 1386H280L301 1493H884L863 1386H673L563 821L1316 1386H1154L1175 1493H1671L1650 1386H1482L732 823L1309 106H1479L1459 0H1112L542 709L424 106H614L594 0H11Z" />
<glyph unicode="L" glyph-name="L" horiz-adv-x="1280" d="M6 0L26 106H216L465 1386H275L296 1493H879L858 1386H668L423 123H1105L1153 373H1276L1204 0H6Z" />
<glyph unicode="M" glyph-name="M" horiz-adv-x="2201" d="M16 0L36 106H226L475 1386H274L295 1493H730L1047 430L1778 1493H2186L2165 1386H1966L1718 106H1908L1888 0H1304L1324 106H1514L1739 1260L1024 219H883L574 1260L349 106H539L519 0H16Z" />
<glyph unicode="N" glyph-name="N" horiz-adv-x="1910" d="M9 0L29 106H230L479 1386H278L299 1493H682L1348 315L1556 1386H1356L1377 1493H1901L1880 1386H1679L1404 -29H1283L572 1229L353 106H554L534 0H9Z" />
<glyph unicode="O" glyph-name="O" horiz-adv-x="1583" d="M647 78Q892 78 1050 246T1272 745Q1336 1076 1244 1244T907 1413Q661 1413 503 1245T281 745Q217 415 309 247T647 78ZM626 -29Q474 -29 357 21T161 168Q71 280 44 422T52 745T169 1068T385 1323Q502
1421 638 1470T928 1520Q1253 1520 1411 1307T1502 745Q1467 566 1384 423T1168 168Q1051 70 915 21T626 -29Z" />
<glyph unicode="P" glyph-name="P" horiz-adv-x="1446" d="M549 760H813Q962 760 1055 840T1178 1073Q1208 1226 1146 1306T934 1386H670L549 760ZM8 0L28 106H218L467 1386H277L298 1493H1004Q1228 1493 1337 1380T1408 1073Q1371 881 1218 767T841 653H528L421
106H652L632 0H8Z" />
<glyph unicode="Q" glyph-name="Q" horiz-adv-x="1516" d="M628 -29Q285 -29 122 182Q9 329 9 548Q9 640 29 745Q64 926 146 1068T362 1323Q479 1421 615 1470T905 1520Q1230 1520 1388 1307Q1499 1158 1499 942Q1499 850 1479 745Q1421 449 1232 248T768 -12Q809
-79 880 -111T1060 -143H1310L1274 -328H1157Q892 -328 782 -246Q674 -164 628 -29ZM624 78Q869 78 1027 246T1249 745Q1275 881 1275 990Q1275 1145 1221 1244Q1129 1413 884 1413Q638 1413 480 1245T258 745Q232 610 232 501Q232 346 286 246Q378 78 624 78Z"
/>
<glyph unicode="R" glyph-name="R" horiz-adv-x="1530" d="M1021 741Q1087 722 1129 677T1195 549L1325 106H1507L1487 0H1135L994 475Q954 613 906 653T760 694H537L422 106H633L613 0H9L29 106H219L468 1386H278L299 1493H1056Q1274 1493 1372 1389T1434 1094Q1404
940 1300 852T1021 741ZM558 801H853Q1004 801 1089 872T1204 1094T1176 1315T966 1386H671L558 801Z" />
<glyph unicode="S" glyph-name="S" horiz-adv-x="1278" d="M11 72L77 412L192 411Q164 241 241 160T510 78Q688 78 795 148T929 354Q950 462 905 520T688 633L503 692Q301 757 233 854T197 1120Q234 1310 389 1415T789 1520Q893 1520 1012 1498T1263 1432L1202
1114H1089Q1102 1272 1028 1342T772 1413Q614 1413 519 1349T400 1161Q379 1054 429 993T669 872L843 817Q1034 756 1102 662T1139 408Q1097 191 937 81T501 -29Q378 -29 256 -4T11 72Z" />
<glyph unicode="T" glyph-name="T" horiz-adv-x="1411" d="M165 0L185 106H376L623 1374H184L139 1141H16L84 1493H1410L1342 1141H1219L1264 1374H825L578 106H769L749 0H165Z" />
<glyph unicode="U" glyph-name="U" horiz-adv-x="1616" d="M245 1386H54L75 1493H659L638 1386H447L297 614Q241 328 313 215T614 102T958 215T1129 614L1279 1386H1088L1109 1493H1613L1592 1386H1402L1248 594Q1182 253 1024 112T551 -29T131 113T91 594L245 1386Z" />
<glyph unicode="V" glyph-name="V" horiz-adv-x="1559" d="M387 1386L606 240L1268 1386H1100L1121 1493H1559L1538 1386H1393L591 0H419L158 1386H9L30 1493H574L553 1386H387Z" />
<glyph unicode="W" glyph-name="W" horiz-adv-x="2135" d="M1303 0H1139L1033 1214L455 0H291L169 1386H21L42 1493H587L566 1386H380L477 283L1052 1493H1214L1322 270L1852 1386H1680L1701 1493H2131L2110 1386H1963L1303 0Z" />
<glyph unicode="X" glyph-name="X" horiz-adv-x="1681" d="M800 639L331 106H524L504 0H10L30 106H202L754 733L445 1386H285L306 1493H898L877 1386H701L928 905L1350 1386H1158L1179 1493H1668L1647 1386H1479L973 811L1307 106H1467L1446 0H854L874 106H1052L800 639Z" />
<glyph unicode="Y" glyph-name="Y" horiz-adv-x="1428" d="M155 0L175 106H366L471 643L154 1386H14L35 1493H590L569 1386H395L651 782L1141 1386H973L994 1493H1428L1407 1386H1266L677 662L568 106H759L739 0H155Z" />
<glyph unicode="Z" glyph-name="Z" horiz-adv-x="1537" d="M14 0L28 72L1210 1370H438L395 1147H272L339 1493H1519L1505 1421L323 123H1167L1207 332H1329L1265 0H14Z" />
<glyph unicode="[" glyph-name="bracketleft" horiz-adv-x="823" d="M358 1556H823L803 1450H529L215 -164H489L469 -270H4L358 1556Z" />
<glyph unicode="\" glyph-name="backslash" horiz-adv-x="363" d="M160 1493L362 -190H202L0 1493H160Z" />
<glyph unicode="]" glyph-name="bracketright" horiz-adv-x="823" d="M819 1556L465 -270H0L20 -164H294L608 1450H334L354 1556H819Z" />
<glyph unicode="^" glyph-name="asciicircum" horiz-adv-x="1290" d="M743 1493L1286 936H1133L645 1317L158 936H4L547 1493H743Z" />
<glyph unicode="_" glyph-name="underscore" horiz-adv-x="1103" d="M1063 -403V-483H39V-403H1063Z" />
<glyph unicode="`" glyph-name="grave" horiz-adv-x="386" d="M197 1636L383 1260H266L0 1636H197Z" />
<glyph unicode="a" glyph-name="a" horiz-adv-x="1050" d="M688 166Q555 -29 340 -29Q164 -29 75 90Q13 174 13 294Q13 345 24 402Q92 755 338 937Q547 1092 800 1092Q970 1092 1028 1063L842 106H1000L980 0H656L688 166ZM207 300Q207 86 414 86Q540 86 625 186T749
479L842 961V961Q842 990 762 990Q570 990 421 840Q273 689 220 415Q207 351 207 300Z" />
<glyph unicode="b" glyph-name="b" horiz-adv-x="1112" d="M298 1450H121L142 1556H503L375 897Q448 997 541 1044T757 1092Q953 1092 1047 937Q1109 835 1109 692Q1109 617 1092 532Q1043 282 889 127T539 -29Q416 -29 342 18T233 166L201 0H17L298 1450ZM294
479Q278 400 278 337Q278 246 310 186Q364 86 504 86Q645 86 739 199T877 532Q897 633 897 712Q897 804 869 865Q819 977 677 977Q537 977 444 876T314 584L294 479Z" />
<glyph unicode="c" glyph-name="c" horiz-adv-x="1050" d="M943 319Q871 149 743 60T438 -29Q206 -29 95 124Q18 231 18 385Q18 454 33 532Q83 787 253 939T656 1092Q757 1092 852 1069T1039 997L987 725H880Q880 739 880 751Q880 871 828 929Q770 993 639 993Q490
993 392 878T248 532Q228 427 228 345Q228 249 256 186Q309 70 459 70Q578 70 661 132T795 319H943Z" />
<glyph unicode="d" glyph-name="d" horiz-adv-x="1203" d="M1190 1556L888 0H704L736 166Q662 66 570 19T354 -29Q158 -29 64 126Q1 229 1 373Q1 447 18 532Q67 782 221 937T572 1092Q695 1092 769 1045T878 897L985 1450H811L832 1556H1190ZM797 479L817 584Q832
662 832 725Q832 816 800 876Q747 977 607 977Q465 977 371 865T233 532Q213 431 213 353Q213 260 241 199Q291 86 433 86Q573 86 666 186T797 479Z" />
<glyph unicode="e" glyph-name="e" horiz-adv-x="1063" d="M231 408Q227 370 227 336Q227 242 261 180Q320 70 478 70Q594 70 651 105Q753 168 777 249H912Q872 122 723 33Q619 -29 413 -29T96 124Q18 231 18 386Q18 454 33 531Q82 784 251 938T660 1092Q1051
1092 1051 815Q1051 612 846 513Q637 412 231 408ZM744 632Q856 698 856 822Q856 993 629 993Q495 993 402 891T252 514Q573 529 744 632Z" />
<glyph unicode="f" glyph-name="f" horiz-adv-x="1187" d="M1147 1305H1050Q1054 1326 1054 1345Q1054 1391 1030 1419Q996 1458 917 1458Q814 1458 761 1402T680 1200L653 1063H950L929 956H632L434 -66Q399 -244 289 -335T0 -426L12 -328Q117 -328 168 -272Q221
-212 250 -66L448 956H272L293 1063H469L495 1196Q530 1375 640 1465Q750 1556 929 1556Q996 1556 1060 1544T1187 1507L1147 1305Z" />
<glyph unicode="g" glyph-name="g" horiz-adv-x="1172" d="M1161 1063L958 23Q912 -215 764 -330Q603 -455 380 -455Q275 -455 183 -436T10 -379L54 -156H150Q147 -260 205 -308T388 -356Q550 -356 643 -264Q736 -174 774 23L802 166Q729 66 636 19T426 -29Q250
-29 161 90Q105 165 99 269Q95 330 109 402Q178 755 423 937Q632 1091 876 1092Q1100 1093 1161 1063ZM957 956Q956 990 848 990Q653 990 506 840Q359 689 305 415Q290 334 294 273Q298 211 323 169Q372 86 500 86Q640 86 733 186T863 479L883 584L957 956Z" />
<glyph unicode="h" glyph-name="h" horiz-adv-x="1054" d="M17 0L299 1450H123L143 1556H503L371 874Q443 982 535 1037T735 1092Q911 1092 974 991Q1013 930 1013 828Q1013 761 996 676L885 106H1049L1029 0H680L800 618Q820 721 820 790Q820 851 804 884Q771
956 649 956Q521 956 436 863T316 592L201 0H17Z" />
<glyph unicode="i" glyph-name="i" horiz-adv-x="452" d="M219 1393Q228 1439 268 1473T355 1507Q401 1507 428 1473Q449 1447 449 1415Q449 1404 446 1393Q437 1346 398 1313T311 1280T237 1313Q217 1338 217 1370Q217 1381 219 1393ZM204 106H378L358 0H0L185
956H9L30 1063H390L204 106Z" />
<glyph unicode="j" glyph-name="j" horiz-adv-x="981" d="M749 1393Q757 1439 797 1473T885 1507Q931 1507 958 1473Q978 1447 978 1415Q978 1404 976 1393Q966 1346 928 1313T841 1280Q794 1280 766 1313Q746 1338 746 1370Q746 1381 749 1393ZM709 956H535L555
1063H913L687 -104Q655 -268 539 -361T252 -455Q180 -455 118 -439T0 -389L43 -170H138Q135 -195 135 -216Q135 -278 160 -311Q194 -356 276 -356Q367 -356 422 -295T503 -104L709 956Z" />
<glyph unicode="k" glyph-name="k" horiz-adv-x="1056" d="M608 664L903 106H1056L1036 0H741L451 543L280 408L201 0H17L299 1450H122L142 1556H503L306 543L835 956H682L702 1063H1001L981 956L608 664Z" />
<glyph unicode="l" glyph-name="l" horiz-adv-x="492" d="M207 106H381L361 0H3L285 1450H108L128 1556H489L207 106Z" />
<glyph unicode="m" glyph-name="m" horiz-adv-x="1715" d="M1006 856Q1082 973 1176 1032T1380 1092Q1547 1092 1609 988Q1646 926 1646 825Q1646 759 1630 676L1519 106H1685L1665 0H1315L1442 655Q1457 733 1457 789Q1457 851 1439 887Q1405 956 1294 956Q1171
956 1089 863T971 592L856 0H672L801 662Q815 737 815 791Q815 853 797 888Q762 956 651 956Q528 956 446 863T328 592L213 0H29L215 958H39L59 1063H419L383 874Q454 980 544 1036T734 1092Q858 1092 929 1031T1006 856Z" />
<glyph unicode="n" glyph-name="n" horiz-adv-x="1081" d="M24 0L210 956H34L54 1063H414L378 874Q450 982 542 1037T742 1092Q918 1092 982 991Q1020 930 1020 828Q1020 761 1003 676L892 106H1056L1036 0H687L807 618Q827 721 827 790Q827 851 811 886Q777 958
656 958Q528 958 443 865T323 592L208 0H24Z" />
<glyph unicode="o" glyph-name="o" horiz-adv-x="1094" d="M457 70Q605 70 703 187T846 532Q866 636 866 717Q866 813 838 876Q785 993 637 993T391 877T248 532Q228 428 228 348Q228 251 257 187Q310 70 457 70ZM438 -29Q206 -29 95 124Q18 231 18 385Q18 454
33 532Q82 786 252 939T656 1092T1000 939Q1076 833 1076 679Q1076 610 1061 532Q1012 278 842 125T438 -29Z" />
<glyph unicode="p" glyph-name="p" horiz-adv-x="1193" d="M398 584L377 479Q362 400 362 337Q362 246 394 186Q448 86 588 86Q729 86 823 199T961 532Q980 633 980 712Q980 804 953 865Q902 977 761 977Q621 977 528 876T398 584ZM286 956H109L130 1063H491L459
897Q532 997 625 1044T841 1092Q1037 1092 1130 937Q1192 835 1192 692Q1192 617 1176 532Q1127 282 973 127T623 -29Q500 -29 426 18T317 166L201 -426H17L286 956Z" />
<glyph unicode="q" glyph-name="q" horiz-adv-x="1057" d="M681 166Q612 66 528 18Q444 -29 333 -29Q157 -29 68 90Q12 165 6 269Q2 330 16 402Q85 755 330 937Q539 1091 784 1092Q978 1093 1039 1063L770 -320H947L926 -426H565L681 166ZM755 990Q563 990 414
840Q266 689 212 415Q197 334 201 273Q205 211 230 169Q279 86 407 86Q533 86 618 186T741 479L835 961Q836 990 755 990Z" />
<glyph unicode="r" glyph-name="r" horiz-adv-x="958" d="M958 1065L906 799H800Q803 819 803 836Q803 888 779 917Q748 956 673 956Q537 956 446 862T321 592L206 0H22L208 958H32L52 1063H412L376 874Q451 985 546 1038T764 1092Q809 1092 857 1085T958 1065Z" />
<glyph unicode="s" glyph-name="s" horiz-adv-x="984" d="M59 307H165Q161 278 161 252Q161 70 408 70Q656 70 692 252Q695 270 695 302Q695 333 661 370T484 457L359 502Q231 546 190 602T148 724Q148 750 153 780Q182 926 305 1009T606 1092Q783 1092 969 1006L924
774H818Q822 797 822 817Q822 890 772 941T604 993Q369 993 337 829Q333 812 333 782Q333 751 365 716T525 639L662 594Q804 547 857 476Q894 426 894 377Q894 167 726 58Q594 -29 392 -29T11 59L59 307Z" />
<glyph unicode="t" glyph-name="t" horiz-adv-x="725" d="M173 956H11L32 1063H194L258 1393H443L379 1063H725L704 956H358L227 281Q212 202 212 156Q212 124 219 108Q238 70 308 70Q380 70 421 112T483 250H622Q586 105 502 38T273 -29Q114 -29 61 42Q29 85
29 165Q29 216 42 281L173 956Z" />
<glyph unicode="u" glyph-name="u" horiz-adv-x="1083" d="M876 1063H1060L874 106H1048L1028 0H670L706 188Q634 82 543 27T344 -29Q167 -29 103 72Q64 132 64 235Q64 302 81 387L191 956H25L46 1063H397L277 444Q257 341 257 273Q257 212 273 178Q306 106 428
106Q556 106 641 200T761 473L876 1063Z" />
<glyph unicode="v" glyph-name="v" horiz-adv-x="1070" d="M469 0H334L129 956H8L28 1063H303L483 225Q598 325 675 452Q835 716 892 956H770L791 1063H1066Q957 651 819 420Q699 220 469 0Z" />
<glyph unicode="w" glyph-name="w" horiz-adv-x="1630" d="M1102 233Q1235 377 1265 430Q1375 630 1483 956L1328 955L1349 1063H1616L1595 955H1594Q1492 584 1395 405Q1252 150 1095 0H942L833 795L416 0H269L140 956L20 954L41 1063H315L427 233L862 1063H991L1102
233Z" />
<glyph unicode="x" glyph-name="x" horiz-adv-x="1155" d="M142 0H17L486 510L250 956H119L139 1063H409L630 649L1011 1063H1136L676 563L919 106H1058L1038 0H759L533 424L142 0Z" />
<glyph unicode="y" glyph-name="y" horiz-adv-x="1271" d="M1268 1054Q1169 482 995 180Q740 -263 535 -396Q444 -455 204 -455Q157 -455 110 -447T14 -424L54 -221H148Q146 -237 146 -252Q146 -294 164 -318Q189 -352 254 -352Q430 -352 583 -199L332 956H211L232
1063H507L743 8Q904 249 943 348Q1069 659 1094 947H973L994 1054H1268Z" />
<glyph unicode="z" glyph-name="z" horiz-adv-x="1127" d="M845 975Q953 975 1058 1063H1118L1102 977L375 219Q385 216 414 207Q448 196 482 174L531 144Q625 87 693 87Q824 87 978 237L954 116Q783 -52 653 -52Q574 -50 463 19T282 88Q174 88 69 0H9L25 86L753
843Q742 847 713 856Q679 867 645 889L596 919Q502 976 434 976Q303 976 149 826L173 947Q344 1115 474 1115Q553 1113 664 1044T845 975Z" />
<glyph unicode="{" glyph-name="braceleft" horiz-adv-x="985" d="M638 -229L617 -334H555Q306 -334 236 -260T209 35L259 293Q288 443 246 501T61 559H0L20 664H81Q223 664 288 722T383 930L433 1188Q476 1409 575 1482T923 1556H985L964 1452H896Q755 1452 704
1408T625 1223L569 936Q538 778 475 710T276 612Q402 578 438 511T443 287L387 0Q360 -141 394 -185T570 -229H638Z" />
<glyph unicode="|" glyph-name="bar" horiz-adv-x="243" d="M201 1565V-483H39V1565H201Z" />
<glyph unicode="}" glyph-name="braceright" horiz-adv-x="985" d="M21 -229H91Q231 -229 282 -186T360 0L416 287Q447 444 509 511T708 612Q584 642 548 710T542 936L598 1223Q626 1365 592 1408T417 1452H347L368 1556H431Q680 1556 749 1483T775 1188L725 930Q696
780 738 722T923 664H985L965 559H903Q761 559 696 501T601 293L551 35Q508 -186 410 -260T63 -334H0L21 -229Z" />
<glyph unicode="~" glyph-name="asciitilde" horiz-adv-x="1333" d="M1308 807V659Q1208 571 1118 529T935 487Q839 487 665 553L655 557Q644 561 622 570Q475 627 380 627Q288 627 202 591T26 477V629Q126 716 215 756T399 797Q495 797 669 731L679 727Q690 723
710 715Q855 657 952 657Q1044 657 1132 694T1308 807Z" />
<glyph unicode="&#xa0;" glyph-name="nbspace" horiz-adv-x="651" />
<glyph unicode="&#xa1;" glyph-name="exclamdown" horiz-adv-x="543" d="M425 1522Q480 1522 511 1483T532 1389Q521 1333 475 1294T373 1255Q316 1255 286 1294T266 1389T322 1483T425 1522ZM0 0L227 821L276 1073H399L350 821L258 0H0Z" />
<glyph unicode="&#xa2;" glyph-name="cent" horiz-adv-x="1053" d="M612 991Q480 976 393 861T264 532Q223 317 265 202T433 72L612 991ZM956 319Q891 165 781 79T514 -27L461 -297H361L414 -27Q198 -8 100 142T47 532Q95 774 251 923T631 1090L683 1356H783L731
1090Q821 1082 900 1059T1053 997L1000 725H894Q899 848 854 913T712 991L533 72Q625 84 695 147T808 319H956Z" />
<glyph unicode="&#xa3;" glyph-name="sterling" horiz-adv-x="1269" d="M1204 1225H1099Q1108 1320 1061 1370T918 1421Q791 1421 716 1344T608 1102L551 807H963L942 700H530L418 121H896L940 348H1056L988 0H1L22 106H215L330 700H137L158 807H351L408 1102Q448
1307 583 1413T940 1520Q1025 1520 1103 1508T1252 1470L1204 1225Z" />
<glyph unicode="&#xa4;" glyph-name="currency" horiz-adv-x="1157" d="M826 985L1035 1192L1129 1098L920 889Q963 829 983 768T1004 641Q1004 572 984 513T918 397L1125 190L1029 96L822 301Q766 257 707 236T578 215Q514 215 452 235T328 297L124 92L29 186L234
393Q193 455 173 516T152 641Q152 711 173 770T238 887L31 1094L126 1188L333 981Q389 1025 449 1046T578 1067Q644 1067 705 1047T826 985ZM847 643Q847 755 770 832T578 909Q466 909 388 832T310 643Q310 529 387 451T578 373T769 451T847 643Z" />
<glyph unicode="&#xa5;" glyph-name="yen" horiz-adv-x="1376" d="M137 0L157 106H348L420 473H16L36 578H440L453 643L398 784H76L97 889H360L169 1386H30L51 1493H604L583 1386H408L634 782L1090 1386H923L944 1493H1376L1355 1386H1213L833 889H1105L1084 784H752L658
662L641 578H1044L1024 473H621L549 106H739L719 0H137Z" />
<glyph unicode="&#xa6;" glyph-name="brokenbar" horiz-adv-x="225" d="M201 408V-350H39V408H201ZM201 1432V674H39V1432H201Z" />
<glyph unicode="&#xa7;" glyph-name="section" horiz-adv-x="996" d="M434 936Q357 890 322 849T276 754Q250 622 574 419L602 401Q668 439 706 487T756 592Q771 667 715 734T434 936ZM987 1464L948 1262H856Q868 1334 824 1375T692 1417Q592 1417 525 1369T442
1237Q423 1140 642 1003Q665 988 676 981Q850 872 898 797T926 623Q908 528 843 465T656 358Q725 311 749 248T755 94Q730 -37 613 -116T322 -195Q232 -195 155 -182T6 -139L47 70L139 69Q125 -11 171 -51T324 -92Q428 -92 498 -43T585 90Q607 203 403 330Q385
342 375 348Q183 470 135 545T105 719Q123 813 195 879T382 977Q310 1026 283 1089T271 1231Q296 1361 411 1440T693 1520Q771 1520 844 1506T987 1464Z" />
<glyph unicode="&#xa8;" glyph-name="dieresis" horiz-adv-x="696" d="M177 1569Q225 1569 253 1534Q280 1500 271 1452Q261 1401 222 1368Q182 1335 131 1335Q81 1335 55 1368Q28 1401 38 1452Q47 1500 89 1534Q130 1569 177 1569ZM567 1569Q614 1569 642 1534Q669
1500 660 1452Q650 1401 611 1368Q571 1335 521 1335Q470 1335 444 1368Q417 1401 427 1452Q436 1500 478 1534Q519 1569 567 1569Z" />
<glyph unicode="&#xa9;" glyph-name="copyright" horiz-adv-x="1518" d="M1111 573Q1084 442 994 372T761 301Q574 301 463 421T351 741Q351 942 463 1063T761 1184Q841 1184 918 1166T1083 1108V895H999Q982 1004 925 1055T763 1106Q644 1106 584 1015T523 741Q523
560 583 470T761 379Q858 379 914 426T992 573H1111ZM1500 741Q1500 589 1446 459T1283 219T1043 55T759 0T476 55T235 219T72 458T18 741Q18 895 72 1026T235 1266T475 1430T759 1485T1042 1430T1283 1266T1446 1026T1500 741ZM759 1382Q628 1382 515 1335T308
1194Q215 1101 168 987T120 741Q120 611 167 498T308 291Q402 197 515 150T759 102Q891 102 1004 149T1212 291Q1305 384 1351 497T1398 741Q1398 874 1351 987T1212 1194Q1118 1288 1005 1335T759 1382Z" />
<glyph unicode="&#xaa;" glyph-name="ordfeminine" horiz-adv-x="834" d="M548 756L582 934Q522 857 458 813Q392 770 319 756Q286 750 258 750Q164 750 113 817Q68 875 68 969Q68 1015 78 1069Q111 1235 217 1354Q324 1472 463 1499Q492 1504 517 1504Q557 1504
589 1491Q642 1469 676 1410L691 1494H817L691 844H819L802 756H548ZM620 1130L637 1216Q643 1248 643 1275Q643 1336 612 1372Q579 1413 519 1413Q499 1413 477 1409Q380 1391 313 1309Q245 1226 220 1096Q210 1045 210 1004Q210 940 234 902Q265 854 330 854Q349
854 371 858Q462 875 531 951Q600 1027 620 1130ZM27 639H725L705 535H7L27 639Z" />
<glyph unicode="&#xab;" glyph-name="guillemotleft" horiz-adv-x="1022" d="M1003 1059L981 944L617 600L847 256L825 141L437 559L453 641L1003 1059ZM569 1059L547 944L183 600L413 256L391 141L3 559L19 641L569 1059Z" />
<glyph unicode="&#xac;" glyph-name="logicalnot" horiz-adv-x="1321" d="M0 862H1282V287H1122V700H0V862Z" />
<glyph unicode="&#xad;" glyph-name="sfthyphen" horiz-adv-x="608" d="M63 627H575L545 471H33L63 627Z" />
<glyph unicode="&#xae;" glyph-name="registered" horiz-adv-x="1518" d="M630 791H755Q838 791 879 829T921 942Q921 1016 879 1054T755 1092H630V791ZM876 754Q918 740 947 715T997 649L1113 420H1189V352H999L868 606Q833 676 802 699T722 723H630V420H714V352H397V420H480V1092H397V1159H812Q940
1159 1005 1103T1070 938Q1070 855 1022 810T876 754ZM759 1382Q628 1382 515 1335T308 1194Q215 1101 168 987T120 741Q120 611 167 498T308 291Q402 197 515 150T759 102Q891 102 1004 149T1212 291Q1305 384 1351 497T1398 741Q1398 874 1351 987T1212 1194Q1118
1288 1005 1335T759 1382ZM1500 741Q1500 589 1446 459T1283 219T1043 55T759 0T476 55T235 219T72 458T18 741Q18 895 72 1026T235 1266T475 1430T759 1485T1042 1430T1283 1266T1446 1026T1500 741Z" />
<glyph unicode="&#xaf;" glyph-name="overscore" horiz-adv-x="694" d="M62 1526H660L632 1378H34L62 1526Z" />
<glyph unicode="&#xb0;" glyph-name="degree" horiz-adv-x="672" d="M336 1382Q260 1382 208 1330T156 1200Q156 1124 207 1073T336 1022Q412 1022 464 1073T516 1200T463 1328T336 1382ZM336 1520Q400 1520 459 1496T561 1425Q607 1380 630 1323T653 1200Q653
1068 561 977T334 885Q199 885 109 975T19 1200Q19 1334 111 1427T336 1520Z" />
<glyph unicode="&#xb1;" glyph-name="plusminus" horiz-adv-x="1284" d="M722 1284V893H1283V731H722V340H562V731H1V893H562V1284H722ZM1 160H1283V0H1V160Z" />
<glyph unicode="&#xb2;" glyph-name="twosuperior" horiz-adv-x="760" d="M212 1296H142L173 1454Q245 1486 318 1503T461 1520Q599 1520 671 1454T724 1284Q700 1162 472 988L450 971L170 756H555L576 864H650L612 668H10L25 743L359 997Q460 1074 509 1135T571
1262Q587 1347 548 1396T425 1446Q347 1446 293 1408T212 1296Z" />
<glyph unicode="&#xb3;" glyph-name="threesuperior" horiz-adv-x="739" d="M182 1468Q260 1494 329 1507T458 1520Q596 1520 660 1466T705 1313Q691 1241 629 1191T467 1124Q583 1108 632 1049T662 889Q639 775 540 714T278 653Q206 653 139 667T10 709L43 879L112
878Q103 804 144 766T278 727Q372 727 431 771T507 897Q525 990 484 1037T341 1085H288L302 1159H329Q426 1159 482 1196T554 1307Q567 1374 534 1410T424 1446Q342 1446 292 1414T223 1317H153L182 1468Z" />
<glyph unicode="&#xb4;" glyph-name="acute" horiz-adv-x="531" d="M332 1638H531L117 1262H0L332 1638Z" />
<glyph unicode="&#xb5;" glyph-name="mu" horiz-adv-x="1157" d="M972 1063H1156L969 104H1143L1123 0H765L802 188Q729 82 645 27T470 -29Q413 -29 370 -11T294 43L203 -426H19L288 956H122L143 1063H493L372 444Q353 342 353 274Q353 212 369 178Q403 106 524
106Q652 106 737 200T857 473L972 1063Z" />
<glyph unicode="&#xb6;" glyph-name="paragraph" horiz-adv-x="1142" d="M601 1493H1139L1118 1386H1000L693 -197H586L893 1386H662L355 -197H248L412 649Q200 666 104 776T44 1071Q81 1261 233 1377T601 1493Z" />
<glyph unicode="&#xb7;" glyph-name="middot" horiz-adv-x="316" d="M25 711Q36 767 82 805T185 844Q240 844 271 805T292 711Q281 655 235 617T133 578Q76 578 45 616T25 711Z" />
<glyph unicode="&#xb8;" glyph-name="cedilla" horiz-adv-x="470" d="M359 0Q411 -64 431 -120T443 -225Q427 -306 356 -350T172 -395Q130 -395 87 -389T0 -371L26 -240Q63 -257 101 -265T174 -274Q231 -274 269 -248T316 -176Q322 -148 309 -104T262 0H359Z" />
<glyph unicode="&#xb9;" glyph-name="onesuperior" horiz-adv-x="522" d="M1 668L17 752H189L312 1386L91 1280L109 1374L374 1503H476L330 752H503L487 668H1Z" />
<glyph unicode="&#xba;" glyph-name="ordmasculine" horiz-adv-x="898" d="M406 813Q512 813 581 892T680 1128T673 1364T529 1444Q425 1444 355 1363T255 1128Q224 973 262 893T406 813ZM392 737Q217 737 132 844T81 1128Q115 1305 242 1412T544 1520T804 1413T855
1128T694 844T392 737ZM28 639H716L696 535H8L28 639Z" />
<glyph unicode="&#xbb;" glyph-name="guillemotright" horiz-adv-x="1022" d="M631 1059L1019 641L1003 559L453 141L475 256L839 600L609 944L631 1059ZM197 1059L585 641L569 559L19 141L41 256L404 600L175 944L197 1059Z" />
<glyph unicode="&#xbc;" glyph-name="onequarter" horiz-adv-x="1985" d="M1447 304L1526 711L1139 304H1447ZM1676 1H1242L1258 85H1404L1431 222H1033L1049 306L1552 836H1693L1590 304H1754L1738 222H1574L1547 85H1692L1676 1ZM1 668L17 752H189L312 1386L91
1280L109 1374L374 1503H476L330 752H503L487 668H1ZM2065 1520H2215L971 -29H821L2065 1520Z" />
<glyph unicode="&#xbd;" glyph-name="onehalf" horiz-adv-x="1985" d="M1 668L17 752H189L312 1386L91 1280L109 1374L374 1503H476L330 752H503L487 668H1ZM2065 1520H2215L971 -29H821L2065 1520ZM1245 629H1175L1206 787Q1278 819 1351 836T1494 853Q1632 853
1704 787T1757 617Q1733 495 1505 321L1483 304L1203 89H1588L1609 197H1683L1645 1H1043L1058 76L1392 330Q1493 407 1542 468T1604 595Q1620 680 1581 729T1458 779Q1380 779 1326 741T1245 629Z" />
<glyph unicode="&#xbe;" glyph-name="threequarters" horiz-adv-x="1985" d="M1447 304L1526 711L1139 304H1447ZM1676 1H1242L1258 85H1404L1431 222H1033L1049 306L1552 836H1693L1590 304H1754L1738 222H1574L1547 85H1692L1676 1ZM182 1468Q260 1494 329 1507T458
1520Q596 1520 660 1466T705 1313Q691 1241 629 1191T467 1124Q583 1108 632 1049T662 889Q639 775 540 714T278 653Q206 653 139 667T10 709L43 879L112 878Q103 804 144 766T278 727Q372 727 431 771T507 897Q525 990 484 1037T341 1085H288L302 1159H329Q426
1159 482 1196T554 1307Q567 1374 534 1410T424 1446Q342 1446 292 1414T223 1317H153L182 1468ZM2065 1520H2215L971 -29H821L2065 1520Z" />
<glyph unicode="&#xbf;" glyph-name="questiondown" horiz-adv-x="912" d="M714 1255Q659 1255 628 1294T607 1389Q617 1444 664 1483T766 1522Q823 1522 853 1484T873 1389T816 1294T714 1255ZM837 66Q721 19 622 -4T437 -27Q216 -27 108 80T35 369Q72 555 205
673T572 842L622 1096H745L681 768Q496 725 386 624T246 367Q219 230 277 151T462 72Q575 72 660 137T791 326H887L837 66Z" />
<glyph unicode="&#xc0;" glyph-name="Agrave" horiz-adv-x="1479" d="M527 541H1075L939 1251L527 541ZM0 0L20 106H151L953 1493H1121L1385 106H1531L1511 0H968L988 106H1154L1093 434H465L276 106H440L420 0H0ZM1448 1899L1579 1635H1462L1252 1899H1448Z" />
<glyph unicode="&#xc1;" glyph-name="Aacute" horiz-adv-x="1479" d="M527 541H1075L939 1251L527 541ZM0 0L20 106H151L953 1493H1121L1385 106H1531L1511 0H968L988 106H1154L1093 434H465L276 106H440L420 0H0ZM1559 1899H1756L1442 1635H1325L1559 1899Z" />
<glyph unicode="&#xc2;" glyph-name="Acircumflex" horiz-adv-x="1479" d="M527 541H1075L939 1251L527 541ZM0 0L20 106H151L953 1493H1121L1385 106H1531L1511 0H968L988 106H1154L1093 434H465L276 106H440L420 0H0ZM1563 1899H1739L1918 1635H1802L1631 1796L1396
1635H1280L1563 1899Z" />
<glyph unicode="&#xc3;" glyph-name="Atilde" horiz-adv-x="1479" d="M527 541H1075L939 1251L527 541ZM0 0L20 106H151L953 1493H1121L1385 106H1531L1511 0H968L988 106H1154L1093 434H465L276 106H440L420 0H0ZM1636 1715L1593 1743Q1576 1756 1557 1763T1521
1770Q1482 1770 1450 1741Q1419 1713 1406 1667L1310 1668Q1331 1768 1394 1827Q1456 1886 1541 1886Q1577 1886 1607 1877Q1636 1868 1685 1837L1729 1811Q1749 1798 1770 1791Q1790 1784 1807 1784Q1848 1784 1877 1811Q1906 1839 1915 1886H2012Q1990 1781 1927
1724Q1865 1667 1771 1667Q1704 1667 1640 1712L1636 1715Z" />
<glyph unicode="&#xc4;" glyph-name="Adieresis" horiz-adv-x="1479" d="M527 541H1075L939 1251L527 541ZM0 0L20 106H151L953 1493H1121L1385 106H1531L1511 0H968L988 106H1154L1093 434H465L276 106H440L420 0H0ZM1446 1884Q1494 1884 1521 1849Q1549 1814
1540 1768Q1530 1718 1490 1685Q1450 1651 1400 1651Q1351 1651 1324 1685Q1297 1718 1307 1768Q1316 1814 1357 1849Q1399 1884 1446 1884ZM1836 1884Q1883 1884 1910 1849Q1938 1814 1929 1768Q1919 1718 1879 1685Q1839 1651 1790 1651Q1740 1651 1713 1685Q1686
1718 1696 1768Q1705 1814 1746 1849Q1788 1884 1836 1884Z" />
<glyph unicode="&#xc5;" glyph-name="Aring" horiz-adv-x="1549" d="M1093 1778Q1029 1778 977 1735T912 1626Q900 1563 935 1519T1034 1475Q1097 1475 1150 1519T1215 1626T1192 1733T1093 1778ZM527 541H1073L939 1251L527 541ZM0 0L21 106H152L889 1384Q824
1421 799 1482T789 1626Q811 1740 907 1820T1117 1901T1295 1821T1338 1626Q1323 1546 1272 1483T1141 1384L1385 106H1532L1511 0H968L989 106H1155L1094 434H466L277 106H441L420 0H0Z" />
<glyph unicode="&#xc6;" glyph-name="AE" horiz-adv-x="2280" d="M569 541H1058L1222 1386H1122L569 541ZM763 0L783 106H973L1037 434H499L283 106H447L427 0H3L23 106H154L993 1386H778L799 1493H2255L2191 1161H2068L2108 1370H1420L1323 870H1815L1851 1057H1974L1878
561H1755L1791 748H1299L1178 123H1883L1923 332H2046L1982 0H763Z" />
<glyph unicode="&#xc7;" glyph-name="Ccedilla" horiz-adv-x="1567" d="M1311 395Q1204 186 1028 79T613 -29Q467 -29 352 21T159 168Q69 280 42 422T50 745Q118 1093 360 1306T932 1520Q1054 1520 1185 1488T1463 1391L1397 1047H1284Q1283 1235 1189 1324T894
1413Q655 1413 499 1244T279 745Q215 417 305 248T634 78Q801 78 924 157T1127 395H1311ZM481 0Q533 -64 553 -120T565 -225Q549 -306 478 -350T294 -395Q252 -395 209 -389T122 -371L148 -240Q185 -257 223 -265T296 -274Q353 -274 391 -248T438 -176Q444 -148
431 -104T384 0H481Z" />
<glyph unicode="&#xc8;" glyph-name="Egrave" horiz-adv-x="1495" d="M9 0L29 106H219L468 1386H278L299 1493H1501L1437 1161H1314L1354 1370H668L571 870H1060L1096 1057H1219L1123 561H1000L1036 748H547L426 123H1128L1168 332H1291L1227 0H9ZM1528 1899L1659
1635H1542L1332 1899H1528Z" />
<glyph unicode="&#xc9;" glyph-name="Eacute" horiz-adv-x="1495" d="M9 0L29 106H219L468 1386H278L299 1493H1501L1437 1161H1314L1354 1370H668L571 870H1060L1096 1057H1219L1123 561H1000L1036 748H547L426 123H1128L1168 332H1291L1227 0H9ZM1567 1899H1764L1450
1635H1333L1567 1899Z" />
<glyph unicode="&#xca;" glyph-name="Ecircumflex" horiz-adv-x="1495" d="M9 0L29 106H219L468 1386H278L299 1493H1501L1437 1161H1314L1354 1370H668L571 870H1060L1096 1057H1219L1123 561H1000L1036 748H547L426 123H1128L1168 332H1291L1227 0H9ZM1619 1899H1795L1974
1635H1858L1687 1796L1452 1635H1336L1619 1899Z" />
<glyph unicode="&#xcb;" glyph-name="Edieresis" horiz-adv-x="1495" d="M9 0L29 106H219L468 1386H278L299 1493H1501L1437 1161H1314L1354 1370H668L571 870H1060L1096 1057H1219L1123 561H1000L1036 748H547L426 123H1128L1168 332H1291L1227 0H9ZM1508 1884Q1556
1884 1583 1849Q1611 1814 1602 1768Q1592 1718 1552 1685Q1512 1651 1462 1651Q1413 1651 1386 1685Q1359 1718 1369 1768Q1378 1814 1419 1849Q1461 1884 1508 1884ZM1898 1884Q1945 1884 1972 1849Q2000 1814 1991 1768Q1981 1718 1941 1685Q1901 1651 1852
1651Q1802 1651 1775 1685Q1748 1718 1758 1768Q1767 1814 1808 1849Q1850 1884 1898 1884Z" />
<glyph unicode="&#xcc;" glyph-name="Igrave" horiz-adv-x="809" d="M413 106H603L583 0H0L20 106H210L459 1386H269L290 1493H873L852 1386H662L413 106ZM1151 1899L1282 1635H1165L955 1899H1151Z" />
<glyph unicode="&#xcd;" glyph-name="Iacute" horiz-adv-x="809" d="M413 106H603L583 0H0L20 106H210L459 1386H269L290 1493H873L852 1386H662L413 106ZM1226 1899H1423L1109 1635H992L1226 1899Z" />
<glyph unicode="&#xce;" glyph-name="Icircumflex" horiz-adv-x="809" d="M413 106H603L583 0H0L20 106H210L459 1386H269L290 1493H873L852 1386H662L413 106ZM1278 1899H1454L1633 1635H1517L1346 1796L1111 1635H995L1278 1899Z" />
<glyph unicode="&#xcf;" glyph-name="Idieresis" horiz-adv-x="809" d="M413 106H603L583 0H0L20 106H210L459 1386H269L290 1493H873L852 1386H662L413 106ZM1131 1884Q1179 1884 1206 1849Q1234 1814 1225 1768Q1215 1718 1175 1685Q1135 1651 1085 1651Q1036
1651 1009 1685Q982 1718 992 1768Q1001 1814 1042 1849Q1084 1884 1131 1884ZM1521 1884Q1568 1884 1595 1849Q1623 1814 1614 1768Q1604 1718 1564 1685Q1524 1651 1475 1651Q1425 1651 1398 1685Q1371 1718 1381 1768Q1390 1814 1431 1849Q1473 1884 1521 1884Z"
/>
<glyph unicode="&#xd0;" glyph-name="Eth" horiz-adv-x="1650" d="M422 106H610Q901 106 1089 272T1338 748T1275 1222T859 1386H671L566 844H902L878 719H542L422 106ZM11 0L31 106H221L341 719H141L165 844H365L470 1386H280L301 1493H895Q1281 1493 1458 1296T1567
748Q1499 396 1245 198T605 0H11Z" />
<glyph unicode="&#xd1;" glyph-name="Ntilde" horiz-adv-x="1792" d="M9 0L29 106H230L479 1386H278L299 1493H682L1348 315L1556 1386H1356L1377 1493H1901L1880 1386H1679L1404 -29H1283L572 1229L353 106H554L534 0H9ZM1830 1715L1787 1743Q1770 1756 1751
1763T1715 1770Q1676 1770 1644 1741Q1613 1713 1600 1667L1504 1668Q1525 1768 1588 1827Q1650 1886 1735 1886Q1771 1886 1801 1877Q1830 1868 1879 1837L1923 1811Q1943 1798 1964 1791Q1984 1784 2001 1784Q2042 1784 2071 1811Q2100 1839 2109 1886H2206Q2184
1781 2121 1724Q2059 1667 1965 1667Q1898 1667 1834 1712L1830 1715Z" />
<glyph unicode="&#xd2;" glyph-name="Ograve" horiz-adv-x="1679" d="M647 78Q892 78 1050 246T1272 745Q1336 1076 1244 1244T907 1413Q661 1413 503 1245T281 745Q217 415 309 247T647 78ZM626 -29Q474 -29 357 21T161 168Q71 280 44 422T52 745T169 1068T385
1323Q502 1421 638 1470T928 1520Q1253 1520 1411 1307T1502 745Q1467 566 1384 423T1168 168Q1051 70 915 21T626 -29ZM1620 1899L1751 1635H1634L1424 1899H1620Z" />
<glyph unicode="&#xd3;" glyph-name="Oacute" horiz-adv-x="1679" d="M647 78Q892 78 1050 246T1272 745Q1336 1076 1244 1244T907 1413Q661 1413 503 1245T281 745Q217 415 309 247T647 78ZM626 -29Q474 -29 357 21T161 168Q71 280 44 422T52 745T169 1068T385
1323Q502 1421 638 1470T928 1520Q1253 1520 1411 1307T1502 745Q1467 566 1384 423T1168 168Q1051 70 915 21T626 -29ZM1659 1899H1856L1542 1635H1425L1659 1899Z" />
<glyph unicode="&#xd4;" glyph-name="Ocircumflex" horiz-adv-x="1679" d="M647 78Q892 78 1050 246T1272 745Q1336 1076 1244 1244T907 1413Q661 1413 503 1245T281 745Q217 415 309 247T647 78ZM626 -29Q474 -29 357 21T161 168Q71 280 44 422T52 745T169 1068T385
1323Q502 1421 638 1470T928 1520Q1253 1520 1411 1307T1502 745Q1467 566 1384 423T1168 168Q1051 70 915 21T626 -29ZM1711 1899H1887L2066 1635H1950L1779 1796L1544 1635H1428L1711 1899Z" />
<glyph unicode="&#xd5;" glyph-name="Otilde" horiz-adv-x="1679" d="M647 78Q892 78 1050 246T1272 745Q1336 1076 1244 1244T907 1413Q661 1413 503 1245T281 745Q217 415 309 247T647 78ZM626 -29Q474 -29 357 21T161 168Q71 280 44 422T52 745T169 1068T385
1323Q502 1421 638 1470T928 1520Q1253 1520 1411 1307T1502 745Q1467 566 1384 423T1168 168Q1051 70 915 21T626 -29ZM1772 1715L1729 1743Q1712 1756 1693 1763T1657 1770Q1618 1770 1586 1741Q1555 1713 1542 1667L1446 1668Q1467 1768 1530 1827Q1592 1886
1677 1886Q1713 1886 1743 1877Q1772 1868 1821 1837L1865 1811Q1885 1798 1906 1791Q1926 1784 1943 1784Q1984 1784 2013 1811Q2042 1839 2051 1886H2148Q2126 1781 2063 1724Q2001 1667 1907 1667Q1840 1667 1776 1712L1772 1715Z" />
<glyph unicode="&#xd6;" glyph-name="Odieresis" horiz-adv-x="1679" d="M647 78Q892 78 1050 246T1272 745Q1336 1076 1244 1244T907 1413Q661 1413 503 1245T281 745Q217 415 309 247T647 78ZM626 -29Q474 -29 357 21T161 168Q71 280 44 422T52 745T169 1068T385
1323Q502 1421 638 1470T928 1520Q1253 1520 1411 1307T1502 745Q1467 566 1384 423T1168 168Q1051 70 915 21T626 -29ZM1600 1884Q1648 1884 1675 1849Q1703 1814 1694 1768Q1684 1718 1644 1685Q1604 1651 1554 1651Q1505 1651 1478 1685Q1451 1718 1461 1768Q1470
1814 1511 1849Q1553 1884 1600 1884ZM1990 1884Q2037 1884 2064 1849Q2092 1814 2083 1768Q2073 1718 2033 1685Q1993 1651 1944 1651Q1894 1651 1867 1685Q1840 1718 1850 1768Q1859 1814 1900 1849Q1942 1884 1990 1884Z" />
<glyph unicode="&#xd7;" glyph-name="multiply" horiz-adv-x="1211" d="M1181 1104L718 641L1181 180L1066 68L605 528L144 68L30 180L490 641L30 1104L144 1217L605 756L1066 1217L1181 1104Z" />
<glyph unicode="&#xd8;" glyph-name="Oslash" horiz-adv-x="1781" d="M1363 1239Q1315 1327 1231 1370T1023 1413Q777 1413 619 1245T397 745Q374 626 371 530T386 352L1363 1239ZM421 256Q467 167 552 123T763 78Q1008 78 1166 246T1388 745Q1410 862 1413 960T1398
1141L421 256ZM1547 1276Q1613 1168 1631 1037T1618 745Q1551 400 1309 186T742 -29Q601 -29 491 14T296 143L75 -57L10 12L237 219Q171 324 154 454T168 745Q235 1091 477 1305T1043 1520Q1184 1520 1296 1478T1488 1352L1704 1550L1770 1479L1547 1276Z" />
<glyph unicode="&#xd9;" glyph-name="Ugrave" horiz-adv-x="1726" d="M245 1386H54L75 1493H659L638 1386H447L297 614Q241 328 313 215T614 102T958 215T1129 614L1279 1386H1088L1109 1493H1613L1592 1386H1402L1248 594Q1182 253 1024 112T551 -29T131 113T91
594L245 1386ZM1684 1899L1815 1635H1698L1488 1899H1684Z" />
<glyph unicode="&#xda;" glyph-name="Uacute" horiz-adv-x="1726" d="M245 1386H54L75 1493H659L638 1386H447L297 614Q241 328 313 215T614 102T958 215T1129 614L1279 1386H1088L1109 1493H1613L1592 1386H1402L1248 594Q1182 253 1024 112T551 -29T131 113T91
594L245 1386ZM1723 1899H1920L1606 1635H1489L1723 1899Z" />
<glyph unicode="&#xdb;" glyph-name="Ucircumflex" horiz-adv-x="1726" d="M245 1386H54L75 1493H659L638 1386H447L297 614Q241 328 313 215T614 102T958 215T1129 614L1279 1386H1088L1109 1493H1613L1592 1386H1402L1248 594Q1182 253 1024 112T551 -29T131
113T91 594L245 1386ZM1775 1899H1951L2130 1635H2014L1843 1796L1608 1635H1492L1775 1899Z" />
<glyph unicode="&#xdc;" glyph-name="Udieresis" horiz-adv-x="1726" d="M245 1386H54L75 1493H659L638 1386H447L297 614Q241 328 313 215T614 102T958 215T1129 614L1279 1386H1088L1109 1493H1613L1592 1386H1402L1248 594Q1182 253 1024 112T551 -29T131 113T91
594L245 1386ZM1664 1884Q1712 1884 1739 1849Q1767 1814 1758 1768Q1748 1718 1708 1685Q1668 1651 1618 1651Q1569 1651 1542 1685Q1515 1718 1525 1768Q1534 1814 1575 1849Q1617 1884 1664 1884ZM2054 1884Q2101 1884 2128 1849Q2156 1814 2147 1768Q2137 1718
2097 1685Q2057 1651 2008 1651Q1958 1651 1931 1685Q1904 1718 1914 1768Q1923 1814 1964 1849Q2006 1884 2054 1884Z" />
<glyph unicode="&#xdd;" glyph-name="Yacute" horiz-adv-x="1352" d="M155 0L175 106H366L471 643L154 1386H14L35 1493H590L569 1386H395L651 782L1141 1386H973L994 1493H1428L1407 1386H1266L677 662L568 106H759L739 0H155ZM1495 1899H1692L1378 1635H1261L1495
1899Z" />
<glyph unicode="&#xde;" glyph-name="Thorn" horiz-adv-x="1382" d="M484 434H748Q897 434 991 514T1114 748Q1144 900 1082 980T870 1061H606L484 434ZM7 0L27 106H217L466 1386H276L297 1493H921L900 1386H669L627 1167H940Q1164 1167 1273 1054T1344 748Q1307
554 1153 440T776 326H463L420 106H651L631 0H7Z" />
<glyph unicode="&#xdf;" glyph-name="germandbls" horiz-adv-x="1402" d="M1203 1210Q1218 1329 1161 1393T985 1458Q853 1458 780 1394T679 1190L435 -66Q400 -244 290 -335T1 -426L13 -328Q118 -328 169 -272Q222 -212 251 -66L494 1186Q528 1362 661 1459T1004
1556Q1217 1556 1308 1452T1371 1137H1349Q1204 1137 1110 1083T998 936Q987 884 1006 846T1090 760L1169 705Q1304 606 1347 521T1368 322Q1338 167 1204 69T884 -29Q799 -29 719 -11T566 43L611 276H720Q705 175 750 123T897 70Q1008 70 1083 130T1179 295Q1195
379 1167 438Q1138 495 1035 569L960 623Q868 689 836 752Q804 817 820 899Q844 1021 944 1103T1203 1210Z" />
<glyph unicode="&#xe0;" glyph-name="agrave" horiz-adv-x="1221" d="M688 166Q555 -29 340 -29Q164 -29 75 90Q13 174 13 294Q13 345 24 402Q92 755 338 937Q547 1092 800 1092Q970 1092 1028 1063L842 106H1000L980 0H656L688 166ZM207 300Q207 86 414 86Q540
86 625 186T749 479L842 961V961Q842 990 762 990Q570 990 421 840Q273 689 220 415Q207 351 207 300ZM254 1636L440 1260H323L57 1636H254Z" />
<glyph unicode="&#xe1;" glyph-name="aacute" horiz-adv-x="1221" d="M688 166Q555 -29 340 -29Q164 -29 75 90Q13 174 13 294Q13 345 24 402Q92 755 338 937Q547 1092 800 1092Q970 1092 1028 1063L842 106H1000L980 0H656L688 166ZM207 300Q207 86 414 86Q540
86 625 186T749 479L842 961V961Q842 990 762 990Q570 990 421 840Q273 689 220 415Q207 351 207 300ZM389 1638H588L174 1262H57L389 1638Z" />
<glyph unicode="&#xe2;" glyph-name="acircumflex" horiz-adv-x="1221" d="M688 166Q555 -29 340 -29Q164 -29 75 90Q13 174 13 294Q13 345 24 402Q92 755 338 937Q547 1092 800 1092Q970 1092 1028 1063L842 106H1000L980 0H656L688 166ZM207 300Q207 86 414
86Q540 86 625 186T749 479L842 961V961Q842 990 762 990Q570 990 421 840Q273 689 220 415Q207 351 207 300ZM369 1638H537L698 1262H582L430 1522L176 1262H60L369 1638Z" />
<glyph unicode="&#xe3;" glyph-name="atilde" horiz-adv-x="1221" d="M688 166Q555 -29 340 -29Q164 -29 75 90Q13 174 13 294Q13 345 24 402Q92 755 338 937Q547 1092 800 1092Q970 1092 1028 1063L842 106H1000L980 0H656L688 166ZM207 300Q207 86 414 86Q540
86 625 186T749 479L842 961V961Q842 990 762 990Q570 990 421 840Q273 689 220 415Q207 351 207 300ZM415 1370L369 1425Q348 1449 333 1456Q318 1464 299 1464Q257 1464 225 1424Q193 1385 174 1309H78Q106 1444 171 1518Q236 1591 327 1591Q365 1591 395 1577Q424
1563 455 1530L501 1475Q519 1452 535 1444Q550 1436 571 1436Q614 1436 646 1476T696 1591H792Q764 1456 699 1382Q634 1309 543 1309Q505 1309 475 1323Q446 1337 415 1370Z" />
<glyph unicode="&#xe4;" glyph-name="adieresis" horiz-adv-x="1221" d="M688 166Q555 -29 340 -29Q164 -29 75 90Q13 174 13 294Q13 345 24 402Q92 755 338 937Q547 1092 800 1092Q970 1092 1028 1063L842 106H1000L980 0H656L688 166ZM207 300Q207 86 414 86Q540
86 625 186T749 479L842 961V961Q842 990 762 990Q570 990 421 840Q273 689 220 415Q207 351 207 300ZM234 1569Q282 1569 310 1534Q337 1500 328 1452Q318 1401 279 1368Q239 1335 188 1335Q138 1335 112 1368Q85 1401 95 1452Q104 1500 146 1534Q187 1569 234
1569ZM624 1569Q671 1569 699 1534Q726 1500 717 1452Q707 1401 668 1368Q628 1335 578 1335Q527 1335 501 1368Q474 1401 484 1452Q493 1500 535 1534Q576 1569 624 1569Z" />
<glyph unicode="&#xe5;" glyph-name="aring" horiz-adv-x="1221" d="M688 166Q555 -29 340 -29Q164 -29 75 90Q13 174 13 294Q13 345 24 402Q92 755 338 937Q547 1092 800 1092Q970 1092 1028 1063L842 106H1000L980 0H656L688 166ZM207 300Q207 86 414 86Q540
86 625 186T749 479L842 961V961Q842 990 762 990Q570 990 421 840Q273 689 220 415Q207 351 207 300ZM210 1718Q305 1798 420 1798T599 1718Q663 1639 641 1524T524 1329T314 1249T135 1329T93 1524T210 1718ZM519 1524Q531 1587 496 1631Q460 1675 396 1675Q331
1675 279 1632Q228 1588 215 1524Q202 1459 238 1416Q273 1372 338 1372Q402 1372 454 1416Q507 1460 519 1524Z" />
<glyph unicode="&#xe6;" glyph-name="ae" horiz-adv-x="1808" d="M1479 632Q1591 698 1591 822Q1591 993 1364 993Q1230 993 1137 891T987 514Q1304 528 1479 632ZM1148 -29Q910 -29 804 167Q660 -29 363 -29Q356 -29 349 -29Q173 -29 84 90Q22 174 22 294Q22
345 33 402Q101 755 347 937Q556 1092 809 1092Q979 1092 1037 1063L1018 966Q1177 1092 1395 1092Q1786 1092 1786 815Q1786 416 966 408Q962 370 962 336Q962 242 996 180Q1055 70 1213 70Q1329 70 1386 105Q1488 168 1512 249H1647Q1607 122 1458 33Q1354 -29
1148 -29ZM229 415Q216 350 216 297Q216 86 423 86Q549 86 634 186T758 479L851 961Q851 990 771 990Q579 990 430 840Q282 689 229 415Z" />
<glyph unicode="&#xe7;" glyph-name="ccedilla" horiz-adv-x="1147" d="M943 319Q871 149 743 60T438 -29Q206 -29 95 124Q18 231 18 385Q18 454 33 532Q83 787 253 939T656 1092Q757 1092 852 1069T1039 997L987 725H880Q880 739 880 751Q880 871 828 929Q770
993 639 993Q490 993 392 878T248 532Q228 427 228 345Q228 249 256 186Q309 70 459 70Q578 70 661 132T795 319H943ZM556 0Q608 -64 628 -120T640 -225Q624 -306 553 -350T369 -395Q327 -395 284 -389T197 -371L223 -240Q260 -257 298 -265T371 -274Q428 -274
466 -248T513 -176Q519 -148 506 -104T459 0H556Z" />
<glyph unicode="&#xe8;" glyph-name="egrave" horiz-adv-x="1212" d="M231 408Q227 370 227 336Q227 242 261 180Q320 70 478 70Q594 70 651 105Q753 168 777 249H912Q872 122 723 33Q619 -29 413 -29T96 124Q18 231 18 386Q18 454 33 531Q82 784 251 938T660
1092Q1051 1092 1051 815Q1051 612 846 513Q637 412 231 408ZM744 632Q856 698 856 822Q856 993 629 993Q495 993 402 891T252 514Q573 529 744 632ZM291 1636L477 1260H360L94 1636H291Z" />
<glyph unicode="&#xe9;" glyph-name="eacute" horiz-adv-x="1212" d="M231 408Q227 370 227 336Q227 242 261 180Q320 70 478 70Q594 70 651 105Q753 168 777 249H912Q872 122 723 33Q619 -29 413 -29T96 124Q18 231 18 386Q18 454 33 531Q82 784 251 938T660
1092Q1051 1092 1051 815Q1051 612 846 513Q637 412 231 408ZM744 632Q856 698 856 822Q856 993 629 993Q495 993 402 891T252 514Q573 529 744 632ZM426 1638H625L211 1262H94L426 1638Z" />
<glyph unicode="&#xea;" glyph-name="ecircumflex" horiz-adv-x="1212" d="M231 408Q227 370 227 336Q227 242 261 180Q320 70 478 70Q594 70 651 105Q753 168 777 249H912Q872 122 723 33Q619 -29 413 -29T96 124Q18 231 18 386Q18 454 33 531Q82 784 251 938T660
1092Q1051 1092 1051 815Q1051 612 846 513Q637 412 231 408ZM744 632Q856 698 856 822Q856 993 629 993Q495 993 402 891T252 514Q573 529 744 632ZM406 1638H574L735 1262H619L467 1522L213 1262H97L406 1638Z" />
<glyph unicode="&#xeb;" glyph-name="edieresis" horiz-adv-x="1212" d="M231 408Q227 370 227 336Q227 242 261 180Q320 70 478 70Q594 70 651 105Q753 168 777 249H912Q872 122 723 33Q619 -29 413 -29T96 124Q18 231 18 386Q18 454 33 531Q82 784 251 938T660
1092Q1051 1092 1051 815Q1051 612 846 513Q637 412 231 408ZM744 632Q856 698 856 822Q856 993 629 993Q495 993 402 891T252 514Q573 529 744 632ZM271 1569Q319 1569 347 1534Q374 1500 365 1452Q355 1401 316 1368Q276 1335 225 1335Q175 1335 149 1368Q122
1401 132 1452Q141 1500 183 1534Q224 1569 271 1569ZM661 1569Q708 1569 736 1534Q763 1500 754 1452Q744 1401 705 1368Q665 1335 615 1335Q564 1335 538 1368Q511 1401 521 1452Q530 1500 572 1534Q613 1569 661 1569Z" />
<glyph unicode="&#xec;" glyph-name="igrave" horiz-adv-x="655" d="M220 106H394L374 0H16L202 956H26L46 1063H406L220 106ZM14 1636L200 1260H83L-183 1636H14Z" />
<glyph unicode="&#xed;" glyph-name="iacute" horiz-adv-x="655" d="M220 106H394L374 0H16L202 956H26L46 1063H406L220 106ZM149 1638H348L-66 1262H-183L149 1638Z" />
<glyph unicode="&#xee;" glyph-name="icircumflex" horiz-adv-x="655" d="M220 106H394L374 0H16L202 956H26L46 1063H406L220 106ZM129 1638H297L458 1262H342L190 1522L-64 1262H-180L129 1638Z" />
<glyph unicode="&#xef;" glyph-name="idieresis" horiz-adv-x="655" d="M220 106H394L374 0H16L202 956H26L46 1063H406L220 106ZM-6 1569Q42 1569 70 1534Q97 1500 88 1452Q78 1401 39 1368Q-1 1335 -52 1335Q-102 1335 -128 1368Q-155 1401 -145 1452Q-136 1500
-94 1534Q-53 1569 -6 1569ZM384 1569Q431 1569 459 1534Q486 1500 477 1452Q467 1401 428 1368Q388 1335 338 1335Q287 1335 261 1368Q234 1401 244 1452Q253 1500 295 1534Q336 1569 384 1569Z" />
<glyph unicode="&#xf0;" glyph-name="eth" horiz-adv-x="1188" d="M851 928Q808 937 768 941T688 946Q515 946 412 839T265 508Q225 298 281 184T479 70Q623 70 723 184T864 512Q886 624 883 729T851 928ZM864 1307Q1014 1140 1069 945T1083 532Q1034 278 864
125T460 -29Q231 -29 118 122T52 518Q98 754 267 899T665 1044Q700 1044 736 1041T824 1030Q812 1083 786 1136T721 1245L370 1096L348 1174L667 1309Q617 1367 547 1407T385 1470L420 1556Q534 1530 629 1483T804 1368L1155 1518L1176 1440L864 1307Z" />
<glyph unicode="&#xf1;" glyph-name="ntilde" horiz-adv-x="1319" d="M24 0L210 956H34L54 1063H414L378 874Q450 982 542 1037T742 1092Q918 1092 982 991Q1020 930 1020 828Q1020 761 1003 676L892 106H1056L1036 0H687L807 618Q827 721 827 790Q827 851 811
886Q777 958 656 958Q528 958 443 865T323 592L208 0H24ZM445 1370L399 1425Q378 1449 363 1456Q348 1464 329 1464Q287 1464 255 1424Q223 1385 204 1309H108Q136 1444 201 1518Q266 1591 357 1591Q395 1591 425 1577Q454 1563 485 1530L531 1475Q549 1452 565
1444Q580 1436 601 1436Q644 1436 676 1476T726 1591H822Q794 1456 729 1382Q664 1309 573 1309Q535 1309 505 1323Q476 1337 445 1370Z" />
<glyph unicode="&#xf2;" glyph-name="ograve" horiz-adv-x="1233" d="M457 70Q605 70 703 187T846 532Q866 636 866 717Q866 813 838 876Q785 993 637 993T391 877T248 532Q228 428 228 348Q228 251 257 187Q310 70 457 70ZM438 -29Q206 -29 95 124Q18 231 18
385Q18 454 33 532Q82 786 252 939T656 1092T1000 939Q1076 833 1076 679Q1076 610 1061 532Q1012 278 842 125T438 -29ZM301 1636L487 1260H370L104 1636H301Z" />
<glyph unicode="&#xf3;" glyph-name="oacute" horiz-adv-x="1233" d="M457 70Q605 70 703 187T846 532Q866 636 866 717Q866 813 838 876Q785 993 637 993T391 877T248 532Q228 428 228 348Q228 251 257 187Q310 70 457 70ZM438 -29Q206 -29 95 124Q18 231 18
385Q18 454 33 532Q82 786 252 939T656 1092T1000 939Q1076 833 1076 679Q1076 610 1061 532Q1012 278 842 125T438 -29ZM436 1638H635L221 1262H104L436 1638Z" />
<glyph unicode="&#xf4;" glyph-name="ocircumflex" horiz-adv-x="1233" d="M457 70Q605 70 703 187T846 532Q866 636 866 717Q866 813 838 876Q785 993 637 993T391 877T248 532Q228 428 228 348Q228 251 257 187Q310 70 457 70ZM438 -29Q206 -29 95 124Q18 231
18 385Q18 454 33 532Q82 786 252 939T656 1092T1000 939Q1076 833 1076 679Q1076 610 1061 532Q1012 278 842 125T438 -29ZM416 1638H584L745 1262H629L477 1522L223 1262H107L416 1638Z" />
<glyph unicode="&#xf5;" glyph-name="otilde" horiz-adv-x="1233" d="M457 70Q605 70 703 187T846 532Q866 636 866 717Q866 813 838 876Q785 993 637 993T391 877T248 532Q228 428 228 348Q228 251 257 187Q310 70 457 70ZM438 -29Q206 -29 95 124Q18 231 18
385Q18 454 33 532Q82 786 252 939T656 1092T1000 939Q1076 833 1076 679Q1076 610 1061 532Q1012 278 842 125T438 -29ZM462 1370L416 1425Q395 1449 380 1456Q365 1464 346 1464Q304 1464 272 1424Q240 1385 221 1309H125Q153 1444 218 1518Q283 1591 374 1591Q412
1591 442 1577Q471 1563 502 1530L548 1475Q566 1452 582 1444Q597 1436 618 1436Q661 1436 693 1476T743 1591H839Q811 1456 746 1382Q681 1309 590 1309Q552 1309 522 1323Q493 1337 462 1370Z" />
<glyph unicode="&#xf6;" glyph-name="odieresis" horiz-adv-x="1233" d="M457 70Q605 70 703 187T846 532Q866 636 866 717Q866 813 838 876Q785 993 637 993T391 877T248 532Q228 428 228 348Q228 251 257 187Q310 70 457 70ZM438 -29Q206 -29 95 124Q18 231
18 385Q18 454 33 532Q82 786 252 939T656 1092T1000 939Q1076 833 1076 679Q1076 610 1061 532Q1012 278 842 125T438 -29ZM281 1569Q329 1569 357 1534Q384 1500 375 1452Q365 1401 326 1368Q286 1335 235 1335Q185 1335 159 1368Q132 1401 142 1452Q151 1500
193 1534Q234 1569 281 1569ZM671 1569Q718 1569 746 1534Q773 1500 764 1452Q754 1401 715 1368Q675 1335 625 1335Q574 1335 548 1368Q521 1401 531 1452Q540 1500 582 1534Q623 1569 671 1569Z" />
<glyph unicode="&#xf7;" glyph-name="divide" horiz-adv-x="1282" d="M508 1012Q508 1068 546 1106T641 1145Q696 1145 735 1106T774 1012Q774 956 735 918T641 879Q584 879 546 917T508 1012ZM641 406Q696 406 735 367T774 272Q774 217 735 178T641 139Q584 139
546 177T508 272T546 367T641 406ZM0 723H1282V561H0V723Z" />
<glyph unicode="&#xf8;" glyph-name="oslash" horiz-adv-x="1306" d="M948 879Q921 936 871 964T746 993Q599 993 500 876T357 532Q343 460 339 401T340 293L948 879ZM365 190Q393 129 442 100T566 70Q713 70 812 187T955 532Q970 608 974 668T973 780L365 190ZM1120
922Q1168 848 1180 749T1170 532Q1121 278 951 125T547 -29Q453 -29 378 -3T247 78L70 -94L7 -31L190 147Q144 224 132 320T142 532Q191 786 361 939T765 1092Q859 1092 934 1067T1063 991L1235 1157L1298 1094L1120 922Z" />
<glyph unicode="&#xf9;" glyph-name="ugrave" horiz-adv-x="1319" d="M876 1063H1060L874 106H1048L1028 0H670L706 188Q634 82 543 27T344 -29Q167 -29 103 72Q64 132 64 235Q64 302 81 387L191 956H25L46 1063H397L277 444Q257 341 257 273Q257 212 273 178Q306
106 428 106Q556 106 641 200T761 473L876 1063ZM269 1636L455 1260H338L72 1636H269Z" />
<glyph unicode="&#xfa;" glyph-name="uacute" horiz-adv-x="1319" d="M876 1063H1060L874 106H1048L1028 0H670L706 188Q634 82 543 27T344 -29Q167 -29 103 72Q64 132 64 235Q64 302 81 387L191 956H25L46 1063H397L277 444Q257 341 257 273Q257 212 273 178Q306
106 428 106Q556 106 641 200T761 473L876 1063ZM404 1638H603L189 1262H72L404 1638Z" />
<glyph unicode="&#xfb;" glyph-name="ucircumflex" horiz-adv-x="1319" d="M876 1063H1060L874 106H1048L1028 0H670L706 188Q634 82 543 27T344 -29Q167 -29 103 72Q64 132 64 235Q64 302 81 387L191 956H25L46 1063H397L277 444Q257 341 257 273Q257 212 273
178Q306 106 428 106Q556 106 641 200T761 473L876 1063ZM384 1638H552L713 1262H597L445 1522L191 1262H75L384 1638Z" />
<glyph unicode="&#xfc;" glyph-name="udieresis" horiz-adv-x="1319" d="M876 1063H1060L874 106H1048L1028 0H670L706 188Q634 82 543 27T344 -29Q167 -29 103 72Q64 132 64 235Q64 302 81 387L191 956H25L46 1063H397L277 444Q257 341 257 273Q257 212 273 178Q306
106 428 106Q556 106 641 200T761 473L876 1063ZM249 1569Q297 1569 325 1534Q352 1500 343 1452Q333 1401 294 1368Q254 1335 203 1335Q153 1335 127 1368Q100 1401 110 1452Q119 1500 161 1534Q202 1569 249 1569ZM639 1569Q686 1569 714 1534Q741 1500 732 1452Q722
1401 683 1368Q643 1335 593 1335Q542 1335 516 1368Q489 1401 499 1452Q508 1500 550 1534Q591 1569 639 1569Z" />
<glyph unicode="&#xfd;" glyph-name="yacute" horiz-adv-x="1157" d="M1268 1054Q1169 482 995 180Q740 -263 535 -396Q444 -455 204 -455Q157 -455 110 -447T14 -424L54 -221H148Q146 -237 146 -252Q146 -294 164 -318Q189 -352 254 -352Q430 -352 583 -199L332
956H211L232 1063H507L743 8Q904 249 943 348Q1069 659 1094 947H973L994 1054H1268ZM400 1638H599L185 1262H68L400 1638Z" />
<glyph unicode="&#xfe;" glyph-name="thorn" horiz-adv-x="1187" d="M393 584L372 479Q357 400 357 337Q357 246 389 186Q443 86 583 86Q724 86 818 199T956 532Q975 633 975 712Q975 804 948 865Q897 977 756 977Q616 977 523 876T393 584ZM377 1450H200L221
1556H582L454 897Q527 997 619 1044T835 1092Q1031 1092 1125 937Q1187 835 1187 692Q1187 617 1171 532Q1122 282 968 127T618 -29Q495 -29 421 18T311 166L196 -426H12L377 1450Z" />
<glyph unicode="&#xff;" glyph-name="ydieresis" horiz-adv-x="1157" d="M1268 1054Q1169 482 995 180Q740 -263 535 -396Q444 -455 204 -455Q157 -455 110 -447T14 -424L54 -221H148Q146 -237 146 -252Q146 -294 164 -318Q189 -352 254 -352Q430 -352 583 -199L332
956H211L232 1063H507L743 8Q904 249 943 348Q1069 659 1094 947H973L994 1054H1268ZM245 1569Q293 1569 321 1534Q348 1500 339 1452Q329 1401 290 1368Q250 1335 199 1335Q149 1335 123 1368Q96 1401 106 1452Q115 1500 157 1534Q198 1569 245 1569ZM635 1569Q682
1569 710 1534Q737 1500 728 1452Q718 1401 679 1368Q639 1335 589 1335Q538 1335 512 1368Q485 1401 495 1452Q504 1500 546 1534Q587 1569 635 1569Z" />
<glyph unicode="&#x100;" glyph-name="Amacron" horiz-adv-x="1479" d="M286 1841H884L856 1693H258L286 1841ZM527 541H1075L939 1251L527 541ZM0 0L20 106H151L953 1493H1121L1385 106H1531L1511 0H968L988 106H1154L1093 434H465L276 106H440L420 0H0Z" />
<glyph unicode="&#x101;" glyph-name="amacron" horiz-adv-x="1221" d="M97 1526H695L667 1378H69L97 1526ZM688 166Q555 -29 340 -29Q164 -29 75 90Q13 174 13 294Q13 345 24 402Q92 755 338 937Q547 1092 800 1092Q970 1092 1028 1063L842 106H1000L980 0H656L688
166ZM207 300Q207 86 414 86Q540 86 625 186T749 479L842 961V961Q842 990 762 990Q570 990 421 840Q273 689 220 415Q207 351 207 300Z" />
<glyph unicode="&#x102;" glyph-name="Abreve" horiz-adv-x="1479" d="M255 1897H351Q349 1818 394 1783Q439 1747 539 1747T698 1783Q757 1818 785 1897H881Q843 1754 750 1682T512 1610T302 1682T255 1897ZM527 541H1075L939 1251L527 541ZM0 0L20 106H151L953
1493H1121L1385 106H1531L1511 0H968L988 106H1154L1093 434H465L276 106H440L420 0H0Z" />
<glyph unicode="&#x103;" glyph-name="abreve" horiz-adv-x="1221" d="M79 1838H175Q173 1759 218 1724Q263 1688 363 1688T522 1724Q581 1759 609 1838H705Q667 1695 574 1623T336 1551T126 1623T79 1838ZM688 166Q555 -29 340 -29Q164 -29 75 90Q13 174 13 294Q13
345 24 402Q92 755 338 937Q547 1092 800 1092Q970 1092 1028 1063L842 106H1000L980 0H656L688 166ZM207 300Q207 86 414 86Q540 86 625 186T749 479L842 961V961Q842 990 762 990Q570 990 421 840Q273 689 220 415Q207 351 207 300Z" />
<glyph unicode="&#x104;" glyph-name="Aogonek" horiz-adv-x="1479" d="M512 0H606L605 -2Q494 -125 485 -172Q476 -218 504 -246T588 -274Q615 -274 645 -268T708 -248L682 -375Q645 -384 611 -388T544 -393Q431 -393 378 -349T340 -223Q349 -174 389 -122T512
0ZM527 541H1075L939 1251L527 541ZM0 0L20 106H151L953 1493H1121L1385 106H1531L1511 0H968L988 106H1154L1093 434H465L276 106H440L420 0H0Z" />
<glyph unicode="&#x105;" glyph-name="aogonek" horiz-adv-x="1221" d="M407 0H501L500 -2Q389 -125 380 -172Q371 -218 399 -246T483 -274Q510 -274 540 -268T603 -248L577 -375Q540 -384 506 -388T439 -393Q326 -393 273 -349T235 -223Q244 -174 284 -122T407
0ZM688 166Q555 -29 340 -29Q164 -29 75 90Q13 174 13 294Q13 345 24 402Q92 755 338 937Q547 1092 800 1092Q970 1092 1028 1063L842 106H1000L980 0H656L688 166ZM207 300Q207 86 414 86Q540 86 625 186T749 479L842 961V961Q842 990 762 990Q570 990 421 840Q273
689 220 415Q207 351 207 300Z" />
<glyph unicode="&#x106;" glyph-name="Cacute" horiz-adv-x="1567" d="M1311 395Q1204 186 1028 79T613 -29Q467 -29 352 21T159 168Q69 280 42 422T50 745Q118 1093 360 1306T932 1520Q1054 1520 1185 1488T1463 1391L1397 1047H1284Q1283 1235 1189 1324T894
1413Q655 1413 499 1244T279 745Q215 417 305 248T634 78Q801 78 924 157T1127 395H1311ZM1641 1899H1838L1524 1635H1407L1641 1899Z" />
<glyph unicode="&#x107;" glyph-name="cacute" horiz-adv-x="1147" d="M943 319Q871 149 743 60T438 -29Q206 -29 95 124Q18 231 18 385Q18 454 33 532Q83 787 253 939T656 1092Q757 1092 852 1069T1039 997L987 725H880Q880 739 880 751Q880 871 828 929Q770
993 639 993Q490 993 392 878T248 532Q228 427 228 345Q228 249 256 186Q309 70 459 70Q578 70 661 132T795 319H943ZM426 1638H625L211 1262H94L426 1638Z" />
<glyph unicode="&#x108;" glyph-name="Ccircumflex" horiz-adv-x="1567" d="M1701 1899H1877L2056 1635H1940L1769 1796L1534 1635H1418L1701 1899ZM1311 395Q1204 186 1028 79T613 -29Q467 -29 352 21T159 168Q69 280 42 422T50 745Q118 1093 360 1306T932 1520Q1054
1520 1185 1488T1463 1391L1397 1047H1284Q1283 1235 1189 1324T894 1413Q655 1413 499 1244T279 745Q215 417 305 248T634 78Q801 78 924 157T1127 395H1311Z" />
<glyph unicode="&#x109;" glyph-name="ccircumflex" horiz-adv-x="1147" d="M416 1638H584L745 1262H629L477 1522L223 1262H107L416 1638ZM943 319Q871 149 743 60T438 -29Q206 -29 95 124Q18 231 18 385Q18 454 33 532Q83 787 253 939T656 1092Q757 1092 852
1069T1039 997L987 725H880Q880 739 880 751Q880 871 828 929Q770 993 639 993Q490 993 392 878T248 532Q228 427 228 345Q228 249 256 186Q309 70 459 70Q578 70 661 132T795 319H943Z" />
<glyph unicode="&#x10a;" glyph-name="Cdotaccent" horiz-adv-x="1567" d="M1671 1770Q1661 1720 1621 1687Q1581 1653 1531 1653T1454 1687Q1427 1720 1437 1770Q1446 1816 1488 1851T1577 1886T1652 1851T1671 1770ZM1311 395Q1204 186 1028 79T613 -29Q467
-29 352 21T159 168Q69 280 42 422T50 745Q118 1093 360 1306T932 1520Q1054 1520 1185 1488T1463 1391L1397 1047H1284Q1283 1235 1189 1324T894 1413Q655 1413 499 1244T279 745Q215 417 305 248T634 78Q801 78 924 157T1127 395H1311Z" />
<glyph unicode="&#x10b;" glyph-name="cdotaccent" horiz-adv-x="1147" d="M344 1534Q371 1500 362 1452Q352 1401 313 1368Q273 1335 222 1335T145 1368Q118 1401 128 1452Q137 1500 179 1534Q220 1569 268 1569T344 1534ZM943 319Q871 149 743 60T438 -29Q206
-29 95 124Q18 231 18 385Q18 454 33 532Q83 787 253 939T656 1092Q757 1092 852 1069T1039 997L987 725H880Q880 739 880 751Q880 871 828 929Q770 993 639 993Q490 993 392 878T248 532Q228 427 228 345Q228 249 256 186Q309 70 459 70Q578 70 661 132T795 319H943Z"
/>
<glyph unicode="&#x10c;" glyph-name="Ccaron" horiz-adv-x="1567" d="M1311 395Q1204 186 1028 79T613 -29Q467 -29 352 21T159 168Q69 280 42 422T50 745Q118 1093 360 1306T932 1520Q1054 1520 1185 1488T1463 1391L1397 1047H1284Q1283 1235 1189 1324T894
1413Q655 1413 499 1244T279 745Q215 417 305 248T634 78Q801 78 924 157T1127 395H1311ZM1597 1635L1418 1899H1534L1705 1737L1940 1899H2056L1773 1635H1597Z" />
<glyph unicode="&#x10d;" glyph-name="ccaron" horiz-adv-x="1147" d="M943 319Q871 149 743 60T438 -29Q206 -29 95 124Q18 231 18 385Q18 454 33 532Q83 787 253 939T656 1092Q757 1092 852 1069T1039 997L987 725H880Q880 739 880 751Q880 871 828 929Q770
993 639 993Q490 993 392 878T248 532Q228 427 228 345Q228 249 256 186Q309 70 459 70Q578 70 661 132T795 319H943ZM269 1262L108 1638H224L376 1378L630 1638H746L437 1262H269Z" />
<glyph unicode="&#x10e;" glyph-name="Dcaron" horiz-adv-x="1642" d="M423 106H609Q900 106 1088 272T1336 748T1274 1222T858 1386H672L423 106ZM10 0L30 106H220L469 1386H279L300 1493H894Q1280 1493 1457 1296T1566 748Q1498 396 1244 198T604 0H10ZM1519
1635L1340 1899H1456L1627 1737L1862 1899H1978L1695 1635H1519Z" />
<glyph unicode="&#x10f;" glyph-name="dcaron" horiz-adv-x="1311" d="M1190 1556L888 0H704L736 166Q662 66 570 19T354 -29Q158 -29 64 126Q1 229 1 373Q1 447 18 532Q67 782 221 937T572 1092Q695 1092 769 1045T878 897L985 1450H811L832 1556H1190ZM797 479L817
584Q832 662 832 725Q832 816 800 876Q747 977 607 977Q465 977 371 865T233 532Q213 431 213 353Q213 260 241 199Q291 86 433 86Q573 86 666 186T797 479ZM2142 1555H2341L2123 1179H2006L2142 1555Z" />
<glyph unicode="&#x110;" glyph-name="Dcroat" horiz-adv-x="1653" d="M422 106H610Q901 106 1089 272T1338 748T1275 1222T859 1386H671L566 844H902L878 719H542L422 106ZM11 0L31 106H221L341 719H141L165 844H365L470 1386H280L301 1493H895Q1281 1493 1458
1296T1567 748Q1499 396 1245 198T605 0H11Z" />
<glyph unicode="&#x111;" glyph-name="" horiz-adv-x="1329" d="M1128 1227L890 0H706L738 166Q664 66 572 19T356 -29Q160 -29 66 126Q3 229 3 373Q3 447 20 532Q69 782 223 937T574 1092Q697 1092 771 1045T880 897L944 1227H618L639 1333H965L987 1450H813L834
1556H1192L1149 1333H1325L1304 1227H1128ZM799 479L819 584Q834 662 834 725Q834 816 802 876Q749 977 609 977Q467 977 373 865T235 532Q215 431 215 353Q215 260 243 199Q293 86 435 86Q575 86 668 186T799 479Z" />
<glyph unicode="&#x112;" glyph-name="Emacron" horiz-adv-x="1495" d="M325 1842H923L895 1694H297L325 1842ZM9 0L29 106H219L468 1386H278L299 1493H1501L1437 1161H1314L1354 1370H668L571 870H1060L1096 1057H1219L1123 561H1000L1036 748H547L426 123H1128L1168
332H1291L1227 0H9Z" />
<glyph unicode="&#x113;" glyph-name="emacron" horiz-adv-x="1212" d="M156 1527H754L726 1379H128L156 1527ZM231 408Q227 370 227 336Q227 242 261 180Q320 70 478 70Q594 70 651 105Q753 168 777 249H912Q872 122 723 33Q619 -29 413 -29T96 124Q18 231 18
386Q18 454 33 531Q82 784 251 938T660 1092Q1051 1092 1051 815Q1051 612 846 513Q637 412 231 408ZM744 632Q856 698 856 822Q856 993 629 993Q495 993 402 891T252 514Q573 529 744 632Z" />
<glyph unicode="&#x114;" glyph-name="Ebreve" horiz-adv-x="1495" d="M1328 1901H1422Q1429 1846 1477 1819T1617 1792T1768 1819T1856 1901H1950Q1907 1784 1815 1721Q1722 1659 1591 1659Q1459 1659 1392 1721T1328 1901ZM9 0L29 106H219L468 1386H278L299
1493H1501L1437 1161H1314L1354 1370H668L571 870H1060L1096 1057H1219L1123 561H1000L1036 748H547L426 123H1128L1168 332H1291L1227 0H9Z" />
<glyph unicode="&#x115;" glyph-name="ebreve" horiz-adv-x="1212" d="M135 1608H231Q229 1529 274 1494Q319 1458 419 1458T578 1494Q637 1529 665 1608H761Q723 1465 630 1393T392 1321T182 1393T135 1608ZM231 408Q227 370 227 336Q227 242 261 180Q320 70
478 70Q594 70 651 105Q753 168 777 249H912Q872 122 723 33Q619 -29 413 -29T96 124Q18 231 18 386Q18 454 33 531Q82 784 251 938T660 1092Q1051 1092 1051 815Q1051 612 846 513Q637 412 231 408ZM744 632Q856 698 856 822Q856 993 629 993Q495 993 402 891T252
514Q573 529 744 632Z" />
<glyph unicode="&#x116;" glyph-name="Edotaccent" horiz-adv-x="1495" d="M1589 1770Q1579 1720 1539 1687Q1499 1653 1449 1653T1372 1687Q1345 1720 1355 1770Q1364 1816 1406 1851T1495 1886T1570 1851T1589 1770ZM9 0L29 106H219L468 1386H278L299 1493H1501L1437
1161H1314L1354 1370H668L571 870H1060L1096 1057H1219L1123 561H1000L1036 748H547L426 123H1128L1168 332H1291L1227 0H9Z" />
<glyph unicode="&#x117;" glyph-name="edotaccent" horiz-adv-x="1212" d="M334 1534Q361 1500 352 1452Q342 1401 303 1368Q263 1335 212 1335T135 1368Q108 1401 118 1452Q127 1500 169 1534Q210 1569 258 1569T334 1534ZM231 408Q227 370 227 336Q227 242 261
180Q320 70 478 70Q594 70 651 105Q753 168 777 249H912Q872 122 723 33Q619 -29 413 -29T96 124Q18 231 18 386Q18 454 33 531Q82 784 251 938T660 1092Q1051 1092 1051 815Q1051 612 846 513Q637 412 231 408ZM744 632Q856 698 856 822Q856 993 629 993Q495 993
402 891T252 514Q573 529 744 632Z" />
<glyph unicode="&#x118;" glyph-name="Eogonek" horiz-adv-x="1495" d="M642 0H736L735 -2Q624 -125 615 -172Q606 -218 634 -246T718 -274Q745 -274 775 -268T838 -248L812 -375Q775 -384 741 -388T674 -393Q561 -393 508 -349T470 -223Q479 -174 519 -122T642
0ZM9 0L29 106H219L468 1386H278L299 1493H1501L1437 1161H1314L1354 1370H668L571 870H1060L1096 1057H1219L1123 561H1000L1036 748H547L426 123H1128L1168 332H1291L1227 0H9Z" />
<glyph unicode="&#x119;" glyph-name="eogonek" horiz-adv-x="1212" d="M314 0H408L407 -2Q296 -125 287 -172Q278 -218 306 -246T390 -274Q417 -274 447 -268T510 -248L484 -375Q447 -384 413 -388T346 -393Q233 -393 180 -349T142 -223Q151 -174 191 -122T314
0ZM231 408Q227 370 227 336Q227 242 261 180Q320 70 478 70Q594 70 651 105Q753 168 777 249H912Q872 122 723 33Q619 -29 413 -29T96 124Q18 231 18 386Q18 454 33 531Q82 784 251 938T660 1092Q1051 1092 1051 815Q1051 612 846 513Q637 412 231 408ZM744 632Q856
698 856 822Q856 993 629 993Q495 993 402 891T252 514Q573 529 744 632Z" />
<glyph unicode="&#x11a;" glyph-name="Ecaron" horiz-adv-x="1495" d="M9 0L29 106H219L468 1386H278L299 1493H1501L1437 1161H1314L1354 1370H668L571 870H1060L1096 1057H1219L1123 561H1000L1036 748H547L426 123H1128L1168 332H1291L1227 0H9ZM1597 1635L1418
1899H1534L1705 1737L1940 1899H2056L1773 1635H1597Z" />
<glyph unicode="&#x11b;" glyph-name="ecaron" horiz-adv-x="1212" d="M231 408Q227 370 227 336Q227 242 261 180Q320 70 478 70Q594 70 651 105Q753 168 777 249H912Q872 122 723 33Q619 -29 413 -29T96 124Q18 231 18 386Q18 454 33 531Q82 784 251 938T660
1092Q1051 1092 1051 815Q1051 612 846 513Q637 412 231 408ZM744 632Q856 698 856 822Q856 993 629 993Q495 993 402 891T252 514Q573 529 744 632ZM269 1262L108 1638H224L376 1378L630 1638H746L437 1262H269Z" />
<glyph unicode="&#x11c;" glyph-name="Gcircumflex" horiz-adv-x="1636" d="M1727 1899H1903L2082 1635H1966L1795 1796L1560 1635H1444L1727 1899ZM1336 1047Q1337 1234 1244 1323T952 1413Q694 1413 535 1247T310 745Q246 416 344 247T696 78Q809 78 917 106T1130
190L1205 575H924L945 682H1429L1320 125Q1172 48 1011 10T675 -29Q337 -29 175 182T81 745Q150 1099 395 1309T985 1520Q1113 1520 1243 1491T1516 1401L1448 1047H1336Z" />
<glyph unicode="&#x11d;" glyph-name="gcircumflex" horiz-adv-x="1311" d="M404 1638H572L733 1262H617L465 1522L211 1262H95L404 1638ZM1161 1063L958 23Q912 -215 764 -330Q603 -455 380 -455Q275 -455 183 -436T10 -379L54 -156H150Q147 -260 205 -308T388
-356Q550 -356 643 -264Q736 -174 774 23L802 166Q729 66 636 19T426 -29Q250 -29 161 90Q105 165 99 269Q95 330 109 402Q178 755 423 937Q632 1091 876 1092Q1100 1093 1161 1063ZM957 956Q956 990 848 990Q653 990 506 840Q359 689 305 415Q290 334 294 273Q298
211 323 169Q372 86 500 86Q640 86 733 186T863 479L883 584L957 956Z" />
<glyph unicode="&#x11e;" glyph-name="Gbreve" horiz-adv-x="1636" d="M1336 1047Q1337 1234 1244 1323T952 1413Q694 1413 535 1247T310 745Q246 416 344 247T696 78Q809 78 917 106T1130 190L1205 575H924L945 682H1429L1320 125Q1172 48 1011 10T675 -29Q337
-29 175 182T81 745Q150 1099 395 1309T985 1520Q1113 1520 1243 1491T1516 1401L1448 1047H1336ZM1430 1901H1524Q1531 1846 1579 1819T1719 1792T1870 1819T1958 1901H2052Q2009 1784 1917 1721Q1824 1659 1693 1659Q1561 1659 1494 1721T1430 1901Z" />
<glyph unicode="&#x11f;" glyph-name="gbreve" horiz-adv-x="1311" d="M1161 1063L958 23Q912 -215 764 -330Q603 -455 380 -455Q275 -455 183 -436T10 -379L54 -156H150Q147 -260 205 -308T388 -356Q550 -356 643 -264Q736 -174 774 23L802 166Q729 66 636 19T426
-29Q250 -29 161 90Q105 165 99 269Q95 330 109 402Q178 755 423 937Q632 1091 876 1092Q1100 1093 1161 1063ZM957 956Q956 990 848 990Q653 990 506 840Q359 689 305 415Q290 334 294 273Q298 211 323 169Q372 86 500 86Q640 86 733 186T863 479L883 584L957
956ZM184 1608H280Q278 1529 323 1494Q368 1458 468 1458T627 1494Q686 1529 714 1608H810Q772 1465 679 1393T441 1321T231 1393T184 1608Z" />
<glyph unicode="&#x120;" glyph-name="Gdotaccent" horiz-adv-x="1636" d="M1697 1770Q1687 1720 1647 1687Q1607 1653 1557 1653T1480 1687Q1453 1720 1463 1770Q1472 1816 1514 1851T1603 1886T1678 1851T1697 1770ZM1336 1047Q1337 1234 1244 1323T952 1413Q694
1413 535 1247T310 745Q246 416 344 247T696 78Q809 78 917 106T1130 190L1205 575H924L945 682H1429L1320 125Q1172 48 1011 10T675 -29Q337 -29 175 182T81 745Q150 1099 395 1309T985 1520Q1113 1520 1243 1491T1516 1401L1448 1047H1336Z" />
<glyph unicode="&#x121;" glyph-name="gdotaccent" horiz-adv-x="1311" d="M332 1534Q359 1500 350 1452Q340 1401 301 1368Q261 1335 210 1335T133 1368Q106 1401 116 1452Q125 1500 167 1534Q208 1569 256 1569T332 1534ZM1161 1063L958 23Q912 -215 764 -330Q603
-455 380 -455Q275 -455 183 -436T10 -379L54 -156H150Q147 -260 205 -308T388 -356Q550 -356 643 -264Q736 -174 774 23L802 166Q729 66 636 19T426 -29Q250 -29 161 90Q105 165 99 269Q95 330 109 402Q178 755 423 937Q632 1091 876 1092Q1100 1093 1161 1063ZM957
956Q956 990 848 990Q653 990 506 840Q359 689 305 415Q290 334 294 273Q298 211 323 169Q372 86 500 86Q640 86 733 186T863 479L883 584L957 956Z" />
<glyph unicode="&#x122;" glyph-name="Gcommaaccent" horiz-adv-x="1636" d="M1388 -410Q1464 -368 1499 -312T1534 -176V-154H1692Q1685 -257 1627 -330Q1569 -404 1452 -458L1388 -410ZM1336 1047Q1337 1234 1244 1323T952 1413Q694 1413 535 1247T310 745Q246
416 344 247T696 78Q809 78 917 106T1130 190L1205 575H924L945 682H1429L1320 125Q1172 48 1011 10T675 -29Q337 -29 175 182T81 745Q150 1099 395 1309T985 1520Q1113 1520 1243 1491T1516 1401L1448 1047H1336Z" />
<glyph unicode="&#x123;" glyph-name="gcommaaccent" horiz-adv-x="1311" d="M1522 1470Q1438 1428 1392 1372T1331 1236L1326 1214H1168Q1195 1317 1268 1390Q1340 1464 1468 1518L1522 1470ZM1161 1063L958 23Q912 -215 764 -330Q603 -455 380 -455Q275 -455
183 -436T10 -379L54 -156H150Q147 -260 205 -308T388 -356Q550 -356 643 -264Q736 -174 774 23L802 166Q729 66 636 19T426 -29Q250 -29 161 90Q105 165 99 269Q95 330 109 402Q178 755 423 937Q632 1091 876 1092Q1100 1093 1161 1063ZM957 956Q956 990 848 990Q653
990 506 840Q359 689 305 415Q290 334 294 273Q298 211 323 169Q372 86 500 86Q640 86 733 186T863 479L883 584L957 956Z" />
<glyph unicode="&#x124;" glyph-name="Hcircumflex" horiz-adv-x="1786" d="M1765 1899H1941L2120 1635H2004L1833 1796L1598 1635H1482L1765 1899ZM13 0L33 106H223L472 1386H282L303 1493H886L865 1386H675L575 870H1349L1449 1386H1259L1280 1493H1863L1842
1386H1652L1403 106H1593L1573 0H990L1010 106H1201L1325 748H551L426 106H616L596 0H13Z" />
<glyph unicode="&#x125;" glyph-name="hcircumflex" horiz-adv-x="1319" d="M1106 1899H1282L1461 1635H1345L1174 1796L939 1635H823L1106 1899ZM17 0L299 1450H123L143 1556H503L371 874Q443 982 535 1037T735 1092Q911 1092 974 991Q1013 930 1013 828Q1013
761 996 676L885 106H1049L1029 0H680L800 618Q820 721 820 790Q820 851 804 884Q771 956 649 956Q521 956 436 863T316 592L201 0H17Z" />
<glyph unicode="&#x126;" glyph-name="Hbar" horiz-adv-x="1878" d="M576 870H1350L1388 1067H614L576 870ZM14 0L34 106H224L411 1067H221L245 1189H435L473 1386H283L304 1493H887L866 1386H676L638 1189H1412L1450 1386H1260L1281 1493H1864L1843 1386H1653L1615
1189H1805L1781 1067H1591L1404 106H1594L1574 0H991L1011 106H1201L1326 748H552L427 106H617L597 0H14Z" />
<glyph unicode="&#x127;" glyph-name="hbar" horiz-adv-x="1059" d="M20 0L255 1210H79L103 1332H279L302 1450H126L146 1556H506L463 1332H779L755 1210H439L374 874Q446 982 538 1037T738 1092Q914 1092 977 991Q1016 930 1016 828Q1016 761 999 676L888 106H1052L1032
0H683L803 618Q823 721 823 790Q823 851 807 884Q774 956 652 956Q524 956 439 863T319 592L204 0H20Z" />
<glyph unicode="&#x128;" glyph-name="Itilde" horiz-adv-x="809" d="M1295 1715L1252 1743Q1235 1756 1216 1763T1180 1770Q1141 1770 1109 1741Q1078 1713 1065 1667L969 1668Q990 1768 1053 1827Q1115 1886 1200 1886Q1236 1886 1266 1877Q1295 1868 1344 1837L1388
1811Q1408 1798 1429 1791Q1449 1784 1466 1784Q1507 1784 1536 1811Q1565 1839 1574 1886H1671Q1649 1781 1586 1724Q1524 1667 1430 1667Q1363 1667 1299 1712L1295 1715ZM413 106H603L583 0H0L20 106H210L459 1386H269L290 1493H873L852 1386H662L413 106Z"
/>
<glyph unicode="&#x129;" glyph-name="itilde" horiz-adv-x="655" d="M102 1370L56 1425Q35 1449 20 1456Q5 1464 -14 1464Q-56 1464 -88 1424Q-120 1385 -139 1309H-235Q-207 1444 -142 1518Q-77 1591 14 1591Q52 1591 82 1577Q111 1563 142 1530L188 1475Q206
1452 222 1444Q237 1436 258 1436Q301 1436 333 1476T383 1591H479Q451 1456 386 1382Q321 1309 230 1309Q192 1309 162 1323Q133 1337 102 1370ZM220 106H394L374 0H16L202 956H26L46 1063H406L220 106Z" />
<glyph unicode="&#x12a;" glyph-name="Imacron" horiz-adv-x="809" d="M-7 1842H591L563 1694H-35L-7 1842ZM413 106H603L583 0H0L20 106H210L459 1386H269L290 1493H873L852 1386H662L413 106Z" />
<glyph unicode="&#x12b;" glyph-name="imacron" horiz-adv-x="655" d="M-195 1526H403L375 1378H-223L-195 1526ZM220 106H394L374 0H16L202 956H26L46 1063H406L220 106Z" />
<glyph unicode="&#x12c;" glyph-name="Ibreve" horiz-adv-x="809" d="M967 1901H1061Q1068 1846 1116 1819T1256 1792T1407 1819T1495 1901H1589Q1546 1784 1454 1721Q1361 1659 1230 1659Q1098 1659 1031 1721T967 1901ZM413 106H603L583 0H0L20 106H210L459
1386H269L290 1493H873L852 1386H662L413 106Z" />
<glyph unicode="&#x12d;" glyph-name="ibreve" horiz-adv-x="655" d="M-161 1608H-65Q-67 1529 -22 1494Q23 1458 123 1458T282 1494Q341 1529 369 1608H465Q427 1465 334 1393T96 1321T-114 1393T-161 1608ZM220 106H394L374 0H16L202 956H26L46 1063H406L220 106Z" />
<glyph unicode="&#x12e;" glyph-name="Iogonek" horiz-adv-x="809" d="M451 106H641L621 0H38L58 106H248L497 1386H307L328 1493H911L890 1386H700L451 106ZM4 0H98L97 -2Q-14 -125 -23 -172Q-32 -218 -4 -246T80 -274Q107 -274 137 -268T200 -248L174 -375Q137
-384 103 -388T36 -393Q-77 -393 -130 -349T-168 -223Q-159 -174 -119 -122T4 0Z" />
<glyph unicode="&#x12f;" glyph-name="iogonek" horiz-adv-x="655" d="M257 1393Q266 1439 306 1473T393 1507Q439 1507 466 1473Q487 1447 487 1415Q487 1404 484 1393Q475 1346 436 1313T349 1280T275 1313Q255 1338 255 1370Q255 1381 257 1393ZM242 106H416L396
0H38L223 956H47L68 1063H428L242 106ZM-69 0H25L24 -2Q-87 -125 -96 -172Q-105 -218 -77 -246T7 -274Q34 -274 64 -268T127 -248L101 -375Q64 -384 30 -388T-37 -393Q-150 -393 -203 -349T-241 -223Q-232 -174 -192 -122T-69 0Z" />
<glyph unicode="&#x130;" glyph-name="Idot" horiz-adv-x="809" d="M413 106H603L583 0H0L20 106H210L459 1386H269L290 1493H873L852 1386H662L413 106ZM1188 1770Q1178 1720 1138 1687Q1098 1653 1048 1653T971 1687Q944 1720 954 1770Q963 1816 1005 1851T1094
1886T1169 1851T1188 1770Z" />
<glyph unicode="&#x131;" glyph-name="dotlessi" horiz-adv-x="422" d="M220 106H394L374 0H16L202 956H26L46 1063H406L220 106Z" />
<glyph unicode="&#x132;" glyph-name="IJ" horiz-adv-x="1641" d="M820 -358L865 -123H979Q963 -222 997 -270T1120 -319Q1239 -319 1300 -244T1405 49L1665 1386H1433L1454 1493H2079L2058 1386H1868L1606 41Q1558 -206 1438 -316T1097 -426Q1026 -426 956 -409T820
-358ZM413 106H603L583 0H0L20 106H210L459 1386H269L290 1493H873L852 1386H662L413 106Z" />
<glyph unicode="&#x133;" glyph-name="ij" horiz-adv-x="1092" d="M1333 1393Q1341 1439 1381 1473T1469 1507Q1515 1507 1542 1473Q1562 1447 1562 1415Q1562 1404 1560 1393Q1550 1346 1512 1313T1425 1280Q1378 1280 1350 1313Q1330 1338 1330 1370Q1330 1381
1333 1393ZM1293 956H1119L1139 1063H1497L1271 -104Q1239 -268 1123 -361T836 -455Q764 -455 702 -439T584 -389L627 -170H722Q719 -195 719 -216Q719 -278 744 -311Q778 -356 860 -356Q951 -356 1006 -295T1087 -104L1293 956ZM219 1393Q228 1439 268 1473T355
1507Q401 1507 428 1473Q449 1447 449 1415Q449 1404 446 1393Q437 1346 398 1313T311 1280T237 1313Q217 1338 217 1370Q217 1381 219 1393ZM204 106H378L358 0H0L185 956H9L30 1063H390L204 106Z" />
<glyph unicode="&#x134;" glyph-name="Jcircumflex" horiz-adv-x="821" d="M1286 1899H1462L1641 1635H1525L1354 1796L1119 1635H1003L1286 1899ZM0 -358L45 -123H159Q143 -222 177 -270T300 -319Q419 -319 480 -244T585 49L845 1386H613L634 1493H1259L1238
1386H1048L786 41Q738 -206 618 -316T277 -426Q206 -426 136 -409T0 -358Z" />
<glyph unicode="&#x135;" glyph-name="jcircumflex" horiz-adv-x="635" d="M63 1638H231L392 1262H276L124 1522L-130 1262H-246L63 1638ZM709 956H535L556 1063H914L687 -104Q655 -268 539 -361T252 -455Q180 -455 118 -439T0 -389L43 -170H138Q126 -266 160
-311T276 -356Q367 -356 422 -295T503 -104L709 956Z" />
<glyph unicode="&#x136;" glyph-name="Kcommaaccent" horiz-adv-x="1530" d="M1371 -381Q1447 -339 1482 -283T1517 -147V-125H1675Q1668 -228 1610 -301Q1552 -375 1435 -429L1371 -381ZM11 0L31 106H221L470 1386H280L301 1493H884L863 1386H673L563 821L1316
1386H1154L1175 1493H1671L1650 1386H1482L732 823L1309 106H1479L1459 0H1112L542 709L424 106H614L594 0H11Z" />
<glyph unicode="&#x137;" glyph-name="kcommaaccent" horiz-adv-x="1241" d="M1190 -381Q1266 -339 1301 -283T1336 -147V-125H1494Q1487 -228 1429 -301Q1371 -375 1254 -429L1190 -381ZM608 664L903 106H1056L1036 0H741L451 543L280 408L201 0H17L299 1450H122L142
1556H503L306 543L835 956H682L702 1063H1001L981 956L608 664Z" />
<glyph unicode="&#x138;" glyph-name="kgreenlandic" horiz-adv-x="1093" d="M214 0H30L215 953H38L59 1060H420L319 541L847 953H694L715 1060H1014L993 953L621 662L917 106H1070L1049 0H754L464 541L293 406L214 0Z" />
<glyph unicode="&#x139;" glyph-name="Lacute" horiz-adv-x="1360" d="M1178 1901H1375L1061 1637H944L1178 1901ZM6 0L26 106H216L465 1386H275L296 1493H879L858 1386H668L423 123H1105L1153 373H1276L1204 0H6Z" />
<glyph unicode="&#x13a;" glyph-name="lacute" horiz-adv-x="655" d="M1079 1900H1276L962 1636H845L1079 1900ZM207 106H381L361 0H3L285 1450H108L128 1556H489L207 106Z" />
<glyph unicode="&#x13b;" glyph-name="Lcommaaccent" horiz-adv-x="1360" d="M1245 -381Q1321 -339 1356 -283T1391 -147V-125H1549Q1542 -228 1484 -301Q1426 -375 1309 -429L1245 -381ZM6 0L26 106H216L465 1386H275L296 1493H879L858 1386H668L423 123H1105L1153
373H1276L1204 0H6Z" />
<glyph unicode="&#x13c;" glyph-name="lcommaaccent" horiz-adv-x="655" d="M854 -381Q930 -339 965 -283T1000 -147V-125H1158Q1151 -228 1093 -301Q1035 -375 918 -429L854 -381ZM207 106H381L361 0H3L285 1450H108L128 1556H489L207 106Z" />
<glyph unicode="&#x13d;" glyph-name="Lcaron" horiz-adv-x="1360" d="M1605 1493H1804L1586 1117H1469L1605 1493ZM6 0L26 106H216L465 1386H275L296 1493H879L858 1386H668L423 123H1105L1153 373H1276L1204 0H6Z" />
<glyph unicode="&#x13e;" glyph-name="lcaron" horiz-adv-x="820" d="M1483 1557H1682L1464 1181H1347L1483 1557ZM207 106H381L361 0H3L285 1450H108L128 1556H489L207 106Z" />
<glyph unicode="&#x13f;" glyph-name="Ldot" horiz-adv-x="1375" d="M860 845Q871 901 917 939T1020 978Q1075 978 1106 939T1127 845Q1116 789 1070 751T968 712Q911 712 880 750T860 845ZM6 0L26 106H216L465 1386H275L296 1493H879L858 1386H668L423 123H1105L1153
373H1276L1204 0H6Z" />
<glyph unicode="&#x140;" glyph-name="ldot" horiz-adv-x="952" d="M429 836Q440 892 486 930T589 969Q644 969 675 930T696 836Q685 780 639 742T537 703Q480 703 449 741T429 836ZM207 106H381L361 0H3L285 1450H108L128 1556H489L207 106Z" />
<glyph unicode="&#x141;" glyph-name="Lslash" horiz-adv-x="1281" d="M7 0L27 106H217L311 586L132 473L80 565L338 727L466 1386H276L297 1493H879L858 1386H667L567 870L918 1096L970 1004L540 729L422 123H1106L1154 373H1277L1205 0H7Z" />
<glyph unicode="&#x142;" glyph-name="lslash" horiz-adv-x="646" d="M274 106H450L430 0H70L202 680L45 584L1 670L227 811L352 1450H178L198 1556H556L436 940L603 1038L646 952L411 811L274 106Z" />
<glyph unicode="&#x143;" glyph-name="Nacute" horiz-adv-x="1792" d="M1694 1900H1891L1577 1636H1460L1694 1900ZM9 0L29 106H230L479 1386H278L299 1493H682L1348 315L1556 1386H1356L1377 1493H1901L1880 1386H1679L1404 -29H1283L572 1229L353 106H554L534 0H9Z" />
<glyph unicode="&#x144;" glyph-name="nacute" horiz-adv-x="1319" d="M398 1847H597L183 1471H66L398 1847ZM24 0L210 956H34L54 1063H414L378 874Q450 982 542 1037T742 1092Q918 1092 982 991Q1020 930 1020 828Q1020 761 1003 676L892 106H1056L1036 0H687L807
618Q827 721 827 790Q827 851 811 886Q777 958 656 958Q528 958 443 865T323 592L208 0H24Z" />
<glyph unicode="&#x145;" glyph-name="Ncommaaccent" horiz-adv-x="1792" d="M1431 -410Q1507 -368 1542 -312T1577 -176V-154H1735Q1728 -257 1670 -330Q1612 -404 1495 -458L1431 -410ZM9 0L29 106H230L479 1386H278L299 1493H682L1348 315L1556 1386H1356L1377
1493H1901L1880 1386H1679L1404 -29H1283L572 1229L353 106H554L534 0H9Z" />
<glyph unicode="&#x146;" glyph-name="ncommaaccent" horiz-adv-x="1319" d="M1245 -381Q1321 -339 1356 -283T1391 -147V-125H1549Q1542 -228 1484 -301Q1426 -375 1309 -429L1245 -381ZM24 0L210 956H34L54 1063H414L378 874Q450 982 542 1037T742 1092Q918
1092 982 991Q1020 930 1020 828Q1020 761 1003 676L892 106H1056L1036 0H687L807 618Q827 721 827 790Q827 851 811 886Q777 958 656 958Q528 958 443 865T323 592L208 0H24Z" />
<glyph unicode="&#x147;" glyph-name="Ncaron" horiz-adv-x="1792" d="M9 0L29 106H230L479 1386H278L299 1493H682L1348 315L1556 1386H1356L1377 1493H1901L1880 1386H1679L1404 -29H1283L572 1229L353 106H554L534 0H9ZM1648 1645L1469 1909H1585L1756 1747L1991
1909H2107L1824 1645H1648Z" />
<glyph unicode="&#x148;" glyph-name="ncaron" horiz-adv-x="1319" d="M24 0L210 956H34L54 1063H414L378 874Q450 982 542 1037T742 1092Q918 1092 982 991Q1020 930 1020 828Q1020 761 1003 676L892 106H1056L1036 0H687L807 618Q827 721 827 790Q827 851 811
886Q777 958 656 958Q528 958 443 865T323 592L208 0H24ZM269 1262L108 1638H224L376 1378L630 1638H746L437 1262H269Z" />
<glyph unicode="&#x149;" glyph-name="napostrophe" horiz-adv-x="1774" d="M423 0L609 956H433L453 1063H813L777 874Q849 982 941 1037T1141 1092Q1317 1092 1381 991Q1419 930 1419 828Q1419 761 1402 676L1291 106H1455L1435 0H1086L1206 618Q1226 721 1226
790Q1226 851 1210 886Q1176 958 1055 958Q927 958 842 865T722 592L607 0H423ZM161 1094Q251 1158 302 1243T378 1457L390 1520H584Q549 1346 463 1226Q378 1105 224 1014L161 1094Z" />
<glyph unicode="&#x14a;" glyph-name="Eng" horiz-adv-x="1573" d="M723 -181Q723 -319 869 -319Q988 -319 1049 -245T1154 49L1315 881Q1345 1031 1345 1130T1319 1282Q1265 1391 1070 1391T745 1263T567 887L416 107H606L585 0H1L22 107H213L461 1386H285L306
1493H685L646 1292Q840 1522 1154 1522Q1407 1522 1498 1376Q1552 1289 1552 1167T1528 922L1357 41Q1309 -206 1189 -316T848 -426Q703 -426 570 -358L616 -123H728Q723 -155 723 -181Z" />
<glyph unicode="&#x14b;" glyph-name="eng" horiz-adv-x="1028" d="M659 -104L799 618Q819 721 819 790Q819 851 803 886Q769 958 648 958Q520 958 435 865T315 592L200 0H16L202 956H26L47 1063H407L370 874Q442 982 534 1037T734 1092Q908 1092 974 991Q1012
932 1012 829Q1012 762 995 676L844 -104Q812 -268 697 -361T410 -455Q338 -455 276 -439T157 -389L200 -170H295Q292 -195 292 -216Q292 -278 317 -311Q351 -356 433 -356Q524 -356 579 -294Q634 -234 659 -104Z" />
<glyph unicode="&#x14c;" glyph-name="Omacron" horiz-adv-x="1679" d="M451 1842H1049L1021 1694H423L451 1842ZM647 78Q892 78 1050 246T1272 745Q1336 1076 1244 1244T907 1413Q661 1413 503 1245T281 745Q217 415 309 247T647 78ZM626 -29Q474 -29 357 21T161
168Q71 280 44 422T52 745T169 1068T385 1323Q502 1421 638 1470T928 1520Q1253 1520 1411 1307T1502 745Q1467 566 1384 423T1168 168Q1051 70 915 21T626 -29Z" />
<glyph unicode="&#x14d;" glyph-name="omacron" horiz-adv-x="1233" d="M166 1526H764L736 1378H138L166 1526ZM457 70Q605 70 703 187T846 532Q866 636 866 717Q866 813 838 876Q785 993 637 993T391 877T248 532Q228 428 228 348Q228 251 257 187Q310 70 457
70ZM438 -29Q206 -29 95 124Q18 231 18 385Q18 454 33 532Q82 786 252 939T656 1092T1000 939Q1076 833 1076 679Q1076 610 1061 532Q1012 278 842 125T438 -29Z" />
<glyph unicode="&#x14e;" glyph-name="Obreve" horiz-adv-x="1679" d="M1450 1901H1544Q1551 1846 1599 1819T1739 1792T1890 1819T1978 1901H2072Q2029 1784 1937 1721Q1844 1659 1713 1659Q1581 1659 1514 1721T1450 1901ZM647 78Q892 78 1050 246T1272 745Q1336
1076 1244 1244T907 1413Q661 1413 503 1245T281 745Q217 415 309 247T647 78ZM626 -29Q474 -29 357 21T161 168Q71 280 44 422T52 745T169 1068T385 1323Q502 1421 638 1470T928 1520Q1253 1520 1411 1307T1502 745Q1467 566 1384 423T1168 168Q1051 70 915 21T626
-29Z" />
<glyph unicode="&#x14f;" glyph-name="obreve" horiz-adv-x="1233" d="M145 1608H241Q239 1529 284 1494Q329 1458 429 1458T588 1494Q647 1529 675 1608H771Q733 1465 640 1393T402 1321T192 1393T145 1608ZM457 70Q605 70 703 187T846 532Q866 636 866 717Q866
813 838 876Q785 993 637 993T391 877T248 532Q228 428 228 348Q228 251 257 187Q310 70 457 70ZM438 -29Q206 -29 95 124Q18 231 18 385Q18 454 33 532Q82 786 252 939T656 1092T1000 939Q1076 833 1076 679Q1076 610 1061 532Q1012 278 842 125T438 -29Z" />
<glyph unicode="&#x150;" glyph-name="Ohungarumlaut" horiz-adv-x="1679" d="M1986 1899H2183L1869 1635H1752L1986 1899ZM1669 1899H1866L1552 1635H1435L1669 1899ZM647 78Q892 78 1050 246T1272 745Q1336 1076 1244 1244T907 1413Q661 1413 503 1245T281 745Q217
415 309 247T647 78ZM626 -29Q474 -29 357 21T161 168Q71 280 44 422T52 745T169 1068T385 1323Q502 1421 638 1470T928 1520Q1253 1520 1411 1307T1502 745Q1467 566 1384 423T1168 168Q1051 70 915 21T626 -29Z" />
<glyph unicode="&#x151;" glyph-name="ohungarumlaut" horiz-adv-x="1233" d="M439 1638H609L291 1262H177L439 1638ZM769 1638H947L586 1262H470L769 1638ZM457 70Q605 70 703 187T846 532Q866 636 866 717Q866 813 838 876Q785 993 637 993T391 877T248 532Q228
428 228 348Q228 251 257 187Q310 70 457 70ZM438 -29Q206 -29 95 124Q18 231 18 385Q18 454 33 532Q82 786 252 939T656 1092T1000 939Q1076 833 1076 679Q1076 610 1061 532Q1012 278 842 125T438 -29Z" />
<glyph unicode="&#x152;" glyph-name="OE" horiz-adv-x="2287" d="M981 106L1230 1386H1043Q751 1386 565 1222T318 750Q257 439 380 273T794 106H981ZM1989 0H760Q375 0 198 198T89 750Q157 1101 410 1297T1050 1493H2262L2198 1161H2075L2115 1370H1429L1332
870H1824L1860 1057H1981L1885 561H1764L1800 748H1308L1187 123H1890L1930 332H2053L1989 0Z" />
<glyph unicode="&#x153;" glyph-name="oe" horiz-adv-x="1894" d="M465 70Q613 70 711 187T854 532T846 876T645 993T399 877T256 532T265 187T465 70ZM1565 632Q1677 698 1677 822Q1677 993 1450 993Q1316 993 1223 891T1073 514Q1392 529 1565 632ZM1052 408Q1048
370 1048 336Q1048 242 1082 180Q1141 70 1299 70Q1415 70 1472 105Q1574 168 1598 249H1733Q1693 122 1544 33Q1440 -29 1234 -29T917 124Q902 144 891 165Q871 144 849 124Q679 -29 446 -29Q214 -29 103 124Q26 231 26 385Q26 454 41 532Q90 786 260 939T664
1092T1008 939Q1022 920 1033 899Q1052 919 1072 938Q1241 1092 1481 1092Q1872 1092 1872 815Q1872 612 1667 513Q1458 412 1052 408Z" />
<glyph unicode="&#x154;" glyph-name="Racute" horiz-adv-x="1542" d="M1589 1900H1786L1472 1636H1355L1589 1900ZM1021 741Q1087 722 1129 677T1195 549L1325 106H1507L1487 0H1135L994 475Q954 613 906 653T760 694H537L422 106H633L613 0H9L29 106H219L468
1386H278L299 1493H1056Q1274 1493 1372 1389T1434 1094Q1404 940 1300 852T1021 741ZM558 801H853Q1004 801 1089 872T1204 1094T1176 1315T966 1386H671L558 801Z" />
<glyph unicode="&#x155;" glyph-name="racute" horiz-adv-x="979" d="M398 1847H597L183 1471H66L398 1847ZM958 1065L906 799H800Q803 819 803 836Q803 888 779 917Q748 956 673 956Q537 956 446 862T321 592L206 0H22L208 958H32L52 1063H412L376 874Q451 985
546 1038T764 1092Q809 1092 857 1085T958 1065Z" />
<glyph unicode="&#x156;" glyph-name="Rcommaaccent" horiz-adv-x="1542" d="M1385 -381Q1461 -339 1496 -283T1531 -147V-125H1689Q1682 -228 1624 -301Q1566 -375 1449 -429L1385 -381ZM1021 741Q1087 722 1129 677T1195 549L1325 106H1507L1487 0H1135L994
475Q954 613 906 653T760 694H537L422 106H633L613 0H9L29 106H219L468 1386H278L299 1493H1056Q1274 1493 1372 1389T1434 1094Q1404 940 1300 852T1021 741ZM558 801H853Q1004 801 1089 872T1204 1094T1176 1315T966 1386H671L558 801Z" />
<glyph unicode="&#x157;" glyph-name="rcommaaccent" horiz-adv-x="979" d="M938 -381Q1014 -339 1049 -283T1084 -147V-125H1242Q1235 -228 1177 -301Q1119 -375 1002 -429L938 -381ZM958 1065L906 799H800Q803 819 803 836Q803 888 779 917Q748 956 673 956Q537
956 446 862T321 592L206 0H22L208 958H32L52 1063H412L376 874Q451 985 546 1038T764 1092Q809 1092 857 1085T958 1065Z" />
<glyph unicode="&#x158;" glyph-name="Rcaron" horiz-adv-x="1542" d="M1021 741Q1087 722 1129 677T1195 549L1325 106H1507L1487 0H1135L994 475Q954 613 906 653T760 694H537L422 106H633L613 0H9L29 106H219L468 1386H278L299 1493H1056Q1274 1493 1372 1389T1434
1094Q1404 940 1300 852T1021 741ZM558 801H853Q1004 801 1089 872T1204 1094T1176 1315T966 1386H671L558 801ZM1507 1635L1328 1899H1444L1615 1737L1850 1899H1966L1683 1635H1507Z" />
<glyph unicode="&#x159;" glyph-name="rcaron" horiz-adv-x="979" d="M958 1065L906 799H800Q803 819 803 836Q803 888 779 917Q748 956 673 956Q537 956 446 862T321 592L206 0H22L208 958H32L52 1063H412L376 874Q451 985 546 1038T764 1092Q809 1092 857 1085T958
1065ZM227 1262L66 1638H182L334 1378L588 1638H704L395 1262H227Z" />
<glyph unicode="&#x15a;" glyph-name="Sacute" horiz-adv-x="1403" d="M1589 1900H1786L1472 1636H1355L1589 1900ZM11 72L77 412L192 411Q164 241 241 160T510 78Q688 78 795 148T929 354Q950 462 905 520T688 633L503 692Q301 757 233 854T197 1120Q234 1310
389 1415T789 1520Q893 1520 1012 1498T1263 1432L1202 1114H1089Q1102 1272 1028 1342T772 1413Q614 1413 519 1349T400 1161Q379 1054 429 993T669 872L843 817Q1034 756 1102 662T1139 408Q1097 191 937 81T501 -29Q378 -29 256 -4T11 72Z" />
<glyph unicode="&#x15b;" glyph-name="sacute" horiz-adv-x="1051" d="M398 1847H597L183 1471H66L398 1847ZM59 307H165Q161 278 161 252Q161 70 408 70Q656 70 692 252Q695 270 695 302Q695 333 661 370T484 457L359 502Q231 546 190 602T148 724Q148 750 153
780Q182 926 305 1009T606 1092Q783 1092 969 1006L924 774H818Q822 797 822 817Q822 890 772 941T604 993Q369 993 337 829Q333 812 333 782Q333 751 365 716T525 639L662 594Q804 547 857 476Q894 426 894 377Q894 167 726 58Q594 -29 392 -29T11 59L59 307Z"
/>
<glyph unicode="&#x15c;" glyph-name="Scircumflex" horiz-adv-x="1403" d="M1573 1899H1749L1928 1635H1812L1641 1796L1406 1635H1290L1573 1899ZM11 72L77 412L192 411Q164 241 241 160T510 78Q688 78 795 148T929 354Q950 462 905 520T688 633L503 692Q301
757 233 854T197 1120Q234 1310 389 1415T789 1520Q893 1520 1012 1498T1263 1432L1202 1114H1089Q1102 1272 1028 1342T772 1413Q614 1413 519 1349T400 1161Q379 1054 429 993T669 872L843 817Q1034 756 1102 662T1139 408Q1097 191 937 81T501 -29Q378 -29 256
-4T11 72Z" />
<glyph unicode="&#x15d;" glyph-name="scircumflex" horiz-adv-x="1051" d="M326 1638H494L655 1262H539L387 1522L133 1262H17L326 1638ZM59 307H165Q161 278 161 252Q161 70 408 70Q656 70 692 252Q695 270 695 302Q695 333 661 370T484 457L359 502Q231 546
190 602T148 724Q148 750 153 780Q182 926 305 1009T606 1092Q783 1092 969 1006L924 774H818Q822 797 822 817Q822 890 772 941T604 993Q369 993 337 829Q333 812 333 782Q333 751 365 716T525 639L662 594Q804 547 857 476Q894 426 894 377Q894 167 726 58Q594
-29 392 -29T11 59L59 307Z" />
<glyph unicode="&#x15e;" glyph-name="Scedilla" horiz-adv-x="1403" d="M11 72L77 412L192 411Q164 241 241 160T510 78Q688 78 795 148T929 354Q950 462 905 520T688 633L503 692Q301 757 233 854T197 1120Q234 1310 389 1415T789 1520Q893 1520 1012 1498T1263
1432L1202 1114H1089Q1102 1272 1028 1342T772 1413Q614 1413 519 1349T400 1161Q379 1054 429 993T669 872L843 817Q1034 756 1102 662T1139 408Q1097 191 937 81T501 -29Q378 -29 256 -4T11 72ZM596 0Q648 -64 668 -120T680 -225Q664 -306 593 -350T409 -395Q367
-395 324 -389T237 -371L263 -240Q300 -257 338 -265T411 -274Q468 -274 506 -248T553 -176Q559 -148 546 -104T499 0H596Z" />
<glyph unicode="&#x15f;" glyph-name="scedilla" horiz-adv-x="1051" d="M59 307H165Q161 278 161 252Q161 70 408 70Q656 70 692 252Q695 270 695 302Q695 333 661 370T484 457L359 502Q231 546 190 602T148 724Q148 750 153 780Q182 926 305 1009T606 1092Q783
1092 969 1006L924 774H818Q822 797 822 817Q822 890 772 941T604 993Q369 993 337 829Q333 812 333 782Q333 751 365 716T525 639L662 594Q804 547 857 476Q894 426 894 377Q894 167 726 58Q594 -29 392 -29T11 59L59 307ZM202 0Q254 -64 274 -120T286 -225Q270
-306 199 -350T15 -395Q-27 -395 -70 -389T-157 -371L-131 -240Q-94 -257 -56 -265T17 -274Q74 -274 112 -248T159 -176Q165 -148 152 -104T105 0H202Z" />
<glyph unicode="&#x160;" glyph-name="Scaron" horiz-adv-x="1403" d="M11 72L77 412L192 411Q164 241 241 160T510 78Q688 78 795 148T929 354Q950 462 905 520T688 633L503 692Q301 757 233 854T197 1120Q234 1310 389 1415T789 1520Q893 1520 1012 1498T1263
1432L1202 1114H1089Q1102 1272 1028 1342T772 1413Q614 1413 519 1349T400 1161Q379 1054 429 993T669 872L843 817Q1034 756 1102 662T1139 408Q1097 191 937 81T501 -29Q378 -29 256 -4T11 72ZM1477 1635L1298 1899H1414L1585 1737L1820 1899H1936L1653 1635H1477Z"
/>
<glyph unicode="&#x161;" glyph-name="scaron" horiz-adv-x="1051" d="M59 307H165Q161 278 161 252Q161 70 408 70Q656 70 692 252Q695 270 695 302Q695 333 661 370T484 457L359 502Q231 546 190 602T148 724Q148 750 153 780Q182 926 305 1009T606 1092Q783
1092 969 1006L924 774H818Q822 797 822 817Q822 890 772 941T604 993Q369 993 337 829Q333 812 333 782Q333 751 365 716T525 639L662 594Q804 547 857 476Q894 426 894 377Q894 167 726 58Q594 -29 392 -29T11 59L59 307ZM189 1262L28 1638H144L296 1378L550
1638H666L357 1262H189Z" />
<glyph unicode="&#x162;" glyph-name="Tcommaaccent" horiz-adv-x="1366" d="M578 0Q630 -64 650 -120T662 -225Q646 -306 575 -350T391 -395Q349 -395 306 -389T219 -371L245 -240Q282 -257 320 -265T393 -274Q450 -274 488 -248T535 -176Q541 -148 528 -104T481
0H578ZM165 0L185 106H376L623 1374H184L139 1141H16L84 1493H1410L1342 1141H1219L1264 1374H825L578 106H769L749 0H165Z" />
<glyph unicode="&#x163;" glyph-name="tcommaaccent" horiz-adv-x="823" d="M180 0Q232 -64 252 -120T264 -225Q248 -306 177 -350T-7 -395Q-49 -395 -92 -389T-179 -371L-153 -240Q-116 -257 -78 -265T-5 -274Q52 -274 90 -248T137 -176Q143 -148 130 -104T83
0H180ZM173 956H11L32 1063H194L258 1393H443L379 1063H725L704 956H358L227 281Q212 202 212 156Q212 124 219 108Q238 70 308 70Q380 70 421 112T483 250H622Q586 105 502 38T273 -29Q114 -29 61 42Q29 85 29 165Q29 216 42 281L173 956Z" />
<glyph unicode="&#x164;" glyph-name="Tcaron" horiz-adv-x="1366" d="M165 0L185 106H376L623 1374H184L139 1141H16L84 1493H1410L1342 1141H1219L1264 1374H825L578 106H769L749 0H165ZM1453 1635L1274 1899H1390L1561 1737L1796 1899H1912L1629 1635H1453Z" />
<glyph unicode="&#x165;" glyph-name="tcaron" horiz-adv-x="823" d="M173 956H11L32 1063H194L258 1393H443L379 1063H725L704 956H358L227 281Q212 202 212 156Q212 124 219 108Q238 70 308 70Q380 70 421 112T483 250H622Q586 105 502 38T273 -29Q114 -29 61
42Q29 85 29 165Q29 216 42 281L173 956ZM1449 1614H1648L1430 1238H1313L1449 1614Z" />
<glyph unicode="&#x166;" glyph-name="Tbar" horiz-adv-x="1412" d="M166 0L186 106H377L497 719H161L185 844H521L624 1374H185L140 1141H17L85 1493H1411L1343 1141H1220L1265 1374H826L723 844H1059L1035 719H699L579 106H770L750 0H166Z" />
<glyph unicode="&#x167;" glyph-name="tbar" horiz-adv-x="786" d="M102 281L167 616H5L26 723H188L233 956H71L92 1063H254L318 1393H503L439 1063H785L764 956H418L373 723H719L698 616H352L287 281Q261 146 279 108T368 70Q440 70 481 112T543 250H682Q646
105 562 38T333 -29Q174 -29 122 41T102 281Z" />
<glyph unicode="&#x168;" glyph-name="Utilde" horiz-adv-x="1726" d="M1836 1715L1793 1743Q1776 1756 1757 1763T1721 1770Q1682 1770 1650 1741Q1619 1713 1606 1667L1510 1668Q1531 1768 1594 1827Q1656 1886 1741 1886Q1777 1886 1807 1877Q1836 1868 1885
1837L1929 1811Q1949 1798 1970 1791Q1990 1784 2007 1784Q2048 1784 2077 1811Q2106 1839 2115 1886H2212Q2190 1781 2127 1724Q2065 1667 1971 1667Q1904 1667 1840 1712L1836 1715ZM245 1386H54L75 1493H659L638 1386H447L297 614Q241 328 313 215T614 102T958
215T1129 614L1279 1386H1088L1109 1493H1613L1592 1386H1402L1248 594Q1182 253 1024 112T551 -29T131 113T91 594L245 1386Z" />
<glyph unicode="&#x169;" glyph-name="utilde" horiz-adv-x="1319" d="M430 1370L384 1425Q363 1449 348 1456Q333 1464 314 1464Q272 1464 240 1424Q208 1385 189 1309H93Q121 1444 186 1518Q251 1591 342 1591Q380 1591 410 1577Q439 1563 470 1530L516 1475Q534
1452 550 1444Q565 1436 586 1436Q629 1436 661 1476T711 1591H807Q779 1456 714 1382Q649 1309 558 1309Q520 1309 490 1323Q461 1337 430 1370ZM876 1063H1060L874 106H1048L1028 0H670L706 188Q634 82 543 27T344 -29Q167 -29 103 72Q64 132 64 235Q64 302 81
387L191 956H25L46 1063H397L277 444Q257 341 257 273Q257 212 273 178Q306 106 428 106Q556 106 641 200T761 473L876 1063Z" />
<glyph unicode="&#x16a;" glyph-name="Umacron" horiz-adv-x="1726" d="M476 1842H1074L1046 1694H448L476 1842ZM245 1386H54L75 1493H659L638 1386H447L297 614Q241 328 313 215T614 102T958 215T1129 614L1279 1386H1088L1109 1493H1613L1592 1386H1402L1248
594Q1182 253 1024 112T551 -29T131 113T91 594L245 1386Z" />
<glyph unicode="&#x16b;" glyph-name="umacron" horiz-adv-x="1319" d="M182 1526H780L752 1378H154L182 1526ZM876 1063H1060L874 106H1048L1028 0H670L706 188Q634 82 543 27T344 -29Q167 -29 103 72Q64 132 64 235Q64 302 81 387L191 956H25L46 1063H397L277
444Q257 341 257 273Q257 212 273 178Q306 106 428 106Q556 106 641 200T761 473L876 1063Z" />
<glyph unicode="&#x16c;" glyph-name="Ubreve" horiz-adv-x="1726" d="M1514 1901H1608Q1615 1846 1663 1819T1803 1792T1954 1819T2042 1901H2136Q2093 1784 2001 1721Q1908 1659 1777 1659Q1645 1659 1578 1721T1514 1901ZM245 1386H54L75 1493H659L638 1386H447L297
614Q241 328 313 215T614 102T958 215T1129 614L1279 1386H1088L1109 1493H1613L1592 1386H1402L1248 594Q1182 253 1024 112T551 -29T131 113T91 594L245 1386Z" />
<glyph unicode="&#x16d;" glyph-name="ubreve" horiz-adv-x="1319" d="M113 1608H209Q207 1529 252 1494Q297 1458 397 1458T556 1494Q615 1529 643 1608H739Q701 1465 608 1393T370 1321T160 1393T113 1608ZM876 1063H1060L874 106H1048L1028 0H670L706 188Q634
82 543 27T344 -29Q167 -29 103 72Q64 132 64 235Q64 302 81 387L191 956H25L46 1063H397L277 444Q257 341 257 273Q257 212 273 178Q306 106 428 106Q556 106 641 200T761 473L876 1063Z" />
<glyph unicode="&#x16e;" glyph-name="Uring" horiz-adv-x="1726" d="M245 1386H54L75 1493H659L638 1386H447L297 614Q241 328 313 215T614 102T958 215T1129 614L1279 1386H1088L1109 1493H1613L1592 1386H1402L1248 594Q1182 253 1024 112T551 -29T131 113T91
594L245 1386ZM587 2073Q682 2153 797 2153T976 2073Q1040 1994 1018 1879T901 1684T691 1604T512 1684T470 1879T587 2073ZM896 1879Q908 1942 873 1986Q837 2030 773 2030Q708 2030 656 1987Q605 1943 592 1879Q579 1814 615 1771Q650 1727 715 1727Q779 1727
831 1771Q884 1815 896 1879Z" />
<glyph unicode="&#x16f;" glyph-name="uring" horiz-adv-x="1319" d="M876 1063H1060L874 106H1048L1028 0H670L706 188Q634 82 543 27T344 -29Q167 -29 103 72Q64 132 64 235Q64 302 81 387L191 956H25L46 1063H397L277 444Q257 341 257 273Q257 212 273 178Q306
106 428 106Q556 106 641 200T761 473L876 1063ZM234 1955Q329 2035 444 2035T623 1955Q687 1876 665 1761T548 1566T338 1486T159 1566T117 1761T234 1955ZM543 1761Q555 1824 520 1868Q484 1912 420 1912Q355 1912 303 1869Q252 1825 239 1761Q226 1696 262 1653Q297
1609 362 1609Q426 1609 478 1653Q531 1697 543 1761Z" />
<glyph unicode="&#x170;" glyph-name="Uhungarumlaut" horiz-adv-x="1726" d="M2050 1899H2247L1933 1635H1816L2050 1899ZM1733 1899H1930L1616 1635H1499L1733 1899ZM245 1386H54L75 1493H659L638 1386H447L297 614Q241 328 313 215T614 102T958 215T1129 614L1279
1386H1088L1109 1493H1613L1592 1386H1402L1248 594Q1182 253 1024 112T551 -29T131 113T91 594L245 1386Z" />
<glyph unicode="&#x171;" glyph-name="uhungarumlaut" horiz-adv-x="1319" d="M385 1638H555L237 1262H123L385 1638ZM715 1638H893L532 1262H416L715 1638ZM876 1063H1060L874 106H1048L1028 0H670L706 188Q634 82 543 27T344 -29Q167 -29 103 72Q64 132 64 235Q64
302 81 387L191 956H25L46 1063H397L277 444Q257 341 257 273Q257 212 273 178Q306 106 428 106Q556 106 641 200T761 473L876 1063Z" />
<glyph unicode="&#x172;" glyph-name="Uogonek" horiz-adv-x="1726" d="M374 -15H468L467 -17Q356 -140 347 -187Q338 -233 366 -261T450 -289Q477 -289 507 -283T570 -263L544 -390Q507 -399 473 -403T406 -408Q293 -408 240 -364T202 -238Q211 -189 251 -137T374
-15ZM245 1386H54L75 1493H659L638 1386H447L297 614Q241 328 313 215T614 102T958 215T1129 614L1279 1386H1088L1109 1493H1613L1592 1386H1402L1248 594Q1182 253 1024 112T551 -29T131 113T91 594L245 1386Z" />
<glyph unicode="&#x173;" glyph-name="uogonek" horiz-adv-x="1319" d="M675 0H769L768 -2Q657 -125 648 -172Q639 -218 667 -246T751 -274Q778 -274 808 -268T871 -248L845 -375Q808 -384 774 -388T707 -393Q594 -393 541 -349T503 -223Q512 -174 552 -122T675
0ZM876 1063H1060L874 106H1048L1028 0H670L706 188Q634 82 543 27T344 -29Q167 -29 103 72Q64 132 64 235Q64 302 81 387L191 956H25L46 1063H397L277 444Q257 341 257 273Q257 212 273 178Q306 106 428 106Q556 106 641 200T761 473L876 1063Z" />
<glyph unicode="&#x174;" glyph-name="Wcircumflex" horiz-adv-x="2105" d="M1303 0H1139L1033 1214L455 0H291L169 1386H21L42 1493H587L566 1386H380L477 283L1052 1493H1214L1322 270L1852 1386H1680L1701 1493H2131L2110 1386H1963L1303 0ZM1903 1906H2079L2258
1642H2142L1971 1803L1736 1642H1620L1903 1906Z" />
<glyph unicode="&#x175;" glyph-name="wcircumflex" horiz-adv-x="1753" d="M670 1638H838L999 1262H883L731 1522L477 1262H361L670 1638ZM1102 233Q1235 377 1265 430Q1375 630 1483 956L1328 955L1349 1063H1616L1595 955H1594Q1492 584 1395 405Q1252 150
1095 0H942L833 795L416 0H269L140 956L20 954L41 1063H315L427 233L862 1063H991L1102 233Z" />
<glyph unicode="&#x176;" glyph-name="Ycircumflex" horiz-adv-x="1352" d="M155 0L175 106H366L471 643L154 1386H14L35 1493H590L569 1386H395L651 782L1141 1386H973L994 1493H1428L1407 1386H1266L677 662L568 106H759L739 0H155ZM1520 1906H1696L1875 1642H1759L1588
1803L1353 1642H1237L1520 1906Z" />
<glyph unicode="&#x177;" glyph-name="ycircumflex" horiz-adv-x="1157" d="M363 1638H531L692 1262H576L424 1522L170 1262H54L363 1638ZM1268 1054Q1169 482 995 180Q740 -263 535 -396Q444 -455 204 -455Q157 -455 110 -447T14 -424L54 -221H148Q146 -237 146
-252Q146 -294 164 -318Q189 -352 254 -352Q430 -352 583 -199L332 956H211L232 1063H507L743 8Q904 249 943 348Q1069 659 1094 947H973L994 1054H1268Z" />
<glyph unicode="&#x178;" glyph-name="Ydieresis" horiz-adv-x="1352" d="M155 0L175 106H366L471 643L154 1386H14L35 1493H590L569 1386H395L651 782L1141 1386H973L994 1493H1428L1407 1386H1266L677 662L568 106H759L739 0H155ZM1436 1884Q1484 1884 1511
1849Q1539 1814 1530 1768Q1520 1718 1480 1685Q1440 1651 1390 1651Q1341 1651 1314 1685Q1287 1718 1297 1768Q1306 1814 1347 1849Q1389 1884 1436 1884ZM1826 1884Q1873 1884 1900 1849Q1928 1814 1919 1768Q1909 1718 1869 1685Q1829 1651 1780 1651Q1730
1651 1703 1685Q1676 1718 1686 1768Q1695 1814 1736 1849Q1778 1884 1826 1884Z" />
<glyph unicode="&#x179;" glyph-name="Zacute" horiz-adv-x="1423" d="M1589 1900H1786L1472 1636H1355L1589 1900ZM14 0L28 72L1210 1370H438L395 1147H272L339 1493H1519L1505 1421L323 123H1167L1207 332H1329L1265 0H14Z" />
<glyph unicode="&#x17a;" glyph-name="zacute" horiz-adv-x="1079" d="M398 1847H597L183 1471H66L398 1847ZM845 975Q953 975 1058 1063H1118L1102 977L375 219Q385 216 414 207Q448 196 482 174L531 144Q625 87 693 87Q824 87 978 237L954 116Q783 -52 653 -52Q574
-50 463 19T282 88Q174 88 69 0H9L25 86L753 843Q742 847 713 856Q679 867 645 889L596 919Q502 976 434 976Q303 976 149 826L173 947Q344 1115 474 1115Q553 1113 664 1044T845 975Z" />
<glyph unicode="&#x17b;" glyph-name="Zdotaccent" horiz-adv-x="1423" d="M14 0L28 72L1210 1370H438L395 1147H272L339 1493H1519L1505 1421L323 123H1167L1207 332H1329L1265 0H14ZM1507 1788Q1497 1738 1457 1705Q1417 1671 1367 1671T1290 1705Q1263 1738
1273 1788Q1282 1834 1324 1869T1413 1904T1488 1869T1507 1788Z" />
<glyph unicode="&#x17c;" glyph-name="zdotaccent" horiz-adv-x="1079" d="M287 1725Q314 1691 305 1643Q295 1592 256 1559Q216 1526 165 1526T88 1559Q61 1592 71 1643Q80 1691 122 1725Q163 1760 211 1760T287 1725ZM845 975Q953 975 1058 1063H1118L1102 977L375
219Q385 216 414 207Q448 196 482 174L531 144Q625 87 693 87Q824 87 978 237L954 116Q783 -52 653 -52Q574 -50 463 19T282 88Q174 88 69 0H9L25 86L753 843Q742 847 713 856Q679 867 645 889L596 919Q502 976 434 976Q303 976 149 826L173 947Q344 1115 474 1115Q553
1113 664 1044T845 975Z" />
<glyph unicode="&#x17d;" glyph-name="Zcaron" horiz-adv-x="1423" d="M14 0L28 72L1210 1370H438L395 1147H272L339 1493H1519L1505 1421L323 123H1167L1207 332H1329L1265 0H14ZM1489 1635L1310 1899H1426L1597 1737L1832 1899H1948L1665 1635H1489Z" />
<glyph unicode="&#x17e;" glyph-name="zcaron" horiz-adv-x="1079" d="M845 975Q953 975 1058 1063H1118L1102 977L375 219Q385 216 414 207Q448 196 482 174L531 144Q625 87 693 87Q824 87 978 237L954 116Q783 -52 653 -52Q574 -50 463 19T282 88Q174 88 69
0H9L25 86L753 843Q742 847 713 856Q679 867 645 889L596 919Q502 976 434 976Q303 976 149 826L173 947Q344 1115 474 1115Q553 1113 664 1044T845 975ZM204 1262L43 1638H159L311 1378L565 1638H681L372 1262H204Z" />
<glyph unicode="&#x17f;" glyph-name="longs" horiz-adv-x="1187" d="M1147 1305H1050Q1054 1326 1054 1345Q1054 1391 1030 1419Q996 1458 917 1458Q814 1458 761 1402T680 1200L434 -66Q399 -244 289 -335T0 -426L12 -328Q117 -328 168 -272Q221 -212 250 -66L448
956H272L293 1063H469L495 1196Q530 1374 640 1465T929 1556Q996 1556 1060 1544T1187 1507L1147 1305Z" />
<glyph unicode="&#x180;" glyph-name="uni0180" horiz-adv-x="1116" d="M300 1450H124L145 1556H505L462 1332H778L754 1210H438L377 897Q450 997 543 1044T759 1092Q955 1092 1049 937Q1111 835 1111 692Q1111 617 1094 532Q1045 282 891 127T541 -29Q418 -29
344 18T235 166L203 0H19L254 1210H78L102 1332H278L300 1450ZM296 479Q280 400 280 337Q280 246 312 186Q366 86 506 86Q647 86 741 199T879 532Q899 633 899 712Q899 804 871 865Q821 977 679 977Q539 977 446 876T316 584L296 479Z" />
<glyph unicode="&#x181;" glyph-name="uni0181" horiz-adv-x="1592" d="M584 1386Q357 1386 272 1297Q183 1206 147 1020H18L85 1364Q202 1440 389 1476Q507 1493 605 1493H1152Q1376 1493 1474 1400Q1571 1308 1535 1124Q1510 991 1415 912Q1320 833 1163 815Q1351
791 1429 694Q1508 596 1476 432Q1433 210 1273 105T815 0H125L145 106H335L584 1386ZM685 862H939Q1103 862 1192 925Q1279 988 1305 1124Q1336 1281 1269 1324Q1174 1386 1041 1386H787L685 862ZM538 106H837Q1017 106 1115 184T1247 432Q1279 599 1212 678Q1145
756 964 756H665L538 106Z" />
<glyph unicode="&#x182;" glyph-name="uni0182" horiz-adv-x="1505" d="M422 106H721Q901 106 999 184T1131 432Q1142 487 1142 533Q1142 626 1097 678Q1029 756 848 756H549L422 106ZM299 1493H1500L1435 1160H1312L1353 1370H668L569 862H823Q1203 862 1313
694Q1368 608 1368 508Q1368 471 1360 432Q1317 210 1157 105T699 0H9L29 106H219L468 1386H278L299 1493Z" />
<glyph unicode="&#x183;" glyph-name="uni0183" horiz-adv-x="1326" d="M459 479Q421 287 476 186Q529 86 669 86Q810 86 904 199Q999 312 1042 532Q1085 753 1034 865Q984 977 842 977Q702 977 610 876Q516 775 479 584L459 479ZM1260 1556L1208 1289H1103L1131
1433H644L540 897Q613 997 707 1044Q799 1092 922 1092Q1118 1092 1212 937T1257 532T1054 126Q900 -29 704 -29Q581 -29 507 18Q432 66 398 166L366 0H5L25 106H202L463 1450H286L307 1556H1260Z" />
<glyph unicode="&#x184;" glyph-name="uni0184" horiz-adv-x="1385" d="M417 106H716Q896 106 994 184T1126 432Q1159 601 1092 678T843 756H544L417 106ZM217 1098L687 1493L564 862H818Q1198 862 1308 694Q1383 576 1355 432Q1312 210 1152 105T694 0H4L24 106H214L387
992H197L217 1098Z" />
<glyph unicode="&#x185;" glyph-name="uni0185" horiz-adv-x="1308" d="M457 479Q419 287 473 187T667 86Q808 86 902 199T1040 532Q1083 753 1033 865T840 977Q700 977 607 876T477 584L457 479ZM666 1556L538 897Q611 997 704 1044T920 1092Q1116 1092 1210
937T1255 532T1052 127T702 -29Q579 -29 505 18T396 166L364 0H3L23 106H200L398 1125H221L246 1251L666 1556Z" />
<glyph unicode="&#x186;" glyph-name="uni0186" horiz-adv-x="1474" d="M162 1096Q269 1305 445 1412T860 1520Q1006 1520 1121 1470T1314 1323Q1404 1211 1431 1069T1423 746Q1355 398 1113 185T541 -29Q419 -29 288 3T10 100L76 444H189Q190 256 284 167T579
78Q818 78 974 247T1194 746Q1258 1074 1168 1243T839 1413Q672 1413 549 1334T346 1096H162Z" />
<glyph unicode="&#x187;" glyph-name="uni0187" horiz-adv-x="1945" d="M1311 395Q1205 186 1028 78Q852 -29 614 -29Q468 -29 353 21T159 168Q69 280 42 422Q15 565 50 745Q118 1093 360 1306Q603 1520 932 1520Q1054 1520 1186 1488Q1280 1465 1381 1425Q1398
1512 1491 1570Q1577 1630 1691 1630Q1763 1630 1826 1614Q1888 1597 1943 1564L1901 1345H1806Q1824 1441 1783 1486Q1750 1531 1668 1531Q1577 1531 1522 1470T1442 1279L1397 1047H1284Q1283 1235 1190 1324Q1095 1413 894 1413Q655 1413 499 1244Q343 1074
279 745Q215 417 306 248Q396 78 635 78Q802 78 925 158Q1048 237 1127 395H1311Z" />
<glyph unicode="&#x188;" glyph-name="uni0188" horiz-adv-x="1557" d="M966 319Q894 149 766 60T461 -29Q229 -29 118 124Q7 278 56 532Q106 787 276 940Q447 1092 679 1092Q780 1092 875 1068Q922 1057 969 1039Q1014 1183 1110 1255Q1180 1308 1304 1308Q1376
1308 1438 1292Q1501 1275 1556 1242L1514 1023H1419Q1437 1119 1397 1164Q1363 1209 1281 1209Q1190 1209 1134 1148Q1080 1087 1055 957L1010 725H903Q909 865 851 929Q793 993 662 993Q513 993 414 878Q316 762 271 532T279 186Q332 70 482 70Q601 70 684 132T818
319H966Z" />
<glyph unicode="&#x189;" glyph-name="uni0189" horiz-adv-x="1653" d="M422 106H610Q901 106 1089 272T1338 748T1275 1222T859 1386H671L566 844H902L878 719H542L422 106ZM11 0L31 106H221L341 719H141L165 844H365L470 1386H280L301 1493H895Q1281 1493 1458
1296T1567 748Q1499 396 1245 198T605 0H11Z" />
<glyph unicode="&#x18a;" glyph-name="uni018A" horiz-adv-x="1767" d="M586 1386Q359 1386 274 1297Q185 1206 149 1020H20L87 1364Q245 1467 391 1476Q488 1493 607 1493H1011Q1397 1493 1574 1296Q1752 1099 1683 748Q1615 396 1361 198T721 0H127L147 106H337L586
1386ZM540 106H726Q1017 106 1205 272Q1393 438 1453 748T1391 1222T975 1386H789L540 106Z" />
<glyph unicode="&#x18b;" glyph-name="uni018B" horiz-adv-x="1540" d="M868 106L995 756H696Q515 756 417 678Q320 601 287 432Q254 262 321 184T569 106H868ZM1531 1493L1510 1386H1320L1072 106H1262L1241 0H551Q254 0 135 105T58 432Q86 576 207 694Q381 862
761 862H1015L1114 1370H429L389 1161H266L330 1493H1531Z" />
<glyph unicode="&#x18c;" glyph-name="uni018C" horiz-adv-x="1413" d="M838 479L858 584Q895 775 842 876Q788 977 648 977Q506 977 412 865Q318 753 275 532Q232 312 282 199Q333 86 474 86Q614 86 708 186Q800 287 838 479ZM455 1556H1408L1387 1450H1210L949
106H1126L1106 0H745L777 166Q703 66 611 18Q518 -29 395 -29Q199 -29 105 126Q11 282 60 532T263 937T613 1092Q736 1092 811 1044Q884 997 919 897L1023 1433H536L508 1289H403L455 1556Z" />
<glyph unicode="&#x18d;" glyph-name="uni018D" horiz-adv-x="1156" d="M738 27Q799 2 823 -47Q850 -103 823 -240Q798 -369 687 -437Q576 -504 380 -504Q326 -504 225 -488Q124 -471 18 -440L57 -243L169 -218Q164 -307 227 -353Q290 -398 384 -398T557 -349Q640
-297 650 -231Q668 -136 638 -104Q575 -29 477 -29Q244 -29 133 124Q23 277 72 531T291 938Q462 1092 695 1092Q927 1092 1038 938Q1149 785 1100 531T881 124Q805 57 738 27ZM676 993Q528 993 429 876Q331 759 287 531T295 186Q348 70 496 70T743 186Q841 303
885 531T876 876T676 993Z" />
<glyph unicode="&#x18e;" glyph-name="uni018E" horiz-adv-x="1535" d="M1236 0H18L82 332H205L165 123H867L988 748H499L463 561H340L436 1057H559L523 870H1012L1109 1370H423L383 1161H260L324 1493H1526L1505 1386H1315L1066 106H1256L1236 0Z" />
<glyph unicode="&#x18f;" glyph-name="uni018F" horiz-adv-x="1577" d="M912 1413Q734 1413 610 1334Q487 1254 408 1096H224Q331 1305 507 1412Q684 1520 922 1520Q1247 1520 1405 1307T1496 745Q1461 566 1378 422Q1296 280 1162 168Q1044 70 909 20Q773 -29
620 -29Q468 -29 350 21Q233 71 155 168Q65 280 38 422Q11 564 46 745L60 816H1278Q1332 1095 1238 1244Q1146 1413 912 1413ZM1255 694H266Q209 402 303 246Q395 78 641 78Q886 78 1044 246Q1198 402 1255 694Z" />
<glyph unicode="&#x190;" glyph-name="uni0190" horiz-adv-x="1252" d="M1244 1430L1193 1167H1081Q1083 1187 1083 1205Q1083 1303 1026 1362T798 1421T543 1352T430 1144Q423 1106 423 1073Q423 986 476 934Q548 862 767 862H817L796 756H701Q482 756 375 667T235
412Q225 361 225 317Q225 220 274 158Q346 70 482 70T726 139T852 265H1036Q978 160 839 66T460 -29T101 82Q12 166 12 303Q12 350 22 403Q56 574 178 681T489 815Q340 847 272 938Q224 1003 224 1091Q224 1125 231 1163Q264 1331 405 1425T784 1520T1244 1430Z"
/>
<glyph unicode="&#x191;" glyph-name="uni0191" horiz-adv-x="1902" d="M281 -426Q136 -426 4 -358L49 -123H163Q125 -319 304 -319Q423 -319 485 -244Q548 -167 589 49L849 1386H659L680 1493H1902L1837 1161H1714L1755 1370H1049L951 870H1461L1498 1057H1621L1524
561H1401L1438 748H928L790 41Q729 -272 544 -371Q440 -426 281 -426Z" />
<glyph unicode="&#x192;" glyph-name="florin" horiz-adv-x="1436" d="M1396 1305H1299Q1303 1326 1303 1345Q1303 1391 1279 1419Q1245 1458 1166 1458Q1063 1458 1010 1402T929 1200L902 1063H1199L1178 956H881L692 -19Q657 -197 547 -288T258 -379Q191 -379
127 -367T0 -330L40 -128H137Q133 -149 133 -168Q133 -214 157 -242Q191 -281 270 -281Q373 -281 426 -225T508 -19L697 956H521L542 1063H718L744 1196Q779 1374 889 1465T1178 1556Q1245 1556 1309 1544T1436 1507L1396 1305Z" />
<glyph unicode="&#x193;" glyph-name="uni0193" horiz-adv-x="1999" d="M1719 1531Q1594 1531 1535 1413Q1509 1359 1493 1279L1448 1047H1335L1336 1052Q1336 1319 1134 1387Q1058 1413 952 1413Q694 1413 535 1247T310 745Q207 215 518 105Q596 78 697 78Q923
78 1130 190L1205 575H924L945 682H1429L1321 125Q1025 -29 676 -29Q338 -29 175 182Q13 394 81 745Q150 1099 395 1310Q640 1520 985 1520Q1197 1520 1430 1436Q1469 1513 1542 1570Q1617 1630 1742 1630Q1883 1630 1994 1564L1952 1345H1857Q1885 1492 1781 1522Q1755
1531 1719 1531Z" />
<glyph unicode="&#x194;" glyph-name="uni0194" horiz-adv-x="1448" d="M533 733L224 1386H64L84 1493H676L656 1386H480L706 905L1129 1386H937L957 1493H1446L1426 1386H1258L751 811Q1173 126 956 -44Q772 -188 420 -188Q65 -188 42 12Q22 193 533 733ZM580
636Q218 258 179 56Q152 -82 440 -82Q712 -82 739 56Q780 268 580 636Z" />
<glyph unicode="&#x195;" glyph-name="uni0195" horiz-adv-x="1712" d="M24 0L306 1450H130L151 1556H511L378 874Q450 982 542 1037Q635 1092 743 1092Q921 1092 982 991Q1045 888 1004 676L941 351Q915 220 946 160T1069 99Q1194 99 1331 229Q1443 336 1480
526Q1510 680 1469 783Q1427 885 1318 931L1330 990H1442Q1583 926 1647 797Q1712 667 1682 510Q1660 399 1599 303Q1537 205 1442 131Q1357 64 1256 29Q1154 -7 1048 -7Q888 -7 799 94Q723 180 756 351L808 618Q845 813 812 884Q778 956 656 956Q528 956 443 863T324
592L208 0H24Z" />
<glyph unicode="&#x196;" glyph-name="uni0196" horiz-adv-x="664" d="M252 351Q227 220 257 160Q289 99 380 99H393L374 0H361Q160 0 108 54Q11 155 49 351L250 1386H60L81 1493H664L643 1386H453L252 351Z" />
<glyph unicode="&#x197;" glyph-name="uni0197" horiz-adv-x="875" d="M414 106H604L584 0H1L21 106H211L331 719H131L155 844H355L460 1386H270L291 1493H874L853 1386H663L558 844H756L732 719H534L414 106Z" />
<glyph unicode="&#x198;" glyph-name="uni0198" horiz-adv-x="1872" d="M1315 1386Q1489 1517 1613 1517Q1680 1517 1742 1500Q1810 1482 1861 1451L1818 1232H1723Q1742 1328 1701 1373Q1672 1411 1612 1416Q1525 1416 1438 1356L731 823L1308 106H1478L1458
0H1111L540 709L423 106H613L593 0H10L30 106H220L469 1386H279L300 1493H883L862 1386H672L562 821L1315 1386Z" />
<glyph unicode="&#x199;" glyph-name="uni0199" horiz-adv-x="1063" d="M298 543L827 956H674L694 1063H993L973 956L600 664L895 106H1048L1028 0H733L443 543L272 408L193 0H9L243 1205Q275 1367 391 1462Q506 1556 677 1556Q754 1556 812 1540Q874 1523 929
1490L887 1271H792Q810 1363 769 1412Q732 1457 654 1457Q563 1457 508 1396Q454 1337 428 1205L298 543Z" />
<glyph unicode="&#x19a;" glyph-name="uni019A" horiz-adv-x="579" d="M0 464L21 570H197L368 1450H191L211 1556H572L381 570H555L534 464H360L290 106H464L444 0H86L176 464H0Z" />
<glyph unicode="&#x19b;" glyph-name="uni019B" horiz-adv-x="1192" d="M706 1307Q687 1399 658 1429Q629 1460 576 1460Q516 1460 483 1431Q448 1401 429 1333H335L374 1536Q427 1551 478 1559Q529 1567 576 1567Q687 1567 739 1521Q792 1476 818 1352L984 1450L1027
1364L837 1249L1063 107H1182L1161 0H762L783 107H942L801 841L344 107H514L493 0H4L25 107H146L748 1084L730 1183L426 996L382 1082L709 1285L706 1307Z" />
<glyph unicode="&#x19c;" glyph-name="uni019C" horiz-adv-x="1931" d="M692 207Q616 90 522 31T318 -29Q152 -29 89 74Q27 177 68 387L263 1389H97L117 1495H627L607 1389H447L256 408Q224 245 258 176T404 107Q528 107 610 200Q693 294 727 471L906 1389H746L766
1495H1270L1250 1389H1090L897 401Q867 242 901 175T1047 107Q1171 107 1253 200Q1336 294 1370 471L1549 1389H1389L1409 1495H1919L1899 1389H1733L1483 105H1659L1639 0H1279L1315 189Q1244 83 1154 27T964 -29Q840 -29 769 32T692 207Z" />
<glyph unicode="&#x19d;" glyph-name="uni019D" horiz-adv-x="2275" d="M7 -358L52 -123H166Q147 -222 185 -270Q219 -319 307 -319Q426 -319 487 -244T592 49L852 1386H651L672 1493H1055L1721 315L1929 1386H1729L1750 1493H2274L2253 1386H2052L1777 -29H1656L945
1228L714 41Q666 -206 546 -316T233 -426Q213 -426 144 -409Q73 -392 7 -358Z" />
<glyph unicode="&#x19e;" glyph-name="uni019E" horiz-adv-x="1044" d="M4 0L190 956H14L35 1063H395L358 874Q430 982 522 1037Q615 1092 723 1092Q899 1092 962 991T984 676L790 -319H954L933 -426H584L787 618Q825 813 791 886Q757 958 636 958Q508 958 423
864Q338 771 303 592L188 0H4Z" />
<glyph unicode="&#x19f;" glyph-name="uni019F" horiz-adv-x="1583" d="M626 -29Q474 -29 357 21T161 168Q71 280 44 422T52 745T169 1068T385 1323Q502 1421 638 1470T928 1520Q1253 1520 1411 1307T1502 745Q1467 566 1384 422Q1302 280 1168 168Q1050 70 915
20Q779 -29 626 -29ZM647 78Q892 78 1050 246Q1195 402 1261 694H272Q224 402 309 246Q401 78 647 78ZM1284 816Q1326 1095 1244 1244Q1152 1413 907 1413Q661 1413 503 1244Q363 1095 296 816H1284Z" />
<glyph unicode="&#x1a0;" glyph-name="Ohorn" horiz-adv-x="1679" d="M1594 1313L1613 1407L1614 1406Q1720 1319 1767 1319Q1813 1319 1848 1352T1893 1442Q1898 1469 1898 1498T1890 1557L2017 1556Q2019 1520 2017 1487T2008 1421Q1986 1308 1930 1246T1792
1184Q1743 1184 1697 1214T1594 1313ZM899 78Q1144 78 1302 246T1524 745Q1588 1076 1496 1244T1159 1413Q913 1413 755 1245T533 745Q469 415 561 247T899 78ZM878 -29Q726 -29 609 21T413 168Q323 280 296 422T304 745T421 1068T637 1323Q754 1421 890 1470T1180
1520Q1505 1520 1663 1307T1754 745Q1719 566 1636 423T1420 168Q1303 70 1167 21T878 -29Z" />
<glyph unicode="&#x1a1;" glyph-name="ohorn" horiz-adv-x="1233" d="M1233 845L1252 939L1253 938Q1359 851 1406 851Q1452 851 1487 884T1532 974Q1537 1001 1537 1030T1529 1089L1656 1088Q1658 1052 1656 1019T1647 953Q1625 840 1569 778T1431 716Q1382 716
1336 746T1233 845ZM711 70Q859 70 957 187T1100 532Q1120 636 1120 717Q1120 813 1092 876Q1039 993 891 993T645 877T502 532Q482 428 482 348Q482 251 511 187Q564 70 711 70ZM692 -29Q460 -29 349 124Q272 231 272 385Q272 454 287 532Q336 786 506 939T910
1092T1254 939Q1330 833 1330 679Q1330 610 1315 532Q1266 278 1096 125T692 -29Z" />
<glyph unicode="&#x1a2;" glyph-name="uni01A2" horiz-adv-x="1936" d="M617 -29Q465 -29 347 21T151 168Q61 280 34 422T42 745T159 1068T376 1323Q493 1421 628 1470T918 1520Q1122 1520 1260 1436Q1325 1462 1389 1476Q1466 1493 1537 1493Q1757 1493 1834
1383T1864 1026L1623 -214H1813L1792 -321H1167L1188 -214H1420L1659 1018Q1702 1236 1670 1311T1518 1386Q1430 1386 1377 1338Q1390 1323 1402 1307Q1560 1094 1492 745Q1457 566 1375 422Q1292 280 1158 168Q1040 70 905 20Q770 -29 617 -29ZM638 78Q883 78
1040 246T1262 745Q1327 1076 1235 1244T897 1413Q651 1413 494 1245T271 745Q207 415 299 247T638 78Z" />
<glyph unicode="&#x1a3;" glyph-name="uni01A3" horiz-adv-x="1457" d="M916 1033Q917 1035 963 1046Q1032 1063 1104 1063Q1275 1063 1354 970T1402 712L1201 -319H1377L1356 -426H996L1218 712Q1243 841 1212 902T1089 964Q1024 964 1009 951L1018 939Q1129
786 1080 532T860 125T457 -29Q225 -29 114 124T51 532T271 939T675 1092Q819 1092 916 1033ZM476 70Q624 70 722 187T864 532T856 876T655 993T409 877T267 532T275 187T476 70Z" />
<glyph unicode="&#x1a4;" glyph-name="uni01A4" horiz-adv-x="1564" d="M605 1493H1121Q1345 1493 1454 1380Q1563 1266 1525 1073Q1488 881 1335 767T958 653H645L538 106H769L749 0H125L145 106H335L584 1386Q357 1386 272 1297Q183 1206 147 1020H18L85 1364Q197
1437 389 1476Q507 1493 605 1493ZM666 760H930Q1079 760 1172 840Q1266 921 1295 1073Q1325 1226 1263 1306T1051 1386H787L666 760Z" />
<glyph unicode="&#x1a5;" glyph-name="uni01A5" horiz-adv-x="1217" d="M390 584L370 479Q333 287 387 186Q441 86 581 86Q722 86 816 199Q911 312 953 532Q996 753 945 865Q895 977 754 977Q614 977 521 876T390 584ZM309 1115Q341 1281 456 1373Q572 1466 743
1466Q810 1466 877 1449Q939 1433 995 1400L952 1181H857Q876 1274 836 1322Q799 1367 720 1367Q629 1367 573 1305Q519 1245 494 1115L451 897Q523 995 618 1044Q710 1092 833 1092Q1029 1092 1123 937T1169 532T965 126Q811 -29 615 -29Q492 -29 418 18Q344 66
309 166L194 -426H9L309 1115Z" />
<glyph unicode="&#x1a6;" glyph-name="uni01A6" horiz-adv-x="1442" d="M460 1386H270L291 1493H895L874 1386H663L621 1168H985Q1203 1168 1301 1064Q1372 989 1372 867Q1372 821 1362 769Q1302 460 949 416Q1016 397 1057 352T1123 224L1254 -219H1436L1415
-325H1063L923 150Q882 289 834 329T688 369H465L414 106H625L604 0H0L21 106H211L460 1386ZM486 476H781Q932 476 1018 547T1133 769Q1143 819 1143 881T1104 990Q1046 1061 895 1061H600L486 476Z" />
<glyph unicode="&#x1a7;" glyph-name="uni01A7" horiz-adv-x="1322" d="M1050 72Q908 21 776 -4Q643 -29 520 -29Q245 -29 128 81T52 408Q83 567 188 662Q293 756 508 817L704 872Q916 932 990 993T1085 1161Q1109 1284 1039 1348Q969 1413 811 1413Q630 1413
528 1342Q425 1272 378 1114H265L326 1432Q475 1475 603 1498Q732 1520 836 1520Q1080 1520 1194 1415T1272 1120Q1239 951 1133 854Q1026 757 800 692L591 633Q398 578 330 520Q263 462 242 354Q216 219 296 148Q375 78 553 78Q744 78 854 160Q963 241 1001 412H1116L1050
72Z" />
<glyph unicode="&#x1a8;" glyph-name="uni01A8" horiz-adv-x="1005" d="M824 59Q718 15 616 -7T410 -29Q207 -29 108 58Q10 144 39 295Q61 406 141 476Q221 547 381 594L536 639Q679 681 732 722Q785 762 798 829Q814 911 762 952Q711 993 595 993Q478 993 399
935T295 774H189L234 1006Q341 1048 438 1070T620 1092Q809 1092 900 1009T962 780Q942 678 868 612Q794 546 648 502L507 457Q344 408 288 365Q232 322 219 252Q201 163 257 116Q313 70 437 70Q575 70 658 129Q739 188 766 307H872L824 59Z" />
<glyph unicode="&#x1a9;" glyph-name="uni01A9" horiz-adv-x="1448" d="M1043 814L368 188H1148L1176 332H1299L1235 0H8L817 748L298 1493H1525L1461 1161H1338L1378 1370H683L1043 814Z" />
<glyph unicode="&#x1aa;" glyph-name="uni01AA" horiz-adv-x="969" d="M460 1459Q301 1459 281 1352Q257 1229 568 1229Q582 1229 596 1230Q622 1325 583 1397Q549 1459 460 1459ZM789 1333Q832 1394 850 1489L863 1553H963L949 1489Q904 1269 765 1183Q571 643
317 -105Q280 -214 324 -295Q354 -357 445 -357Q527 -357 579 -311Q630 -267 656 -171H751L708 -389Q640 -423 572 -439Q502 -455 430 -455Q259 -455 180 -362Q83 -247 132 -105Q130 -91 561 1129Q556 1129 552 1129Q14 1129 64 1359Q107 1558 482 1558Q643 1558
727 1465Q780 1404 789 1333Z" />
<glyph unicode="&#x1ab;" glyph-name="uni01AB" horiz-adv-x="862" d="M310 956H148L169 1063H331L395 1393H580L516 1063H862L841 956H495L364 281Q337 146 356 108T445 70Q517 70 558 112T620 250H759L690 -104Q658 -268 543 -361T256 -455Q184 -455 122 -439T3
-389L46 -170H141Q129 -266 163 -311T279 -356Q370 -356 425 -294Q479 -234 505 -104L522 -17Q471 -29 409 -29Q250 -29 198 41T179 281L310 956Z" />
<glyph unicode="&#x1ac;" glyph-name="uni01AC" horiz-adv-x="1369" d="M605 1493H1369L1301 1141H1178L1223 1374H784L537 106H728L708 0H124L144 106H335L582 1374Q355 1374 269 1285Q181 1194 145 1008H16L85 1364Q202 1440 389 1476Q512 1493 605 1493Z" />
<glyph unicode="&#x1ad;" glyph-name="uni01AD" horiz-adv-x="913" d="M381 1063H727L706 956H360L229 281Q203 146 221 108T310 70Q382 70 423 112Q465 155 485 250H624Q596 105 504 38Q420 -29 275 -29Q116 -29 64 42Q11 112 44 281L175 956H13L34 1063H196L224
1205Q255 1367 372 1462Q487 1556 658 1556Q735 1556 793 1540Q855 1523 910 1490L868 1271H773Q791 1367 750 1412Q717 1457 635 1457Q544 1457 489 1396Q434 1337 409 1205L381 1063Z" />
<glyph unicode="&#x1ae;" glyph-name="uni01AE" horiz-adv-x="1414" d="M990 -358Q910 -392 834 -409Q756 -426 685 -426Q465 -426 388 -316T359 41L618 1374H179L134 1141H11L80 1493H1406L1337 1141H1214L1259 1374H820L563 49Q521 -166 553 -244Q583 -319 704
-319Q792 -319 846 -270Q899 -222 921 -123H1035L990 -358Z" />
<glyph unicode="&#x1af;" glyph-name="Uhorn" horiz-adv-x="1726" d="M2011 1398L2030 1492L2031 1491Q2137 1404 2184 1404Q2230 1404 2265 1437T2310 1527Q2315 1554 2315 1583T2307 1642L2434 1641Q2436 1605 2434 1572T2425 1506Q2403 1393 2347 1331T2209
1269Q2160 1269 2114 1299T2011 1398ZM496 1386H305L326 1493H910L889 1386H698L548 614Q492 328 564 215T865 102T1209 215T1380 614L1530 1386H1339L1360 1493H1864L1843 1386H1653L1499 594Q1433 253 1275 112T802 -29T382 113T342 594L496 1386Z" />
<glyph unicode="&#x1b0;" glyph-name="uhorn" horiz-adv-x="1319" d="M1319 845L1338 939L1339 938Q1445 851 1492 851Q1538 851 1573 884T1618 974Q1623 1001 1623 1030T1615 1089L1742 1088Q1744 1052 1742 1019T1733 953Q1711 840 1655 778T1517 716Q1468 716
1422 746T1319 845ZM1122 1063H1306L1120 106H1294L1274 0H916L952 188Q880 82 789 27T590 -29Q413 -29 349 72Q310 132 310 235Q310 302 327 387L437 956H271L292 1063H643L523 444Q503 341 503 273Q503 212 519 178Q552 106 674 106Q802 106 887 200T1007 473L1122
1063Z" />
<glyph unicode="&#x1b1;" glyph-name="uni01B1" horiz-adv-x="1671" d="M634 1356H298L271 1219H154L213 1520H805L769 1338Q576 1268 452 1112Q330 957 285 725Q231 446 335 276Q439 107 661 107T1053 276Q1223 446 1277 725Q1322 958 1261 1113T1033 1338L1069
1520H1659L1600 1219H1483L1510 1356H1176Q1368 1269 1456 1093T1502 703Q1473 552 1390 421Q1307 290 1177 187Q1060 96 923 48T640 0T378 48Q260 95 179 187Q88 290 55 422Q23 553 52 703Q93 916 251 1092Q407 1269 634 1356Z" />
<glyph unicode="&#x1b2;" glyph-name="uni01B2" horiz-adv-x="1311" d="M397 0Q182 -11 120 54Q22 155 60 351L261 1386H71L92 1493H675L654 1386H464L263 351Q239 226 268 160Q289 113 418 107Q630 98 810 276Q980 446 1034 725Q1082 974 1017 1113Q955 1244
808 1272L830 1386H938V1386Q1144 1303 1216 1128Q1301 920 1259 703Q1229 552 1146 421Q1061 287 933 187Q817 96 679 48Q567 9 397 0Z" />
<glyph unicode="&#x1b3;" glyph-name="uni01B3" horiz-adv-x="1683" d="M571 106H762L742 0H158L178 106H369L474 643L157 1386H17L38 1493H593L572 1386H398L654 782L1144 1386Q1295 1493 1431 1493Q1498 1493 1565 1476Q1628 1460 1683 1427L1641 1208H1546Q1557
1304 1524 1349Q1490 1394 1408 1394Q1282 1394 1217 1322L680 662L571 106Z" />
<glyph unicode="&#x1b4;" glyph-name="uni01B4" horiz-adv-x="1708" d="M530 -240Q456 -364 386 -409T205 -455Q158 -455 110 -447T15 -424L55 -221H149Q142 -289 164 -318T247 -348Q302 -348 341 -318T436 -195L540 -18L333 956H212L232 1063H721L701 956H531L688
225L1076 864Q1211 1086 1456 1085Q1549 1085 1589 1068Q1703 1022 1708 1019L1665 800H1570Q1582 896 1549 941Q1514 986 1432 986Q1267 986 1179 840L530 -240Z" />
<glyph unicode="&#x1b5;" glyph-name="uni01B5" horiz-adv-x="1537" d="M14 0L28 72L618 719H312L336 844H731L1210 1370H438L395 1147H272L339 1493H1519L1505 1421L980 844H1307L1283 719H866L323 123H1167L1207 332H1329L1265 0H14Z" />
<glyph unicode="&#x1b6;" glyph-name="uni01B6" horiz-adv-x="1127" d="M189 464L209 570H490L753 843Q742 847 713 856Q683 866 645 889L596 919Q503 976 434 976Q303 976 149 826L173 947Q345 1116 474 1115Q551 1114 664 1044Q775 975 845 975Q953 975 1058
1063H1118L1102 977L711 570H943L923 464H610L375 219Q385 216 414 207Q444 197 482 174L531 144Q624 87 693 87Q824 87 978 237L954 116Q782 -53 653 -52Q576 -51 463 19Q352 88 282 88Q174 88 69 0H9L25 86L388 464H189Z" />
<glyph unicode="&#x1b7;" glyph-name="uni01B7" horiz-adv-x="1198" d="M587 852H492L512 954L937 1370H410L367 1147H244L311 1493H1184L1160 1368L704 923L782 916Q960 887 1039 766Q1116 646 1079 454Q1033 220 868 95Q704 -29 440 -29Q323 -29 218 -1Q111
27 12 84L75 408H187Q166 247 236 164T465 81Q618 81 727 181Q834 280 868 452Q906 649 835 751Q763 852 587 852Z" />
<glyph unicode="&#x1b8;" glyph-name="uni01B8" horiz-adv-x="1241" d="M702 852Q526 852 416 751Q305 649 267 452Q233 280 302 181Q371 81 524 81Q682 81 785 164T930 408H1042L979 84Q858 27 741 -1Q624 -29 507 -29Q243 -29 127 95Q10 220 56 454Q93 646 218
766Q343 887 533 916L613 923L331 1368L355 1493H1228L1161 1147H1038L1081 1370H554L817 954L797 852H702Z" />
<glyph unicode="&#x1b9;" glyph-name="uni01B9" horiz-adv-x="1236" d="M700 423Q524 423 414 322Q303 220 265 23Q231 -149 300 -248Q370 -348 523 -348Q681 -348 784 -265T928 -21H1040L977 -345Q856 -402 739 -430Q622 -458 505 -458Q241 -458 125 -334Q9 -209
54 25Q91 217 216 337Q341 458 531 487L611 494L336 977L353 1063H1223L1166 772H1060L1096 956H569L815 525L795 423H700Z" />
<glyph unicode="&#x1ba;" glyph-name="uni01BA" horiz-adv-x="1154" d="M547 423Q547 423 452 423L472 525L886 956H359L323 772H217L274 1063H1144L1127 977L664 494Q1096 455 1062 282Q1025 89 628 -19T210 -231Q208 -240 208 -247Q209 -348 468 -348Q748 -348
833 -130H928L898 -284Q744 -458 361 -458Q15 -458 15 -285Q15 -266 19 -246Q55 -62 438 25T856 292Q881 423 547 423Z" />
<glyph unicode="&#x1bb;" glyph-name="uni01BB" horiz-adv-x="1219" d="M353 1137H241L293 1403Q411 1460 525 1490T744 1520Q977 1520 1090 1407T1165 1100Q1142 984 1029 844H1156L1132 719H916Q847 650 757 576L714 541L264 164H887L923 348H1040L972 0H9L30
109L571 561Q670 644 741 719H272L296 844H844Q928 966 954 1100Q983 1251 921 1336T721 1421Q578 1421 487 1350T353 1137Z" />
<glyph unicode="&#x1bc;" glyph-name="uni01BC" horiz-adv-x="1246" d="M775 840Q954 814 1034 707T1077 403Q1036 194 874 83T448 -29Q331 -29 225 -4T18 72L74 362H186Q168 218 240 144T471 70Q624 70 730 158T866 401Q900 577 827 667T577 758H195L317 1386H127L148
1493H1233L1168 1161H1045L1086 1370H517L418 860H552Q637 860 775 840Z" />
<glyph unicode="&#x1bd;" glyph-name="uni01BD" horiz-adv-x="1192" d="M607 525L785 504Q964 475 1042 354Q1120 234 1079 25Q1034 -209 868 -334Q704 -458 440 -458Q324 -458 218 -430Q111 -402 12 -345L75 -21H187Q166 -182 237 -265T466 -348Q619 -348 727
-248Q834 -149 868 23Q906 220 835 322Q763 423 587 423H275L379 958H202L223 1063H1176L1124 796H1019L1047 940H560L479 525H607Z" />
<glyph unicode="&#x1be;" glyph-name="uni01BE" horiz-adv-x="752" d="M417 1393H601L537 1064H711L691 958H517L484 787Q596 779 663 702Q743 608 698 380Q655 156 539 63Q424 -30 253 -30Q181 -30 118 -14Q56 2 1 36L43 254H138Q126 158 161 114Q194 68 276
68Q367 68 422 130Q476 190 513 380Q551 574 520 634Q489 696 398 696H282L333 958H157L177 1064H353L417 1393Z" />
<glyph unicode="&#x1bf;" glyph-name="uni01BF" horiz-adv-x="1227" d="M466 950Q659 1147 932 1147Q1116 1147 1171 1035T1197 769Q1109 315 257 -122L198 -426H14L283 956H106L127 1063H488L466 950ZM279 -10Q934 358 1013 769Q1039 902 994 977T828 1052Q658
1052 439 813L279 -10Z" />
<glyph unicode="&#x1c0;" glyph-name="uni01C0" horiz-adv-x="452" d="M452 1493L162 0H0L290 1493H452Z" />
<glyph unicode="&#x1c1;" glyph-name="uni01C1" horiz-adv-x="1008" d="M452 1493L162 0H0L290 1493H452ZM856 1493L566 0H404L694 1493H856Z" />
<glyph unicode="&#x1c2;" glyph-name="uni01C2" horiz-adv-x="1008" d="M443 851H72L104 1013H475L568 1493H730L637 1013H1008L976 851H605L565 642H936L904 480H533L440 0H278L371 480H0L32 642H403L443 851Z" />
<glyph unicode="&#x1c3;" glyph-name="uni01C3" horiz-adv-x="452" d="M192 156L162 0H0L30 156H192ZM452 1493L223 312H61L290 1493H452Z" />
<glyph unicode="&#x1c4;" glyph-name="uni01C4" horiz-adv-x="3145" d="M415 106H601Q892 106 1080 272T1328 748T1266 1222T850 1386H664L415 106ZM2 0L22 106H212L461 1386H271L292 1493H886Q1272 1493 1449 1296T1558 748Q1490 396 1236 198T596 0H2ZM1623
0L1637 72L2819 1370H2047L2004 1147H1881L1948 1493H3128L3114 1421L1932 123H2776L2816 332H2938L2874 0H1623ZM2507 1635L2328 1899H2444L2615 1737L2850 1899H2966L2683 1635H2507Z" />
<glyph unicode="&#x1c5;" glyph-name="uni01C5" horiz-adv-x="2800" d="M424 106H610Q901 106 1089 272T1337 748T1275 1222T859 1386H673L424 106ZM11 0L31 106H221L470 1386H280L301 1493H895Q1281 1493 1458 1296T1567 748Q1499 396 1245 198T605 0H11ZM2500
975Q2608 975 2713 1063H2773L2757 977L2030 219Q2040 216 2069 207Q2103 196 2137 174L2186 144Q2280 87 2348 87Q2479 87 2633 237L2609 116Q2438 -52 2308 -52Q2229 -50 2118 19T1937 88Q1829 88 1724 0H1664L1680 86L2408 843Q2397 847 2368 856Q2334 867 2300
889L2251 919Q2157 976 2089 976Q1958 976 1804 826L1828 947Q1999 1115 2129 1115Q2208 1113 2319 1044T2500 975ZM2295 1262L2134 1638H2250L2402 1378L2656 1638H2772L2463 1262H2295Z" />
<glyph unicode="&#x1c6;" glyph-name="uni01C6" horiz-adv-x="2393" d="M1198 1556L896 0H712L744 166Q670 66 578 19T362 -29Q166 -29 72 126Q9 229 9 373Q9 447 26 532Q75 782 229 937T580 1092Q703 1092 777 1045T886 897L993 1450H819L840 1556H1198ZM805
479L825 584Q840 662 840 725Q840 816 808 876Q755 977 615 977Q473 977 379 865T241 532Q221 431 221 353Q221 260 249 199Q299 86 441 86Q581 86 674 186T805 479ZM2095 975Q2203 975 2308 1063H2368L2352 977L1625 219Q1635 216 1664 207Q1698 196 1732 174L1781
144Q1875 87 1943 87Q2074 87 2228 237L2204 116Q2033 -52 1903 -52Q1824 -50 1713 19T1532 88Q1424 88 1319 0H1259L1275 86L2003 843Q1992 847 1963 856Q1929 867 1895 889L1846 919Q1752 976 1684 976Q1553 976 1399 826L1423 947Q1594 1115 1724 1115Q1803
1113 1914 1044T2095 975ZM1890 1262L1729 1638H1845L1997 1378L2251 1638H2367L2058 1262H1890Z" />
<glyph unicode="&#x1c7;" glyph-name="uni01C7" horiz-adv-x="2181" d="M6 0L26 106H216L465 1386H275L296 1493H879L858 1386H668L423 123H1105L1153 373H1276L1204 0H6ZM1360 -358L1405 -123H1519Q1503 -222 1537 -270T1660 -319Q1779 -319 1840 -244T1945 49L2205
1386H1973L1994 1493H2619L2598 1386H2408L2146 41Q2098 -206 1978 -316T1637 -426Q1566 -426 1496 -409T1360 -358Z" />
<glyph unicode="&#x1c8;" glyph-name="uni01C8" horiz-adv-x="1995" d="M6 0L26 106H216L465 1386H275L296 1493H879L858 1386H668L423 123H1105L1153 373H1276L1204 0H6ZM2109 1393Q2117 1439 2157 1473T2245 1507Q2291 1507 2318 1473Q2338 1447 2338 1415Q2338
1404 2336 1393Q2326 1346 2288 1313T2201 1280Q2154 1280 2126 1313Q2106 1338 2106 1370Q2106 1381 2109 1393ZM2069 956H1895L1915 1063H2273L2047 -104Q2015 -268 1899 -361T1612 -455Q1540 -455 1478 -439T1360 -389L1403 -170H1498Q1495 -195 1495 -216Q1495
-278 1520 -311Q1554 -356 1636 -356Q1727 -356 1782 -295T1863 -104L2069 956Z" />
<glyph unicode="&#x1c9;" glyph-name="uni01C9" horiz-adv-x="1290" d="M207 106H381L361 0H3L285 1450H108L128 1556H489L207 106ZM1404 1393Q1412 1439 1452 1473T1540 1507Q1586 1507 1613 1473Q1633 1447 1633 1415Q1633 1404 1631 1393Q1621 1346 1583 1313T1496
1280Q1449 1280 1421 1313Q1401 1338 1401 1370Q1401 1381 1404 1393ZM1364 956H1190L1210 1063H1568L1342 -104Q1310 -268 1194 -361T907 -455Q835 -455 773 -439T655 -389L698 -170H793Q790 -195 790 -216Q790 -278 815 -311Q849 -356 931 -356Q1022 -356 1077
-295T1158 -104L1364 956Z" />
<glyph unicode="&#x1ca;" glyph-name="uni01CA" horiz-adv-x="2613" d="M9 0L29 106H230L479 1386H278L299 1493H682L1348 315L1556 1386H1356L1377 1493H1901L1880 1386H1679L1404 -29H1283L572 1229L353 106H554L534 0H9ZM1792 -358L1837 -123H1951Q1935 -222
1969 -270T2092 -319Q2211 -319 2272 -244T2377 49L2637 1386H2405L2426 1493H3051L3030 1386H2840L2578 41Q2530 -206 2410 -316T2069 -426Q1998 -426 1928 -409T1792 -358Z" />
<glyph unicode="&#x1cb;" glyph-name="uni01CB" horiz-adv-x="2427" d="M9 0L29 106H230L479 1386H278L299 1493H682L1348 315L1556 1386H1356L1377 1493H1901L1880 1386H1679L1404 -29H1283L572 1229L353 106H554L534 0H9ZM2541 1393Q2549 1439 2589 1473T2677
1507Q2723 1507 2750 1473Q2770 1447 2770 1415Q2770 1404 2768 1393Q2758 1346 2720 1313T2633 1280Q2586 1280 2558 1313Q2538 1338 2538 1370Q2538 1381 2541 1393ZM2501 956H2327L2347 1063H2705L2479 -104Q2447 -268 2331 -361T2044 -455Q1972 -455 1910 -439T1792
-389L1835 -170H1930Q1927 -195 1927 -216Q1927 -278 1952 -311Q1986 -356 2068 -356Q2159 -356 2214 -295T2295 -104L2501 956Z" />
<glyph unicode="&#x1cc;" glyph-name="uni01CC" horiz-adv-x="1954" d="M24 0L210 956H34L54 1063H414L378 874Q450 982 542 1037T742 1092Q918 1092 982 991Q1020 930 1020 828Q1020 761 1003 676L892 106H1056L1036 0H687L807 618Q827 721 827 790Q827 851 811
886Q777 958 656 958Q528 958 443 865T323 592L208 0H24ZM2068 1393Q2076 1439 2116 1473T2204 1507Q2250 1507 2277 1473Q2297 1447 2297 1415Q2297 1404 2295 1393Q2285 1346 2247 1313T2160 1280Q2113 1280 2085 1313Q2065 1338 2065 1370Q2065 1381 2068 1393ZM2028
956H1854L1874 1063H2232L2006 -104Q1974 -268 1858 -361T1571 -455Q1499 -455 1437 -439T1319 -389L1362 -170H1457Q1454 -195 1454 -216Q1454 -278 1479 -311Q1513 -356 1595 -356Q1686 -356 1741 -295T1822 -104L2028 956Z" />
<glyph unicode="&#x1cd;" glyph-name="uni01CD" horiz-adv-x="1479" d="M527 541H1075L939 1251L527 541ZM0 0L20 106H151L953 1493H1121L1385 106H1531L1511 0H968L988 106H1154L1093 434H465L276 106H440L420 0H0ZM1425 1635L1246 1899H1362L1533 1737L1768
1899H1884L1601 1635H1425Z" />
<glyph unicode="&#x1ce;" glyph-name="uni01CE" horiz-adv-x="1221" d="M688 166Q555 -29 340 -29Q164 -29 75 90Q13 174 13 294Q13 345 24 402Q92 755 338 937Q547 1092 800 1092Q970 1092 1028 1063L842 106H1000L980 0H656L688 166ZM207 300Q207 86 414 86Q540
86 625 186T749 479L842 961V961Q842 990 762 990Q570 990 421 840Q273 689 220 415Q207 351 207 300ZM204 1262L43 1638H159L311 1378L565 1638H681L372 1262H204Z" />
<glyph unicode="&#x1cf;" glyph-name="uni01CF" horiz-adv-x="809" d="M413 106H603L583 0H0L20 106H210L459 1386H269L290 1493H873L852 1386H662L413 106ZM1153 1635L974 1899H1090L1261 1737L1496 1899H1612L1329 1635H1153Z" />
<glyph unicode="&#x1d0;" glyph-name="uni01D0" horiz-adv-x="655" d="M220 106H394L374 0H16L202 956H26L46 1063H406L220 106ZM-20 1262L-181 1638H-65L87 1378L341 1638H457L148 1262H-20Z" />
<glyph unicode="&#x1d1;" glyph-name="uni01D1" horiz-adv-x="1679" d="M647 78Q892 78 1050 246T1272 745Q1336 1076 1244 1244T907 1413Q661 1413 503 1245T281 745Q217 415 309 247T647 78ZM626 -29Q474 -29 357 21T161 168Q71 280 44 422T52 745T169 1068T385
1323Q502 1421 638 1470T928 1520Q1253 1520 1411 1307T1502 745Q1467 566 1384 423T1168 168Q1051 70 915 21T626 -29ZM1601 1635L1422 1899H1538L1709 1737L1944 1899H2060L1777 1635H1601Z" />
<glyph unicode="&#x1d2;" glyph-name="uni01D2" horiz-adv-x="1233" d="M457 70Q605 70 703 187T846 532Q866 636 866 717Q866 813 838 876Q785 993 637 993T391 877T248 532Q228 428 228 348Q228 251 257 187Q310 70 457 70ZM438 -29Q206 -29 95 124Q18 231 18
385Q18 454 33 532Q82 786 252 939T656 1092T1000 939Q1076 833 1076 679Q1076 610 1061 532Q1012 278 842 125T438 -29ZM274 1262L113 1638H229L381 1378L635 1638H751L442 1262H274Z" />
<glyph unicode="&#x1d3;" glyph-name="uni01D3" horiz-adv-x="1726" d="M245 1386H54L75 1493H659L638 1386H447L297 614Q241 328 313 215T614 102T958 215T1129 614L1279 1386H1088L1109 1493H1613L1592 1386H1402L1248 594Q1182 253 1024 112T551 -29T131 113T91
594L245 1386ZM1657 1635L1478 1899H1594L1765 1737L2000 1899H2116L1833 1635H1657Z" />
<glyph unicode="&#x1d4;" glyph-name="uni01D4" horiz-adv-x="1319" d="M876 1063H1060L874 106H1048L1028 0H670L706 188Q634 82 543 27T344 -29Q167 -29 103 72Q64 132 64 235Q64 302 81 387L191 956H25L46 1063H397L277 444Q257 341 257 273Q257 212 273 178Q306
106 428 106Q556 106 641 200T761 473L876 1063ZM249 1262L88 1638H204L356 1378L610 1638H726L417 1262H249Z" />
<glyph unicode="&#x1d5;" glyph-name="uni01D5" horiz-adv-x="1596" d="M227 1386H36L57 1493H641L620 1386H429L279 614Q223 328 295 215T596 102T940 215T1111 614L1261 1386H1070L1091 1493H1595L1574 1386H1384L1230 594Q1164 253 1006 112T533 -29T113 113T73
594L227 1386ZM739 1852Q787 1852 814 1817Q842 1782 833 1736Q823 1686 783 1653Q743 1619 693 1619Q644 1619 617 1653Q590 1686 600 1736Q609 1782 650 1817Q692 1852 739 1852ZM1129 1852Q1176 1852 1203 1817Q1231 1782 1222 1736Q1212 1686 1172 1653Q1132
1619 1083 1619Q1033 1619 1006 1653Q979 1686 989 1736Q998 1782 1039 1817Q1081 1852 1129 1852ZM677 2099H1275L1247 1951H649L677 2099Z" />
<glyph unicode="&#x1d6;" glyph-name="uni01D6" horiz-adv-x="1051" d="M855 1063H1039L853 106H1027L1007 0H649L685 188Q613 82 522 27T323 -29Q146 -29 82 72Q43 132 43 235Q43 302 60 387L170 956H4L25 1063H376L256 444Q236 341 236 273Q236 212 252 178Q285
106 407 106Q535 106 620 200T740 473L855 1063ZM457 1568Q505 1568 532 1533Q560 1498 551 1452Q541 1402 501 1369Q461 1335 411 1335Q362 1335 335 1369Q308 1402 318 1452Q327 1498 368 1533Q410 1568 457 1568ZM847 1568Q894 1568 921 1533Q949 1498 940 1452Q930
1402 890 1369Q850 1335 801 1335Q751 1335 724 1369Q697 1402 707 1452Q716 1498 757 1533Q799 1568 847 1568ZM395 1815H993L965 1667H367L395 1815Z" />
<glyph unicode="&#x1d7;" glyph-name="uni01D7" horiz-adv-x="1595" d="M737 1852Q785 1852 812 1817Q840 1782 831 1736Q821 1686 781 1653Q741 1619 691 1619Q642 1619 615 1653Q588 1686 598 1736Q607 1782 648 1817Q690 1852 737 1852ZM1127 1852Q1174 1852
1201 1817Q1229 1782 1220 1736Q1210 1686 1170 1653Q1130 1619 1081 1619Q1031 1619 1004 1653Q977 1686 987 1736Q996 1782 1037 1817Q1079 1852 1127 1852ZM1102 2138H1299L985 1874H868L1102 2138ZM225 1386H34L55 1493H639L618 1386H427L277 614Q221 328 293
215T594 102T938 215T1109 614L1259 1386H1068L1089 1493H1593L1572 1386H1382L1228 594Q1162 253 1004 112T531 -29T111 113T71 594L225 1386Z" />
<glyph unicode="&#x1d8;" glyph-name="uni01D8" horiz-adv-x="1051" d="M852 1063H1036L850 106H1024L1004 0H646L682 188Q610 82 519 27T320 -29Q143 -29 79 72Q40 132 40 235Q40 302 57 387L167 956H1L22 1063H373L253 444Q233 341 233 273Q233 212 249 178Q282
106 404 106Q532 106 617 200T737 473L852 1063ZM454 1568Q502 1568 529 1533Q557 1498 548 1452Q538 1402 498 1369Q458 1335 408 1335Q359 1335 332 1369Q305 1402 315 1452Q324 1498 365 1533Q407 1568 454 1568ZM844 1568Q891 1568 918 1533Q946 1498 937 1452Q927
1402 887 1369Q847 1335 798 1335Q748 1335 721 1369Q694 1402 704 1452Q713 1498 754 1533Q796 1568 844 1568ZM819 1854H1016L702 1590H585L819 1854Z" />
<glyph unicode="&#x1d9;" glyph-name="uni01D9" horiz-adv-x="1598" d="M740 1852Q788 1852 815 1817Q843 1782 834 1736Q824 1686 784 1653Q744 1619 694 1619Q645 1619 618 1653Q591 1686 601 1736Q610 1782 651 1817Q693 1852 740 1852ZM1130 1852Q1177 1852
1204 1817Q1232 1782 1223 1736Q1213 1686 1173 1653Q1133 1619 1084 1619Q1034 1619 1007 1653Q980 1686 990 1736Q999 1782 1040 1817Q1082 1852 1130 1852ZM841 1872L662 2136H778L949 1974L1184 2136H1300L1017 1872H841ZM228 1386H37L58 1493H642L621 1386H430L280
614Q224 328 296 215T597 102T941 215T1112 614L1262 1386H1071L1092 1493H1596L1575 1386H1385L1231 594Q1165 253 1007 112T534 -29T114 113T74 594L228 1386Z" />
<glyph unicode="&#x1da;" glyph-name="uni01DA" horiz-adv-x="1055" d="M856 1063H1040L854 106H1028L1008 0H650L686 188Q614 82 523 27T324 -29Q147 -29 83 72Q44 132 44 235Q44 302 61 387L171 956H5L26 1063H377L257 444Q237 341 237 273Q237 212 253 178Q286
106 408 106Q536 106 621 200T741 473L856 1063ZM458 1568Q506 1568 533 1533Q561 1498 552 1452Q542 1402 502 1369Q462 1335 412 1335Q363 1335 336 1369Q309 1402 319 1452Q328 1498 369 1533Q411 1568 458 1568ZM848 1568Q895 1568 922 1533Q950 1498 941 1452Q931
1402 891 1369Q851 1335 802 1335Q752 1335 725 1369Q698 1402 708 1452Q717 1498 758 1533Q800 1568 848 1568ZM559 1588L380 1852H496L667 1690L902 1852H1018L735 1588H559Z" />
<glyph unicode="&#x1db;" glyph-name="uni01DB" horiz-adv-x="1596" d="M227 1386H36L57 1493H641L620 1386H429L279 614Q223 328 295 215T596 102T940 215T1111 614L1261 1386H1070L1091 1493H1595L1574 1386H1384L1230 594Q1164 253 1006 112T533 -29T113 113T73
594L227 1386ZM739 1852Q787 1852 814 1817Q842 1782 833 1736Q823 1686 783 1653Q743 1619 693 1619Q644 1619 617 1653Q590 1686 600 1736Q609 1782 650 1817Q692 1852 739 1852ZM1129 1852Q1176 1852 1203 1817Q1231 1782 1222 1736Q1212 1686 1172 1653Q1132
1619 1083 1619Q1033 1619 1006 1653Q979 1686 989 1736Q998 1782 1039 1817Q1081 1852 1129 1852ZM873 2138L1004 1874H887L677 2138H873Z" />
<glyph unicode="&#x1dc;" glyph-name="uni01DC" horiz-adv-x="1047" d="M855 1063H1039L853 106H1027L1007 0H649L685 188Q613 82 522 27T323 -29Q146 -29 82 72Q43 132 43 235Q43 302 60 387L170 956H4L25 1063H376L256 444Q236 341 236 273Q236 212 252 178Q285
106 407 106Q535 106 620 200T740 473L855 1063ZM457 1568Q505 1568 532 1533Q560 1498 551 1452Q541 1402 501 1369Q461 1335 411 1335Q362 1335 335 1369Q308 1402 318 1452Q327 1498 368 1533Q410 1568 457 1568ZM847 1568Q894 1568 921 1533Q949 1498 940 1452Q930
1402 890 1369Q850 1335 801 1335Q751 1335 724 1369Q697 1402 707 1452Q716 1498 757 1533Q799 1568 847 1568ZM591 1854L722 1590H605L395 1854H591Z" />
<glyph unicode="&#x1dd;" glyph-name="uni01DD" horiz-adv-x="1212" d="M61 551H854L855 559Q897 774 838 884Q778 993 620 993Q499 993 408 930Q319 866 264 741H116Q194 916 329 1004Q465 1092 658 1092Q891 1092 1002 938Q1114 785 1065 531Q1016 279 847 125T452
-29Q211 -29 111 120Q11 268 61 551ZM257 445Q227 259 282 164Q335 70 471 70Q598 70 689 165T833 445H257Z" />
<glyph unicode="&#x1de;" glyph-name="uni01DE" horiz-adv-x="1539" d="M527 541H1075L939 1251L527 541ZM0 0L20 106H151L953 1493H1121L1385 106H1531L1511 0H968L988 106H1154L1093 434H465L276 106H440L420 0H0ZM916 1852Q964 1852 991 1817Q1019 1782 1010
1736Q1000 1686 960 1653Q920 1619 870 1619Q821 1619 794 1653Q767 1686 777 1736Q786 1782 827 1817Q869 1852 916 1852ZM1306 1852Q1353 1852 1380 1817Q1408 1782 1399 1736Q1389 1686 1349 1653Q1309 1619 1260 1619Q1210 1619 1183 1653Q1156 1686 1166 1736Q1175
1782 1216 1817Q1258 1852 1306 1852ZM854 2099H1452L1424 1951H826L854 2099Z" />
<glyph unicode="&#x1df;" glyph-name="uni01DF" horiz-adv-x="1057" d="M677 166Q544 -29 329 -29Q153 -29 64 90Q2 174 2 294Q2 345 13 402Q81 755 327 937Q536 1092 789 1092Q959 1092 1017 1063L831 106H989L969 0H645L677 166ZM196 300Q196 86 403 86Q529
86 614 186T738 479L831 961V961Q831 990 751 990Q559 990 410 840Q262 689 209 415Q196 351 196 300ZM509 1568Q557 1568 584 1533Q612 1498 603 1452Q593 1402 553 1369Q513 1335 463 1335Q414 1335 387 1369Q360 1402 370 1452Q379 1498 420 1533Q462 1568 509
1568ZM899 1568Q946 1568 973 1533Q1001 1498 992 1452Q982 1402 942 1369Q902 1335 853 1335Q803 1335 776 1369Q749 1402 759 1452Q768 1498 809 1533Q851 1568 899 1568ZM447 1815H1045L1017 1667H419L447 1815Z" />
<glyph unicode="&#x1e0;" glyph-name="uni01E0" horiz-adv-x="1537" d="M527 541H1075L939 1251L527 541ZM0 0L20 106H151L953 1493H1121L1385 106H1531L1511 0H968L988 106H1154L1093 434H465L276 106H440L420 0H0ZM835 2099H1433L1405 1951H807L835 2099ZM1204
1733Q1194 1683 1154 1650Q1114 1616 1064 1616T987 1650Q960 1683 970 1733Q979 1779 1021 1814T1110 1849T1185 1814T1204 1733Z" />
<glyph unicode="&#x1e1;" glyph-name="uni01E1" horiz-adv-x="1035" d="M676 166Q543 -29 328 -29Q152 -29 63 90Q1 174 1 294Q1 345 12 402Q80 755 326 937Q535 1092 788 1092Q958 1092 1016 1063L830 106H988L968 0H644L676 166ZM195 300Q195 86 402 86Q528
86 613 186T737 479L830 961V961Q830 990 750 990Q558 990 409 840Q261 689 208 415Q195 351 195 300ZM427 1818H1025L997 1670H399L427 1818ZM796 1452Q786 1402 746 1369Q706 1335 656 1335T579 1369Q552 1402 562 1452Q571 1498 613 1533T702 1568T777 1533T796
1452Z" />
<glyph unicode="&#x1e2;" glyph-name="uni01E2" horiz-adv-x="2050" d="M810 1841H1408L1380 1693H782L810 1841ZM569 541H1058L1222 1386H1122L569 541ZM763 0L783 106H973L1037 434H499L283 106H447L427 0H3L23 106H154L993 1386H778L799 1493H2255L2191 1161H2068L2108
1370H1420L1323 870H1815L1851 1057H1974L1878 561H1755L1791 748H1299L1178 123H1883L1923 332H2046L1982 0H763Z" />
<glyph unicode="&#x1e3;" glyph-name="uni01E3" horiz-adv-x="1925" d="M483 1526H1081L1053 1378H455L483 1526ZM1479 632Q1591 698 1591 822Q1591 993 1364 993Q1230 993 1137 891T987 514Q1304 528 1479 632ZM1148 -29Q910 -29 804 167Q660 -29 363 -29Q356
-29 349 -29Q173 -29 84 90Q22 174 22 294Q22 345 33 402Q101 755 347 937Q556 1092 809 1092Q979 1092 1037 1063L1018 966Q1177 1092 1395 1092Q1786 1092 1786 815Q1786 416 966 408Q962 370 962 336Q962 242 996 180Q1055 70 1213 70Q1329 70 1386 105Q1488
168 1512 249H1647Q1607 122 1458 33Q1354 -29 1148 -29ZM229 415Q216 350 216 297Q216 86 423 86Q549 86 634 186T758 479L851 961Q851 990 771 990Q579 990 430 840Q282 689 229 415Z" />
<glyph unicode="&#x1e4;" glyph-name="uni01E4" horiz-adv-x="1551" d="M1293 1047Q1294 1234 1201 1323T909 1413Q651 1413 492 1247T267 745Q242 615 242 510Q242 349 301 247Q399 78 653 78Q766 78 874 106T1087 190L1112 320H668L689 427H1133L1162 575H881L902
682H1386L1336 427H1537L1516 320H1315L1277 125Q1129 48 968 10T632 -29Q294 -29 132 182Q18 331 18 550Q18 641 38 745Q107 1099 352 1309T942 1520Q1070 1520 1200 1491T1473 1401L1405 1047H1293Z" />
<glyph unicode="&#x1e5;" glyph-name="uni01E5" horiz-adv-x="1248" d="M959 956Q958 990 850 990Q655 990 508 840Q361 689 307 415Q292 334 296 273Q300 211 325 169Q374 86 502 86Q642 86 735 186T865 479H621L642 586H886L959 956ZM1049 479L960 23Q914 -215
766 -330Q605 -455 382 -455Q277 -455 185 -436T12 -379L56 -156H152Q149 -260 207 -308T390 -356Q551 -356 645 -264Q738 -173 776 23L804 166Q731 66 638 19T428 -29Q252 -29 163 90Q107 165 101 269Q97 330 111 402Q180 755 425 937Q634 1091 878 1092Q1102
1093 1163 1063L1070 586H1243L1222 479H1049Z" />
<glyph unicode="&#x1e6;" glyph-name="Gcaron" horiz-adv-x="1636" d="M1597 1635L1418 1899H1534L1705 1737L1940 1899H2056L1773 1635H1597ZM1336 1047Q1337 1234 1244 1323T952 1413Q694 1413 535 1247T310 745Q246 416 344 247T696 78Q809 78 917 106T1130
190L1205 575H924L945 682H1429L1320 125Q1172 48 1011 10T675 -29Q337 -29 175 182T81 745Q150 1099 395 1309T985 1520Q1113 1520 1243 1491T1516 1401L1448 1047H1336Z" />
<glyph unicode="&#x1e7;" glyph-name="gcaron" horiz-adv-x="1311" d="M300 1262L139 1638H255L407 1378L661 1638H777L468 1262H300ZM1161 1063L958 23Q912 -215 764 -330Q603 -455 380 -455Q275 -455 183 -436T10 -379L54 -156H150Q147 -260 205 -308T388 -356Q550
-356 643 -264Q736 -174 774 23L802 166Q729 66 636 19T426 -29Q250 -29 161 90Q105 165 99 269Q95 330 109 402Q178 755 423 937Q632 1091 876 1092Q1100 1093 1161 1063ZM957 956Q956 990 848 990Q653 990 506 840Q359 689 305 415Q290 334 294 273Q298 211 323
169Q372 86 500 86Q640 86 733 186T863 479L883 584L957 956Z" />
<glyph unicode="&#x1e8;" glyph-name="uni01E8" horiz-adv-x="1530" d="M11 0L31 106H221L470 1386H280L301 1493H884L863 1386H673L563 821L1316 1386H1154L1175 1493H1671L1650 1386H1482L732 823L1309 106H1479L1459 0H1112L542 709L424 106H614L594 0H11ZM1573
1635L1394 1899H1510L1681 1737L1916 1899H2032L1749 1635H1573Z" />
<glyph unicode="&#x1e9;" glyph-name="uni01E9" horiz-adv-x="1241" d="M1077 1711L898 1975H1014L1185 1813L1420 1975H1536L1253 1711H1077ZM608 664L903 106H1056L1036 0H741L451 543L280 408L201 0H17L299 1450H122L142 1556H503L306 543L835 956H682L702
1063H1001L981 956L608 664Z" />
<glyph unicode="&#x1ea;" glyph-name="uni01EA" horiz-adv-x="1679" d="M647 78Q892 78 1050 246T1272 745Q1336 1076 1244 1244T907 1413Q661 1413 503 1245T281 745Q217 415 309 247T647 78ZM626 -29Q474 -29 357 21T161 168Q71 280 44 422T52 745T169 1068T385
1323Q502 1421 638 1470T928 1520Q1253 1520 1411 1307T1502 745Q1467 566 1384 423T1168 168Q1051 70 915 21T626 -29ZM354 -15H448L447 -17Q336 -140 327 -187Q318 -233 346 -261T430 -289Q457 -289 487 -283T550 -263L524 -390Q487 -399 453 -403T386 -408Q273
-408 220 -364T182 -238Q191 -189 231 -137T354 -15Z" />
<glyph unicode="&#x1eb;" glyph-name="uni01EB" horiz-adv-x="1233" d="M457 70Q605 70 703 187T846 532Q866 636 866 717Q866 813 838 876Q785 993 637 993T391 877T248 532Q228 428 228 348Q228 251 257 187Q310 70 457 70ZM438 -29Q206 -29 95 124Q18 231 18
385Q18 454 33 532Q82 786 252 939T656 1092T1000 939Q1076 833 1076 679Q1076 610 1061 532Q1012 278 842 125T438 -29ZM422 241H516L515 239Q404 116 395 69Q386 23 414 -5T498 -33Q525 -33 555 -27T618 -7L592 -134Q555 -143 521 -147T454 -152Q341 -152 288
-108T250 18Q259 67 299 119T422 241Z" />
<glyph unicode="&#x1ec;" glyph-name="uni01EC" horiz-adv-x="1558" d="M634 78Q879 78 1037 246T1259 745Q1323 1076 1231 1244T894 1413Q648 1413 490 1245T268 745Q204 415 296 247T634 78ZM613 -29Q461 -29 344 21T148 168Q58 280 31 422T39 745T156 1068T372
1323Q489 1421 625 1470T915 1520Q1240 1520 1398 1307T1489 745Q1454 566 1371 423T1155 168Q1038 70 902 21T613 -29ZM580 -16H674L673 -18Q562 -141 553 -188Q544 -234 572 -262T656 -290Q683 -290 713 -284T776 -264L750 -391Q713 -400 679 -404T612 -409Q499
-409 446 -365T408 -239Q417 -190 457 -138T580 -16ZM648 1842H1246L1218 1694H620L648 1842Z" />
<glyph unicode="&#x1ed;" glyph-name="uni01ED" horiz-adv-x="1061" d="M441 70Q589 70 687 187T830 532Q850 636 850 717Q850 813 822 876Q769 993 621 993T375 877T232 532Q212 428 212 348Q212 251 241 187Q294 70 441 70ZM422 -29Q190 -29 79 124Q2 231 2
385Q2 454 17 532Q66 786 236 939T640 1092T984 939Q1060 833 1060 679Q1060 610 1045 532Q996 278 826 125T422 -29ZM382 -16H476L475 -18Q364 -141 355 -188Q346 -234 374 -262T458 -290Q485 -290 515 -284T578 -264L552 -391Q515 -400 481 -404T414 -409Q301
-409 248 -365T210 -239Q219 -190 259 -138T382 -16ZM415 1526H1013L985 1378H387L415 1526Z" />
<glyph unicode="&#x1ee;" glyph-name="uni01EE" horiz-adv-x="1156" d="M1351 1635L1172 1899H1288L1459 1737L1694 1899H1810L1527 1635H1351ZM587 852H492L512 954L937 1370H410L367 1147H244L311 1493H1184L1160 1368L704 923L782 916Q960 887 1039 766Q1116
646 1079 454Q1033 220 868 95Q704 -29 440 -29Q323 -29 218 -1Q111 27 12 84L75 408H187Q166 247 236 164T465 81Q618 81 727 181Q834 280 868 452Q906 649 835 751Q763 852 587 852Z" />
<glyph unicode="&#x1ef;" glyph-name="uni01EF" horiz-adv-x="1156" d="M204 1262L43 1638H159L311 1378L565 1638H681L372 1262H204ZM587 423H492L512 525L926 956H399L363 772H257L314 1063H1184L1167 977L704 494L782 487Q960 458 1039 337Q1116 217 1079 25Q1034
-209 868 -334Q704 -458 440 -458Q323 -458 218 -430Q111 -402 12 -345L75 -21H187Q166 -182 237 -265T466 -348Q619 -348 727 -248Q834 -149 868 23Q906 220 835 322Q763 423 587 423Z" />
<glyph unicode="&#x1f0;" glyph-name="uni01F0" horiz-adv-x="655" d="M22 1262L-139 1638H-23L129 1378L383 1638H499L190 1262H22ZM709 956H535L556 1063H914L687 -104Q655 -268 539 -361T252 -455Q180 -455 118 -439T0 -389L43 -170H138Q126 -266 160 -311T276
-356Q367 -356 422 -295T503 -104L709 956Z" />
<glyph unicode="&#x1f1;" glyph-name="uni01F1" horiz-adv-x="3065" d="M1656 0L1670 72L2852 1370H2080L2037 1147H1914L1981 1493H3161L3147 1421L1965 123H2809L2849 332H2971L2907 0H1656ZM423 106H609Q900 106 1088 272T1336 748T1274 1222T858 1386H672L423
106ZM10 0L30 106H220L469 1386H279L300 1493H894Q1280 1493 1457 1296T1566 748Q1498 396 1244 198T604 0H10Z" />
<glyph unicode="&#x1f2;" glyph-name="uni01F2" horiz-adv-x="2721" d="M2487 975Q2595 975 2700 1063H2760L2744 977L2017 219Q2027 216 2056 207Q2090 196 2124 174L2173 144Q2267 87 2335 87Q2466 87 2620 237L2596 116Q2425 -52 2295 -52Q2216 -50 2105 19T1924
88Q1816 88 1711 0H1651L1667 86L2395 843Q2384 847 2355 856Q2321 867 2287 889L2238 919Q2144 976 2076 976Q1945 976 1791 826L1815 947Q1986 1115 2116 1115Q2195 1113 2306 1044T2487 975ZM423 106H609Q900 106 1088 272T1336 748T1274 1222T858 1386H672L423
106ZM10 0L30 106H220L469 1386H279L300 1493H894Q1280 1493 1457 1296T1566 748Q1498 396 1244 198T604 0H10Z" />
<glyph unicode="&#x1f3;" glyph-name="uni01F3" horiz-adv-x="2390" d="M2156 975Q2264 975 2369 1063H2429L2413 977L1686 219Q1696 216 1725 207Q1759 196 1793 174L1842 144Q1936 87 2004 87Q2135 87 2289 237L2265 116Q2094 -52 1964 -52Q1885 -50 1774 19T1593
88Q1485 88 1380 0H1320L1336 86L2064 843Q2053 847 2024 856Q1990 867 1956 889L1907 919Q1813 976 1745 976Q1614 976 1460 826L1484 947Q1655 1115 1785 1115Q1864 1113 1975 1044T2156 975ZM1190 1556L888 0H704L736 166Q662 66 570 19T354 -29Q158 -29 64
126Q1 229 1 373Q1 447 18 532Q67 782 221 937T572 1092Q695 1092 769 1045T878 897L985 1450H811L832 1556H1190ZM797 479L817 584Q832 662 832 725Q832 816 800 876Q747 977 607 977Q465 977 371 865T233 532Q213 431 213 353Q213 260 241 199Q291 86 433 86Q573
86 666 186T797 479Z" />
<glyph unicode="&#x1f4;" glyph-name="uni01F4" horiz-adv-x="1636" d="M1653 1900H1850L1536 1636H1419L1653 1900ZM1336 1047Q1337 1234 1244 1323T952 1413Q694 1413 535 1247T310 745Q246 416 344 247T696 78Q809 78 917 106T1130 190L1205 575H924L945 682H1429L1320
125Q1172 48 1011 10T675 -29Q337 -29 175 182T81 745Q150 1099 395 1309T985 1520Q1113 1520 1243 1491T1516 1401L1448 1047H1336Z" />
<glyph unicode="&#x1f5;" glyph-name="uni01F5" horiz-adv-x="1161" d="M879 1638H1078L664 1262H547L879 1638ZM1152 1063L949 23Q903 -215 755 -330Q594 -455 371 -455Q266 -455 174 -436T1 -379L45 -156H141Q138 -260 196 -308T379 -356Q541 -356 634 -264Q727
-174 765 23L793 166Q720 66 627 19T417 -29Q241 -29 152 90Q96 165 90 269Q86 330 100 402Q169 755 414 937Q623 1091 867 1092Q1091 1093 1152 1063ZM948 956Q947 990 839 990Q644 990 497 840Q350 689 296 415Q281 334 285 273Q289 211 314 169Q363 86 491 86Q631
86 724 186T854 479L874 584L948 956Z" />
<glyph unicode="&#x1f6;" glyph-name="uni01F6" horiz-adv-x="2394" d="M1296 594L1326 748H552L427 106H617L597 0H14L34 106H224L473 1386H283L304 1493H887L866 1386H676L576 870H1350L1450 1386H1260L1281 1493H1864L1843 1386H1653L1503 614Q1447 328 1519
215Q1591 102 1721 102Q1865 102 1957 215Q2053 333 2108 614L2174 955H2000L2021 1063H2379L2288 594Q2222 253 2062 112Q1905 -29 1705 -29Q1444 -29 1337 113Q1230 255 1296 594Z" />
<glyph unicode="&#x1f7;" glyph-name="uni01F7" horiz-adv-x="1557" d="M534 281Q1241 711 1319 1114Q1347 1257 1302 1335T1127 1413Q940 1413 704 1156L534 281ZM734 1308Q940 1520 1239 1520Q1437 1520 1497 1399T1525 1114Q1431 629 510 156L417 -320H648L628
-426H4L24 -320H214L546 1386H356L377 1493H770L734 1308Z" />
<glyph unicode="&#x1f8;" glyph-name="uni01F8" horiz-adv-x="1792" d="M1608 1899L1739 1635H1622L1412 1899H1608ZM9 0L29 106H230L479 1386H278L299 1493H682L1348 315L1556 1386H1356L1377 1493H1901L1880 1386H1679L1404 -29H1283L572 1229L353 106H554L534 0H9Z" />
<glyph unicode="&#x1f9;" glyph-name="uni01F9" horiz-adv-x="1047" d="M523 1636L709 1260H592L326 1636H523ZM8 0L194 956H18L38 1063H398L362 874Q434 982 526 1037T726 1092Q902 1092 966 991Q1004 930 1004 828Q1004 761 987 676L876 106H1040L1020 0H671L791
618Q811 721 811 790Q811 851 795 886Q761 958 640 958Q512 958 427 865T307 592L192 0H8Z" />
<glyph unicode="&#x1fa;" glyph-name="Aringacute" horiz-adv-x="1547" d="M949 1206L915 1208L528 541H1076L949 1206ZM1061 1611Q997 1611 945 1568T880 1459Q868 1396 903 1352T1002 1308Q1065 1308 1118 1352T1183 1459T1160 1566T1061 1611ZM1210 1899H1407L1162
1723Q1222 1704 1263 1654Q1328 1573 1306 1459Q1290 1379 1239 1316Q1208 1278 1168 1250L1385 106H1532L1511 0H968L989 106H1155L1094 434H466L277 106H441L420 0H0L21 106H152L813 1249Q782 1278 767 1315Q741 1376 757 1459Q779 1573 875 1654Q950 1717 1037
1730L1210 1899Z" />
<glyph unicode="&#x1fb;" glyph-name="aringacute" horiz-adv-x="1097" d="M832 106H990L970 0H646L678 166Q610 66 526 18Q441 -29 330 -29Q154 -29 65 90Q9 165 3 269Q0 330 14 402Q82 755 328 937Q537 1091 781 1092Q958 1093 1018 1063L832 106ZM752 990Q560
990 411 840Q263 689 210 415Q194 334 198 273Q203 211 227 169Q276 86 404 86Q530 86 615 186T739 479L832 961Q833 990 752 990ZM887 1899H1084L863 1714Q909 1694 941 1654Q1005 1574 983 1459T866 1264T656 1184T477 1264T435 1459T552 1654Q638 1725 739 1732L887
1899ZM861 1459Q873 1522 838 1566T738 1610Q673 1610 621 1567T557 1459Q544 1394 579 1351T679 1307Q743 1307 796 1351T861 1459Z" />
<glyph unicode="&#x1fc;" glyph-name="AEacute" horiz-adv-x="2050" d="M1989 1900H2186L1872 1636H1755L1989 1900ZM569 541H1058L1222 1386H1122L569 541ZM763 0L783 106H973L1037 434H499L283 106H447L427 0H3L23 106H154L993 1386H778L799 1493H2255L2191
1161H2068L2108 1370H1420L1323 870H1815L1851 1057H1974L1878 561H1755L1791 748H1299L1178 123H1883L1923 332H2046L1982 0H763Z" />
<glyph unicode="&#x1fd;" glyph-name="aeacute" horiz-adv-x="1778" d="M1207 1643H1406L992 1267H875L1207 1643ZM1460 632Q1572 698 1572 822Q1572 993 1345 993Q1211 993 1118 891T968 514Q1285 528 1460 632ZM1129 -29Q891 -29 785 167Q641 -29 344 -29Q337
-29 330 -29Q154 -29 65 90Q3 174 3 294Q3 345 14 402Q82 755 328 937Q537 1092 790 1092Q960 1092 1018 1063L999 966Q1158 1092 1376 1092Q1767 1092 1767 815Q1767 416 947 408Q943 370 943 336Q943 242 977 180Q1036 70 1194 70Q1310 70 1367 105Q1469 168
1493 249H1628Q1588 122 1439 33Q1335 -29 1129 -29ZM210 415Q197 350 197 297Q197 86 404 86Q530 86 615 186T739 479L832 961Q832 990 752 990Q560 990 411 840Q263 689 210 415Z" />
<glyph unicode="&#x1fe;" glyph-name="Oslashacute" horiz-adv-x="1679" d="M1625 1900H1822L1508 1636H1391L1625 1900ZM1364 1239Q1316 1327 1232 1370T1024 1413Q778 1413 620 1245T398 745Q375 626 372 530T387 352L1364 1239ZM422 256Q468 167 553 123T764
78Q1009 78 1167 246T1389 745Q1411 862 1414 960T1399 1141L422 256ZM1548 1276Q1614 1168 1632 1037T1619 745Q1552 400 1310 186T743 -29Q602 -29 492 14T297 143L76 -57L11 12L238 219Q172 324 155 454T169 745Q236 1091 478 1305T1044 1520Q1185 1520 1297
1478T1489 1352L1705 1550L1771 1479L1548 1276Z" />
<glyph unicode="&#x1ff;" glyph-name="oslashacute" horiz-adv-x="1298" d="M995 1638H1194L780 1262H663L995 1638ZM941 879Q914 936 864 964T739 993Q592 993 493 876T350 532Q336 460 332 401T333 293L941 879ZM358 190Q386 129 435 100T559 70Q706 70 805
187T948 532Q963 608 967 668T966 780L358 190ZM1113 922Q1161 848 1173 749T1163 532Q1114 278 944 125T540 -29Q446 -29 371 -3T240 78L63 -94L0 -31L183 147Q137 224 125 320T135 532Q184 786 354 939T758 1092Q852 1092 927 1067T1056 991L1228 1157L1291 1094L1113
922Z" />
<glyph unicode="&#x200;" glyph-name="uni0200" horiz-adv-x="1479" d="M1660 1899L1790 1635H1673L1463 1899H1660ZM1977 1899L2107 1635H1990L1780 1899H1977ZM527 541H1075L939 1251L527 541ZM0 0L20 106H151L953 1493H1121L1385 106H1531L1511 0H968L988 106H1154L1093
434H465L276 106H440L420 0H0Z" />
<glyph unicode="&#x201;" glyph-name="uni0201" horiz-adv-x="1221" d="M1709 1638L1898 1262H1784L1539 1638H1709ZM1379 1638L1605 1262H1489L1201 1638H1379ZM688 166Q555 -29 340 -29Q164 -29 75 90Q13 174 13 294Q13 345 24 402Q92 755 338 937Q547 1092
800 1092Q970 1092 1028 1063L842 106H1000L980 0H656L688 166ZM207 300Q207 86 414 86Q540 86 625 186T749 479L842 961V961Q842 990 762 990Q570 990 421 840Q273 689 220 415Q207 351 207 300Z" />
<glyph unicode="&#x202;" glyph-name="uni0202" horiz-adv-x="1479" d="M2036 1694H1940Q1942 1773 1897 1808Q1852 1844 1752 1844T1593 1808Q1534 1773 1506 1694H1410Q1448 1837 1541 1909T1779 1981T1989 1909T2036 1694ZM527 541H1075L939 1251L527 541ZM0
0L20 106H151L953 1493H1121L1385 106H1531L1511 0H968L988 106H1154L1093 434H465L276 106H440L420 0H0Z" />
<glyph unicode="&#x203;" glyph-name="uni0203" horiz-adv-x="1221" d="M1835 1321H1739Q1741 1400 1696 1435Q1651 1471 1551 1471T1392 1435Q1333 1400 1305 1321H1209Q1247 1464 1340 1536T1578 1608T1788 1536T1835 1321ZM688 166Q555 -29 340 -29Q164 -29
75 90Q13 174 13 294Q13 345 24 402Q92 755 338 937Q547 1092 800 1092Q970 1092 1028 1063L842 106H1000L980 0H656L688 166ZM207 300Q207 86 414 86Q540 86 625 186T749 479L842 961V961Q842 990 762 990Q570 990 421 840Q273 689 220 415Q207 351 207 300Z"
/>
<glyph unicode="&#x204;" glyph-name="uni0204" horiz-adv-x="1495" d="M1666 1899L1796 1635H1679L1469 1899H1666ZM1983 1899L2113 1635H1996L1786 1899H1983ZM9 0L29 106H219L468 1386H278L299 1493H1501L1437 1161H1314L1354 1370H668L571 870H1060L1096 1057H1219L1123
561H1000L1036 748H547L426 123H1128L1168 332H1291L1227 0H9Z" />
<glyph unicode="&#x205;" glyph-name="uni0205" horiz-adv-x="1212" d="M1746 1638L1935 1262H1821L1576 1638H1746ZM1416 1638L1642 1262H1526L1238 1638H1416ZM231 408Q227 370 227 336Q227 242 261 180Q320 70 478 70Q594 70 651 105Q753 168 777 249H912Q872
122 723 33Q619 -29 413 -29T96 124Q18 231 18 386Q18 454 33 531Q82 784 251 938T660 1092Q1051 1092 1051 815Q1051 612 846 513Q637 412 231 408ZM744 632Q856 698 856 822Q856 993 629 993Q495 993 402 891T252 514Q573 529 744 632Z" />
<glyph unicode="&#x206;" glyph-name="uni0206" horiz-adv-x="1495" d="M2045 1694H1949Q1951 1773 1906 1808Q1861 1844 1761 1844T1602 1808Q1543 1773 1515 1694H1419Q1457 1837 1550 1909T1788 1981T1998 1909T2045 1694ZM9 0L29 106H219L468 1386H278L299
1493H1501L1437 1161H1314L1354 1370H668L571 870H1060L1096 1057H1219L1123 561H1000L1036 748H547L426 123H1128L1168 332H1291L1227 0H9Z" />
<glyph unicode="&#x207;" glyph-name="uni0207" horiz-adv-x="1212" d="M1872 1321H1776Q1778 1400 1733 1435Q1688 1471 1588 1471T1429 1435Q1370 1400 1342 1321H1246Q1284 1464 1377 1536T1615 1608T1825 1536T1872 1321ZM231 408Q227 370 227 336Q227 242
261 180Q320 70 478 70Q594 70 651 105Q753 168 777 249H912Q872 122 723 33Q619 -29 413 -29T96 124Q18 231 18 386Q18 454 33 531Q82 784 251 938T660 1092Q1051 1092 1051 815Q1051 612 846 513Q637 412 231 408ZM744 632Q856 698 856 822Q856 993 629 993Q495
993 402 891T252 514Q573 529 744 632Z" />
<glyph unicode="&#x208;" glyph-name="uni0208" horiz-adv-x="809" d="M1345 1899L1475 1635H1358L1148 1899H1345ZM1662 1899L1792 1635H1675L1465 1899H1662ZM413 106H603L583 0H0L20 106H210L459 1386H269L290 1493H873L852 1386H662L413 106Z" />
<glyph unicode="&#x209;" glyph-name="uni0209" horiz-adv-x="655" d="M428 106H602L582 0H224L410 956H234L254 1063H614L428 106ZM1425 1637L1614 1261H1500L1255 1637H1425ZM1095 1637L1321 1261H1205L917 1637H1095Z" />
<glyph unicode="&#x20a;" glyph-name="uni020A" horiz-adv-x="809" d="M1709 1694H1613Q1615 1773 1570 1808Q1525 1844 1425 1844T1266 1808Q1207 1773 1179 1694H1083Q1121 1837 1214 1909T1452 1981T1662 1909T1709 1694ZM413 106H603L583 0H0L20 106H210L459
1386H269L290 1493H873L852 1386H662L413 106Z" />
<glyph unicode="&#x20b;" glyph-name="uni020B" horiz-adv-x="655" d="M428 106H602L582 0H224L410 956H234L254 1063H614L428 106ZM1540 1264H1444Q1446 1343 1401 1378Q1356 1414 1256 1414T1097 1378Q1038 1343 1010 1264H914Q952 1407 1045 1479T1283 1551T1493
1479T1540 1264Z" />
<glyph unicode="&#x20c;" glyph-name="uni020C" horiz-adv-x="1679" d="M1765 1899L1895 1635H1778L1568 1899H1765ZM2082 1899L2212 1635H2095L1885 1899H2082ZM647 78Q892 78 1050 246T1272 745Q1336 1076 1244 1244T907 1413Q661 1413 503 1245T281 745Q217
415 309 247T647 78ZM626 -29Q474 -29 357 21T161 168Q71 280 44 422T52 745T169 1068T385 1323Q502 1421 638 1470T928 1520Q1253 1520 1411 1307T1502 745Q1467 566 1384 423T1168 168Q1051 70 915 21T626 -29Z" />
<glyph unicode="&#x20d;" glyph-name="uni020D" horiz-adv-x="1233" d="M1756 1638L1945 1262H1831L1586 1638H1756ZM1426 1638L1652 1262H1536L1248 1638H1426ZM457 70Q605 70 703 187T846 532Q866 636 866 717Q866 813 838 876Q785 993 637 993T391 877T248
532Q228 428 228 348Q228 251 257 187Q310 70 457 70ZM438 -29Q206 -29 95 124Q18 231 18 385Q18 454 33 532Q82 786 252 939T656 1092T1000 939Q1076 833 1076 679Q1076 610 1061 532Q1012 278 842 125T438 -29Z" />
<glyph unicode="&#x20e;" glyph-name="uni020E" horiz-adv-x="1679" d="M2137 1694H2041Q2043 1773 1998 1808Q1953 1844 1853 1844T1694 1808Q1635 1773 1607 1694H1511Q1549 1837 1642 1909T1880 1981T2090 1909T2137 1694ZM647 78Q892 78 1050 246T1272 745Q1336
1076 1244 1244T907 1413Q661 1413 503 1245T281 745Q217 415 309 247T647 78ZM626 -29Q474 -29 357 21T161 168Q71 280 44 422T52 745T169 1068T385 1323Q502 1421 638 1470T928 1520Q1253 1520 1411 1307T1502 745Q1467 566 1384 423T1168 168Q1051 70 915 21T626
-29Z" />
<glyph unicode="&#x20f;" glyph-name="uni020F" horiz-adv-x="1233" d="M1882 1321H1786Q1788 1400 1743 1435Q1698 1471 1598 1471T1439 1435Q1380 1400 1352 1321H1256Q1294 1464 1387 1536T1625 1608T1835 1536T1882 1321ZM457 70Q605 70 703 187T846 532Q866
636 866 717Q866 813 838 876Q785 993 637 993T391 877T248 532Q228 428 228 348Q228 251 257 187Q310 70 457 70ZM438 -29Q206 -29 95 124Q18 231 18 385Q18 454 33 532Q82 786 252 939T656 1092T1000 939Q1076 833 1076 679Q1076 610 1061 532Q1012 278 842 125T438
-29Z" />
<glyph unicode="&#x210;" glyph-name="uni0210" horiz-adv-x="1542" d="M1660 1899L1790 1635H1673L1463 1899H1660ZM1977 1899L2107 1635H1990L1780 1899H1977ZM1021 741Q1087 722 1129 677T1195 549L1325 106H1507L1487 0H1135L994 475Q954 613 906 653T760
694H537L422 106H633L613 0H9L29 106H219L468 1386H278L299 1493H1056Q1274 1493 1372 1389T1434 1094Q1404 940 1300 852T1021 741ZM558 801H853Q1004 801 1089 872T1204 1094T1176 1315T966 1386H671L558 801Z" />
<glyph unicode="&#x211;" glyph-name="uni0211" horiz-adv-x="979" d="M1704 1638L1893 1262H1779L1534 1638H1704ZM1374 1638L1600 1262H1484L1196 1638H1374ZM958 1065L906 799H800Q803 819 803 836Q803 888 779 917Q748 956 673 956Q537 956 446 862T321 592L206
0H22L208 958H32L52 1063H412L376 874Q451 985 546 1038T764 1092Q809 1092 857 1085T958 1065Z" />
<glyph unicode="&#x212;" glyph-name="uni0212" horiz-adv-x="1542" d="M2034 1694H1938Q1940 1773 1895 1808Q1850 1844 1750 1844T1591 1808Q1532 1773 1504 1694H1408Q1446 1837 1539 1909T1777 1981T1987 1909T2034 1694ZM1021 741Q1087 722 1129 677T1195
549L1325 106H1507L1487 0H1135L994 475Q954 613 906 653T760 694H537L422 106H633L613 0H9L29 106H219L468 1386H278L299 1493H1056Q1274 1493 1372 1389T1434 1094Q1404 940 1300 852T1021 741ZM558 801H853Q1004 801 1089 872T1204 1094T1176 1315T966 1386H671L558
801Z" />
<glyph unicode="&#x213;" glyph-name="uni0213" horiz-adv-x="979" d="M1830 1321H1734Q1736 1400 1691 1435Q1646 1471 1546 1471T1387 1435Q1328 1400 1300 1321H1204Q1242 1464 1335 1536T1573 1608T1783 1536T1830 1321ZM958 1065L906 799H800Q803 819 803
836Q803 888 779 917Q748 956 673 956Q537 956 446 862T321 592L206 0H22L208 958H32L52 1063H412L376 874Q451 985 546 1038T764 1092Q809 1092 857 1085T958 1065Z" />
<glyph unicode="&#x214;" glyph-name="uni0214" horiz-adv-x="1726" d="M1840 1899L1970 1635H1853L1643 1899H1840ZM2157 1899L2287 1635H2170L1960 1899H2157ZM245 1386H54L75 1493H659L638 1386H447L297 614Q241 328 313 215T614 102T958 215T1129 614L1279
1386H1088L1109 1493H1613L1592 1386H1402L1248 594Q1182 253 1024 112T551 -29T131 113T91 594L245 1386Z" />
<glyph unicode="&#x215;" glyph-name="uni0215" horiz-adv-x="1319" d="M1724 1638L1913 1262H1799L1554 1638H1724ZM1394 1638L1620 1262H1504L1216 1638H1394ZM876 1063H1060L874 106H1048L1028 0H670L706 188Q634 82 543 27T344 -29Q167 -29 103 72Q64 132
64 235Q64 302 81 387L191 956H25L46 1063H397L277 444Q257 341 257 273Q257 212 273 178Q306 106 428 106Q556 106 641 200T761 473L876 1063Z" />
<glyph unicode="&#x216;" glyph-name="uni0216" horiz-adv-x="1726" d="M2206 1694H2110Q2112 1773 2067 1808Q2022 1844 1922 1844T1763 1808Q1704 1773 1676 1694H1580Q1618 1837 1711 1909T1949 1981T2159 1909T2206 1694ZM245 1386H54L75 1493H659L638 1386H447L297
614Q241 328 313 215T614 102T958 215T1129 614L1279 1386H1088L1109 1493H1613L1592 1386H1402L1248 594Q1182 253 1024 112T551 -29T131 113T91 594L245 1386Z" />
<glyph unicode="&#x217;" glyph-name="uni0217" horiz-adv-x="1319" d="M1850 1321H1754Q1756 1400 1711 1435Q1666 1471 1566 1471T1407 1435Q1348 1400 1320 1321H1224Q1262 1464 1355 1536T1593 1608T1803 1536T1850 1321ZM876 1063H1060L874 106H1048L1028
0H670L706 188Q634 82 543 27T344 -29Q167 -29 103 72Q64 132 64 235Q64 302 81 387L191 956H25L46 1063H397L277 444Q257 341 257 273Q257 212 273 178Q306 106 428 106Q556 106 641 200T761 473L876 1063Z" />
<glyph unicode="&#x218;" glyph-name="Scommaaccent" horiz-adv-x="1403" d="M11 72L77 412L192 411Q164 241 241 160T510 78Q688 78 795 148T929 354Q950 462 905 520T688 633L503 692Q301 757 233 854T197 1120Q234 1310 389 1415T789 1520Q893 1520 1012 1498T1263
1432L1202 1114H1089Q1102 1272 1028 1342T772 1413Q614 1413 519 1349T400 1161Q379 1054 429 993T669 872L843 817Q1034 756 1102 662T1139 408Q1097 191 937 81T501 -29Q378 -29 256 -4T11 72ZM1242 -412Q1318 -370 1353 -314T1388 -178V-156H1546Q1539 -259
1481 -332Q1423 -406 1306 -460L1242 -412Z" />
<glyph unicode="&#x219;" glyph-name="scommaaccent" horiz-adv-x="1051" d="M59 307H165Q161 278 161 252Q161 70 408 70Q656 70 692 252Q695 270 695 302Q695 333 661 370T484 457L359 502Q231 546 190 602T148 724Q148 750 153 780Q182 926 305 1009T606 1092Q783
1092 969 1006L924 774H818Q822 797 822 817Q822 890 772 941T604 993Q369 993 337 829Q333 812 333 782Q333 751 365 716T525 639L662 594Q804 547 857 476Q894 426 894 377Q894 167 726 58Q594 -29 392 -29T11 59L59 307ZM1025 -412Q1101 -370 1136 -314T1171
-178V-156H1329Q1322 -259 1264 -332Q1206 -406 1089 -460L1025 -412Z" />
<glyph unicode="&#x21a;" glyph-name="uni021A" horiz-adv-x="1366" d="M165 0L185 106H376L623 1374H184L139 1141H16L84 1493H1410L1342 1141H1219L1264 1374H825L578 106H769L749 0H165ZM1160 -412Q1236 -370 1271 -314T1306 -178V-156H1464Q1457 -259 1399
-332Q1341 -406 1224 -460L1160 -412Z" />
<glyph unicode="&#x21b;" glyph-name="uni021B" horiz-adv-x="823" d="M173 956H11L32 1063H194L258 1393H443L379 1063H725L704 956H358L227 281Q212 202 212 156Q212 124 219 108Q238 70 308 70Q380 70 421 112T483 250H622Q586 105 502 38T273 -29Q114 -29
61 42Q29 85 29 165Q29 216 42 281L173 956ZM976 -412Q1052 -370 1087 -314T1122 -178V-156H1280Q1273 -259 1215 -332Q1157 -406 1040 -460L976 -412Z" />
<glyph unicode="&#x21c;" glyph-name="uni021C" horiz-adv-x="1294" d="M357 1391Q699 1520 882 1520T1177 1416T1256 1137T1125 857T893 674Q1027 655 1090 541T1131 314Q1089 96 923 -36T499 -263T3 -430L26 -315Q231 -246 424 -160T747 41T903 291T874 498Q778
619 594 537L341 424L362 532L620 655Q773 728 900 864Q996 967 1026 1123T986 1346T798 1418T565 1320Q464 1217 404 1047H291L357 1391Z" />
<glyph unicode="&#x21d;" glyph-name="uni021D" horiz-adv-x="1125" d="M507 943Q391 876 333 708H226L279 980Q377 1023 511 1056T782 1086T1020 999T1096 792T986 580T780 431Q901 416 960 329T1005 160Q970 -17 822 -125T424 -317T4 -433L24 -333Q189 -290
367 -221T674 -49Q774 31 793 133T762 293Q683 381 512 319L290 239L309 339L532 425Q658 473 763 576Q859 670 879 774T839 933T690 988Q585 988 507 943Z" />
<glyph unicode="&#x21e;" glyph-name="uni021E" horiz-adv-x="1786" d="M1647 1635L1468 1899H1584L1755 1737L1990 1899H2106L1823 1635H1647ZM13 0L33 106H223L472 1386H282L303 1493H886L865 1386H675L575 870H1349L1449 1386H1259L1280 1493H1863L1842 1386H1652L1403
106H1593L1573 0H990L1010 106H1201L1325 748H551L426 106H616L596 0H13Z" />
<glyph unicode="&#x21f;" glyph-name="uni021F" horiz-adv-x="1319" d="M1077 1711L898 1975H1014L1185 1813L1420 1975H1536L1253 1711H1077ZM17 0L299 1450H123L143 1556H503L371 874Q443 982 535 1037T735 1092Q911 1092 974 991Q1013 930 1013 828Q1013 761
996 676L885 106H1049L1029 0H680L800 618Q820 721 820 790Q820 851 804 884Q771 956 649 956Q521 956 436 863T316 592L201 0H17Z" />
<glyph unicode="&#x220;" glyph-name="uni0220" horiz-adv-x="1576" d="M645 1292Q839 1522 1153 1522Q1406 1522 1497 1376Q1551 1289 1551 1167T1527 922L1286 -319H1476L1455 -426H870L890 -319H1081L1314 881Q1344 1031 1344 1130T1318 1282Q1264 1391 1069
1391T744 1263T566 887L415 107H605L584 0H0L21 107H212L460 1386H284L305 1493H684L645 1292Z" />
<glyph unicode="&#x221;" glyph-name="uni0221" horiz-adv-x="1548" d="M1091 -51Q1358 -51 1379 56Q1403 179 984 179Q970 179 956 178Q929 83 968 11Q1002 -51 1091 -51ZM830 479L851 584Q888 775 834 876T640 977Q498 977 404 865T267 532Q224 312 274 199T467
86Q607 86 700 186T830 479ZM976 279Q983 279 991 279H1000Q1537 279 1488 49Q1445 -150 1070 -150Q909 -150 825 -57Q772 4 763 75Q720 14 702 -81L689 -145H589L603 -81Q616 -15 639 39Q621 28 603 18Q511 -29 388 -29Q192 -29 98 126T51 532T254 937T606 1092Q729
1092 803 1045T912 897L1019 1450H845L866 1556H1224L976 279Z" />
<glyph unicode="&#x222;" glyph-name="uni0222" horiz-adv-x="1271" d="M458 1156Q438 1051 749 882Q993 998 1030 1194Q1075 1423 855 1423L874 1520Q1259 1520 1191 1170Q1152 970 844 823Q1160 611 1113 368Q1036 -29 506 -29Q3 -29 81 368Q127 603 483 772Q244
929 279 1110Q332 1384 685 1382L666 1284Q483 1284 458 1156ZM526 70Q825 70 883 368Q917 543 580 715Q289 583 248 368Q190 70 526 70Z" />
<glyph unicode="&#x223;" glyph-name="uni0223" horiz-adv-x="1164" d="M487 70Q766 70 826 378Q867 588 556 757Q280 629 231 378Q171 70 487 70ZM972 1252Q991 1348 890 1497L1013 1556Q1150 1400 1112 1208Q1069 989 804 860Q1067 668 1010 378Q931 -29 468
-29T84 378Q137 649 464 814Q242 965 286 1189Q315 1339 535 1556L608 1504Q456 1347 435 1238Q407 1095 710 920Q928 1028 972 1252Z" />
<glyph unicode="&#x224;" glyph-name="uni0224" horiz-adv-x="1513" d="M0 0L14 72L1196 1370H424L381 1147H258L325 1493H1505L1491 1421L309 123H1078H1275Q1234 -48 1138 -170T878 -383L813 -303Q921 -234 983 -140Q1024 -79 1049 0H0Z" />
<glyph unicode="&#x225;" glyph-name="uni0225" horiz-adv-x="1115" d="M0 0L16 86L851 956H324L289 772H183L239 1063H1109L1092 977L257 106H745H942Q901 -65 805 -187T545 -400L480 -320Q588 -251 650 -158Q695 -89 721 0H0Z" />
<glyph unicode="&#x226;" glyph-name="uni0226" horiz-adv-x="1479" d="M1550 1770Q1540 1720 1500 1687Q1460 1653 1410 1653T1333 1687Q1306 1720 1316 1770Q1325 1816 1367 1851T1456 1886T1531 1851T1550 1770ZM527 541H1075L939 1251L527 541ZM0 0L20 106H151L953
1493H1121L1385 106H1531L1511 0H968L988 106H1154L1093 434H465L276 106H440L420 0H0Z" />
<glyph unicode="&#x227;" glyph-name="uni0227" horiz-adv-x="1028" d="M791 1534Q818 1500 809 1452Q799 1401 760 1368Q720 1335 669 1335T592 1368Q565 1401 575 1452Q584 1500 626 1534Q667 1569 715 1569T791 1534ZM676 166Q543 -29 328 -29Q152 -29 63 90Q1
174 1 294Q1 345 12 402Q80 755 326 937Q535 1092 788 1092Q958 1092 1016 1063L830 106H988L968 0H644L676 166ZM195 300Q195 86 402 86Q528 86 613 186T737 479L830 961V961Q830 990 750 990Q558 990 409 840Q261 689 208 415Q195 351 195 300Z" />
<glyph unicode="&#x228;" glyph-name="uni0228" horiz-adv-x="1498" d="M688 0Q740 -64 760 -120T772 -225Q756 -306 685 -350T501 -395Q459 -395 416 -389T329 -371L355 -240Q392 -257 430 -265T503 -274Q560 -274 598 -248T645 -176Q651 -148 638 -104T591 0H688ZM3
0L23 106H213L462 1386H272L293 1493H1495L1431 1161H1308L1348 1370H662L565 870H1054L1090 1057H1213L1117 561H994L1030 748H541L420 123H1122L1162 332H1285L1221 0H3Z" />
<glyph unicode="&#x229;" glyph-name="uni0229" horiz-adv-x="1049" d="M477 0Q529 -64 549 -120T561 -225Q545 -306 474 -350T290 -395Q248 -395 205 -389T118 -371L144 -240Q181 -257 219 -265T292 -274Q349 -274 387 -248T434 -176Q440 -148 427 -104T380 0H477ZM227
408Q223 370 223 336Q223 242 257 180Q316 70 474 70Q590 70 647 105Q749 168 773 249H908Q868 122 719 33Q615 -29 409 -29T92 124Q14 231 14 386Q14 454 29 531Q78 784 247 938T656 1092Q1047 1092 1047 815Q1047 612 842 513Q633 412 227 408ZM740 632Q852 698
852 822Q852 993 625 993Q491 993 398 891T248 514Q569 529 740 632Z" />
<glyph unicode="&#x22a;" glyph-name="uni022A" horiz-adv-x="1566" d="M634 78Q879 78 1037 246T1259 745Q1323 1076 1231 1244T894 1413Q648 1413 490 1245T268 745Q204 415 296 247T634 78ZM613 -29Q461 -29 344 21T148 168Q58 280 31 422T39 745T156 1068T372
1323Q489 1421 625 1470T915 1520Q1240 1520 1398 1307T1489 745Q1454 566 1371 423T1155 168Q1038 70 902 21T613 -29ZM784 1852Q832 1852 859 1817Q887 1782 878 1736Q868 1686 828 1653Q788 1619 738 1619Q689 1619 662 1653Q635 1686 645 1736Q654 1782 695
1817Q737 1852 784 1852ZM1174 1852Q1221 1852 1248 1817Q1276 1782 1267 1736Q1257 1686 1217 1653Q1177 1619 1128 1619Q1078 1619 1051 1653Q1024 1686 1034 1736Q1043 1782 1084 1817Q1126 1852 1174 1852ZM722 2099H1320L1292 1951H694L722 2099Z" />
<glyph unicode="&#x22b;" glyph-name="uni022B" horiz-adv-x="1086" d="M441 70Q589 70 687 187T830 532Q850 636 850 717Q850 813 822 876Q769 993 621 993T375 877T232 532Q212 428 212 348Q212 251 241 187Q294 70 441 70ZM422 -29Q190 -29 79 124Q2 231 2
385Q2 454 17 532Q66 786 236 939T640 1092T984 939Q1060 833 1060 679Q1060 610 1045 532Q996 278 826 125T422 -29ZM538 1568Q586 1568 613 1533Q641 1498 632 1452Q622 1402 582 1369Q542 1335 492 1335Q443 1335 416 1369Q389 1402 399 1452Q408 1498 449 1533Q491
1568 538 1568ZM928 1568Q975 1568 1002 1533Q1030 1498 1021 1452Q1011 1402 971 1369Q931 1335 882 1335Q832 1335 805 1369Q778 1402 788 1452Q797 1498 838 1533Q880 1568 928 1568ZM476 1815H1074L1046 1667H448L476 1815Z" />
<glyph unicode="&#x22c;" glyph-name="uni022C" horiz-adv-x="1566" d="M634 78Q879 78 1037 246T1259 745Q1323 1076 1231 1244T894 1413Q648 1413 490 1245T268 745Q204 415 296 247T634 78ZM613 -29Q461 -29 344 21T148 168Q58 280 31 422T39 745T156 1068T372
1323Q489 1421 625 1470T915 1520Q1240 1520 1398 1307T1489 745Q1454 566 1371 423T1155 168Q1038 70 902 21T613 -29ZM732 2099H1330L1302 1951H704L732 2099ZM934 1690L891 1718Q874 1731 855 1738T819 1745Q780 1745 748 1716Q717 1688 704 1642L608 1643Q629
1743 692 1802Q754 1861 839 1861Q875 1861 905 1852Q934 1843 983 1812L1027 1786Q1047 1773 1068 1766Q1088 1759 1105 1759Q1146 1759 1175 1786Q1204 1814 1213 1861H1310Q1288 1756 1225 1699Q1163 1642 1069 1642Q1002 1642 938 1687L934 1690Z" />
<glyph unicode="&#x22d;" glyph-name="uni022D" horiz-adv-x="1088" d="M442 70Q590 70 688 187T831 532Q851 636 851 717Q851 813 823 876Q770 993 622 993T376 877T233 532Q213 428 213 348Q213 251 242 187Q295 70 442 70ZM423 -29Q191 -29 80 124Q3 231 3
385Q3 454 18 532Q67 786 237 939T641 1092T985 939Q1061 833 1061 679Q1061 610 1046 532Q997 278 827 125T423 -29ZM477 1766H1075L1047 1618H449L477 1766ZM679 1357L636 1385Q619 1398 600 1405T564 1412Q525 1412 493 1383Q462 1355 449 1309L353 1310Q374
1410 437 1469Q499 1528 584 1528Q620 1528 650 1519Q679 1510 728 1479L772 1453Q792 1440 813 1433Q833 1426 850 1426Q891 1426 920 1453Q949 1481 958 1528H1055Q1033 1423 970 1366Q908 1309 814 1309Q747 1309 683 1354L679 1357Z" />
<glyph unicode="&#x22e;" glyph-name="uni022E" horiz-adv-x="1679" d="M1651 1770Q1641 1720 1601 1687Q1561 1653 1511 1653T1434 1687Q1407 1720 1417 1770Q1426 1816 1468 1851T1557 1886T1632 1851T1651 1770ZM647 78Q892 78 1050 246T1272 745Q1336 1076
1244 1244T907 1413Q661 1413 503 1245T281 745Q217 415 309 247T647 78ZM626 -29Q474 -29 357 21T161 168Q71 280 44 422T52 745T169 1068T385 1323Q502 1421 638 1470T928 1520Q1253 1520 1411 1307T1502 745Q1467 566 1384 423T1168 168Q1051 70 915 21T626
-29Z" />
<glyph unicode="&#x22f;" glyph-name="uni022F" horiz-adv-x="1233" d="M457 70Q605 70 703 187T846 532Q866 636 866 717Q866 813 838 876Q785 993 637 993T391 877T248 532Q228 428 228 348Q228 251 257 187Q310 70 457 70ZM438 -29Q206 -29 95 124Q18 231 18
385Q18 454 33 532Q82 786 252 939T656 1092T1000 939Q1076 833 1076 679Q1076 610 1061 532Q1012 278 842 125T438 -29ZM344 1534Q371 1500 362 1452Q352 1401 313 1368Q273 1335 222 1335T145 1368Q118 1401 128 1452Q137 1500 179 1534Q220 1569 268 1569T344
1534Z" />
<glyph unicode="&#x230;" glyph-name="uni0230" horiz-adv-x="1562" d="M633 78Q878 78 1036 246T1258 745Q1322 1076 1230 1244T893 1413Q647 1413 489 1245T267 745Q203 415 295 247T633 78ZM612 -29Q460 -29 343 21T147 168Q57 280 30 422T38 745T155 1068T371
1323Q488 1421 624 1470T914 1520Q1239 1520 1397 1307T1488 745Q1453 566 1370 423T1154 168Q1037 70 901 21T612 -29ZM703 2099H1301L1273 1951H675L703 2099ZM1072 1733Q1062 1683 1022 1650Q982 1616 932 1616T855 1650Q828 1683 838 1733Q847 1779 889 1814T978
1849T1053 1814T1072 1733Z" />
<glyph unicode="&#x231;" glyph-name="uni0231" horiz-adv-x="1068" d="M440 70Q588 70 686 187T829 532Q849 636 849 717Q849 813 821 876Q768 993 620 993T374 877T231 532Q211 428 211 348Q211 251 240 187Q293 70 440 70ZM421 -29Q189 -29 78 124Q1 231 1
385Q1 454 16 532Q65 786 235 939T639 1092T983 939Q1059 833 1059 679Q1059 610 1044 532Q995 278 825 125T421 -29ZM456 1817H1054L1026 1669H428L456 1817ZM825 1451Q815 1401 775 1368Q735 1334 685 1334T608 1368Q581 1401 591 1451Q600 1497 642 1532T731
1567T806 1532T825 1451Z" />
<glyph unicode="&#x232;" glyph-name="uni0232" horiz-adv-x="1352" d="M285 1842H883L855 1694H257L285 1842ZM155 0L175 106H366L471 643L154 1386H14L35 1493H590L569 1386H395L651 782L1141 1386H973L994 1493H1428L1407 1386H1266L677 662L568 106H759L739 0H155Z" />
<glyph unicode="&#x233;" glyph-name="uni0233" horiz-adv-x="1157" d="M122 1526H720L692 1378H94L122 1526ZM1268 1054Q1169 482 995 180Q740 -263 535 -396Q444 -455 204 -455Q157 -455 110 -447T14 -424L54 -221H148Q146 -237 146 -252Q146 -294 164 -318Q189
-352 254 -352Q430 -352 583 -199L332 956H211L232 1063H507L743 8Q904 249 943 348Q1069 659 1094 947H973L994 1054H1268Z" />
<glyph unicode="&#x234;" glyph-name="uni0234" horiz-adv-x="794" d="M272 164Q322 70 460 70Q618 68 639 177Q664 301 552 300Q372 298 272 164ZM248 532Q218 373 233 268Q401 408 590 408Q794 408 748 170Q709 -29 438 -29Q285 -29 192 42Q177 10 161 -75L133
-219H19L48 -75Q71 26 110 105L95 124Q18 295 64 532L243 1450H66L87 1556H448L248 532Z" />
<glyph unicode="&#x235;" glyph-name="uni0235" horiz-adv-x="1511" d="M988 164Q1038 70 1176 70Q1334 68 1356 177Q1380 301 1268 300Q1088 298 988 164ZM796 618Q834 813 800 885T645 958Q517 958 432 865T312 592L197 0H13L199 956H23L44 1063H404L367 874Q439
982 531 1037T731 1092Q907 1092 970 991T993 676L965 532Q930 355 949 268Q1117 408 1306 408Q1510 408 1464 170Q1426 -29 1155 -29Q1001 -29 908 42Q893 10 878 -75L850 -219H736L765 -75Q787 26 827 105L811 124Q734 296 780 532L796 618Z" />
<glyph unicode="&#x236;" glyph-name="uni0236" horiz-adv-x="822" d="M300 164Q350 70 488 70Q646 68 667 177Q691 301 580 300Q400 298 300 164ZM359 956L276 532Q245 373 261 268Q429 408 618 408Q822 408 776 170Q737 -29 466 -29Q313 -29 220 42Q205 10 189
-75L161 -219H47L76 -75Q99 26 138 105L123 124Q45 296 91 532L174 956H12L33 1063H195L259 1393H444L380 1063H726L705 956H359Z" />
<glyph unicode="&#x237;" glyph-name="dotlessj" horiz-adv-x="921" d="M709 956H535L556 1063H914L687 -104Q655 -268 539 -361T252 -455Q180 -455 118 -439T0 -389L43 -170H138Q126 -266 160 -311T276 -356Q367 -356 422 -295T503 -104L709 956Z" />
<glyph unicode="&#x238;" glyph-name="uni0238" horiz-adv-x="1877" d="M835 479L855 584Q892 775 839 876T645 977Q503 977 409 865T271 532Q228 312 278 199T471 86Q611 86 704 186T835 479ZM1019 479Q981 287 1035 187T1229 86Q1370 86 1464 199T1602 532Q1645
753 1594 865T1403 977Q1263 977 1170 876T1039 584L1019 479ZM742 0L774 166Q700 66 608 19T392 -29Q196 -29 102 126T56 532T259 937T610 1092Q733 1092 807 1045T916 897L1023 1450H846L867 1556H1228L1100 897Q1173 997 1266 1044T1482 1092Q1678 1092 1772
937T1817 532T1614 127T1264 -29Q1141 -29 1067 18T958 166L926 0H742Z" />
<glyph unicode="&#x239;" glyph-name="uni0239" horiz-adv-x="1877" d="M859 584Q896 775 842 876T648 977Q506 977 412 865T275 532Q232 312 282 199T475 86Q615 86 708 186T838 479L859 584ZM952 1063H1136L1104 897Q1177 997 1270 1044T1486 1092Q1682 1092
1775 937T1821 532T1618 127T1268 -29Q1145 -29 1071 18T962 166L867 -319H1041H1043L1022 -426H1020H662L778 166Q704 66 612 19T396 -29Q200 -29 106 126T59 532T262 937T614 1092Q737 1092 811 1045T920 897L952 1063ZM1043 584L1022 479Q985 287 1039 187T1233
86Q1374 86 1468 199T1606 532Q1649 753 1598 865T1406 977Q1266 977 1173 876T1043 584Z" />
<glyph unicode="&#x23a;" glyph-name="uni023A" horiz-adv-x="1783" d="M0 0L20 106H120L187 167L953 1493H1121L1199 1085L1710 1550L1776 1479L1220 975L1385 106H1531L1511 0H968L988 106H1154L1093 434H623L294 136L276 106H440L420 0H144L81 -57L27 0H0ZM448
404L481 434H465L448 404ZM1005 909L939 1251L527 541H599L1005 909ZM741 541H1075L1026 799L741 541Z" />
<glyph unicode="&#x23b;" glyph-name="uni023B" horiz-adv-x="1772" d="M72 -57L7 12L271 252Q228 331 211 422Q184 565 219 745Q286 1093 528 1306T1100 1520Q1222 1520 1354 1488Q1453 1464 1560 1422L1701 1550L1767 1479L1624 1349L1565 1047H1452Q1452 1121
1437 1180L455 290Q463 268 474 248Q564 78 803 78Q970 78 1093 157T1296 395H1480Q1373 186 1197 79T782 -29Q636 -29 521 21T328 168L324 172L72 -57ZM428 394L1398 1275Q1381 1302 1358 1324Q1264 1413 1063 1413Q824 1413 668 1244T448 745Q408 538 428 394Z"
/>
<glyph unicode="&#x23c;" glyph-name="uni023C" horiz-adv-x="1299" d="M68 -94L5 -31L213 170Q137 314 179 532Q229 787 399 939T802 1092Q903 1092 998 1068Q1053 1055 1105 1034L1233 1157L1296 1094L1183 984L1133 725H1026Q1028 782 1020 827L390 218Q396
201 402 186Q455 70 605 70Q724 70 807 132T941 319H1089Q1017 149 889 60T584 -29Q375 -29 264 95L68 -94ZM374 326L984 916Q979 923 974 929Q916 993 785 993Q636 993 538 878T394 532Q371 414 374 326Z" />
<glyph unicode="&#x23d;" glyph-name="uni023D" horiz-adv-x="1281" d="M7 0L27 106H217L337 719H137L161 844H361L466 1386H276L297 1493H880L859 1386H669L564 844H900L876 719H540L424 123H1106L1154 373H1277L1205 0H7Z" />
<glyph unicode="&#x23e;" glyph-name="uni023E" horiz-adv-x="1767" d="M1034 0H450L470 106H661L749 557L71 -57L7 12L780 714L908 1374H469L424 1141H301L369 1493H1638L1701 1550L1767 1479L1676 1397L1627 1141H1504L1527 1262L994 779L863 106H1054L1034
0ZM1507 1374H1110L1025 936L1507 1374Z" />
<glyph unicode="&#x23f;" glyph-name="uni023F" horiz-adv-x="976" d="M284 -33L326 -195Q351 -288 373 -318Q396 -348 475 -348Q518 -348 552 -319T606 -221H700L661 -424Q608 -439 557 -447T445 -455Q303 -455 248 -415Q167 -355 139 -240L96 -57Q80 10 53 39Q31
48 9 59L57 307H163Q144 188 203 129T400 70Q524 70 598 116T689 252Q703 322 664 365T481 457L357 502Q228 546 180 612T151 780Q179 926 302 1009T614 1092Q698 1092 787 1070T967 1006L922 774H816Q832 877 775 935T601 993Q485 993 418 952T334 829Q321 762
358 722T522 639L660 594Q801 547 854 477T885 295Q856 144 724 58T388 -29Q333 -29 281 -23L284 -33Z" />
<glyph unicode="&#x240;" glyph-name="uni0240" horiz-adv-x="1126" d="M215 0H1L18 86L853 956H326L290 772H184L241 1063H1111L1094 977L259 106H307Q534 106 599 -122L620 -195Q648 -292 667 -318Q690 -348 730 -348Q773 -348 807 -319T861 -221H955L915 -424Q863
-439 812 -447T699 -455Q597 -455 542 -415Q460 -355 433 -240L412 -146Q378 0 215 0Z" />
<glyph unicode="&#x241;" glyph-name="uni0241" horiz-adv-x="1189" d="M432 1387Q346 1387 303 1349Q252 1305 227 1209H131L173 1427Q242 1461 311 1477T452 1493H746Q970 1493 1079 1380T1151 1074Q1113 880 960 766T583 652Q583 652 535 652L428 106H659L639
0H15L35 106H225L353 760H555Q704 760 797 840T921 1074Q950 1226 888 1306T677 1387H432Z" />
<glyph unicode="&#x242;" glyph-name="uni0242" horiz-adv-x="830" d="M196 359Q343 359 438 440Q532 520 562 673Q591 825 529 906Q467 986 318 986Q233 986 189 948Q138 904 113 808H17L59 1026Q128 1060 197 1076T338 1092H387Q611 1092 720 978Q829 865 792
673Q754 477 601 365Q496 288 360 263L309 0H126L196 359Z" />
<glyph unicode="&#x243;" glyph-name="uni0243" horiz-adv-x="1474" d="M9 0L29 106H219L271 369H71L95 494H295L468 1386H278L299 1493H1036Q1262 1493 1358 1401T1419 1124Q1393 991 1299 912T1047 815Q1232 791 1312 694T1360 432Q1317 210 1157 105T699 0H9ZM569
862H823Q987 862 1075 925T1189 1124Q1216 1261 1153 1323T925 1386H671L569 862ZM422 106H721Q901 106 999 184T1131 432Q1164 601 1097 678T848 756H549L498 494H832L808 369H474L422 106Z" />
<glyph unicode="&#x244;" glyph-name="uni0244" horiz-adv-x="1718" d="M1571 719H15L40 844H1596L1571 719ZM345 1386H154L175 1493H759L738 1386H547L397 614Q341 328 413 215T714 102T1058 215T1229 614L1379 1386H1188L1209 1493H1713L1692 1386H1502L1348
594Q1282 253 1124 112T651 -29T231 113T191 594L345 1386Z" />
<glyph unicode="&#x245;" glyph-name="uni0245" horiz-adv-x="1479" d="M1154 106L939 1251L276 106H440L420 0H0L20 106H151L953 1493H1121L1385 106H1531L1511 0H968L988 106H1154Z" />
<glyph unicode="&#x246;" glyph-name="uni0246" horiz-adv-x="1502" d="M1174 1604L1268 1572L1228 1493H1495L1431 1161H1308L1348 1370H1165L911 870H1054L1090 1057H1213L1117 561H994L1030 748H849L531 123H1122L1162 332H1285L1221 0H468L411 -111L317 -79L357
0H3L23 106H213L462 1386H272L293 1493H1117L1174 1604ZM420 124L737 748H541L420 124ZM800 870L1054 1370H662L565 870H800Z" />
<glyph unicode="&#x247;" glyph-name="uni0247" horiz-adv-x="1050" d="M793 1185L882 1157L839 1071Q1045 1016 1045 815Q1045 612 840 513Q714 452 517 427L350 92Q401 70 472 70Q588 70 645 105Q747 168 771 249H906Q866 122 717 33Q613 -29 407 -29Q347 -29
295 -16L248 -111L158 -83L208 18Q139 56 90 124Q12 231 12 386Q12 454 27 531Q76 784 245 938T654 1092Q702 1092 744 1088L793 1185ZM738 632Q850 699 850 822Q850 915 782 958L587 567Q673 593 738 632ZM225 408Q221 370 221 336Q221 243 255 180Q264 164 275
150L408 415Q322 409 225 408ZM469 538L694 988Q662 993 623 993Q489 993 396 891T246 514Q368 519 469 538Z" />
<glyph unicode="&#x248;" glyph-name="uni0248" horiz-adv-x="1259" d="M0 -358L45 -123H159Q143 -222 177 -270T300 -319Q419 -319 480 -244T585 49L715 719H473L497 844H739L845 1386H613L634 1493H1259L1238 1386H1048L942 844H1142L1118 719H918L786 41Q738
-206 618 -316T277 -426Q206 -426 136 -409T0 -358Z" />
<glyph unicode="&#x249;" glyph-name="uni0249" horiz-adv-x="645" d="M343 1426Q343 1355 298 1318T205 1280T135 1309T111 1383T156 1468T248 1507T319 1477T343 1426ZM709 956H535L556 1063H914L818 570H992L971 464H797L687 -104Q655 -268 539 -361T252 -455Q180
-455 118 -439T0 -389L43 -170H138Q126 -266 160 -311T276 -356Q367 -356 422 -295T503 -104L613 464H437L458 570H634L709 956Z" />
<glyph unicode="&#x24a;" glyph-name="uni024A" horiz-adv-x="1638" d="M546 78Q654 78 741 123T891 252T995 442T1063 682L1088 810Q1114 942 1113 1048T1083 1238T983 1367T805 1413Q714 1413 638 1380T506 1288T405 1144T330 962T277 746Q257 644 249 558T242
409T257 294T286 209T328 150T377 112T434 90T490 80T546 78ZM789 1520Q952 1520 1044 1462T1181 1288L1221 1493H1600L1579 1386H1403L1143 49Q1101 -169 1133 -244T1285 -319Q1373 -319 1426 -271T1502 -123H1616L1570 -358Q1490 -392 1414 -409T1266 -426Q1046
-426 969 -316T939 41L970 202Q934 155 895 119T797 46T661 -9T488 -29Q239 -29 122 186Q5 399 73 746Q117 974 221 1149T473 1422T789 1520Z" />
<glyph unicode="&#x24b;" glyph-name="uni024B" horiz-adv-x="1264" d="M756 990Q564 990 415 840Q267 689 213 415Q198 334 202 273Q206 211 231 169Q280 86 408 86Q534 86 619 186T742 479L836 961Q837 990 756 990ZM682 166Q613 66 529 18Q445 -29 334 -29Q158
-29 69 90Q13 164 7 269Q3 331 17 402Q86 755 331 937Q540 1091 785 1092Q979 1093 1040 1063L815 -104Q790 -235 821 -295T943 -356Q1025 -356 1076 -311T1153 -170H1248L1205 -389Q1142 -420 1071 -437T928 -455Q755 -455 677 -362T630 -104L682 166Z" />
<glyph unicode="&#x24c;" glyph-name="uni024C" horiz-adv-x="1531" d="M559 801H854Q1005 801 1090 872T1205 1094T1177 1315T967 1386H672L559 801ZM1022 741Q1089 722 1130 676Q1171 631 1196 549L1326 106H1508L1488 0H1136L995 475Q954 614 907 654Q859 694
761 694H538L423 106H634L614 0H10L30 106H220L335 694H135L156 801H356L469 1386H279L300 1493H1057Q1275 1493 1373 1389T1435 1094Q1405 940 1301 852T1022 741Z" />
<glyph unicode="&#x24d;" glyph-name="uni024D" horiz-adv-x="1033" d="M1033 1065L981 799H875Q885 878 854 917T748 956Q612 956 521 862Q428 765 396 592L392 570H683L662 464H371L281 0H97L187 464H11L32 570H208L283 958H107L127 1063H487L451 874Q527 985
622 1038T839 1092Q884 1092 932 1085T1033 1065Z" />
<glyph unicode="&#x24e;" glyph-name="uni024E" horiz-adv-x="1486" d="M213 0L233 106H424L529 643L348 1067H10L34 1189H296L212 1386H72L93 1493H648L627 1386H453L537 1189H1039L1199 1386H1031L1052 1493H1486L1465 1386H1324L1164 1189H1427L1403 1067H1064L735
662L626 106H817L797 0H213ZM940 1067H588L709 782L940 1067Z" />
</font>
</defs>
</svg>
