<?xml version="1.0" standalone="no"?> <!DOCTYPE svg PUBLIC "-//W3C//DTD SVG 1.0//EN" "http://www.w3.org/TR/2001/REC-SVG-20010904/DTD/svg10.dtd" > <svg xmlns="http://www.w3.org/2000/svg" width="100%" height="100%">
<defs >
<font horiz-adv-x="1438" ><font-face
    font-family="DejaVu Serif"
    units-per-em="2048"
    panose-1="2 6 8 3 5 3 5 11 2 4"
    ascent="1923"
    descent="-483"
    alphabetic="0" />
<missing-glyph horiz-adv-x="1107" d="M41 -362V1444H1065V-362H41ZM156 -248H951V1329H156V-248Z" />
<glyph unicode=" " glyph-name="space" horiz-adv-x="713" />
<glyph unicode="!" glyph-name="exclam" horiz-adv-x="655" d="M18 162Q33 240 99 296T244 352T367 296T397 162Q382 83 315 27T170 -29T48 27T18 162ZM279 1493H654L371 651L334 461H195L232 651L279 1493Z" />
<glyph unicode="&quot;" glyph-name="quotedbl" horiz-adv-x="760" d="M278 1493V938H41V1493H278ZM718 1493V938H481V1493H718Z" />
<glyph unicode="#" glyph-name="numbersign" horiz-adv-x="1450" d="M891 872H627L557 598H821L891 872ZM778 1470L682 1085H946L1043 1470H1264L1167 1085H1444V872H1114L1045 598H1329V383H993L897 0H676L772 383H508L412 0H189L285 383H6V598H334L404 872H121V1085H459L555
1470H778Z" />
<glyph unicode="$" glyph-name="dollar" horiz-adv-x="1213" d="M1 59L58 350H178Q169 216 234 150T444 84H458L537 489Q298 544 209 639T151 897Q186 1077 328 1180T692 1290L745 1559H866L813 1290Q924 1284 1022 1263T1210 1202L1157 930H1036Q1043 1046 979
1110T791 1177L719 805Q977 746 1066 647T1121 367Q1085 182 939 80T557 -29L504 -299H383L436 -29Q326 -27 218 -5T1 59ZM671 1178Q583 1167 526 1125T456 1022Q443 952 477 909T604 838L671 1178ZM579 84Q682 95 742 138T817 256T793 378T651 457L579 84Z" />
<glyph unicode="%" glyph-name="percent" horiz-adv-x="1819" d="M510 1419Q446 1419 405 1350T331 1114Q298 947 312 877T391 807Q456 807 497 877T572 1114Q604 1280 590 1349T510 1419ZM530 1520Q721 1520 802 1416T845 1114T685 812T372 707Q182 707 101 812T57
1114T218 1415T530 1520ZM1442 1520H1614L378 -29H206L1442 1520ZM1447 784Q1638 784 1719 680T1762 379Q1723 182 1602 77T1289 -29Q1099 -29 1018 76T976 379Q1014 575 1135 679T1447 784ZM1248 379Q1215 212 1230 142T1309 72Q1374 72 1415 142T1490 379Q1522
545 1508 614T1428 684T1322 615T1248 379Z" />
<glyph unicode="&amp;" glyph-name="ampersand" horiz-adv-x="1832" d="M1665 0H1186L1085 131Q969 51 840 11T568 -29Q268 -29 124 99Q13 197 13 352Q13 399 23 451Q54 614 163 729T473 928Q436 995 422 1056Q414 1090 414 1122Q414 1148 419 1174Q451 1338 606
1429T1011 1520Q1085 1520 1181 1508T1396 1473L1336 1161H1207Q1207 1175 1207 1189Q1207 1292 1166 1342Q1119 1399 1012 1399Q911 1399 844 1351T760 1221Q758 1210 758 1198Q758 1106 886 947Q902 927 911 918L1277 436Q1350 504 1401 593T1484 795L1507 915H1825L1802
795H1626Q1580 649 1513 536T1354 336L1519 121H1689L1665 0ZM1010 229L559 817Q491 750 449 675T389 516Q380 469 380 427Q380 317 442 238Q527 129 691 129Q769 129 847 153T1010 229Z" />
<glyph unicode="&apos;" glyph-name="quotesingle" horiz-adv-x="321" d="M278 1493V938H41V1493H278Z" />
<glyph unicode="(" glyph-name="parenleft" horiz-adv-x="921" d="M556 -319Q243 -194 123 39T69 618T345 1194T920 1556L897 1436Q720 1340 614 1152T441 618Q374 274 407 86T579 -199L556 -319Z" />
<glyph unicode=")" glyph-name="parenright" horiz-adv-x="922" d="M1 -319L24 -199Q201 -103 307 85T480 618Q547 963 514 1151T342 1436L365 1556Q681 1424 800 1194T853 618T574 39T1 -319Z" />
<glyph unicode="*" glyph-name="asterisk" horiz-adv-x="989" d="M985 1212L625 1044L985 874L887 719L559 958L586 569H403L430 958L102 719L4 874L365 1044L4 1212L102 1370L430 1128L403 1520H586L559 1128L887 1370L985 1212Z" />
<glyph unicode="+" glyph-name="plus" horiz-adv-x="1282" d="M756 1284V758H1282V528H756V2H526V528H0V758H526V1284H756Z" />
<glyph unicode="," glyph-name="comma" horiz-adv-x="588" d="M1 -197Q121 -113 190 -9T286 233L303 319H588L586 311Q543 90 420 -69T83 -338L1 -197Z" />
<glyph unicode="-" glyph-name="hyphen" horiz-adv-x="744" d="M84 684H712L660 414H32L84 684Z" />
<glyph unicode="." glyph-name="period" horiz-adv-x="440" d="M30 162Q45 240 112 296T257 352Q336 352 381 296T411 162Q396 83 329 27T183 -29Q105 -29 60 27T30 162Z" />
<glyph unicode="/" glyph-name="slash" horiz-adv-x="1076" d="M854 1493H1076L221 -190H0L854 1493Z" />
<glyph unicode="0" glyph-name="zero" horiz-adv-x="1409" d="M914 745Q999 1181 976 1292T833 1403T647 1294T496 745Q411 306 434 197T577 88T763 197T914 745ZM554 -29Q255 -29 135 170T88 745T359 1320T856 1520Q1154 1520 1274 1320T1321 745T1050 171T554 -29Z" />
<glyph unicode="1" glyph-name="one" horiz-adv-x="987" d="M1 0L25 121H305L540 1329L193 1145L222 1294L641 1520H956L684 121H965L941 0H1Z" />
<glyph unicode="2" glyph-name="two" horiz-adv-x="1381" d="M366 1124H246L308 1446Q438 1483 561 1501T806 1520Q1091 1520 1227 1404T1324 1079Q1295 931 1185 814T794 535L325 262H1032L1066 438H1203L1118 0H14L62 244L312 397Q633 592 754 729T910 1049Q944
1222 890 1312T699 1403Q581 1403 496 1332T366 1124Z" />
<glyph unicode="3" glyph-name="three" horiz-adv-x="1367" d="M318 1450Q457 1485 584 1502T830 1520Q1100 1520 1225 1424T1316 1147Q1290 1012 1191 928T926 815Q1114 784 1190 682T1232 403Q1192 194 1005 83T503 -29Q385 -29 264 -9T13 51L77 379H198Q181
237 244 163T446 88Q598 88 697 172T827 412Q859 574 790 662T561 750H495L518 870H570Q717 870 804 938T918 1141Q943 1268 887 1335T700 1403Q582 1403 501 1339T381 1151H260L318 1450Z" />
<glyph unicode="4" glyph-name="four" horiz-adv-x="1300" d="M1146 0H324L348 121H570L623 393H0L22 508L844 1520H1220L1026 522H1282L1257 393H1001L948 121H1170L1146 0ZM648 522L789 1247L203 522H648Z" />
<glyph unicode="5" glyph-name="five" horiz-adv-x="1297" d="M1279 1493L1228 1231H429L365 903Q441 954 527 980T703 1006Q979 1006 1112 867T1198 487Q1151 243 965 107T490 -29Q368 -29 252 -9T12 53L75 379H195Q173 232 229 160T424 88Q571 88 661 186T790
487Q829 686 779 784T587 883Q511 883 446 852T316 754H216L360 1493H1279Z" />
<glyph unicode="6" glyph-name="six" horiz-adv-x="1356" d="M494 885Q569 937 654 963T835 989Q1064 989 1168 855T1228 487Q1180 240 1007 106T562 -29Q256 -29 135 155T83 698Q162 1105 377 1312T937 1520Q1027 1520 1127 1505T1339 1460L1288 1196H1167Q1161
1298 1102 1350T933 1403Q755 1403 652 1281T494 885ZM432 175Q459 88 562 88T726 175T829 479T844 782T714 870T551 783T448 479T432 175Z" />
<glyph unicode="7" glyph-name="seven" horiz-adv-x="1208" d="M1159 1239L302 0H99L934 1210H197L158 1008H21L115 1493H1208L1159 1239Z" />
<glyph unicode="8" glyph-name="eight" horiz-adv-x="1407" d="M975 795Q1147 766 1219 664T1260 397Q1220 191 1043 81T573 -29T146 81T51 397Q83 562 196 664T492 795Q342 831 280 915T244 1130Q281 1320 442 1420T875 1520Q1145 1520 1268 1420T1354 1130Q1328
1000 1234 916T975 795ZM966 1126Q997 1284 971 1343T852 1403Q759 1403 710 1344T630 1126Q599 969 625 911T745 852T886 910T966 1126ZM867 414Q902 597 869 666T722 735Q607 735 548 666T453 414Q417 229 449 159T596 88Q709 88 770 158T867 414Z" />
<glyph unicode="9" glyph-name="nine" horiz-adv-x="1356" d="M924 1315Q897 1403 794 1403T631 1316T528 1012T512 709T642 621T806 708T909 1012T924 1315ZM862 608Q786 555 701 529T521 502Q293 502 189 635T129 1004Q177 1252 349 1386T793 1520Q1099 1520
1221 1335T1273 793Q1194 386 979 179T419 -29Q329 -29 229 -14T17 31L68 295H189Q195 193 254 141T424 88Q600 88 704 210T862 608Z" />
<glyph unicode=":" glyph-name="colon" horiz-adv-x="545" d="M147 813Q163 892 229 948T373 1004T496 948T526 813T445 680T300 625T177 680T147 813ZM21 162Q36 240 102 296T247 352T370 296T400 162Q384 83 318 27T173 -29T50 27T21 162Z" />
<glyph unicode=";" glyph-name="semicolon" horiz-adv-x="724" d="M330 813Q345 892 411 948T556 1004T679 948T709 813T627 680T482 625T359 680T330 813ZM0 -188Q121 -105 190 -2T286 240L303 328H588Q545 103 421 -59T83 -330L0 -188Z" />
<glyph unicode="&lt;" glyph-name="less" horiz-adv-x="1298" d="M1282 979L303 641L1282 305V66L0 530V756L1282 1219V979Z" />
<glyph unicode="=" glyph-name="equal" horiz-adv-x="1332" d="M41 528H1323V301H41V528ZM41 983H1323V756H41V983Z" />
<glyph unicode="&gt;" glyph-name="greater" horiz-adv-x="1323" d="M41 979V1219L1323 756V530L41 66V305L1020 641L41 979Z" />
<glyph unicode="?" glyph-name="question" horiz-adv-x="1034" d="M47 162Q62 240 129 296T274 352Q353 352 398 296T428 162Q412 83 345 27T199 -29Q121 -29 76 27T47 162ZM88 1452Q219 1486 334 1503T555 1520Q807 1520 920 1410T994 1094Q954 892 801 776T400
641L360 436H221L279 735Q427 778 510 870T623 1116Q651 1260 605 1333T439 1407Q329 1407 257 1341T150 1145H29L88 1452Z" />
<glyph unicode="@" glyph-name="at" horiz-adv-x="1893" d="M1184 504L1198 580Q1223 709 1177 787T1029 866Q930 866 853 779T746 543T760 307T903 219Q1004 219 1081 296T1184 504ZM1132 240Q1074 168 996 130T827 92Q636 92 550 212T505 543T678 873T1002 993Q1092
993 1156 955T1250 846L1274 971H1493L1349 229Q1500 268 1600 385T1735 678Q1763 821 1731 938T1604 1151Q1528 1229 1412 1271T1156 1313Q1026 1313 906 1278T679 1174Q516 1068 408 904T261 543Q231 388 253 251T344 12Q428 -107 555 -168T846 -229Q968 -229
1088 -195T1325 -94L1364 -188Q1220 -272 1073 -314T782 -356Q588 -356 439 -293T186 -104Q85 20 51 185T54 543T190 900T438 1190Q590 1316 766 1378T1147 1440Q1325 1440 1461 1392T1694 1245Q1805 1134 1843 992T1848 676Q1794 400 1607 246T1135 92H1104L1132
240Z" />
<glyph unicode="A" glyph-name="A" horiz-adv-x="1662" d="M0 0L23 121H145L974 1493H1213L1509 121H1651L1628 0H929L952 121H1098L1035 426H474L289 121H467L444 0H0ZM546 547H1009L890 1118L546 547Z" />
<glyph unicode="B" glyph-name="B" horiz-adv-x="1722" d="M13 0L36 121H227L471 1372H280L303 1493H1188Q1461 1493 1580 1401T1663 1124Q1638 991 1528 913T1228 815Q1449 794 1550 695T1619 432Q1576 210 1388 105T843 0H13ZM758 870H889Q1061 870 1156 932T1276
1124Q1302 1254 1233 1313T987 1372H856L758 870ZM612 121H755Q946 121 1053 197T1191 432Q1222 592 1145 671T878 750H735L612 121Z" />
<glyph unicode="C" glyph-name="C" horiz-adv-x="1620" d="M1461 426Q1357 195 1182 83T749 -29Q371 -29 193 179T83 745Q152 1103 412 1311T1051 1520Q1184 1520 1321 1488T1607 1391L1536 1024H1409Q1407 1212 1322 1305T1068 1399Q850 1399 713 1239T511 745T521
252T816 92Q965 92 1075 175T1262 426H1461Z" />
<glyph unicode="D" glyph-name="D" horiz-adv-x="1840" d="M613 121H752Q986 121 1124 271T1325 748Q1388 1073 1310 1222T996 1372H857L613 121ZM14 0L37 121H228L472 1372H281L304 1493H1070Q1472 1493 1647 1301T1753 748Q1683 385 1432 193T780 0H14Z" />
<glyph unicode="E" glyph-name="E" horiz-adv-x="1666" d="M12 0L35 121H226L470 1372H279L302 1493H1644L1576 1141H1438L1479 1356H851L758 877H1149L1186 1067H1323L1223 551H1086L1123 741H732L615 137H1262L1303 352H1440L1372 0H12Z" />
<glyph unicode="F" glyph-name="F" horiz-adv-x="1634" d="M12 0L35 121H226L470 1372H279L302 1493H1633L1565 1141H1428L1469 1356H853L760 877H1139L1176 1067H1313L1213 551H1076L1113 741H734L613 121H848L825 0H12Z" />
<glyph unicode="G" glyph-name="G" horiz-adv-x="1681" d="M1462 1024Q1456 1222 1368 1310T1089 1399Q857 1399 718 1242T513 745Q448 409 521 251T814 92Q898 92 973 111T1116 168L1195 578H1015L1039 698H1577L1465 125Q1282 47 1107 9T757 -29Q373 -29 194
178T85 745Q155 1106 415 1313T1059 1520Q1219 1520 1367 1488T1660 1391L1589 1024H1462Z" />
<glyph unicode="H" glyph-name="H" horiz-adv-x="2069" d="M16 0L39 121H230L474 1372H283L306 1493H1074L1051 1372H859L761 870H1355L1453 1372H1262L1285 1493H2053L2030 1372H1838L1594 121H1786L1763 0H995L1018 121H1209L1328 733H734L615 121H807L784 0H16Z" />
<glyph unicode="I" glyph-name="I" horiz-adv-x="1065" d="M4 0L27 121H218L462 1372H271L294 1493H1062L1039 1372H847L603 121H795L772 0H4Z" />
<glyph unicode="J" glyph-name="J" horiz-adv-x="1403" d="M1 -358L46 -123H176Q164 -217 194 -261T300 -305Q397 -305 450 -231T543 49L800 1372H583L607 1493H1402L1378 1372H1187L928 41Q881 -202 737 -314T325 -426Q242 -426 162 -409T1 -358Z" />
<glyph unicode="K" glyph-name="K" horiz-adv-x="1931" d="M15 0L38 121H229L473 1372H282L305 1493H1073L1050 1372H858L752 827L1491 1372H1331L1354 1493H1911L1888 1372H1689L1063 911L1638 121H1785L1762 0H1256L732 725L614 121H806L783 0H15Z" />
<glyph unicode="L" glyph-name="L" horiz-adv-x="1389" d="M9 0L32 121H223L467 1372H276L299 1493H1067L1044 1372H852L612 137H1200L1245 373H1380L1308 0H9Z" />
<glyph unicode="M" glyph-name="M" horiz-adv-x="2415" d="M20 0L43 121H233L477 1372H287L310 1493H926L1166 535L1780 1493H2395L2372 1372H2181L1937 121H2128L2105 0H1337L1360 121H1550L1772 1260L1106 219H853L595 1260L373 121H563L540 0H20Z" />
<glyph unicode="N" glyph-name="N" horiz-adv-x="2018" d="M16 0L39 121H230L474 1372H283L306 1493H773L1469 436L1651 1372H1461L1484 1493H2006L1983 1372H1792L1525 0H1263L558 1079L371 121H561L538 0H16Z" />
<glyph unicode="O" glyph-name="O" horiz-adv-x="1782" d="M764 92Q955 92 1079 253T1268 745Q1332 1077 1271 1238T1018 1399Q828 1399 703 1237T514 745Q450 417 512 255T764 92ZM740 -29Q363 -29 190 177T86 745T411 1313T1042 1520Q1419 1520 1592 1314T1696
745Q1626 383 1371 177T740 -29Z" />
<glyph unicode="P" glyph-name="P" horiz-adv-x="1651" d="M12 0L35 121H226L470 1372H279L302 1493H1152Q1401 1493 1525 1375T1610 1057Q1571 857 1401 738T982 618H708L611 121H852L829 0H12ZM732 739H844Q974 739 1068 825T1190 1057Q1218 1201 1158 1286T967
1372H855L732 739Z" />
<glyph unicode="Q" glyph-name="Q" horiz-adv-x="1682" d="M678 -29Q301 -23 130 181Q9 326 9 549Q9 640 29 745Q100 1107 354 1313T985 1520Q1362 1520 1536 1314Q1660 1167 1660 941Q1660 850 1639 745Q1577 427 1374 229T858 -16Q900 -73 971 -98Q1136 -156
1271 -156H1464L1416 -402H1245Q992 -402 837 -287Q725 -205 678 -29ZM707 92Q898 92 1022 253T1211 745Q1244 915 1244 1040Q1244 1159 1214 1238Q1152 1399 961 1399Q771 1399 646 1237T457 745Q425 579 425 455Q425 335 455 254Q517 92 707 92Z" />
<glyph unicode="R" glyph-name="R" horiz-adv-x="1685" d="M1145 729Q1231 716 1283 670T1363 537L1500 121H1653L1630 0H1139L989 451Q947 591 906 629T779 668H718L611 121H803L780 0H12L35 121H226L470 1372H279L302 1493H1154Q1414 1493 1535 1389T1619 1092Q1589
936 1471 846T1145 729ZM741 788H872Q1012 788 1102 864T1220 1081T1187 1297T986 1372H855L741 788Z" />
<glyph unicode="S" glyph-name="S" horiz-adv-x="1401" d="M14 72L83 426H210Q206 258 298 175T581 92Q736 92 828 151T943 324Q961 414 916 464T706 557L493 612Q285 668 216 767T181 1051Q225 1273 396 1396T834 1520Q965 1520 1102 1498T1382 1432L1318 1102H1191Q1192
1256 1108 1327T843 1399Q695 1399 610 1348T504 1194Q486 1101 528 1053T764 952L977 897Q1175 845 1247 735T1282 432Q1238 206 1059 89T577 -29Q431 -29 292 -4T14 72Z" />
<glyph unicode="T" glyph-name="T" horiz-adv-x="1577" d="M152 0L175 121H373L613 1356H204L159 1120H22L94 1493H1574L1502 1120H1367L1412 1356H1000L760 121H959L936 0H152Z" />
<glyph unicode="U" glyph-name="U" horiz-adv-x="1752" d="M243 1372H53L77 1493H845L821 1372H630L485 625Q431 346 496 235T773 123Q979 123 1087 235T1249 625L1394 1372H1204L1228 1493H1748L1724 1372H1533L1384 604Q1318 262 1142 117T616 -29Q269 -29 149
118T95 606L243 1372Z" />
<glyph unicode="V" glyph-name="V" horiz-adv-x="1664" d="M1664 1493L1641 1372H1516L686 0H448L152 1372H11L34 1493H734L711 1372H566L776 383L1375 1372H1197L1220 1493H1664Z" />
<glyph unicode="W" glyph-name="W" horiz-adv-x="2394" d="M1519 0H1261L1134 1087L585 0H327L168 1372H23L46 1493H754L731 1372H571L677 455L1201 1493H1485L1608 438L2081 1372H1903L1926 1493H2388L2365 1372H2212L1519 0Z" />
<glyph unicode="X" glyph-name="X" horiz-adv-x="1794" d="M784 575L384 121H568L545 0H15L38 121H222L726 692L392 1372H255L278 1493H1020L997 1372H833L1040 952L1408 1372H1234L1257 1493H1777L1754 1372H1570L1096 836L1447 121H1588L1565 0H820L843 121H1009L784
575Z" />
<glyph unicode="Y" glyph-name="Y" horiz-adv-x="1544" d="M124 0L147 121H348L445 618L148 1372H21L44 1493H760L737 1372H571L796 803L1241 1372H1092L1115 1493H1543L1520 1372H1393L842 670L735 121H936L913 0H124Z" />
<glyph unicode="Z" glyph-name="Z" horiz-adv-x="1666" d="M19 0L46 141L1173 1356H458L415 1133H278L348 1493H1644L1617 1352L500 137H1254L1294 346H1431L1364 0H19Z" />
<glyph unicode="[" glyph-name="bracketleft" horiz-adv-x="928" d="M361 1556H928L905 1436H692L384 -150H597L574 -270H7L361 1556Z" />
<glyph unicode="\" glyph-name="backslash" horiz-adv-x="426" d="M224 1493L423 -190H201L3 1493H224Z" />
<glyph unicode="]" glyph-name="bracketright" horiz-adv-x="928" d="M922 1556L568 -270H0L23 -150H236L544 1436H331L354 1556H922Z" />
<glyph unicode="^" glyph-name="asciicircum" horiz-adv-x="1312" d="M771 1493L1307 936H1094L656 1251L218 936H5L548 1493H771Z" />
<glyph unicode="_" glyph-name="underscore" horiz-adv-x="1111" d="M1067 -293V-483H43V-293H1067Z" />
<glyph unicode="`" glyph-name="grave" horiz-adv-x="470" d="M279 1638L463 1262H299L0 1638H279Z" />
<glyph unicode="a" glyph-name="a" horiz-adv-x="1193" d="M827 876Q824 936 767 936Q633 936 502 776Q441 702 393 455Q357 270 383 199T504 127Q597 127 655 210T750 479L827 876ZM1167 1031L992 121L1125 123L1101 0H657L683 135Q573 -29 378 -29Q185 -29 99
98T57 448Q100 671 292 864Q519 1092 823 1092Q1123 1092 1167 1031Z" />
<glyph unicode="b" glyph-name="b" horiz-adv-x="1297" d="M299 1436H147L170 1556H676L554 928Q615 1011 699 1051T895 1092Q1122 1092 1223 942Q1291 843 1291 694Q1291 619 1274 532Q1223 271 1064 121T677 -29Q565 -29 497 11T400 135L374 0H20L299 1436ZM467
479Q447 379 447 309Q447 249 462 210Q493 127 599 127Q708 127 769 215T876 532Q904 674 904 761Q904 815 893 848Q866 936 757 936Q651 936 587 853T487 584L467 479Z" />
<glyph unicode="c" glyph-name="c" horiz-adv-x="1179" d="M1068 332Q995 150 860 61T523 -29Q239 -29 112 118Q21 222 21 388Q21 455 36 532Q87 796 270 944T727 1092Q838 1092 947 1071T1165 1008L1107 713H995Q997 736 997 757Q997 859 955 914Q905 979 791
979Q643 979 561 879T431 532Q406 403 406 314Q406 236 425 188Q466 84 604 84Q711 84 788 148T902 332H1068Z" />
<glyph unicode="d" glyph-name="d" horiz-adv-x="1385" d="M805 479L825 584Q844 683 844 753Q844 814 829 853Q798 936 693 936Q583 936 522 849T415 532Q388 391 388 304Q388 249 398 215Q426 127 535 127Q640 127 704 210T805 479ZM1368 1556L1066 0H712L738
135Q677 52 593 12T396 -29Q170 -29 70 121Q3 221 3 369Q3 444 20 532Q71 794 229 943T614 1092Q726 1092 794 1052T892 928L991 1436H839L862 1556H1368Z" />
<glyph unicode="e" glyph-name="e" horiz-adv-x="1184" d="M813 832Q813 979 689 979Q594 979 538 890T431 519Q431 519 453 519Q759 519 806 762Q813 800 813 832ZM407 400Q401 366 401 295Q402 84 607 84Q722 84 805 145T930 322H1096Q1018 141 874 56T499 -29Q223
-29 104 116Q21 218 21 379Q21 448 37 529Q88 796 268 944T712 1092Q903 1092 1035 1018T1168 808Q1168 781 1162 752Q1099 428 407 400Z" />
<glyph unicode="f" glyph-name="f" horiz-adv-x="1295" d="M24 -277Q104 -277 151 -220T223 -33L413 942H255L278 1063H436L462 1196Q496 1373 627 1464T977 1556Q1062 1556 1141 1547T1295 1518L1250 1290H1138Q1140 1305 1140 1318Q1140 1375 1115 1406Q1085
1444 1016 1444Q936 1444 889 1387T817 1200L790 1063H1057L1034 942H767L578 -29Q537 -238 413 -298Q220 -389 1 -389Q12 -333 24 -277Z" />
<glyph unicode="g" glyph-name="g" horiz-adv-x="1352" d="M958 876Q953 936 889 936Q707 936 593 776Q522 675 479 455Q443 270 473 199T613 127Q717 127 781 210T881 479L958 876ZM1336 996L1145 14Q1097 -232 918 -332Q700 -455 444 -455Q338 -455 232 -439T17
-389L67 -135H180Q179 -144 179 -152Q179 -244 234 -291Q294 -342 423 -342Q587 -342 669 -264T791 14L814 135Q692 -29 467 -29Q244 -29 141 98T81 448Q134 720 387 916Q614 1092 947 1092Q1216 1092 1336 996Z" />
<glyph unicode="h" glyph-name="h" horiz-adv-x="1274" d="M22 0L301 1436H143L166 1556H678L553 913Q636 1008 726 1050T941 1092Q1120 1092 1191 986Q1236 919 1236 811Q1236 750 1222 676L1114 121H1266L1243 0H737L870 686Q884 756 884 804Q884 848 872 874Q848
926 763 926Q656 926 591 848T492 598L376 0H22Z" />
<glyph unicode="i" glyph-name="i" horiz-adv-x="635" d="M236 1364Q252 1445 318 1500T466 1556Q545 1556 590 1500Q623 1459 623 1404Q623 1385 619 1364Q604 1285 538 1230T392 1174Q311 1174 266 1229Q232 1270 232 1325Q232 1344 236 1364ZM381 121H533L510
0H4L187 942H36L59 1063H564L381 121Z" />
<glyph unicode="j" glyph-name="j" horiz-adv-x="1073" d="M676 1364Q692 1445 758 1500T906 1556Q984 1556 1030 1500Q1063 1458 1063 1403Q1063 1385 1059 1364Q1044 1285 978 1230T832 1174Q751 1174 706 1229Q672 1270 672 1325Q672 1344 676 1364ZM635 942H484L508
1063H1013L782 -125Q750 -288 619 -371T262 -455Q202 -455 136 -445T0 -416L44 -190L157 -191Q152 -221 152 -245Q152 -284 166 -306Q189 -342 255 -342Q328 -342 366 -295T428 -125L635 942Z" />
<glyph unicode="k" glyph-name="k" horiz-adv-x="1280" d="M376 0H22L301 1436H150L173 1556H678L484 557L988 942H861L884 1063H1172L1149 942L827 696L1163 121H1278L1255 0H864L572 500L456 412L376 0Z" />
<glyph unicode="l" glyph-name="l" horiz-adv-x="674" d="M386 121H538L515 0H9L288 1436H137L160 1556H665L386 121Z" />
<glyph unicode="m" glyph-name="m" horiz-adv-x="1989" d="M1227 889Q1321 995 1416 1043T1627 1092Q1810 1092 1881 988Q1925 923 1925 815Q1925 752 1910 676L1802 121H1954L1931 0H1425L1546 623Q1571 753 1571 821Q1571 856 1564 874Q1544 926 1461 926Q1367
926 1301 854T1209 647L1083 0H729L850 623Q875 752 875 819Q875 856 868 874Q847 926 765 926Q670 926 604 854T512 647L386 0H32L215 942H64L87 1063H592L563 913Q643 1006 731 1049T930 1092Q1060 1092 1131 1043T1227 889Z" />
<glyph unicode="n" glyph-name="n" horiz-adv-x="1301" d="M26 0L209 942H58L81 1063H586L557 913Q640 1008 730 1050T945 1092Q1124 1092 1195 986Q1241 919 1241 811Q1241 750 1226 676L1118 121H1270L1247 0H741L874 686Q888 756 888 804Q888 848 876 874Q852
926 767 926Q660 926 595 848T496 598L380 0H26Z" />
<glyph unicode="o" glyph-name="o" horiz-adv-x="1271" d="M548 84Q660 84 724 180T838 532Q871 699 871 798Q871 850 861 884Q835 979 722 979T544 883T430 532Q398 368 398 270Q398 215 408 181Q435 84 548 84ZM115 120Q21 228 21 394Q21 458 35 532Q86 795
274 943T744 1092Q1026 1092 1156 944Q1250 837 1250 671Q1250 606 1235 532Q1184 270 996 121T526 -29T115 120Z" />
<glyph unicode="p" glyph-name="p" horiz-adv-x="1379" d="M572 584L551 479Q532 379 532 309Q532 249 547 210Q578 127 684 127Q793 127 854 215T961 532Q988 674 988 761Q988 815 978 848Q950 936 841 936Q735 936 672 853T572 584ZM287 942H135L159 1063H665L639
928Q700 1011 784 1051T980 1092Q1207 1092 1308 942Q1376 843 1376 694Q1376 619 1359 532Q1308 271 1149 121T762 -29Q650 -29 582 11T485 135L375 -426H21L287 942Z" />
<glyph unicode="q" glyph-name="q" horiz-adv-x="1325" d="M1300 996L1048 -300L1209 -302L1185 -424L669 -426L779 135Q656 -29 432 -29Q209 -29 106 98T46 448Q98 720 351 916Q578 1092 911 1092Q1180 1092 1300 996ZM923 876Q917 936 853 936Q671 936 557 776Q486
675 443 455Q407 270 438 199T577 127Q681 127 745 210T845 479L923 876Z" />
<glyph unicode="r" glyph-name="r" horiz-adv-x="1113" d="M1113 1075L1051 758H938Q941 779 941 797Q941 853 917 884Q885 926 809 926Q693 926 606 824T484 541L379 0H25L208 942H46L69 1063H585L549 874Q622 985 718 1038T938 1092Q969 1092 1012 1088T1113 1075Z" />
<glyph unicode="s" glyph-name="s" horiz-adv-x="1148" d="M73 328H186Q185 313 185 299Q185 201 244 143T422 84Q655 84 683 229Q687 248 687 276Q687 303 662 333T536 389L397 426Q240 467 190 532T140 677Q140 711 147 750Q181 923 317 1007T672 1092T1128
1028L1075 760H962Q965 779 965 796Q965 979 739 979Q512 979 486 844Q483 828 483 805Q483 740 606 707L744 670Q943 617 998 551T1053 398Q1053 363 1045 322Q1010 142 865 57T449 -29Q252 -29 16 31L73 328Z" />
<glyph unicode="t" glyph-name="t" horiz-adv-x="846" d="M171 942H17L40 1063H194L258 1393H612L548 1063H843L820 942H525L398 291Q381 202 381 157Q381 130 386 118Q402 84 460 84Q524 84 563 127T622 260H771Q731 100 640 36T357 -29Q138 -29 73 40Q31 84
31 176Q31 226 44 291L171 942Z" />
<glyph unicode="u" glyph-name="u" horiz-adv-x="1301" d="M1275 1063L1092 121H1243L1220 0H714L743 150Q661 55 571 13T356 -29Q177 -29 106 76Q60 144 60 252Q60 313 75 387L183 942H31L54 1063H560L439 442Q415 317 415 250Q415 210 424 190Q446 137 534 137Q641
137 706 216T804 467L920 1063H1275Z" />
<glyph unicode="v" glyph-name="v" horiz-adv-x="1185" d="M607 0H323L129 942H12L35 1063H468L631 270Q657 270 818 484Q965 688 1030 942H913L937 1065L1174 1063Q1177 814 975 480Q785 164 607 0Z" />
<glyph unicode="w" glyph-name="w" horiz-adv-x="1801" d="M1279 300Q1288 308 1429 482Q1571 665 1628 942L1488 940L1512 1063H1784Q1727 681 1602 485Q1408 180 1217 0H973L877 666L521 0H279L140 942H24L47 1063H483L585 367L958 1063H1169L1279 300Z" />
<glyph unicode="x" glyph-name="x" horiz-adv-x="1320" d="M805 678L1154 1063H1297L842 563L1072 121H1213L1190 0H737L529 401L163 0H21L489 518L267 942H148L171 1063H604L805 678Z" />
<glyph unicode="y" glyph-name="y" horiz-adv-x="1373" d="M558 -273L274 942H159L183 1063H617L855 35Q970 201 1047 388T1200 940L1058 941L1081 1062L1368 1063Q1343 935 1307 770Q1218 364 1107 176Q814 -314 579 -404Q446 -455 254 -455Q160 -455 23 -412L66
-190L179 -191Q175 -215 175 -235Q175 -304 222 -326Q243 -336 286 -342Q310 -345 334 -345Q445 -345 558 -273Z" />
<glyph unicode="z" glyph-name="z" horiz-adv-x="1247" d="M1215 944L515 195Q548 183 577 166Q704 98 783 98Q903 98 1083 243L1052 85Q875 -83 715 -83Q632 -79 504 -15Q361 58 305 58T191 35T109 -2L10 0L33 121L731 869Q699 880 671 897Q544 965 465 965Q345
965 165 820L196 978Q373 1146 533 1146Q616 1142 744 1078Q887 1005 943 1005T1057 1028T1139 1065L1238 1063L1215 944Z" />
<glyph unicode="{" glyph-name="braceleft" horiz-adv-x="1158" d="M814 -213L790 -334H642Q406 -334 329 -310T214 -223Q192 -187 190 -132T210 35L259 285Q288 436 246 493T62 551H1L25 672H86Q227 672 291 729T386 938L434 1188Q456 1300 479 1354T538 1446Q600
1507 687 1531T1010 1556H1158L1134 1436H1031Q919 1436 869 1389T793 1206L740 936Q709 777 647 710T449 612Q574 578 609 512T614 287L561 16Q535 -119 567 -166T711 -213H814Z" />
<glyph unicode="|" glyph-name="bar" horiz-adv-x="304" d="M258 1565V-483H43V1565H258Z" />
<glyph unicode="}" glyph-name="braceright" horiz-adv-x="1156" d="M24 -213H125Q236 -213 286 -166T363 16L416 287Q447 444 509 511T709 612Q585 642 548 710T542 936L595 1206Q621 1342 589 1389T445 1436H344L368 1556H514Q750 1556 827 1532T942 1446Q964
1409 966 1355T946 1188L898 938Q868 787 910 730T1093 672H1155L1131 551H1069Q929 551 865 494T771 285L722 35Q700 -77 677 -132T618 -223Q556 -285 469 -309T146 -334H0L24 -213Z" />
<glyph unicode="~" glyph-name="asciitilde" horiz-adv-x="1346" d="M1314 831V625Q1221 539 1128 498T933 457Q838 457 686 515Q669 521 661 524Q654 527 641 532Q469 598 372 598Q295 598 212 562T32 453V659Q128 746 220 786T413 827Q508 827 659 770Q677 763
685 760L700 754Q873 686 974 686Q1051 686 1134 722T1314 831Z" />
<glyph unicode="&#xa0;" glyph-name="nbspace" horiz-adv-x="713" />
<glyph unicode="&#xa1;" glyph-name="exclamdown" horiz-adv-x="655" d="M410 1141Q331 1141 287 1196T258 1329Q273 1408 339 1464T484 1520T607 1464T637 1329T555 1196T410 1141ZM376 0H1L282 842L319 1032H458L421 842L376 0Z" />
<glyph unicode="&#xa2;" glyph-name="cent" horiz-adv-x="1183" d="M546 94L716 969Q612 944 549 844T445 532T427 221T546 94ZM1086 332Q1023 175 911 86T644 -23L590 -299H469L522 -29Q246 -23 124 123T52 532T282 939T740 1092L791 1356H912L860 1087Q918 1083
994 1064T1182 1008L1125 713H1012Q1021 839 979 903T839 979L665 88Q759 104 823 165T920 332H1086Z" />
<glyph unicode="&#xa3;" glyph-name="sterling" horiz-adv-x="1413" d="M1337 1202H1217Q1230 1299 1191 1353T1068 1407Q951 1407 886 1333T786 1083L734 815H1086L1062 694H710L602 137H1022L1066 365H1203L1132 0H3L27 121H220L331 694H138L162 815H355L409
1092Q451 1308 605 1414T1033 1520Q1098 1520 1186 1511T1392 1485L1337 1202Z" />
<glyph unicode="&#xa4;" glyph-name="currency" horiz-adv-x="1215" d="M607 422Q698 422 762 485T826 641T763 796T607 860Q516 860 452 797T388 641Q388 548 451 485T607 422ZM390 268L181 61L30 215L239 424Q208 470 194 523T179 641Q179 704 194 758T239 858L30
1063L183 1221L390 1010Q438 1040 492 1054T607 1069Q662 1069 716 1055T828 1010L1033 1221L1185 1067L976 862Q1006 806 1020 751T1035 641Q1035 578 1021 526T976 426L1185 215L1029 61L822 272Q776 242 723 228T607 213Q549 213 495 227T390 268Z" />
<glyph unicode="&#xa5;" glyph-name="yen" horiz-adv-x="1466" d="M138 0L161 121H351L419 467H16L38 584H441L453 643L418 778H76L99 895H385L255 1372H118L141 1493H835L812 1372H642L792 821L1156 1372H1005L1028 1493H1464L1441 1372H1306L992 895H1284L1261
778H911L836 662L820 584H1223L1201 467H798L730 121H920L897 0H138Z" />
<glyph unicode="&#xa6;" glyph-name="brokenbar" horiz-adv-x="284" d="M258 1432V674H43V1432H258ZM258 408V-350H43V408H258Z" />
<glyph unicode="&#xa7;" glyph-name="section" horiz-adv-x="1082" d="M1069 1475L1022 1235H903Q914 1321 871 1364T730 1407Q649 1407 596 1370T530 1266Q521 1219 541 1186T643 1106L764 1034Q934 936 988 852T1020 653Q1000 549 929 475T735 358Q809 311 835
248T843 94Q817 -43 693 -119T369 -195Q286 -195 198 -184T12 -150L59 90H177Q167 0 211 -41T361 -82Q448 -82 502 -45T569 61Q578 108 558 141T456 221L335 293Q166 392 112 476T79 674Q99 777 171 850T366 967Q292 1013 265 1077T256 1231Q282 1367 406 1443T726
1520Q800 1520 884 1509T1069 1475ZM455 901Q405 868 375 829T335 745Q323 684 358 633T493 524L644 436Q696 471 727 510T766 592Q778 652 742 703T604 813L455 901Z" />
<glyph unicode="&#xa8;" glyph-name="dieresis" horiz-adv-x="824" d="M41 1468Q53 1528 105 1571T217 1614T312 1571Q346 1528 334 1468T271 1364Q220 1321 161 1321Q101 1321 65 1365Q30 1409 41 1468ZM488 1468Q500 1528 552 1571Q603 1614 663 1614T759 1571T783
1468Q772 1409 719 1365Q667 1321 607 1321T512 1365T488 1468Z" />
<glyph unicode="&#xa9;" glyph-name="copyright" horiz-adv-x="1522" d="M1502 741Q1502 589 1448 459T1285 219T1045 55T761 0T478 55T237 219T74 458T20 741Q20 895 74 1026T237 1266T477 1430T761 1485T1044 1430T1285 1266T1448 1026T1502 741ZM345 1157Q259
1071 216 968T173 741Q173 619 216 516T345 326T535 197T761 154Q884 154 987 196T1177 326Q1263 412 1306 515T1349 741Q1349 864 1306 967T1177 1157Q1089 1245 986 1288T761 1331T536 1288T345 1157ZM1128 580Q1101 441 1010 371T763 301Q575 301 459 422T343
741Q343 943 460 1063T773 1184Q852 1184 932 1166T1099 1108V885H994Q982 979 930 1032T796 1085Q692 1085 633 994T573 741T632 490T796 399Q869 399 918 445T990 580H1128Z" />
<glyph unicode="&#xaa;" glyph-name="ordfeminine" horiz-adv-x="912" d="M654 1136L666 1202Q675 1246 675 1281Q675 1337 654 1373Q627 1420 571 1420Q558 1420 543 1417Q467 1403 406 1319T320 1106Q309 1050 309 1005Q309 948 327 911Q353 855 409 855Q421
855 434 857Q511 872 571 948Q632 1024 654 1136ZM584 779L609 908Q564 839 502 796Q441 753 373 740Q338 733 308 733Q212 733 164 801Q123 857 123 952Q123 1006 136 1072Q172 1255 275 1374T524 1520Q549 1525 571 1525Q611 1525 641 1510Q690 1488 711 1432L728
1521H889L774 929H889L860 779H584ZM32 639H830L804 504H6L32 639Z" />
<glyph unicode="&#xab;" glyph-name="guillemotleft" horiz-adv-x="1064" d="M1042 1069L1014 922L712 600L889 279L860 131L466 516L498 684L1042 1069ZM582 1069L554 922L251 600L429 279L400 131L6 516L38 684L582 1069Z" />
<glyph unicode="&#xac;" glyph-name="logicalnot" horiz-adv-x="1325" d="M0 903H1282V287H1053V676H0V903Z" />
<glyph unicode="&#xad;" glyph-name="sfthyphen" horiz-adv-x="748" d="M86 684H714L662 414H34L86 684Z" />
<glyph unicode="&#xae;" glyph-name="registered" horiz-adv-x="1522" d="M903 754Q942 743 972 717T1021 649L1121 434H1181V352H958L841 606Q809 674 780 695T695 717H669V434H755V352H386V434H472V1077H386V1159H839Q959 1159 1028 1104T1097 954Q1097 865
1048 814T903 754ZM669 799H736Q815 799 857 835T900 938T858 1041T736 1077H669V799ZM1502 741Q1502 589 1448 459T1285 219T1045 55T761 0T478 55T237 219T74 458T20 741Q20 895 74 1026T237 1266T477 1430T761 1485T1044 1430T1285 1266T1448 1026T1502 741ZM345
1157Q259 1071 216 968T173 741Q173 619 216 516T345 326T535 197T761 154Q884 154 987 196T1177 326Q1263 412 1306 515T1349 741Q1349 864 1306 967T1177 1157Q1089 1245 986 1288T761 1331T536 1288T345 1157Z" />
<glyph unicode="&#xaf;" glyph-name="overscore" horiz-adv-x="739" d="M73 1548H703L667 1360H37L73 1548Z" />
<glyph unicode="&#xb0;" glyph-name="degree" horiz-adv-x="707" d="M355 1534Q421 1534 482 1509T591 1436Q638 1388 662 1328T687 1200Q687 1133 663 1073T593 967Q545 919 483 894T353 868Q212 868 117 963T21 1200T117 1437T355 1534ZM355 1372Q283 1372 233
1322T183 1200T232 1079T355 1030Q427 1030 477 1079T527 1200Q527 1272 477 1322T355 1372Z" />
<glyph unicode="&#xb1;" glyph-name="plusminus" horiz-adv-x="1304" d="M11 227H1293V0H11V227ZM767 1284V926H1293V698H767V340H537V698H11V926H537V1284H767Z" />
<glyph unicode="&#xb2;" glyph-name="twosuperior" horiz-adv-x="865" d="M235 1284H141L179 1479Q255 1499 332 1509T490 1520Q671 1520 758 1456T824 1278Q808 1196 741 1132T500 977L229 838H643L661 934H761L713 684H17L43 817L188 901Q399 1024 462 1094T544
1257Q560 1341 528 1388T423 1436Q360 1436 309 1395T235 1284Z" />
<glyph unicode="&#xb3;" glyph-name="threesuperior" horiz-adv-x="858" d="M186 1481Q278 1500 354 1510T495 1520Q675 1520 757 1468T821 1315Q807 1243 746 1196T579 1133Q695 1117 746 1062T780 913Q756 791 642 730T327 668Q247 668 169 678T16 711L54 911H150Q142
831 177 792T292 752Q380 752 434 795T505 920Q521 1000 481 1043T349 1087H308L324 1171H355Q436 1171 486 1205T549 1303Q561 1366 529 1401T424 1436Q358 1436 311 1400T247 1299L151 1298L186 1481Z" />
<glyph unicode="&#xb4;" glyph-name="acute" horiz-adv-x="612" d="M333 1638H612L165 1262H1L333 1638Z" />
<glyph unicode="&#xb5;" glyph-name="mu" horiz-adv-x="1387" d="M1384 1063L1201 121H1353L1329 0H823L847 125Q776 42 715 7T579 -29Q548 -29 521 -19T464 12L379 -426H25L291 942H139L163 1063H669L553 467Q525 325 525 251Q525 211 533 192Q557 137 645 137Q751
137 816 216T914 467L1030 1063H1384Z" />
<glyph unicode="&#xb6;" glyph-name="paragraph" horiz-adv-x="1163" d="M604 1493H1159L1135 1368H1022L718 -197H566L870 1368H707L403 -197H251L415 649Q203 666 107 776T46 1071Q83 1261 235 1377T604 1493Z" />
<glyph unicode="&#xb7;" glyph-name="middot" horiz-adv-x="442" d="M258 901Q337 901 382 845T412 711T330 578T184 522Q106 522 61 577T31 711T113 845T258 901Z" />
<glyph unicode="&#xb8;" glyph-name="cedilla" horiz-adv-x="513" d="M405 0Q455 -64 473 -118T482 -225Q466 -311 393 -356T198 -401Q150 -401 101 -395T1 -375L30 -219Q72 -236 113 -245T190 -254Q250 -254 286 -231T330 -162Q336 -134 326 -101T278 0H405Z" />
<glyph unicode="&#xb9;" glyph-name="onesuperior" horiz-adv-x="644" d="M5 684L23 778H187L306 1391L104 1290L124 1395L370 1520H597L453 778H617L599 684H5Z" />
<glyph unicode="&#xba;" glyph-name="ordmasculine" horiz-adv-x="1034" d="M40 639H838L812 504H14L40 639ZM475 823Q551 823 598 894T678 1128Q709 1292 690 1363T594 1434Q517 1434 471 1364T392 1128Q359 963 378 893T475 823ZM810 841Q671 737 459 737T148
841T83 1128T259 1415T611 1520T922 1416T986 1128T810 841Z" />
<glyph unicode="&#xbb;" glyph-name="guillemotright" horiz-adv-x="1063" d="M204 1069L598 684L566 516L22 131L51 279L352 600L176 922L204 1069ZM664 1069L1058 684L1026 516L482 131L511 279L813 600L636 922L664 1069Z" />
<glyph unicode="&#xbc;" glyph-name="onequarter" horiz-adv-x="2136" d="M1823 17H1305L1323 111H1448L1472 232H1109L1126 320L1608 853H1860L1758 326H1905L1887 232H1740L1716 111H1841L1823 17ZM1490 326L1555 660L1250 326H1490ZM5 684L23 778H187L306 1391L104
1290L124 1395L370 1520H597L453 778H617L599 684H5ZM2133 1520H2303L1067 -29H897L2133 1520Z" />
<glyph unicode="&#xbd;" glyph-name="onehalf" horiz-adv-x="2136" d="M5 684L23 778H187L306 1391L104 1290L124 1395L370 1520H597L453 778H617L599 684H5ZM2133 1520H2303L1067 -29H897L2133 1520ZM1344 617H1250L1288 812Q1364 832 1441 842T1599 853Q1780
853 1867 789T1933 611Q1917 529 1850 465T1609 310L1338 171H1752L1770 267H1870L1822 17H1126L1152 150L1297 234Q1508 357 1571 427T1653 590Q1669 674 1637 721T1532 769Q1469 769 1418 728T1344 617Z" />
<glyph unicode="&#xbe;" glyph-name="threequarters" horiz-adv-x="2136" d="M1823 17H1305L1323 111H1448L1472 232H1109L1126 320L1608 853H1860L1758 326H1905L1887 232H1740L1716 111H1841L1823 17ZM1490 326L1555 660L1250 326H1490ZM186 1481Q278 1500 354
1510T495 1520Q675 1520 757 1468T821 1315Q807 1243 746 1196T579 1133Q695 1117 746 1062T780 913Q756 791 642 730T327 668Q247 668 169 678T16 711L54 911H150Q142 831 177 792T292 752Q380 752 434 795T505 920Q521 1000 481 1043T349 1087H308L324 1171H355Q436
1171 486 1205T549 1303Q561 1366 529 1401T424 1436Q358 1436 311 1400T247 1299L151 1298L186 1481ZM2133 1520H2303L1067 -29H897L2133 1520Z" />
<glyph unicode="&#xbf;" glyph-name="questiondown" horiz-adv-x="1035" d="M761 1141Q682 1141 638 1196T608 1329Q624 1408 690 1464T835 1520T958 1464T988 1329T906 1196T761 1141ZM946 39Q815 5 700 -12T479 -29Q227 -29 114 81T40 397Q80 599 233 715T634
850L674 1055H813L755 756Q608 713 525 621T411 375Q383 230 429 157T596 84Q705 84 777 150T885 346H1005L946 39Z" />
<glyph unicode="&#xc0;" glyph-name="Agrave" horiz-adv-x="1589" d="M0 0L23 121H145L974 1493H1213L1509 121H1651L1628 0H929L952 121H1098L1035 426H474L289 121H467L444 0H0ZM546 547H1009L890 1118L546 547ZM1635 1899L1765 1635H1601L1356 1899H1635Z" />
<glyph unicode="&#xc1;" glyph-name="Aacute" horiz-adv-x="1589" d="M0 0L23 121H145L974 1493H1213L1509 121H1651L1628 0H929L952 121H1098L1035 426H474L289 121H467L444 0H0ZM546 547H1009L890 1118L546 547ZM1594 1899H1873L1524 1635H1360L1594 1899Z" />
<glyph unicode="&#xc2;" glyph-name="Acircumflex" horiz-adv-x="1589" d="M0 0L23 121H145L974 1493H1213L1509 121H1651L1628 0H929L952 121H1098L1035 426H474L289 121H467L444 0H0ZM546 547H1009L890 1118L546 547ZM1640 1899H1948L2119 1635H1955L1774 1796L1529
1635H1365L1640 1899Z" />
<glyph unicode="&#xc3;" glyph-name="Atilde" horiz-adv-x="1589" d="M0 0L23 121H145L974 1493H1213L1509 121H1651L1628 0H929L952 121H1098L1035 426H474L289 121H467L444 0H0ZM546 547H1009L890 1118L546 547ZM1381 1635L1383 1647Q1407 1770 1474 1837Q1541
1903 1641 1903Q1702 1903 1775 1864Q1783 1860 1786 1858L1852 1825Q1878 1812 1895 1807Q1912 1803 1930 1803Q1971 1803 2000 1828Q2030 1853 2038 1897L2039 1901H2149L2146 1886Q2122 1764 2056 1699Q1990 1633 1889 1633Q1855 1633 1823 1642T1744 1678L1692
1706Q1667 1719 1643 1726T1600 1733Q1559 1733 1530 1707Q1500 1682 1492 1639L1491 1635H1381Z" />
<glyph unicode="&#xc4;" glyph-name="Adieresis" horiz-adv-x="1589" d="M0 0L23 121H145L974 1493H1213L1509 121H1651L1628 0H929L952 121H1098L1035 426H474L289 121H467L444 0H0ZM546 547H1009L890 1118L546 547ZM1419 1879Q1471 1923 1531 1923Q1590 1923
1625 1879Q1660 1836 1648 1776T1585 1673Q1535 1630 1475 1630T1379 1673T1355 1776T1419 1879ZM1866 1879Q1917 1923 1977 1923T2073 1879Q2109 1836 2097 1776T2033 1673T1921 1630T1825 1673Q1790 1716 1802 1776T1866 1879Z" />
<glyph unicode="&#xc5;" glyph-name="Aring" horiz-adv-x="1669" d="M1093 1485Q1148 1485 1194 1523T1250 1616T1230 1708T1144 1747Q1091 1747 1045 1709T988 1616T1008 1524T1093 1485ZM0 0L24 121H146L910 1384Q859 1421 840 1481T834 1616Q857 1733 957 1817T1174
1901Q1292 1901 1359 1817T1403 1616Q1389 1542 1347 1483T1237 1384L1510 121H1652L1628 0H929L953 121H1099L1035 426H474L290 121H468L444 0H0ZM547 547H1010L893 1118L547 547Z" />
<glyph unicode="&#xc6;" glyph-name="AE" horiz-adv-x="2379" d="M575 545H1040L1201 1372H1126L575 545ZM744 0L767 121H957L1016 424H494L292 121H456L433 0H5L28 121H142L978 1372H777L800 1493H2351L2283 1141H2145L2186 1356H1584L1491 877H1858L1895 1067H2030L1930
551H1795L1832 741H1465L1348 137H1971L2012 352H2147L2079 0H744Z" />
<glyph unicode="&#xc7;" glyph-name="Ccedilla" horiz-adv-x="1630" d="M1461 426Q1357 195 1182 83T749 -29Q371 -29 193 179T83 745Q152 1103 412 1311T1051 1520Q1184 1520 1321 1488T1607 1391L1536 1024H1409Q1407 1212 1322 1305T1068 1399Q850 1399 713
1239T511 745T521 252T816 92Q965 92 1075 175T1262 426H1461ZM607 0Q657 -64 675 -118T684 -225Q668 -311 595 -356T400 -401Q352 -401 303 -395T203 -375L232 -219Q274 -236 315 -245T392 -254Q452 -254 488 -231T532 -162Q538 -134 528 -101T480 0H607Z" />
<glyph unicode="&#xc8;" glyph-name="Egrave" horiz-adv-x="1561" d="M12 0L35 121H226L470 1372H279L302 1493H1644L1576 1141H1438L1479 1356H851L758 877H1149L1186 1067H1323L1223 551H1086L1123 741H732L615 137H1262L1303 352H1440L1372 0H12ZM1679 1899L1809
1635H1645L1400 1899H1679Z" />
<glyph unicode="&#xc9;" glyph-name="Eacute" horiz-adv-x="1561" d="M12 0L35 121H226L470 1372H279L302 1493H1644L1576 1141H1438L1479 1356H851L758 877H1149L1186 1067H1323L1223 551H1086L1123 741H732L615 137H1262L1303 352H1440L1372 0H12ZM1638 1899H1917L1568
1635H1404L1638 1899Z" />
<glyph unicode="&#xca;" glyph-name="Ecircumflex" horiz-adv-x="1561" d="M12 0L35 121H226L470 1372H279L302 1493H1644L1576 1141H1438L1479 1356H851L758 877H1149L1186 1067H1323L1223 551H1086L1123 741H732L615 137H1262L1303 352H1440L1372 0H12ZM1684
1899H1992L2163 1635H1999L1818 1796L1573 1635H1409L1684 1899Z" />
<glyph unicode="&#xcb;" glyph-name="Edieresis" horiz-adv-x="1561" d="M12 0L35 121H226L470 1372H279L302 1493H1644L1576 1141H1438L1479 1356H851L758 877H1149L1186 1067H1323L1223 551H1086L1123 741H732L615 137H1262L1303 352H1440L1372 0H12ZM1505 1879Q1557
1923 1617 1923Q1676 1923 1711 1879Q1746 1836 1734 1776T1671 1673Q1621 1630 1561 1630T1465 1673T1441 1776T1505 1879ZM1952 1879Q2003 1923 2063 1923T2159 1879Q2195 1836 2183 1776T2119 1673T2007 1630T1911 1673Q1876 1716 1888 1776T1952 1879Z" />
<glyph unicode="&#xcc;" glyph-name="Igrave" horiz-adv-x="958" d="M4 0L27 121H218L462 1372H271L294 1493H1062L1039 1372H847L603 121H795L772 0H4ZM1343 1899L1473 1635H1309L1064 1899H1343Z" />
<glyph unicode="&#xcd;" glyph-name="Iacute" horiz-adv-x="958" d="M4 0L27 121H218L462 1372H271L294 1493H1062L1039 1372H847L603 121H795L772 0H4ZM1302 1899H1581L1232 1635H1068L1302 1899Z" />
<glyph unicode="&#xce;" glyph-name="Icircumflex" horiz-adv-x="958" d="M4 0L27 121H218L462 1372H271L294 1493H1062L1039 1372H847L603 121H795L772 0H4ZM1348 1899H1656L1827 1635H1663L1482 1796L1237 1635H1073L1348 1899Z" />
<glyph unicode="&#xcf;" glyph-name="Idieresis" horiz-adv-x="958" d="M4 0L27 121H218L462 1372H271L294 1493H1062L1039 1372H847L603 121H795L772 0H4ZM1092 1879Q1144 1923 1204 1923Q1263 1923 1298 1879Q1333 1836 1321 1776T1258 1673Q1208 1630 1148
1630T1052 1673T1028 1776T1092 1879ZM1539 1879Q1590 1923 1650 1923T1746 1879Q1782 1836 1770 1776T1706 1673T1594 1630T1498 1673Q1463 1716 1475 1776T1539 1879Z" />
<glyph unicode="&#xd0;" glyph-name="Eth" horiz-adv-x="1843" d="M616 121H755Q989 121 1126 270T1326 748Q1390 1074 1312 1223T999 1372H860L758 850H1090L1063 713H731L616 121ZM16 0L39 121H231L346 713H133L160 850H373L475 1372H283L306 1493H1074Q1474
1493 1649 1302T1754 748Q1684 385 1434 193T784 0H16Z" />
<glyph unicode="&#xd1;" glyph-name="Ntilde" horiz-adv-x="1872" d="M16 0L39 121H230L474 1372H283L306 1493H773L1469 436L1651 1372H1461L1484 1493H2006L1983 1372H1792L1525 0H1263L558 1079L371 121H561L538 0H16ZM1545 1635L1547 1647Q1571 1770 1638
1837Q1705 1903 1805 1903Q1866 1903 1939 1864Q1947 1860 1950 1858L2016 1825Q2042 1812 2059 1807Q2076 1803 2094 1803Q2135 1803 2164 1828Q2194 1853 2202 1897L2203 1901H2313L2310 1886Q2286 1764 2220 1699Q2154 1633 2053 1633Q2019 1633 1987 1642T1908
1678L1856 1706Q1831 1719 1807 1726T1764 1733Q1723 1733 1694 1707Q1664 1682 1656 1639L1655 1635H1545Z" />
<glyph unicode="&#xd2;" glyph-name="Ograve" horiz-adv-x="1784" d="M764 92Q955 92 1079 253T1268 745Q1332 1077 1271 1238T1018 1399Q828 1399 703 1237T514 745Q450 417 512 255T764 92ZM740 -29Q363 -29 190 177T86 745T411 1313T1042 1520Q1419 1520 1592
1314T1696 745Q1626 383 1371 177T740 -29ZM1757 1899L1887 1635H1723L1478 1899H1757Z" />
<glyph unicode="&#xd3;" glyph-name="Oacute" horiz-adv-x="1784" d="M764 92Q955 92 1079 253T1268 745Q1332 1077 1271 1238T1018 1399Q828 1399 703 1237T514 745Q450 417 512 255T764 92ZM740 -29Q363 -29 190 177T86 745T411 1313T1042 1520Q1419 1520 1592
1314T1696 745Q1626 383 1371 177T740 -29ZM1716 1899H1995L1646 1635H1482L1716 1899Z" />
<glyph unicode="&#xd4;" glyph-name="Ocircumflex" horiz-adv-x="1784" d="M764 92Q955 92 1079 253T1268 745Q1332 1077 1271 1238T1018 1399Q828 1399 703 1237T514 745Q450 417 512 255T764 92ZM740 -29Q363 -29 190 177T86 745T411 1313T1042 1520Q1419 1520
1592 1314T1696 745Q1626 383 1371 177T740 -29ZM1762 1899H2070L2241 1635H2077L1896 1796L1651 1635H1487L1762 1899Z" />
<glyph unicode="&#xd5;" glyph-name="Otilde" horiz-adv-x="1784" d="M764 92Q955 92 1079 253T1268 745Q1332 1077 1271 1238T1018 1399Q828 1399 703 1237T514 745Q450 417 512 255T764 92ZM740 -29Q363 -29 190 177T86 745T411 1313T1042 1520Q1419 1520 1592
1314T1696 745Q1626 383 1371 177T740 -29ZM1503 1635L1505 1647Q1529 1770 1596 1837Q1663 1903 1763 1903Q1824 1903 1897 1864Q1905 1860 1908 1858L1974 1825Q2000 1812 2017 1807Q2034 1803 2052 1803Q2093 1803 2122 1828Q2152 1853 2160 1897L2161 1901H2271L2268
1886Q2244 1764 2178 1699Q2112 1633 2011 1633Q1977 1633 1945 1642T1866 1678L1814 1706Q1789 1719 1765 1726T1722 1733Q1681 1733 1652 1707Q1622 1682 1614 1639L1613 1635H1503Z" />
<glyph unicode="&#xd6;" glyph-name="Odieresis" horiz-adv-x="1784" d="M764 92Q955 92 1079 253T1268 745Q1332 1077 1271 1238T1018 1399Q828 1399 703 1237T514 745Q450 417 512 255T764 92ZM740 -29Q363 -29 190 177T86 745T411 1313T1042 1520Q1419 1520
1592 1314T1696 745Q1626 383 1371 177T740 -29ZM1583 1879Q1635 1923 1695 1923Q1754 1923 1789 1879Q1824 1836 1812 1776T1749 1673Q1699 1630 1639 1630T1543 1673T1519 1776T1583 1879ZM2030 1879Q2081 1923 2141 1923T2237 1879Q2273 1836 2261 1776T2197
1673T2085 1630T1989 1673Q1954 1716 1966 1776T2030 1879Z" />
<glyph unicode="&#xd7;" glyph-name="multiply" horiz-adv-x="1248" d="M1218 1081L778 641L1218 201L1064 47L624 487L184 47L30 201L471 641L30 1081L184 1237L624 797L1064 1237L1218 1081Z" />
<glyph unicode="&#xd8;" glyph-name="Oslash" horiz-adv-x="1956" d="M570 479L1379 1157Q1360 1276 1291 1337T1105 1399Q915 1399 790 1237T601 745Q586 669 578 603T570 479ZM578 334Q599 212 667 152T851 92Q1046 92 1170 259T1364 784Q1377 849 1381 899T1380
993L578 334ZM1707 1280Q1777 1176 1796 1043T1783 745Q1713 383 1458 177T827 -29Q669 -29 545 10T329 127L85 -78L12 12L251 213Q180 315 161 448T173 745Q243 1107 498 1313T1129 1520Q1289 1520 1414 1482T1629 1366L1871 1569L1944 1479L1707 1280Z" />
<glyph unicode="&#xd9;" glyph-name="Ugrave" horiz-adv-x="1786" d="M243 1372H53L77 1493H845L821 1372H630L485 625Q431 346 496 235T773 123Q979 123 1087 235T1249 625L1394 1372H1204L1228 1493H1748L1724 1372H1533L1384 604Q1318 262 1142 117T616 -29Q269
-29 149 118T95 606L243 1372ZM1807 1899L1937 1635H1773L1528 1899H1807Z" />
<glyph unicode="&#xda;" glyph-name="Uacute" horiz-adv-x="1786" d="M243 1372H53L77 1493H845L821 1372H630L485 625Q431 346 496 235T773 123Q979 123 1087 235T1249 625L1394 1372H1204L1228 1493H1748L1724 1372H1533L1384 604Q1318 262 1142 117T616 -29Q269
-29 149 118T95 606L243 1372ZM1766 1899H2045L1696 1635H1532L1766 1899Z" />
<glyph unicode="&#xdb;" glyph-name="Ucircumflex" horiz-adv-x="1786" d="M243 1372H53L77 1493H845L821 1372H630L485 625Q431 346 496 235T773 123Q979 123 1087 235T1249 625L1394 1372H1204L1228 1493H1748L1724 1372H1533L1384 604Q1318 262 1142 117T616
-29Q269 -29 149 118T95 606L243 1372ZM1812 1899H2120L2291 1635H2127L1946 1796L1701 1635H1537L1812 1899Z" />
<glyph unicode="&#xdc;" glyph-name="Udieresis" horiz-adv-x="1786" d="M243 1372H53L77 1493H845L821 1372H630L485 625Q431 346 496 235T773 123Q979 123 1087 235T1249 625L1394 1372H1204L1228 1493H1748L1724 1372H1533L1384 604Q1318 262 1142 117T616
-29Q269 -29 149 118T95 606L243 1372ZM1633 1879Q1685 1923 1745 1923Q1804 1923 1839 1879Q1874 1836 1862 1776T1799 1673Q1749 1630 1689 1630T1593 1673T1569 1776T1633 1879ZM2080 1879Q2131 1923 2191 1923T2287 1879Q2323 1836 2311 1776T2247 1673T2135
1630T2039 1673Q2004 1716 2016 1776T2080 1879Z" />
<glyph unicode="&#xdd;" glyph-name="Yacute" horiz-adv-x="1462" d="M124 0L147 121H348L445 618L148 1372H21L44 1493H760L737 1372H571L796 803L1241 1372H1092L1115 1493H1543L1520 1372H1393L842 670L735 121H936L913 0H124ZM1554 1899H1833L1484 1635H1320L1554
1899Z" />
<glyph unicode="&#xde;" glyph-name="Thorn" horiz-adv-x="1594" d="M12 0L35 121H226L470 1372H279L302 1493H1117L1094 1372H855L822 1202H1096Q1345 1202 1468 1084T1554 766T1345 448T926 328H652L611 121H852L829 0H12ZM675 449H787Q917 449 1011 535T1134
766Q1162 910 1102 995T910 1081H798L675 449Z" />
<glyph unicode="&#xdf;" glyph-name="germandbls" horiz-adv-x="1583" d="M1246 1221Q1263 1345 1225 1394T1074 1444Q965 1444 905 1385T818 1190L581 -29Q540 -238 416 -298Q223 -389 4 -389Q15 -333 27 -277Q107 -277 154 -220T226 -33L456 1147Q495 1348 655
1452T1084 1556Q1347 1556 1461 1451T1558 1116H1536Q1381 1116 1293 1071T1187 936Q1179 896 1195 862Q1213 826 1283 768L1359 705Q1510 579 1544 498Q1578 419 1557 311Q1526 151 1384 61T1018 -29Q938 -29 854 -14T675 31L725 289H846Q838 182 877 133T1011
84Q1087 84 1142 128T1212 244Q1232 349 1091 466Q1089 468 1064 489L987 553Q900 626 870 706Q840 784 860 889Q886 1023 982 1105T1246 1221Z" />
<glyph unicode="&#xe0;" glyph-name="agrave" horiz-adv-x="1327" d="M827 876Q824 936 767 936Q633 936 502 776Q441 702 393 455Q357 270 383 199T504 127Q597 127 655 210T750 479L827 876ZM1167 1031L992 121L1125 123L1101 0H657L683 135Q573 -29 378 -29Q185
-29 99 98T57 448Q100 671 292 864Q519 1092 823 1092Q1123 1092 1167 1031ZM367 1638L551 1262H387L88 1638H367Z" />
<glyph unicode="&#xe1;" glyph-name="aacute" horiz-adv-x="1327" d="M827 876Q824 936 767 936Q633 936 502 776Q441 702 393 455Q357 270 383 199T504 127Q597 127 655 210T750 479L827 876ZM1167 1031L992 121L1125 123L1101 0H657L683 135Q573 -29 378 -29Q185
-29 99 98T57 448Q100 671 292 864Q519 1092 823 1092Q1123 1092 1167 1031ZM421 1638H700L253 1262H89L421 1638Z" />
<glyph unicode="&#xe2;" glyph-name="acircumflex" horiz-adv-x="1327" d="M827 876Q824 936 767 936Q633 936 502 776Q441 702 393 455Q357 270 383 199T504 127Q597 127 655 210T750 479L827 876ZM1167 1031L992 121L1125 123L1101 0H657L683 135Q573 -29 378
-29Q185 -29 99 98T57 448Q100 671 292 864Q519 1092 823 1092Q1123 1092 1167 1031ZM423 1638H665L847 1262H683L514 1487L257 1262H93L423 1638Z" />
<glyph unicode="&#xe3;" glyph-name="atilde" horiz-adv-x="1327" d="M827 876Q824 936 767 936Q633 936 502 776Q441 702 393 455Q357 270 383 199T504 127Q597 127 655 210T750 479L827 876ZM1167 1031L992 121L1125 123L1101 0H657L683 135Q573 -29 378 -29Q185
-29 99 98T57 448Q100 671 292 864Q519 1092 823 1092Q1123 1092 1167 1031ZM112 1309L115 1325Q143 1471 211 1546Q279 1622 381 1622Q418 1622 451 1610Q484 1597 524 1567L586 1520L588 1518Q627 1489 663 1489Q704 1489 735 1524T778 1620H888L885 1604Q857
1458 789 1382Q721 1307 619 1307Q582 1307 549 1320Q516 1332 476 1362L413 1409L412 1410Q373 1440 337 1440Q296 1440 265 1405T222 1309H112Z" />
<glyph unicode="&#xe4;" glyph-name="adieresis" horiz-adv-x="1327" d="M827 876Q824 936 767 936Q633 936 502 776Q441 702 393 455Q357 270 383 199T504 127Q597 127 655 210T750 479L827 876ZM1167 1031L992 121L1125 123L1101 0H657L683 135Q573 -29 378
-29Q185 -29 99 98T57 448Q100 671 292 864Q519 1092 823 1092Q1123 1092 1167 1031ZM129 1468Q141 1528 193 1571T305 1614T400 1571Q434 1528 422 1468T359 1364Q308 1321 249 1321Q189 1321 153 1365Q118 1409 129 1468ZM576 1468Q588 1528 640 1571Q691 1614
751 1614T847 1571T871 1468Q860 1409 807 1365Q755 1321 695 1321T600 1365T576 1468Z" />
<glyph unicode="&#xe5;" glyph-name="aring" horiz-adv-x="1327" d="M827 876Q824 936 767 936Q633 936 502 776Q441 702 393 455Q357 270 383 199T504 127Q597 127 655 210T750 479L827 876ZM1167 1031L992 121L1125 123L1101 0H657L683 135Q573 -29 378 -29Q185
-29 99 98T57 448Q100 671 292 864Q519 1092 823 1092Q1123 1092 1167 1031ZM249 1736Q348 1819 466 1819T652 1736Q719 1652 696 1534T573 1332Q474 1249 356 1249T170 1332Q103 1416 126 1534T249 1736ZM280 1534Q269 1479 300 1441Q332 1403 386 1403Q441 1403
486 1442Q532 1480 542 1534T521 1626Q490 1665 436 1665Q381 1665 336 1626Q290 1588 280 1534Z" />
<glyph unicode="&#xe6;" glyph-name="ae" horiz-adv-x="1813" d="M1434 831Q1434 979 1310 979Q1215 979 1163 895T1063 581L1052 519Q1385 519 1427 762Q1434 799 1434 831ZM810 876Q807 936 750 936Q616 936 485 776Q424 702 390 527T356 289T366 198Q392 127
486 127T638 210T733 479L810 876ZM1106 1060Q1210 1092 1333 1092Q1524 1092 1656 1018T1789 808Q1789 781 1783 752Q1720 428 1029 400Q1022 366 1022 334Q1022 84 1228 84Q1343 84 1426 145T1551 322H1717Q1639 141 1495 56T1115 -29T757 82Q610 -29 361 -29Q168
-29 82 98Q25 183 25 310Q25 613 263 852T806 1092Q1023 1092 1106 1060Z" />
<glyph unicode="&#xe7;" glyph-name="ccedilla" horiz-adv-x="1247" d="M1068 332Q995 150 860 61T523 -29Q239 -29 112 118Q21 222 21 388Q21 455 36 532Q87 796 270 944T727 1092Q838 1092 947 1071T1165 1008L1107 713H995Q997 736 997 757Q997 859 955 914Q905
979 791 979Q643 979 561 879T431 532Q406 403 406 314Q406 236 425 188Q466 84 604 84Q711 84 788 148T902 332H1068ZM440 0Q490 -64 508 -118T517 -225Q501 -311 428 -356T233 -401Q185 -401 136 -395T36 -375L65 -219Q107 -236 148 -245T225 -254Q285 -254 321
-231T365 -162Q371 -134 361 -101T313 0H440Z" />
<glyph unicode="&#xe8;" glyph-name="egrave" horiz-adv-x="1303" d="M813 832Q813 979 689 979Q594 979 538 890T431 519Q431 519 453 519Q759 519 806 762Q813 800 813 832ZM407 400Q401 366 401 295Q402 84 607 84Q722 84 805 145T930 322H1096Q1018 141 874
56T499 -29Q223 -29 104 116Q21 218 21 379Q21 448 37 529Q88 796 268 944T712 1092Q903 1092 1035 1018T1168 808Q1168 781 1162 752Q1099 428 407 400ZM418 1638L602 1262H438L139 1638H418Z" />
<glyph unicode="&#xe9;" glyph-name="eacute" horiz-adv-x="1303" d="M813 832Q813 979 689 979Q594 979 538 890T431 519Q431 519 453 519Q759 519 806 762Q813 800 813 832ZM407 400Q401 366 401 295Q402 84 607 84Q722 84 805 145T930 322H1096Q1018 141 874
56T499 -29Q223 -29 104 116Q21 218 21 379Q21 448 37 529Q88 796 268 944T712 1092Q903 1092 1035 1018T1168 808Q1168 781 1162 752Q1099 428 407 400ZM472 1638H751L304 1262H140L472 1638Z" />
<glyph unicode="&#xea;" glyph-name="ecircumflex" horiz-adv-x="1303" d="M813 832Q813 979 689 979Q594 979 538 890T431 519Q431 519 453 519Q759 519 806 762Q813 800 813 832ZM407 400Q401 366 401 295Q402 84 607 84Q722 84 805 145T930 322H1096Q1018 141
874 56T499 -29Q223 -29 104 116Q21 218 21 379Q21 448 37 529Q88 796 268 944T712 1092Q903 1092 1035 1018T1168 808Q1168 781 1162 752Q1099 428 407 400ZM474 1638H716L898 1262H734L565 1487L308 1262H144L474 1638Z" />
<glyph unicode="&#xeb;" glyph-name="edieresis" horiz-adv-x="1303" d="M813 832Q813 979 689 979Q594 979 538 890T431 519Q431 519 453 519Q759 519 806 762Q813 800 813 832ZM407 400Q401 366 401 295Q402 84 607 84Q722 84 805 145T930 322H1096Q1018 141
874 56T499 -29Q223 -29 104 116Q21 218 21 379Q21 448 37 529Q88 796 268 944T712 1092Q903 1092 1035 1018T1168 808Q1168 781 1162 752Q1099 428 407 400ZM180 1468Q192 1528 244 1571T356 1614T451 1571Q485 1528 473 1468T410 1364Q359 1321 300 1321Q240
1321 204 1365Q169 1409 180 1468ZM627 1468Q639 1528 691 1571Q742 1614 802 1614T898 1571T922 1468Q911 1409 858 1365Q806 1321 746 1321T651 1365T627 1468Z" />
<glyph unicode="&#xec;" glyph-name="igrave" horiz-adv-x="778" d="M400 121H552L529 0H23L206 942H55L78 1063H583L400 121ZM413 1638L597 1262H433L134 1638H413Z" />
<glyph unicode="&#xed;" glyph-name="iacute" horiz-adv-x="778" d="M400 121H552L529 0H23L206 942H55L78 1063H583L400 121ZM467 1638H746L299 1262H135L467 1638Z" />
<glyph unicode="&#xee;" glyph-name="icircumflex" horiz-adv-x="778" d="M400 121H552L529 0H23L206 942H55L78 1063H583L400 121ZM469 1638H711L893 1262H729L560 1487L303 1262H139L469 1638Z" />
<glyph unicode="&#xef;" glyph-name="idieresis" horiz-adv-x="778" d="M400 121H552L529 0H23L206 942H55L78 1063H583L400 121ZM175 1468Q187 1528 239 1571T351 1614T446 1571Q480 1528 468 1468T405 1364Q354 1321 295 1321Q235 1321 199 1365Q164 1409 175
1468ZM622 1468Q634 1528 686 1571Q737 1614 797 1614T893 1571T917 1468Q906 1409 853 1365Q801 1321 741 1321T646 1365T622 1468Z" />
<glyph unicode="&#xf0;" glyph-name="eth" horiz-adv-x="1336" d="M1026 1337Q1185 1188 1246 987T1263 557Q1210 282 1021 127T549 -29Q274 -29 140 117T53 508Q98 738 287 889T720 1040Q762 1040 804 1034T887 1016Q878 1079 857 1134T798 1241L450 1092L419
1192L724 1323Q679 1361 609 1392T443 1446L492 1556Q629 1539 739 1503T929 1411L1289 1565L1316 1462L1026 1337ZM882 891Q839 910 803 919T735 928Q624 928 559 833T448 508Q403 274 431 179T571 84T746 178T856 508Q877 615 883 710T882 891Z" />
<glyph unicode="&#xf1;" glyph-name="ntilde" horiz-adv-x="1489" d="M26 0L209 942H58L81 1063H586L557 913Q640 1008 730 1050T945 1092Q1124 1092 1195 986Q1241 919 1241 811Q1241 750 1226 676L1118 121H1270L1247 0H741L874 686Q888 756 888 804Q888 848
876 874Q852 926 767 926Q660 926 595 848T496 598L380 0H26ZM239 1309L242 1325Q270 1471 338 1546Q406 1622 508 1622Q545 1622 578 1610Q611 1597 651 1567L713 1520L715 1518Q754 1489 790 1489Q831 1489 862 1524T905 1620H1015L1012 1604Q984 1458 916 1382Q848
1307 746 1307Q709 1307 676 1320Q643 1332 603 1362L540 1409L539 1410Q500 1440 464 1440Q423 1440 392 1405T349 1309H239Z" />
<glyph unicode="&#xf2;" glyph-name="ograve" horiz-adv-x="1366" d="M548 84Q660 84 724 180T838 532Q871 699 871 798Q871 850 861 884Q835 979 722 979T544 883T430 532Q398 368 398 270Q398 215 408 181Q435 84 548 84ZM115 120Q21 228 21 394Q21 458 35 532Q86
795 274 943T744 1092Q1026 1092 1156 944Q1250 837 1250 671Q1250 606 1235 532Q1184 270 996 121T526 -29T115 120ZM451 1638L635 1262H471L172 1638H451Z" />
<glyph unicode="&#xf3;" glyph-name="oacute" horiz-adv-x="1366" d="M548 84Q660 84 724 180T838 532Q871 699 871 798Q871 850 861 884Q835 979 722 979T544 883T430 532Q398 368 398 270Q398 215 408 181Q435 84 548 84ZM115 120Q21 228 21 394Q21 458 35 532Q86
795 274 943T744 1092Q1026 1092 1156 944Q1250 837 1250 671Q1250 606 1235 532Q1184 270 996 121T526 -29T115 120ZM505 1638H784L337 1262H173L505 1638Z" />
<glyph unicode="&#xf4;" glyph-name="ocircumflex" horiz-adv-x="1366" d="M548 84Q660 84 724 180T838 532Q871 699 871 798Q871 850 861 884Q835 979 722 979T544 883T430 532Q398 368 398 270Q398 215 408 181Q435 84 548 84ZM115 120Q21 228 21 394Q21 458
35 532Q86 795 274 943T744 1092Q1026 1092 1156 944Q1250 837 1250 671Q1250 606 1235 532Q1184 270 996 121T526 -29T115 120ZM507 1638H749L931 1262H767L598 1487L341 1262H177L507 1638Z" />
<glyph unicode="&#xf5;" glyph-name="otilde" horiz-adv-x="1366" d="M548 84Q660 84 724 180T838 532Q871 699 871 798Q871 850 861 884Q835 979 722 979T544 883T430 532Q398 368 398 270Q398 215 408 181Q435 84 548 84ZM115 120Q21 228 21 394Q21 458 35 532Q86
795 274 943T744 1092Q1026 1092 1156 944Q1250 837 1250 671Q1250 606 1235 532Q1184 270 996 121T526 -29T115 120ZM196 1309L199 1325Q227 1471 295 1546Q363 1622 465 1622Q502 1622 535 1610Q568 1597 608 1567L670 1520L672 1518Q711 1489 747 1489Q788 1489
819 1524T862 1620H972L969 1604Q941 1458 873 1382Q805 1307 703 1307Q666 1307 633 1320Q600 1332 560 1362L497 1409L496 1410Q457 1440 421 1440Q380 1440 349 1405T306 1309H196Z" />
<glyph unicode="&#xf6;" glyph-name="odieresis" horiz-adv-x="1366" d="M548 84Q660 84 724 180T838 532Q871 699 871 798Q871 850 861 884Q835 979 722 979T544 883T430 532Q398 368 398 270Q398 215 408 181Q435 84 548 84ZM115 120Q21 228 21 394Q21 458 35
532Q86 795 274 943T744 1092Q1026 1092 1156 944Q1250 837 1250 671Q1250 606 1235 532Q1184 270 996 121T526 -29T115 120ZM213 1468Q225 1528 277 1571T389 1614T484 1571Q518 1528 506 1468T443 1364Q392 1321 333 1321Q273 1321 237 1365Q202 1409 213 1468ZM660
1468Q672 1528 724 1571Q775 1614 835 1614T931 1571T955 1468Q944 1409 891 1365Q839 1321 779 1321T684 1365T660 1468Z" />
<glyph unicode="&#xf7;" glyph-name="divide" horiz-adv-x="1282" d="M492 1012Q492 1073 536 1117T641 1161Q703 1161 747 1117T791 1012Q791 950 747 906T641 862Q580 862 536 906T492 1012ZM492 272Q492 334 536 378T641 422Q703 422 747 378T791 272Q791 211
747 167T641 123Q580 123 536 167T492 272ZM0 756H1282V528H0V756Z" />
<glyph unicode="&#xf8;" glyph-name="oslash" horiz-adv-x="1495" d="M524 416L986 801Q986 891 950 935T836 979Q726 979 661 884T551 553L524 416ZM513 262Q511 173 548 129T662 84Q771 84 835 178T946 508L973 649L513 262ZM1291 913Q1343 841 1357 746T1349
532Q1299 270 1110 121T640 -29Q529 -29 441 -5T283 70L77 -102L10 -16L206 147Q155 222 141 318T149 532Q201 795 389 943T858 1092Q974 1092 1064 1067T1216 993L1417 1161L1486 1075L1291 913Z" />
<glyph unicode="&#xf9;" glyph-name="ugrave" horiz-adv-x="1489" d="M1275 1063L1092 121H1243L1220 0H714L743 150Q661 55 571 13T356 -29Q177 -29 106 76Q60 144 60 252Q60 313 75 387L183 942H31L54 1063H560L439 442Q415 317 415 250Q415 210 424 190Q446
137 534 137Q641 137 706 216T804 467L920 1063H1275ZM474 1638L658 1262H494L195 1638H474Z" />
<glyph unicode="&#xfa;" glyph-name="uacute" horiz-adv-x="1489" d="M1275 1063L1092 121H1243L1220 0H714L743 150Q661 55 571 13T356 -29Q177 -29 106 76Q60 144 60 252Q60 313 75 387L183 942H31L54 1063H560L439 442Q415 317 415 250Q415 210 424 190Q446
137 534 137Q641 137 706 216T804 467L920 1063H1275ZM528 1638H807L360 1262H196L528 1638Z" />
<glyph unicode="&#xfb;" glyph-name="ucircumflex" horiz-adv-x="1489" d="M1275 1063L1092 121H1243L1220 0H714L743 150Q661 55 571 13T356 -29Q177 -29 106 76Q60 144 60 252Q60 313 75 387L183 942H31L54 1063H560L439 442Q415 317 415 250Q415 210 424 190Q446
137 534 137Q641 137 706 216T804 467L920 1063H1275ZM530 1638H772L954 1262H790L621 1487L364 1262H200L530 1638Z" />
<glyph unicode="&#xfc;" glyph-name="udieresis" horiz-adv-x="1489" d="M1275 1063L1092 121H1243L1220 0H714L743 150Q661 55 571 13T356 -29Q177 -29 106 76Q60 144 60 252Q60 313 75 387L183 942H31L54 1063H560L439 442Q415 317 415 250Q415 210 424 190Q446
137 534 137Q641 137 706 216T804 467L920 1063H1275ZM236 1468Q248 1528 300 1571T412 1614T507 1571Q541 1528 529 1468T466 1364Q415 1321 356 1321Q296 1321 260 1365Q225 1409 236 1468ZM683 1468Q695 1528 747 1571Q798 1614 858 1614T954 1571T978 1468Q967
1409 914 1365Q862 1321 802 1321T707 1365T683 1468Z" />
<glyph unicode="&#xfd;" glyph-name="yacute" horiz-adv-x="1190" d="M558 -273L274 942H159L183 1063H617L855 35Q970 201 1047 388T1200 940L1058 941L1081 1062L1368 1063Q1343 935 1307 770Q1218 364 1107 176Q814 -314 579 -404Q446 -455 254 -455Q160 -455
23 -412L66 -190L179 -191Q175 -215 175 -235Q175 -304 222 -326Q243 -336 286 -342Q310 -345 334 -345Q445 -345 558 -273ZM417 1638H696L249 1262H85L417 1638Z" />
<glyph unicode="&#xfe;" glyph-name="thorn" horiz-adv-x="1371" d="M568 584L547 479Q528 379 528 309Q528 249 542 210Q574 127 680 127Q789 127 850 215T957 532Q984 674 984 761Q984 815 974 848Q946 936 837 936Q731 936 668 853T568 584ZM379 1436H227L251
1556H757L635 928Q696 1011 779 1051T975 1092Q1202 1092 1304 942Q1371 843 1371 694Q1371 619 1355 532Q1304 271 1145 121T758 -29Q646 -29 578 11T480 135L371 -426H17L379 1436Z" />
<glyph unicode="&#xff;" glyph-name="ydieresis" horiz-adv-x="1190" d="M558 -273L274 942H159L183 1063H617L855 35Q970 201 1047 388T1200 940L1058 941L1081 1062L1368 1063Q1343 935 1307 770Q1218 364 1107 176Q814 -314 579 -404Q446 -455 254 -455Q160
-455 23 -412L66 -190L179 -191Q175 -215 175 -235Q175 -304 222 -326Q243 -336 286 -342Q310 -345 334 -345Q445 -345 558 -273ZM125 1468Q137 1528 189 1571T301 1614T396 1571Q430 1528 418 1468T355 1364Q304 1321 245 1321Q185 1321 149 1365Q114 1409 125
1468ZM572 1468Q584 1528 636 1571Q687 1614 747 1614T843 1571T867 1468Q856 1409 803 1365Q751 1321 691 1321T596 1365T572 1468Z" />
<glyph unicode="&#x100;" glyph-name="Amacron" horiz-adv-x="1589" d="M411 1872H1041L1005 1684H375L411 1872ZM0 0L23 121H145L974 1493H1213L1509 121H1651L1628 0H929L952 121H1098L1035 426H474L289 121H467L444 0H0ZM546 547H1009L890 1118L546 547Z" />
<glyph unicode="&#x101;" glyph-name="amacron" horiz-adv-x="1327" d="M142 1562H772L736 1374H106L142 1562ZM827 876Q824 936 767 936Q633 936 502 776Q441 702 393 455Q357 270 383 199T504 127Q597 127 655 210T750 479L827 876ZM1167 1031L992 121L1125
123L1101 0H657L683 135Q573 -29 378 -29Q185 -29 99 98T57 448Q100 671 292 864Q519 1092 823 1092Q1123 1092 1167 1031Z" />
<glyph unicode="&#x102;" glyph-name="Abreve" horiz-adv-x="1589" d="M359 1917H484Q476 1844 524 1805Q573 1766 672 1766T834 1805Q898 1844 918 1917H1043Q1015 1771 908 1688Q802 1606 641 1606Q478 1606 405 1687T359 1917ZM0 0L23 121H145L974 1493H1213L1509
121H1651L1628 0H929L952 121H1098L1035 426H474L289 121H467L444 0H0ZM546 547H1009L890 1118L546 547Z" />
<glyph unicode="&#x103;" glyph-name="abreve" horiz-adv-x="1327" d="M170 1589H295Q287 1516 335 1477Q384 1438 483 1438T645 1477Q709 1516 729 1589H854Q826 1443 719 1360Q613 1278 452 1278Q289 1278 216 1359T170 1589ZM827 876Q824 936 767 936Q633 936
502 776Q441 702 393 455Q357 270 383 199T504 127Q597 127 655 210T750 479L827 876ZM1167 1031L992 121L1125 123L1101 0H657L683 135Q573 -29 378 -29Q185 -29 99 98T57 448Q100 671 292 864Q519 1092 823 1092Q1123 1092 1167 1031Z" />
<glyph unicode="&#x104;" glyph-name="Aogonek" horiz-adv-x="1589" d="M491 0H616Q554 -65 528 -102T495 -168Q487 -209 511 -231T588 -254Q627 -254 669 -246T752 -223L720 -379Q664 -390 615 -395T524 -401Q411 -401 358 -355T320 -225Q330 -173 372 -119T491
0ZM0 0L23 121H145L974 1493H1213L1509 121H1651L1628 0H929L952 121H1098L1035 426H474L289 121H467L444 0H0ZM546 547H1009L890 1118L546 547Z" />
<glyph unicode="&#x105;" glyph-name="aogonek" horiz-adv-x="1327" d="M389 0H514Q452 -65 426 -102T393 -168Q385 -209 409 -231T486 -254Q525 -254 567 -246T650 -223L618 -379Q562 -390 513 -395T422 -401Q309 -401 256 -355T218 -225Q228 -173 270 -119T389
0ZM827 876Q824 936 767 936Q633 936 502 776Q441 702 393 455Q357 270 383 199T504 127Q597 127 655 210T750 479L827 876ZM1167 1031L992 121L1125 123L1101 0H657L683 135Q573 -29 378 -29Q185 -29 99 98T57 448Q100 671 292 864Q519 1092 823 1092Q1123 1092
1167 1031Z" />
<glyph unicode="&#x106;" glyph-name="Cacute" horiz-adv-x="1630" d="M1461 426Q1357 195 1182 83T749 -29Q371 -29 193 179T83 745Q152 1103 412 1311T1051 1520Q1184 1520 1321 1488T1607 1391L1536 1024H1409Q1407 1212 1322 1305T1068 1399Q850 1399 713
1239T511 745T521 252T816 92Q965 92 1075 175T1262 426H1461ZM1712 1899H1991L1642 1635H1478L1712 1899Z" />
<glyph unicode="&#x107;" glyph-name="cacute" horiz-adv-x="1247" d="M1068 332Q995 150 860 61T523 -29Q239 -29 112 118Q21 222 21 388Q21 455 36 532Q87 796 270 944T727 1092Q838 1092 947 1071T1165 1008L1107 713H995Q997 736 997 757Q997 859 955 914Q905
979 791 979Q643 979 561 879T431 532Q406 403 406 314Q406 236 425 188Q466 84 604 84Q711 84 788 148T902 332H1068ZM485 1638H764L317 1262H153L485 1638Z" />
<glyph unicode="&#x108;" glyph-name="Ccircumflex" horiz-adv-x="1630" d="M1758 1899H2066L2237 1635H2073L1892 1796L1647 1635H1483L1758 1899ZM1461 426Q1357 195 1182 83T749 -29Q371 -29 193 179T83 745Q152 1103 412 1311T1051 1520Q1184 1520 1321 1488T1607
1391L1536 1024H1409Q1407 1212 1322 1305T1068 1399Q850 1399 713 1239T511 745T521 252T816 92Q965 92 1075 175T1262 426H1461Z" />
<glyph unicode="&#x109;" glyph-name="ccircumflex" horiz-adv-x="1247" d="M487 1638H729L911 1262H747L578 1487L321 1262H157L487 1638ZM1068 332Q995 150 860 61T523 -29Q239 -29 112 118Q21 222 21 388Q21 455 36 532Q87 796 270 944T727 1092Q838 1092 947
1071T1165 1008L1107 713H995Q997 736 997 757Q997 859 955 914Q905 979 791 979Q643 979 561 879T431 532Q406 403 406 314Q406 236 425 188Q466 84 604 84Q711 84 788 148T902 332H1068Z" />
<glyph unicode="&#x10a;" glyph-name="Cdotaccent" horiz-adv-x="1630" d="M1565 1879Q1616 1923 1676 1923T1772 1879Q1807 1836 1795 1776T1731 1673Q1680 1630 1620 1630T1524 1673Q1489 1716 1501 1776T1565 1879ZM1461 426Q1357 195 1182 83T749 -29Q371
-29 193 179T83 745Q152 1103 412 1311T1051 1520Q1184 1520 1321 1488T1607 1391L1536 1024H1409Q1407 1212 1322 1305T1068 1399Q850 1399 713 1239T511 745T521 252T816 92Q965 92 1075 175T1262 426H1461Z" />
<glyph unicode="&#x10b;" glyph-name="cdotaccent" horiz-adv-x="1247" d="M179 1468Q191 1528 243 1571Q294 1614 354 1614T450 1571Q485 1528 473 1468Q462 1409 410 1365T298 1321T203 1365T179 1468ZM1068 332Q995 150 860 61T523 -29Q239 -29 112 118Q21
222 21 388Q21 455 36 532Q87 796 270 944T727 1092Q838 1092 947 1071T1165 1008L1107 713H995Q997 736 997 757Q997 859 955 914Q905 979 791 979Q643 979 561 879T431 532Q406 403 406 314Q406 236 425 188Q466 84 604 84Q711 84 788 148T902 332H1068Z" />
<glyph unicode="&#x10c;" glyph-name="Ccaron" horiz-adv-x="1630" d="M1461 426Q1357 195 1182 83T749 -29Q371 -29 193 179T83 745Q152 1103 412 1311T1051 1520Q1184 1520 1321 1488T1607 1391L1536 1024H1409Q1407 1212 1322 1305T1068 1399Q850 1399 713
1239T511 745T521 252T816 92Q965 92 1075 175T1262 426H1461ZM1663 1635L1492 1899H1656L1837 1737L2082 1899H2246L1971 1635H1663Z" />
<glyph unicode="&#x10d;" glyph-name="ccaron" horiz-adv-x="1247" d="M1068 332Q995 150 860 61T523 -29Q239 -29 112 118Q21 222 21 388Q21 455 36 532Q87 796 270 944T727 1092Q838 1092 947 1071T1165 1008L1107 713H995Q997 736 997 757Q997 859 955 914Q905
979 791 979Q643 979 561 879T431 532Q406 403 406 314Q406 236 425 188Q466 84 604 84Q711 84 788 148T902 332H1068ZM350 1262L168 1638H332L500 1411L758 1638H922L592 1262H350Z" />
<glyph unicode="&#x10e;" glyph-name="Dcaron" horiz-adv-x="1776" d="M613 121H752Q986 121 1124 271T1325 748Q1388 1073 1310 1222T996 1372H857L613 121ZM14 0L37 121H228L472 1372H281L304 1493H1070Q1472 1493 1647 1301T1753 748Q1683 385 1432 193T780
0H14ZM1639 1635L1468 1899H1632L1813 1737L2058 1899H2222L1947 1635H1639Z" />
<glyph unicode="&#x10f;" glyph-name="dcaron" horiz-adv-x="1432" d="M805 479L825 584Q844 683 844 753Q844 814 829 853Q798 936 693 936Q583 936 522 849T415 532Q388 391 388 304Q388 249 398 215Q426 127 535 127Q640 127 704 210T805 479ZM1368 1556L1066
0H712L738 135Q677 52 593 12T396 -29Q170 -29 70 121Q3 221 3 369Q3 444 20 532Q71 794 229 943T614 1092Q726 1092 794 1052T892 928L991 1436H839L862 1556H1368ZM2346 1555H2625L2367 1179H2203L2346 1555Z" />
<glyph unicode="&#x110;" glyph-name="Dcroat" horiz-adv-x="1790" d="M616 121H755Q989 121 1126 270T1326 748Q1390 1074 1312 1223T999 1372H860L758 850H1090L1063 713H731L616 121ZM16 0L39 121H231L346 713H133L160 850H373L475 1372H283L306 1493H1074Q1474
1493 1649 1302T1754 748Q1684 385 1434 193T784 0H16Z" />
<glyph unicode="&#x111;" glyph-name="" horiz-adv-x="1509" d="M808 479L828 584Q847 683 847 753Q847 814 832 853Q801 936 696 936Q586 936 525 849T418 532Q391 391 391 304Q391 249 401 215Q429 127 538 127Q643 127 707 210T808 479ZM1306 1223L1069 0H715L741
135Q680 52 596 12T399 -29Q173 -29 73 121Q6 221 6 369Q6 444 23 532Q74 794 232 943T617 1092Q729 1092 797 1052T895 928L952 1223H628L652 1343H976L994 1436H842L865 1556H1371L1330 1343H1502L1478 1223H1306Z" />
<glyph unicode="&#x112;" glyph-name="Emacron" horiz-adv-x="1561" d="M391 1872H1021L985 1684H355L391 1872ZM12 0L35 121H226L470 1372H279L302 1493H1644L1576 1141H1438L1479 1356H851L758 877H1149L1186 1067H1323L1223 551H1086L1123 741H732L615 137H1262L1303
352H1440L1372 0H12Z" />
<glyph unicode="&#x113;" glyph-name="emacron" horiz-adv-x="1303" d="M219 1562H849L813 1374H183L219 1562ZM813 832Q813 979 689 979Q594 979 538 890T431 519Q431 519 453 519Q759 519 806 762Q813 800 813 832ZM407 400Q401 366 401 295Q402 84 607 84Q722
84 805 145T930 322H1096Q1018 141 874 56T499 -29Q223 -29 104 116Q21 218 21 379Q21 448 37 529Q88 796 268 944T712 1092Q903 1092 1035 1018T1168 808Q1168 781 1162 752Q1099 428 407 400Z" />
<glyph unicode="&#x114;" glyph-name="Ebreve" horiz-adv-x="1561" d="M1426 1899H1549Q1560 1844 1610 1815T1744 1786T1890 1815Q1952 1845 1983 1899H2106Q2052 1768 1954 1701Q1855 1635 1714 1635Q1570 1635 1499 1700T1426 1899ZM12 0L35 121H226L470 1372H279L302
1493H1644L1576 1141H1438L1479 1356H851L758 877H1149L1186 1067H1323L1223 551H1086L1123 741H732L615 137H1262L1303 352H1440L1372 0H12Z" />
<glyph unicode="&#x115;" glyph-name="ebreve" horiz-adv-x="1303" d="M190 1589H315Q307 1516 355 1477Q404 1438 503 1438T665 1477Q729 1516 749 1589H874Q846 1443 739 1360Q633 1278 472 1278Q309 1278 236 1359T190 1589ZM813 832Q813 979 689 979Q594 979
538 890T431 519Q431 519 453 519Q759 519 806 762Q813 800 813 832ZM407 400Q401 366 401 295Q402 84 607 84Q722 84 805 145T930 322H1096Q1018 141 874 56T499 -29Q223 -29 104 116Q21 218 21 379Q21 448 37 529Q88 796 268 944T712 1092Q903 1092 1035 1018T1168
808Q1168 781 1162 752Q1099 428 407 400Z" />
<glyph unicode="&#x116;" glyph-name="Edotaccent" horiz-adv-x="1561" d="M1491 1879Q1542 1923 1602 1923T1698 1879Q1733 1836 1721 1776T1657 1673Q1606 1630 1546 1630T1450 1673Q1415 1716 1427 1776T1491 1879ZM12 0L35 121H226L470 1372H279L302 1493H1644L1576
1141H1438L1479 1356H851L758 877H1149L1186 1067H1323L1223 551H1086L1123 741H732L615 137H1262L1303 352H1440L1372 0H12Z" />
<glyph unicode="&#x117;" glyph-name="edotaccent" horiz-adv-x="1303" d="M166 1468Q178 1528 230 1571Q281 1614 341 1614T437 1571Q472 1528 460 1468Q449 1409 397 1365T285 1321T190 1365T166 1468ZM813 832Q813 979 689 979Q594 979 538 890T431 519Q431
519 453 519Q759 519 806 762Q813 800 813 832ZM407 400Q401 366 401 295Q402 84 607 84Q722 84 805 145T930 322H1096Q1018 141 874 56T499 -29Q223 -29 104 116Q21 218 21 379Q21 448 37 529Q88 796 268 944T712 1092Q903 1092 1035 1018T1168 808Q1168 781 1162
752Q1099 428 407 400Z" />
<glyph unicode="&#x118;" glyph-name="Eogonek" horiz-adv-x="1561" d="M756 0H881Q819 -65 793 -102T760 -168Q752 -209 776 -231T853 -254Q892 -254 934 -246T1017 -223L985 -379Q929 -390 880 -395T789 -401Q676 -401 623 -355T585 -225Q595 -173 637 -119T756
0ZM12 0L35 121H226L470 1372H279L302 1493H1644L1576 1141H1438L1479 1356H851L758 877H1149L1186 1067H1323L1223 551H1086L1123 741H732L615 137H1262L1303 352H1440L1372 0H12Z" />
<glyph unicode="&#x119;" glyph-name="eogonek" horiz-adv-x="1303" d="M261 0H386Q324 -65 298 -102T265 -168Q257 -209 281 -231T358 -254Q397 -254 439 -246T522 -223L490 -379Q434 -390 385 -395T294 -401Q181 -401 128 -355T90 -225Q100 -173 142 -119T261
0ZM813 832Q813 979 689 979Q594 979 538 890T431 519Q431 519 453 519Q759 519 806 762Q813 800 813 832ZM407 400Q401 366 401 295Q402 84 607 84Q722 84 805 145T930 322H1096Q1018 141 874 56T499 -29Q223 -29 104 116Q21 218 21 379Q21 448 37 529Q88 796
268 944T712 1092Q903 1092 1035 1018T1168 808Q1168 781 1162 752Q1099 428 407 400Z" />
<glyph unicode="&#x11a;" glyph-name="Ecaron" horiz-adv-x="1561" d="M12 0L35 121H226L470 1372H279L302 1493H1644L1576 1141H1438L1479 1356H851L758 877H1149L1186 1067H1323L1223 551H1086L1123 741H732L615 137H1262L1303 352H1440L1372 0H12ZM1586 1641L1415
1905H1579L1760 1743L2005 1905H2169L1894 1641H1586Z" />
<glyph unicode="&#x11b;" glyph-name="ecaron" horiz-adv-x="1303" d="M813 832Q813 979 689 979Q594 979 538 890T431 519Q431 519 453 519Q759 519 806 762Q813 800 813 832ZM407 400Q401 366 401 295Q402 84 607 84Q722 84 805 145T930 322H1096Q1018 141 874
56T499 -29Q223 -29 104 116Q21 218 21 379Q21 448 37 529Q88 796 268 944T712 1092Q903 1092 1035 1018T1168 808Q1168 781 1162 752Q1099 428 407 400ZM350 1262L168 1638H332L500 1411L758 1638H922L592 1262H350Z" />
<glyph unicode="&#x11c;" glyph-name="Gcircumflex" horiz-adv-x="1749" d="M1778 1899H2086L2257 1635H2093L1912 1796L1667 1635H1503L1778 1899ZM1462 1024Q1456 1222 1368 1310T1089 1399Q857 1399 718 1242T513 745Q448 409 521 251T814 92Q898 92 973 111T1116
168L1195 578H1015L1039 698H1577L1465 125Q1282 47 1107 9T757 -29Q373 -29 194 178T85 745Q155 1106 415 1313T1059 1520Q1219 1520 1367 1488T1660 1391L1589 1024H1462Z" />
<glyph unicode="&#x11d;" glyph-name="gcircumflex" horiz-adv-x="1432" d="M501 1638H743L925 1262H761L592 1487L335 1262H171L501 1638ZM958 876Q953 936 889 936Q707 936 593 776Q522 675 479 455Q443 270 473 199T613 127Q717 127 781 210T881 479L958 876ZM1336
996L1145 14Q1097 -232 918 -332Q700 -455 444 -455Q338 -455 232 -439T17 -389L67 -135H180Q179 -144 179 -152Q179 -244 234 -291Q294 -342 423 -342Q587 -342 669 -264T791 14L814 135Q692 -29 467 -29Q244 -29 141 98T81 448Q134 720 387 916Q614 1092 947
1092Q1216 1092 1336 996Z" />
<glyph unicode="&#x11e;" glyph-name="Gbreve" horiz-adv-x="1749" d="M1462 1024Q1456 1222 1368 1310T1089 1399Q857 1399 718 1242T513 745Q448 409 521 251T814 92Q898 92 973 111T1116 168L1195 578H1015L1039 698H1577L1465 125Q1282 47 1107 9T757 -29Q373
-29 194 178T85 745Q155 1106 415 1313T1059 1520Q1219 1520 1367 1488T1660 1391L1589 1024H1462ZM1484 1899H1607Q1618 1844 1668 1815T1802 1786T1948 1815Q2010 1845 2041 1899H2164Q2110 1768 2012 1701Q1913 1635 1772 1635Q1628 1635 1557 1700T1484 1899Z"
/>
<glyph unicode="&#x11f;" glyph-name="gbreve" horiz-adv-x="1432" d="M958 876Q953 936 889 936Q707 936 593 776Q522 675 479 455Q443 270 473 199T613 127Q717 127 781 210T881 479L958 876ZM1336 996L1145 14Q1097 -232 918 -332Q700 -455 444 -455Q338 -455
232 -439T17 -389L67 -135H180Q179 -144 179 -152Q179 -244 234 -291Q294 -342 423 -342Q587 -342 669 -264T791 14L814 135Q692 -29 467 -29Q244 -29 141 98T81 448Q134 720 387 916Q614 1092 947 1092Q1216 1092 1336 996ZM256 1589H381Q373 1516 421 1477Q470
1438 569 1438T731 1477Q795 1516 815 1589H940Q912 1443 805 1360Q699 1278 538 1278Q375 1278 302 1359T256 1589Z" />
<glyph unicode="&#x120;" glyph-name="Gdotaccent" horiz-adv-x="1749" d="M1585 1879Q1636 1923 1696 1923T1792 1879Q1827 1836 1815 1776T1751 1673Q1700 1630 1640 1630T1544 1673Q1509 1716 1521 1776T1585 1879ZM1462 1024Q1456 1222 1368 1310T1089 1399Q857
1399 718 1242T513 745Q448 409 521 251T814 92Q898 92 973 111T1116 168L1195 578H1015L1039 698H1577L1465 125Q1282 47 1107 9T757 -29Q373 -29 194 178T85 745Q155 1106 415 1313T1059 1520Q1219 1520 1367 1488T1660 1391L1589 1024H1462Z" />
<glyph unicode="&#x121;" glyph-name="gdotaccent" horiz-adv-x="1432" d="M293 1468Q305 1528 357 1571Q408 1614 468 1614T564 1571Q599 1528 587 1468Q576 1409 524 1365T412 1321T317 1365T293 1468ZM958 876Q953 936 889 936Q707 936 593 776Q522 675 479
455Q443 270 473 199T613 127Q717 127 781 210T881 479L958 876ZM1336 996L1145 14Q1097 -232 918 -332Q700 -455 444 -455Q338 -455 232 -439T17 -389L67 -135H180Q179 -144 179 -152Q179 -244 234 -291Q294 -342 423 -342Q587 -342 669 -264T791 14L814 135Q692
-29 467 -29Q244 -29 141 98T81 448Q134 720 387 916Q614 1092 947 1092Q1216 1092 1336 996Z" />
<glyph unicode="&#x122;" glyph-name="Gcommaaccent" horiz-adv-x="1749" d="M1385 -419Q1471 -377 1518 -325T1579 -204L1587 -161H1801L1800 -165Q1779 -276 1693 -355Q1609 -435 1454 -490L1385 -419ZM1462 1024Q1456 1222 1368 1310T1089 1399Q857 1399 718
1242T513 745Q448 409 521 251T814 92Q898 92 973 111T1116 168L1195 578H1015L1039 698H1577L1465 125Q1282 47 1107 9T757 -29Q373 -29 194 178T85 745Q155 1106 415 1313T1059 1520Q1219 1520 1367 1488T1660 1391L1589 1024H1462Z" />
<glyph unicode="&#x123;" glyph-name="gcommaaccent" horiz-adv-x="1432" d="M1750 1472Q1664 1430 1617 1378T1556 1257L1548 1214H1334Q1355 1328 1442 1408Q1526 1488 1681 1543L1750 1472ZM958 876Q953 936 889 936Q707 936 593 776Q522 675 479 455Q443 270
473 199T613 127Q717 127 781 210T881 479L958 876ZM1336 996L1145 14Q1097 -232 918 -332Q700 -455 444 -455Q338 -455 232 -439T17 -389L67 -135H180Q179 -144 179 -152Q179 -244 234 -291Q294 -342 423 -342Q587 -342 669 -264T791 14L814 135Q692 -29 467 -29Q244
-29 141 98T81 448Q134 720 387 916Q614 1092 947 1092Q1216 1092 1336 996Z" />
<glyph unicode="&#x124;" glyph-name="Hcircumflex" horiz-adv-x="1935" d="M1838 1899H2146L2317 1635H2153L1972 1796L1727 1635H1563L1838 1899ZM16 0L39 121H230L474 1372H283L306 1493H1074L1051 1372H859L761 870H1355L1453 1372H1262L1285 1493H2053L2030
1372H1838L1594 121H1786L1763 0H995L1018 121H1209L1328 733H734L615 121H807L784 0H16Z" />
<glyph unicode="&#x125;" glyph-name="hcircumflex" horiz-adv-x="1489" d="M1193 1899H1501L1672 1635H1508L1327 1796L1082 1635H918L1193 1899ZM22 0L301 1436H143L166 1556H678L553 913Q636 1008 726 1050T941 1092Q1120 1092 1191 986Q1236 919 1236 811Q1236
750 1222 676L1114 121H1266L1243 0H737L870 686Q884 756 884 804Q884 848 872 874Q848 926 763 926Q656 926 591 848T492 598L376 0H22Z" />
<glyph unicode="&#x126;" glyph-name="Hbar" horiz-adv-x="2073" d="M18 0L41 121H232L414 1053H223L249 1190H440L476 1372H285L308 1493H1076L1053 1372H861L825 1190H1419L1455 1372H1264L1287 1493H2055L2032 1372H1840L1804 1190H1996L1970 1053H1778L1596
121H1788L1765 0H997L1020 121H1211L1330 733H736L617 121H809L786 0H18ZM763 870H1357L1393 1053H799L763 870Z" />
<glyph unicode="&#x127;" glyph-name="hbar" horiz-adv-x="1280" d="M25 0L257 1196H99L126 1333H284L304 1436H146L169 1556H681L638 1333H997L970 1196H611L556 913Q639 1008 729 1050T944 1092Q1123 1092 1194 986Q1239 919 1239 811Q1239 750 1225 676L1117
121H1269L1246 0H740L873 686Q887 756 887 804Q887 848 875 874Q851 926 766 926Q659 926 594 848T495 598L379 0H25Z" />
<glyph unicode="&#x128;" glyph-name="Itilde" horiz-adv-x="958" d="M1089 1635L1091 1647Q1115 1770 1182 1837Q1249 1903 1349 1903Q1410 1903 1483 1864Q1491 1860 1494 1858L1560 1825Q1586 1812 1603 1807Q1620 1803 1638 1803Q1679 1803 1708 1828Q1738
1853 1746 1897L1747 1901H1857L1854 1886Q1830 1764 1764 1699Q1698 1633 1597 1633Q1563 1633 1531 1642T1452 1678L1400 1706Q1375 1719 1351 1726T1308 1733Q1267 1733 1238 1707Q1208 1682 1200 1639L1199 1635H1089ZM4 0L27 121H218L462 1372H271L294 1493H1062L1039
1372H847L603 121H795L772 0H4Z" />
<glyph unicode="&#x129;" glyph-name="itilde" horiz-adv-x="778" d="M158 1309L161 1325Q189 1471 257 1546Q325 1622 427 1622Q464 1622 497 1610Q530 1597 570 1567L632 1520L634 1518Q673 1489 709 1489Q750 1489 781 1524T824 1620H934L931 1604Q903 1458
835 1382Q767 1307 665 1307Q628 1307 595 1320Q562 1332 522 1362L459 1409L458 1410Q419 1440 383 1440Q342 1440 311 1405T268 1309H158ZM400 121H552L529 0H23L206 942H55L78 1063H583L400 121Z" />
<glyph unicode="&#x12a;" glyph-name="Imacron" horiz-adv-x="958" d="M104 1872H734L698 1684H68L104 1872ZM4 0L27 121H218L462 1372H271L294 1493H1062L1039 1372H847L603 121H795L772 0H4Z" />
<glyph unicode="&#x12b;" glyph-name="imacron" horiz-adv-x="778" d="M-113 1563H517L481 1375H-149L-113 1563ZM400 121H552L529 0H23L206 942H55L78 1063H583L400 121Z" />
<glyph unicode="&#x12c;" glyph-name="Ibreve" horiz-adv-x="958" d="M1090 1899H1213Q1224 1844 1274 1815T1408 1786T1554 1815Q1616 1845 1647 1899H1770Q1716 1768 1618 1701Q1519 1635 1378 1635Q1234 1635 1163 1700T1090 1899ZM4 0L27 121H218L462 1372H271L294
1493H1062L1039 1372H847L603 121H795L772 0H4Z" />
<glyph unicode="&#x12d;" glyph-name="ibreve" horiz-adv-x="778" d="M185 1589H310Q302 1516 350 1477Q399 1438 498 1438T660 1477Q724 1516 744 1589H869Q841 1443 734 1360Q628 1278 467 1278Q304 1278 231 1359T185 1589ZM400 121H552L529 0H23L206 942H55L78
1063H583L400 121Z" />
<glyph unicode="&#x12e;" glyph-name="Iogonek" horiz-adv-x="958" d="M43 0L66 121H257L501 1372H310L333 1493H1101L1078 1372H886L642 121H834L811 0H43ZM416 0H541Q479 -65 453 -102T420 -168Q412 -209 436 -231T513 -254Q552 -254 594 -246T677 -223L645
-379Q589 -390 540 -395T449 -401Q336 -401 283 -355T245 -225Q255 -173 297 -119T416 0Z" />
<glyph unicode="&#x12f;" glyph-name="iogonek" horiz-adv-x="778" d="M275 1364Q291 1445 357 1500T505 1556Q584 1556 629 1500Q662 1459 662 1404Q662 1385 658 1364Q643 1285 577 1230T431 1174Q350 1174 305 1229Q271 1270 271 1325Q271 1344 275 1364ZM420
121H572L549 0H43L226 942H75L98 1063H603L420 121ZM57 0H182Q120 -65 94 -102T61 -168Q53 -209 77 -231T154 -254Q193 -254 235 -246T318 -223L286 -379Q230 -390 181 -395T90 -401Q-23 -401 -76 -355T-114 -225Q-104 -173 -62 -119T57 0Z" />
<glyph unicode="&#x130;" glyph-name="Idot" horiz-adv-x="958" d="M4 0L27 121H218L462 1372H271L294 1493H1062L1039 1372H847L603 121H795L772 0H4ZM1155 1879Q1206 1923 1266 1923T1362 1879Q1397 1836 1385 1776T1321 1673Q1270 1630 1210 1630T1114 1673Q1079
1716 1091 1776T1155 1879Z" />
<glyph unicode="&#x131;" glyph-name="dotlessi" horiz-adv-x="606" d="M400 121H552L529 0H23L206 942H55L78 1063H583L400 121Z" />
<glyph unicode="&#x132;" glyph-name="IJ" horiz-adv-x="1929" d="M961 -358L1006 -123H1136Q1124 -217 1154 -261T1260 -305Q1357 -305 1410 -231T1503 49L1760 1372H1543L1567 1493H2362L2338 1372H2147L1888 41Q1841 -202 1697 -314T1285 -426Q1202 -426 1122
-409T961 -358ZM4 0L27 121H218L462 1372H271L294 1493H1062L1039 1372H847L603 121H795L772 0H4Z" />
<glyph unicode="&#x133;" glyph-name="ij" horiz-adv-x="1538" d="M1472 1364Q1488 1445 1554 1500T1702 1556Q1780 1556 1826 1500Q1859 1458 1859 1403Q1859 1385 1855 1364Q1840 1285 1774 1230T1628 1174Q1547 1174 1502 1229Q1468 1270 1468 1325Q1468 1344
1472 1364ZM1431 942H1280L1304 1063H1809L1578 -125Q1546 -288 1415 -371T1058 -455Q998 -455 932 -445T796 -416L840 -190L953 -191Q948 -221 948 -245Q948 -284 962 -306Q985 -342 1051 -342Q1124 -342 1162 -295T1224 -125L1431 942ZM236 1364Q252 1445 318
1500T466 1556Q545 1556 590 1500Q623 1459 623 1404Q623 1385 619 1364Q604 1285 538 1230T392 1174Q311 1174 266 1229Q232 1270 232 1325Q232 1344 236 1364ZM381 121H533L510 0H4L187 942H36L59 1063H564L381 121Z" />
<glyph unicode="&#x134;" glyph-name="Jcircumflex" horiz-adv-x="969" d="M1362 1899H1670L1841 1635H1677L1496 1796L1251 1635H1087L1362 1899ZM1 -358L46 -123H176Q164 -217 194 -261T300 -305Q397 -305 450 -231T543 49L800 1372H583L607 1493H1402L1378
1372H1187L928 41Q881 -202 737 -314T325 -426Q242 -426 162 -409T1 -358Z" />
<glyph unicode="&#x135;" glyph-name="jcircumflex" horiz-adv-x="741" d="M143 1638H385L567 1262H403L234 1487L-23 1262H-187L143 1638ZM635 942H484L508 1063H1013L782 -125Q750 -288 618 -371T261 -455Q201 -455 135 -445T0 -416L44 -190L157 -191Q143 -271
165 -306T254 -342Q327 -342 365 -295T428 -125L635 942Z" />
<glyph unicode="&#x136;" glyph-name="Kcommaaccent" horiz-adv-x="1780" d="M1451 -391Q1537 -349 1584 -297T1645 -176L1653 -133H1867L1866 -137Q1845 -248 1759 -327Q1675 -407 1520 -462L1451 -391ZM15 0L38 121H229L473 1372H282L305 1493H1073L1050 1372H858L752
827L1491 1372H1331L1354 1493H1911L1888 1372H1689L1063 911L1638 121H1785L1762 0H1256L732 725L614 121H806L783 0H15Z" />
<glyph unicode="&#x137;" glyph-name="kcommaaccent" horiz-adv-x="1419" d="M1237 -391Q1323 -349 1370 -297T1431 -176L1439 -133H1653L1652 -137Q1631 -248 1545 -327Q1461 -407 1306 -462L1237 -391ZM376 0H22L301 1436H150L173 1556H678L484 557L988 942H861L884
1063H1172L1149 942L827 696L1163 121H1278L1255 0H864L572 500L456 412L376 0Z" />
<glyph unicode="&#x138;" glyph-name="kgreenlandic" horiz-adv-x="1316" d="M388 0H34L216 939H66L89 1060H594L496 556L1000 939H872L896 1060H1184L1160 939L839 695L1176 121H1290L1267 0H876L584 499L468 411L388 0Z" />
<glyph unicode="&#x139;" glyph-name="Lacute" horiz-adv-x="1440" d="M1389 1900H1668L1319 1636H1155L1389 1900ZM9 0L32 121H223L467 1372H276L299 1493H1067L1044 1372H852L612 137H1200L1245 373H1380L1308 0H9Z" />
<glyph unicode="&#x13a;" glyph-name="lacute" horiz-adv-x="778" d="M1269 1900H1548L1199 1636H1035L1269 1900ZM386 121H538L515 0H9L288 1436H137L160 1556H665L386 121Z" />
<glyph unicode="&#x13b;" glyph-name="Lcommaaccent" horiz-adv-x="1440" d="M1227 -391Q1313 -349 1360 -297T1421 -176L1429 -133H1643L1642 -137Q1621 -248 1535 -327Q1451 -407 1296 -462L1227 -391ZM9 0L32 121H223L467 1372H276L299 1493H1067L1044 1372H852L612
137H1200L1245 373H1380L1308 0H9Z" />
<glyph unicode="&#x13c;" glyph-name="lcommaaccent" horiz-adv-x="778" d="M874 -391Q960 -349 1007 -297T1068 -176L1076 -133H1290L1289 -137Q1268 -248 1182 -327Q1098 -407 943 -462L874 -391ZM386 121H538L515 0H9L288 1436H137L160 1556H665L386 121Z" />
<glyph unicode="&#x13d;" glyph-name="Lcaron" horiz-adv-x="1440" d="M1850 1494H2129L1871 1118H1707L1850 1494ZM9 0L32 121H223L467 1372H276L299 1493H1067L1044 1372H852L612 137H1200L1245 373H1380L1308 0H9Z" />
<glyph unicode="&#x13e;" glyph-name="lcaron" horiz-adv-x="1040" d="M1655 1557H1934L1676 1181H1512L1655 1557ZM386 121H538L515 0H9L288 1436H137L160 1556H665L386 121Z" />
<glyph unicode="&#x13f;" glyph-name="Ldot" horiz-adv-x="1440" d="M1165 1077Q1244 1077 1289 1021T1319 887T1237 754T1091 698Q1013 698 968 753T938 887T1020 1021T1165 1077ZM9 0L32 121H223L467 1372H276L299 1493H1067L1044 1372H852L612 137H1200L1245
373H1380L1308 0H9Z" />
<glyph unicode="&#x140;" glyph-name="ldot" horiz-adv-x="1140" d="M799 1073Q878 1073 923 1017T953 883T871 750T725 694Q647 694 602 749T572 883T654 1017T799 1073ZM386 121H538L515 0H9L288 1436H137L160 1556H665L386 121Z" />
<glyph unicode="&#x141;" glyph-name="Lslash" horiz-adv-x="1394" d="M11 0L34 121H226L310 549L70 422L23 539L340 707L470 1372H278L301 1493H1069L1046 1372H855L770 938L1149 1139L1197 1022L739 778L615 137H1203L1248 373H1383L1311 0H11Z" />
<glyph unicode="&#x142;" glyph-name="lslash" horiz-adv-x="861" d="M471 121H622L599 0H93L220 653L46 557L4 662L247 795L372 1436H221L244 1556H750L642 999L816 1096L859 991L615 858L471 121Z" />
<glyph unicode="&#x143;" glyph-name="Nacute" horiz-adv-x="1872" d="M1763 1900H2042L1693 1636H1529L1763 1900ZM16 0L39 121H230L474 1372H283L306 1493H773L1469 436L1651 1372H1461L1484 1493H2006L1983 1372H1792L1525 0H1263L558 1079L371 121H561L538 0H16Z" />
<glyph unicode="&#x144;" glyph-name="nacute" horiz-adv-x="1489" d="M475 1591H754L307 1215H143L475 1591ZM26 0L209 942H58L81 1063H586L557 913Q640 1008 730 1050T945 1092Q1124 1092 1195 986Q1241 919 1241 811Q1241 750 1226 676L1118 121H1270L1247
0H741L874 686Q888 756 888 804Q888 848 876 874Q852 926 767 926Q660 926 595 848T496 598L380 0H26Z" />
<glyph unicode="&#x145;" glyph-name="Ncommaaccent" horiz-adv-x="1872" d="M1326 -391Q1412 -349 1459 -297T1520 -176L1528 -133H1742L1741 -137Q1720 -248 1634 -327Q1550 -407 1395 -462L1326 -391ZM16 0L39 121H230L474 1372H283L306 1493H773L1469 436L1651
1372H1461L1484 1493H2006L1983 1372H1792L1525 0H1263L558 1079L371 121H561L538 0H16Z" />
<glyph unicode="&#x146;" glyph-name="ncommaaccent" horiz-adv-x="1489" d="M1276 -391Q1362 -349 1409 -297T1470 -176L1478 -133H1692L1691 -137Q1670 -248 1584 -327Q1500 -407 1345 -462L1276 -391ZM26 0L209 942H58L81 1063H586L557 913Q640 1008 730 1050T945
1092Q1124 1092 1195 986Q1241 919 1241 811Q1241 750 1226 676L1118 121H1270L1247 0H741L874 686Q888 756 888 804Q888 848 876 874Q852 926 767 926Q660 926 595 848T496 598L380 0H26Z" />
<glyph unicode="&#x147;" glyph-name="Ncaron" horiz-adv-x="1872" d="M16 0L39 121H230L474 1372H283L306 1493H773L1469 436L1651 1372H1461L1484 1493H2006L1983 1372H1792L1525 0H1263L558 1079L371 121H561L538 0H16ZM1693 1635L1522 1899H1686L1867 1737L2112
1899H2276L2001 1635H1693Z" />
<glyph unicode="&#x148;" glyph-name="ncaron" horiz-adv-x="1489" d="M26 0L209 942H58L81 1063H586L557 913Q640 1008 730 1050T945 1092Q1124 1092 1195 986Q1241 919 1241 811Q1241 750 1226 676L1118 121H1270L1247 0H741L874 686Q888 756 888 804Q888 848
876 874Q852 926 767 926Q660 926 595 848T496 598L380 0H26ZM350 1262L168 1638H332L500 1411L758 1638H922L592 1262H350Z" />
<glyph unicode="&#x149;" glyph-name="napostrophe" horiz-adv-x="2065" d="M513 0L696 942H545L568 1063H1073L1044 913Q1127 1008 1217 1050T1432 1092Q1611 1092 1682 986Q1728 919 1728 811Q1728 750 1713 676L1605 121H1757L1734 0H1228L1361 686Q1375 756
1375 804Q1375 848 1363 874Q1339 926 1254 926Q1147 926 1082 848T983 598L867 0H513ZM71 1070Q180 1137 242 1231T332 1465L343 1520H612Q563 1313 452 1172T150 934L71 1070Z" />
<glyph unicode="&#x14a;" glyph-name="Eng" horiz-adv-x="1714" d="M738 -173Q738 -305 865 -305Q962 -305 1015 -231T1108 49L1278 927Q1308 1080 1308 1158T1296 1273Q1265 1370 1143 1370Q992 1370 895 1246T743 841L604 121H795L771 0H3L27 121H217L460 1372H309L332
1493H870L840 1339Q939 1436 1050 1478T1321 1521Q1547 1521 1635 1380Q1690 1292 1690 1180T1670 965L1490 41Q1443 -202 1299 -314T887 -426Q723 -426 562 -358L608 -123H741Q738 -150 738 -173Z" />
<glyph unicode="&#x14b;" glyph-name="eng" horiz-adv-x="1253" d="M707 -125L864 686Q878 756 878 804Q878 848 866 874Q842 926 757 926Q650 926 585 848T486 598L370 0H16L199 942H48L72 1063H577L548 913Q630 1008 720 1050T935 1092Q1114 1092 1185 986Q1231
919 1231 811Q1231 750 1216 676L1061 -125Q1029 -288 898 -371T541 -455Q481 -455 415 -445T279 -416L323 -190L436 -191Q431 -221 431 -245Q431 -284 445 -306Q468 -342 534 -342Q607 -342 645 -295T707 -125Z" />
<glyph unicode="&#x14c;" glyph-name="Omacron" horiz-adv-x="1784" d="M515 1872H1145L1109 1684H479L515 1872ZM764 92Q955 92 1079 253T1268 745Q1332 1077 1271 1238T1018 1399Q828 1399 703 1237T514 745Q450 417 512 255T764 92ZM740 -29Q363 -29 190 177T86
745T411 1313T1042 1520Q1419 1520 1592 1314T1696 745Q1626 383 1371 177T740 -29Z" />
<glyph unicode="&#x14d;" glyph-name="omacron" horiz-adv-x="1366" d="M248 1562H878L842 1374H212L248 1562ZM548 84Q660 84 724 180T838 532Q871 699 871 798Q871 850 861 884Q835 979 722 979T544 883T430 532Q398 368 398 270Q398 215 408 181Q435 84 548
84ZM115 120Q21 228 21 394Q21 458 35 532Q86 795 274 943T744 1092Q1026 1092 1156 944Q1250 837 1250 671Q1250 606 1235 532Q1184 270 996 121T526 -29T115 120Z" />
<glyph unicode="&#x14e;" glyph-name="Obreve" horiz-adv-x="1784" d="M1504 1899H1627Q1638 1844 1688 1815T1822 1786T1968 1815Q2030 1845 2061 1899H2184Q2130 1768 2032 1701Q1933 1635 1792 1635Q1648 1635 1577 1700T1504 1899ZM764 92Q955 92 1079 253T1268
745Q1332 1077 1271 1238T1018 1399Q828 1399 703 1237T514 745Q450 417 512 255T764 92ZM740 -29Q363 -29 190 177T86 745T411 1313T1042 1520Q1419 1520 1592 1314T1696 745Q1626 383 1371 177T740 -29Z" />
<glyph unicode="&#x14f;" glyph-name="obreve" horiz-adv-x="1366" d="M223 1589H348Q340 1516 388 1477Q437 1438 536 1438T698 1477Q762 1516 782 1589H907Q879 1443 772 1360Q666 1278 505 1278Q342 1278 269 1359T223 1589ZM548 84Q660 84 724 180T838 532Q871
699 871 798Q871 850 861 884Q835 979 722 979T544 883T430 532Q398 368 398 270Q398 215 408 181Q435 84 548 84ZM115 120Q21 228 21 394Q21 458 35 532Q86 795 274 943T744 1092Q1026 1092 1156 944Q1250 837 1250 671Q1250 606 1235 532Q1184 270 996 121T526
-29T115 120Z" />
<glyph unicode="&#x150;" glyph-name="Ohungarumlaut" horiz-adv-x="1784" d="M2058 1899H2337L1988 1635H1824L2058 1899ZM1726 1899H2005L1656 1635H1492L1726 1899ZM764 92Q955 92 1079 253T1268 745Q1332 1077 1271 1238T1018 1399Q828 1399 703 1237T514
745Q450 417 512 255T764 92ZM740 -29Q363 -29 190 177T86 745T411 1313T1042 1520Q1419 1520 1592 1314T1696 745Q1626 383 1371 177T740 -29Z" />
<glyph unicode="&#x151;" glyph-name="ohungarumlaut" horiz-adv-x="1366" d="M813 1638H1049L678 1262H514L813 1638ZM447 1638H664L346 1262H184L447 1638ZM548 84Q660 84 724 180T838 532Q871 699 871 798Q871 850 861 884Q835 979 722 979T544 883T430 532Q398
368 398 270Q398 215 408 181Q435 84 548 84ZM115 120Q21 228 21 394Q21 458 35 532Q86 795 274 943T744 1092Q1026 1092 1156 944Q1250 837 1250 671Q1250 606 1235 532Q1184 270 996 121T526 -29T115 120Z" />
<glyph unicode="&#x152;" glyph-name="OE" horiz-adv-x="2450" d="M1025 121L1269 1372H1142Q878 1372 714 1215T488 748Q427 434 529 278T898 121H1025ZM2149 0H828Q621 0 491 26T270 109Q130 195 78 361T68 748Q111 968 227 1132T518 1384Q629 1442 768 1467T1118
1493H2421L2353 1141H2216L2257 1356H1652L1559 877H1926L1963 1067H2100L2000 551H1863L1900 741H1533L1416 137H2039L2080 352H2217L2149 0Z" />
<glyph unicode="&#x153;" glyph-name="oe" horiz-adv-x="2029" d="M1217 400Q1211 366 1211 295Q1212 84 1417 84Q1532 84 1615 145T1740 322H1906Q1828 141 1684 56T1304 -29T948 81Q775 -29 514 -29T123 120Q29 228 29 394Q29 458 43 532Q94 795 282 943T734
1092Q996 1092 1127 980Q1293 1092 1503 1092T1835 1024Q2006 927 1972 752Q1909 428 1217 400ZM1616 762Q1631 837 1615 894Q1593 979 1498 979Q1404 979 1350 893Q1294 799 1240 519Q1567 510 1616 762ZM416 181Q443 84 556 84Q668 84 732 180T837 488Q879 699
879 774T869 884Q843 979 730 979T552 883T447 577Q406 368 406 292T416 181Z" />
<glyph unicode="&#x154;" glyph-name="Racute" horiz-adv-x="1702" d="M1709 1900H1988L1639 1636H1475L1709 1900ZM1145 729Q1231 716 1283 670T1363 537L1500 121H1653L1630 0H1139L989 451Q947 591 906 629T779 668H718L611 121H803L780 0H12L35 121H226L470
1372H279L302 1493H1154Q1414 1493 1535 1389T1619 1092Q1589 936 1471 846T1145 729ZM741 788H872Q1012 788 1102 864T1220 1081T1187 1297T986 1372H855L741 788Z" />
<glyph unicode="&#x155;" glyph-name="racute" horiz-adv-x="1079" d="M475 1591H754L307 1215H143L475 1591ZM1113 1075L1051 758H938Q941 779 941 797Q941 853 917 884Q885 926 809 926Q693 926 606 824T484 541L379 0H25L208 942H46L69 1063H585L549 874Q622
985 718 1038T938 1092Q969 1092 1012 1088T1113 1075Z" />
<glyph unicode="&#x156;" glyph-name="Rcommaaccent" horiz-adv-x="1702" d="M1386 -391Q1472 -349 1519 -297T1580 -176L1588 -133H1802L1801 -137Q1780 -248 1694 -327Q1610 -407 1455 -462L1386 -391ZM1145 729Q1231 716 1283 670T1363 537L1500 121H1653L1630
0H1139L989 451Q947 591 906 629T779 668H718L611 121H803L780 0H12L35 121H226L470 1372H279L302 1493H1154Q1414 1493 1535 1389T1619 1092Q1589 936 1471 846T1145 729ZM741 788H872Q1012 788 1102 864T1220 1081T1187 1297T986 1372H855L741 788Z" />
<glyph unicode="&#x157;" glyph-name="rcommaaccent" horiz-adv-x="1079" d="M939 -391Q1025 -349 1072 -297T1133 -176L1141 -133H1355L1354 -137Q1333 -248 1247 -327Q1163 -407 1008 -462L939 -391ZM1113 1075L1051 758H938Q941 779 941 797Q941 853 917 884Q885
926 809 926Q693 926 606 824T484 541L379 0H25L208 942H46L69 1063H585L549 874Q622 985 718 1038T938 1092Q969 1092 1012 1088T1113 1075Z" />
<glyph unicode="&#x158;" glyph-name="Rcaron" horiz-adv-x="1702" d="M1145 729Q1231 716 1283 670T1363 537L1500 121H1653L1630 0H1139L989 451Q947 591 906 629T779 668H718L611 121H803L780 0H12L35 121H226L470 1372H279L302 1493H1154Q1414 1493 1535 1389T1619
1092Q1589 936 1471 846T1145 729ZM741 788H872Q1012 788 1102 864T1220 1081T1187 1297T986 1372H855L741 788ZM1639 1635L1468 1899H1632L1813 1737L2058 1899H2222L1947 1635H1639Z" />
<glyph unicode="&#x159;" glyph-name="rcaron" horiz-adv-x="1079" d="M1113 1075L1051 758H938Q941 779 941 797Q941 853 917 884Q885 926 809 926Q693 926 606 824T484 541L379 0H25L208 942H46L69 1063H585L549 874Q622 985 718 1038T938 1092Q969 1092 1012
1088T1113 1075ZM350 1262L168 1638H332L500 1411L758 1638H922L592 1262H350Z" />
<glyph unicode="&#x15a;" glyph-name="Sacute" horiz-adv-x="1479" d="M1709 1900H1988L1639 1636H1475L1709 1900ZM14 72L83 426H210Q206 258 298 175T581 92Q736 92 828 151T943 324Q961 414 916 464T706 557L493 612Q285 668 216 767T181 1051Q225 1273 396
1396T834 1520Q965 1520 1102 1498T1382 1432L1318 1102H1191Q1192 1256 1108 1327T843 1399Q695 1399 610 1348T504 1194Q486 1101 528 1053T764 952L977 897Q1175 845 1247 735T1282 432Q1238 206 1059 89T577 -29Q431 -29 292 -4T14 72Z" />
<glyph unicode="&#x15b;" glyph-name="sacute" horiz-adv-x="1153" d="M475 1591H754L307 1215H143L475 1591ZM73 328H186Q185 313 185 299Q185 201 244 143T422 84Q655 84 683 229Q687 248 687 276Q687 303 662 333T536 389L397 426Q240 467 190 532T140 677Q140
711 147 750Q181 923 317 1007T672 1092T1128 1028L1075 760H962Q965 779 965 796Q965 979 739 979Q512 979 486 844Q483 828 483 805Q483 740 606 707L744 670Q943 617 998 551T1053 398Q1053 363 1045 322Q1010 142 865 57T449 -29Q252 -29 16 31L73 328Z" />
<glyph unicode="&#x15c;" glyph-name="Scircumflex" horiz-adv-x="1479" d="M1598 1899H1906L2077 1635H1913L1732 1796L1487 1635H1323L1598 1899ZM14 72L83 426H210Q206 258 298 175T581 92Q736 92 828 151T943 324Q961 414 916 464T706 557L493 612Q285 668
216 767T181 1051Q225 1273 396 1396T834 1520Q965 1520 1102 1498T1382 1432L1318 1102H1191Q1192 1256 1108 1327T843 1399Q695 1399 610 1348T504 1194Q486 1101 528 1053T764 952L977 897Q1175 845 1247 735T1282 432Q1238 206 1059 89T577 -29Q431 -29 292
-4T14 72Z" />
<glyph unicode="&#x15d;" glyph-name="scircumflex" horiz-adv-x="1153" d="M401 1638H643L825 1262H661L492 1487L235 1262H71L401 1638ZM73 328H186Q185 313 185 299Q185 201 244 143T422 84Q655 84 683 229Q687 248 687 276Q687 303 662 333T536 389L397 426Q240
467 190 532T140 677Q140 711 147 750Q181 923 317 1007T672 1092T1128 1028L1075 760H962Q965 779 965 796Q965 979 739 979Q512 979 486 844Q483 828 483 805Q483 740 606 707L744 670Q943 617 998 551T1053 398Q1053 363 1045 322Q1010 142 865 57T449 -29Q252
-29 16 31L73 328Z" />
<glyph unicode="&#x15e;" glyph-name="Scedilla" horiz-adv-x="1479" d="M14 72L83 426H210Q206 258 298 175T581 92Q736 92 828 151T943 324Q961 414 916 464T706 557L493 612Q285 668 216 767T181 1051Q225 1273 396 1396T834 1520Q965 1520 1102 1498T1382
1432L1318 1102H1191Q1192 1256 1108 1327T843 1399Q695 1399 610 1348T504 1194Q486 1101 528 1053T764 952L977 897Q1175 845 1247 735T1282 432Q1238 206 1059 89T577 -29Q431 -29 292 -4T14 72ZM422 0Q472 -64 490 -118T499 -225Q483 -311 410 -356T215 -401Q167
-401 118 -395T18 -375L47 -219Q89 -236 130 -245T207 -254Q267 -254 303 -231T347 -162Q353 -134 343 -101T295 0H422Z" />
<glyph unicode="&#x15f;" glyph-name="scedilla" horiz-adv-x="1153" d="M73 328H186Q185 313 185 299Q185 201 244 143T422 84Q655 84 683 229Q687 248 687 276Q687 303 662 333T536 389L397 426Q240 467 190 532T140 677Q140 711 147 750Q181 923 317 1007T672
1092T1128 1028L1075 760H962Q965 779 965 796Q965 979 739 979Q512 979 486 844Q483 828 483 805Q483 740 606 707L744 670Q943 617 998 551T1053 398Q1053 363 1045 322Q1010 142 865 57T449 -29Q252 -29 16 31L73 328ZM252 0Q302 -64 320 -118T329 -225Q313
-311 240 -356T45 -401Q-3 -401 -52 -395T-152 -375L-123 -219Q-81 -236 -40 -245T37 -254Q97 -254 133 -231T177 -162Q183 -134 173 -101T125 0H252Z" />
<glyph unicode="&#x160;" glyph-name="Scaron" horiz-adv-x="1479" d="M14 72L83 426H210Q206 258 298 175T581 92Q736 92 828 151T943 324Q961 414 916 464T706 557L493 612Q285 668 216 767T181 1051Q225 1273 396 1396T834 1520Q965 1520 1102 1498T1382 1432L1318
1102H1191Q1192 1256 1108 1327T843 1399Q695 1399 610 1348T504 1194Q486 1101 528 1053T764 952L977 897Q1175 845 1247 735T1282 432Q1238 206 1059 89T577 -29Q431 -29 292 -4T14 72ZM1513 1635L1342 1899H1506L1687 1737L1932 1899H2096L1821 1635H1513Z"
/>
<glyph unicode="&#x161;" glyph-name="scaron" horiz-adv-x="1153" d="M73 328H186Q185 313 185 299Q185 201 244 143T422 84Q655 84 683 229Q687 248 687 276Q687 303 662 333T536 389L397 426Q240 467 190 532T140 677Q140 711 147 750Q181 923 317 1007T672
1092T1128 1028L1075 760H962Q965 779 965 796Q965 979 739 979Q512 979 486 844Q483 828 483 805Q483 740 606 707L744 670Q943 617 998 551T1053 398Q1053 363 1045 322Q1010 142 865 57T449 -29Q252 -29 16 31L73 328ZM264 1262L82 1638H246L414 1411L672 1638H836L506
1262H264Z" />
<glyph unicode="&#x162;" glyph-name="Tcommaaccent" horiz-adv-x="1524" d="M448 0Q498 -64 516 -118T525 -225Q509 -311 436 -356T241 -401Q193 -401 144 -395T44 -375L73 -219Q115 -236 156 -245T233 -254Q293 -254 329 -231T373 -162Q379 -134 369 -101T321
0H448ZM152 0L175 121H373L613 1356H204L159 1120H22L94 1493H1574L1502 1120H1367L1412 1356H1000L760 121H959L936 0H152Z" />
<glyph unicode="&#x163;" glyph-name="tcommaaccent" horiz-adv-x="946" d="M582 0Q632 -64 650 -118T659 -225Q643 -311 570 -356T375 -401Q327 -401 278 -395T178 -375L207 -219Q249 -236 290 -245T367 -254Q427 -254 463 -231T507 -162Q513 -134 503 -101T455
0H582ZM171 942H17L40 1063H194L258 1393H612L548 1063H843L820 942H525L398 291Q381 202 381 157Q381 130 386 118Q402 84 460 84Q524 84 563 127T622 260H771Q731 100 640 36T357 -29Q138 -29 73 40Q31 84 31 176Q31 226 44 291L171 942Z" />
<glyph unicode="&#x164;" glyph-name="Tcaron" horiz-adv-x="1524" d="M152 0L175 121H373L613 1356H204L159 1120H22L94 1493H1574L1502 1120H1367L1412 1356H1000L760 121H959L936 0H152ZM1543 1635L1372 1899H1536L1717 1737L1962 1899H2126L1851 1635H1543Z" />
<glyph unicode="&#x165;" glyph-name="tcaron" horiz-adv-x="946" d="M171 942H17L40 1063H194L258 1393H612L548 1063H843L820 942H525L398 291Q381 202 381 157Q381 130 386 118Q402 84 460 84Q524 84 563 127T622 260H771Q731 100 640 36T357 -29Q138 -29 73
40Q31 84 31 176Q31 226 44 291L171 942ZM1639 1599H1918L1660 1223H1496L1639 1599Z" />
<glyph unicode="&#x166;" glyph-name="Tbar" horiz-adv-x="1577" d="M156 713L183 850H515L613 1356H204L159 1120H22L94 1493H1574L1502 1120H1367L1412 1356H1000L902 850H1234L1207 713H875L760 121H959L936 0H152L175 121H373L488 713H156Z" />
<glyph unicode="&#x167;" glyph-name="tbar" horiz-adv-x="917" d="M239 942H85L108 1063H262L326 1393H680L616 1063H911L888 942H593L539 665H834L810 544H515L466 291Q439 152 454 118T528 84Q592 84 631 127T690 260H839Q799 100 708 36T425 -29Q206 -29 141
39T112 291L161 544H7L31 665H185L239 942Z" />
<glyph unicode="&#x168;" glyph-name="Utilde" horiz-adv-x="1786" d="M1553 1635L1555 1647Q1579 1770 1646 1837Q1713 1903 1813 1903Q1874 1903 1947 1864Q1955 1860 1958 1858L2024 1825Q2050 1812 2067 1807Q2084 1803 2102 1803Q2143 1803 2172 1828Q2202
1853 2210 1897L2211 1901H2321L2318 1886Q2294 1764 2228 1699Q2162 1633 2061 1633Q2027 1633 1995 1642T1916 1678L1864 1706Q1839 1719 1815 1726T1772 1733Q1731 1733 1702 1707Q1672 1682 1664 1639L1663 1635H1553ZM243 1372H53L77 1493H845L821 1372H630L485
625Q431 346 496 235T773 123Q979 123 1087 235T1249 625L1394 1372H1204L1228 1493H1748L1724 1372H1533L1384 604Q1318 262 1142 117T616 -29Q269 -29 149 118T95 606L243 1372Z" />
<glyph unicode="&#x169;" glyph-name="utilde" horiz-adv-x="1489" d="M219 1309L222 1325Q250 1471 318 1546Q386 1622 488 1622Q525 1622 558 1610Q591 1597 631 1567L693 1520L695 1518Q734 1489 770 1489Q811 1489 842 1524T885 1620H995L992 1604Q964 1458
896 1382Q828 1307 726 1307Q689 1307 656 1320Q623 1332 583 1362L520 1409L519 1410Q480 1440 444 1440Q403 1440 372 1405T329 1309H219ZM1275 1063L1092 121H1243L1220 0H714L743 150Q661 55 571 13T356 -29Q177 -29 106 76Q60 144 60 252Q60 313 75 387L183
942H31L54 1063H560L439 442Q415 317 415 250Q415 210 424 190Q446 137 534 137Q641 137 706 216T804 467L920 1063H1275Z" />
<glyph unicode="&#x16a;" glyph-name="Umacron" horiz-adv-x="1786" d="M592 1872H1222L1186 1684H556L592 1872ZM243 1372H53L77 1493H845L821 1372H630L485 625Q431 346 496 235T773 123Q979 123 1087 235T1249 625L1394 1372H1204L1228 1493H1748L1724 1372H1533L1384
604Q1318 262 1142 117T616 -29Q269 -29 149 118T95 606L243 1372Z" />
<glyph unicode="&#x16b;" glyph-name="umacron" horiz-adv-x="1489" d="M296 1562H926L890 1374H260L296 1562ZM1275 1063L1092 121H1243L1220 0H714L743 150Q661 55 571 13T356 -29Q177 -29 106 76Q60 144 60 252Q60 313 75 387L183 942H31L54 1063H560L439 442Q415
317 415 250Q415 210 424 190Q446 137 534 137Q641 137 706 216T804 467L920 1063H1275Z" />
<glyph unicode="&#x16c;" glyph-name="Ubreve" horiz-adv-x="1786" d="M1554 1899H1677Q1688 1844 1738 1815T1872 1786T2018 1815Q2080 1845 2111 1899H2234Q2180 1768 2082 1701Q1983 1635 1842 1635Q1698 1635 1627 1700T1554 1899ZM243 1372H53L77 1493H845L821
1372H630L485 625Q431 346 496 235T773 123Q979 123 1087 235T1249 625L1394 1372H1204L1228 1493H1748L1724 1372H1533L1384 604Q1318 262 1142 117T616 -29Q269 -29 149 118T95 606L243 1372Z" />
<glyph unicode="&#x16d;" glyph-name="ubreve" horiz-adv-x="1489" d="M246 1589H371Q363 1516 411 1477Q460 1438 559 1438T721 1477Q785 1516 805 1589H930Q902 1443 795 1360Q689 1278 528 1278Q365 1278 292 1359T246 1589ZM1275 1063L1092 121H1243L1220
0H714L743 150Q661 55 571 13T356 -29Q177 -29 106 76Q60 144 60 252Q60 313 75 387L183 942H31L54 1063H560L439 442Q415 317 415 250Q415 210 424 190Q446 137 534 137Q641 137 706 216T804 467L920 1063H1275Z" />
<glyph unicode="&#x16e;" glyph-name="Uring" horiz-adv-x="1786" d="M243 1372H53L77 1493H845L821 1372H630L485 625Q431 346 496 235T773 123Q979 123 1087 235T1249 625L1394 1372H1204L1228 1493H1748L1724 1372H1533L1384 604Q1318 262 1142 117T616 -29Q269
-29 149 118T95 606L243 1372ZM761 2081Q860 2164 978 2164T1164 2081Q1231 1997 1208 1879T1085 1677Q986 1594 868 1594T682 1677Q615 1761 638 1879T761 2081ZM792 1879Q781 1824 812 1786Q844 1748 898 1748Q953 1748 998 1787Q1044 1825 1054 1879T1033 1971Q1002
2010 948 2010Q893 2010 848 1971Q802 1933 792 1879Z" />
<glyph unicode="&#x16f;" glyph-name="uring" horiz-adv-x="1489" d="M1275 1063L1092 121H1243L1220 0H714L743 150Q661 55 571 13T356 -29Q177 -29 106 76Q60 144 60 252Q60 313 75 387L183 942H31L54 1063H560L439 442Q415 317 415 250Q415 210 424 190Q446
137 534 137Q641 137 706 216T804 467L920 1063H1275ZM332 1667Q431 1750 549 1750T735 1667Q802 1583 779 1465T656 1263Q557 1180 439 1180T253 1263Q186 1347 209 1465T332 1667ZM363 1465Q352 1410 383 1372Q415 1334 469 1334Q524 1334 569 1373Q615 1411
625 1465T604 1557Q573 1596 519 1596Q464 1596 419 1557Q373 1519 363 1465Z" />
<glyph unicode="&#x170;" glyph-name="Uhungarumlaut" horiz-adv-x="1786" d="M2108 1899H2387L2038 1635H1874L2108 1899ZM1776 1899H2055L1706 1635H1542L1776 1899ZM243 1372H53L77 1493H845L821 1372H630L485 625Q431 346 496 235T773 123Q979 123 1087 235T1249
625L1394 1372H1204L1228 1493H1748L1724 1372H1533L1384 604Q1318 262 1142 117T616 -29Q269 -29 149 118T95 606L243 1372Z" />
<glyph unicode="&#x171;" glyph-name="uhungarumlaut" horiz-adv-x="1489" d="M836 1638H1072L701 1262H537L836 1638ZM470 1638H687L369 1262H207L470 1638ZM1275 1063L1092 121H1243L1220 0H714L743 150Q661 55 571 13T356 -29Q177 -29 106 76Q60 144 60 252Q60
313 75 387L183 942H31L54 1063H560L439 442Q415 317 415 250Q415 210 424 190Q446 137 534 137Q641 137 706 216T804 467L920 1063H1275Z" />
<glyph unicode="&#x172;" glyph-name="Uogonek" horiz-adv-x="1786" d="M415 -15H540Q478 -80 452 -117T419 -183Q411 -224 435 -246T512 -269Q551 -269 593 -261T676 -238L644 -394Q588 -405 539 -410T448 -416Q335 -416 282 -370T244 -240Q254 -188 296 -134T415
-15ZM243 1372H53L77 1493H845L821 1372H630L485 625Q431 346 496 235T773 123Q979 123 1087 235T1249 625L1394 1372H1204L1228 1493H1748L1724 1372H1533L1384 604Q1318 262 1142 117T616 -29Q269 -29 149 118T95 606L243 1372Z" />
<glyph unicode="&#x173;" glyph-name="uogonek" horiz-adv-x="1489" d="M803 0H928Q866 -65 840 -102T807 -168Q799 -209 823 -231T900 -254Q939 -254 981 -246T1064 -223L1032 -379Q976 -390 927 -395T836 -401Q723 -401 670 -355T632 -225Q642 -173 684 -119T803
0ZM1275 1063L1092 121H1243L1220 0H714L743 150Q661 55 571 13T356 -29Q177 -29 106 76Q60 144 60 252Q60 313 75 387L183 942H31L54 1063H560L439 442Q415 317 415 250Q415 210 424 190Q446 137 534 137Q641 137 706 216T804 467L920 1063H1275Z" />
<glyph unicode="&#x174;" glyph-name="Wcircumflex" horiz-adv-x="2300" d="M1519 0H1261L1134 1087L585 0H327L168 1372H23L46 1493H754L731 1372H571L677 455L1201 1493H1485L1608 438L2081 1372H1903L1926 1493H2388L2365 1372H2212L1519 0ZM2033 1906H2341L2512
1642H2348L2167 1803L1922 1642H1758L2033 1906Z" />
<glyph unicode="&#x175;" glyph-name="wcircumflex" horiz-adv-x="1763" d="M707 1638H949L1131 1262H967L798 1487L541 1262H377L707 1638ZM1279 300Q1288 308 1429 482Q1571 665 1628 942L1488 940L1512 1063H1784Q1727 681 1602 485Q1408 180 1217 0H973L877
666L521 0H279L140 942H24L47 1063H483L585 367L958 1063H1169L1279 300Z" />
<glyph unicode="&#x176;" glyph-name="Ycircumflex" horiz-adv-x="1462" d="M124 0L147 121H348L445 618L148 1372H21L44 1493H760L737 1372H571L796 803L1241 1372H1092L1115 1493H1543L1520 1372H1393L842 670L735 121H936L913 0H124ZM1607 1906H1915L2086 1642H1922L1741
1803L1496 1642H1332L1607 1906Z" />
<glyph unicode="&#x177;" glyph-name="ycircumflex" horiz-adv-x="1190" d="M420 1638H662L844 1262H680L511 1487L254 1262H90L420 1638ZM558 -273L274 942H159L183 1063H617L855 35Q970 201 1047 388T1200 940L1058 941L1081 1062L1368 1063Q1343 935 1307 770Q1218
364 1107 176Q814 -314 579 -404Q446 -455 254 -455Q160 -455 23 -412L66 -190L179 -191Q175 -215 175 -235Q175 -304 222 -326Q243 -336 286 -342Q310 -345 334 -345Q445 -345 558 -273Z" />
<glyph unicode="&#x178;" glyph-name="Ydieresis" horiz-adv-x="1462" d="M124 0L147 121H348L445 618L148 1372H21L44 1493H760L737 1372H571L796 803L1241 1372H1092L1115 1493H1543L1520 1372H1393L842 670L735 121H936L913 0H124ZM1421 1879Q1473 1923 1533
1923Q1592 1923 1627 1879Q1662 1836 1650 1776T1587 1673Q1537 1630 1477 1630T1381 1673T1357 1776T1421 1879ZM1868 1879Q1919 1923 1979 1923T2075 1879Q2111 1836 2099 1776T2035 1673T1923 1630T1827 1673Q1792 1716 1804 1776T1868 1879Z" />
<glyph unicode="&#x179;" glyph-name="Zacute" horiz-adv-x="1495" d="M1709 1900H1988L1639 1636H1475L1709 1900ZM19 0L46 141L1173 1356H458L415 1133H278L348 1493H1644L1617 1352L500 137H1254L1294 346H1431L1364 0H19Z" />
<glyph unicode="&#x17a;" glyph-name="zacute" horiz-adv-x="1163" d="M475 1591H754L307 1215H143L475 1591ZM1215 944L515 195Q548 183 577 166Q704 98 783 98Q903 98 1083 243L1052 85Q875 -83 715 -83Q632 -79 504 -15Q361 58 305 58T191 35T109 -2L10 0L33
121L731 869Q699 880 671 897Q544 965 465 965Q345 965 165 820L196 978Q373 1146 533 1146Q616 1142 744 1078Q887 1005 943 1005T1057 1028T1139 1065L1238 1063L1215 944Z" />
<glyph unicode="&#x17b;" glyph-name="Zdotaccent" horiz-adv-x="1495" d="M19 0L46 141L1173 1356H458L415 1133H278L348 1493H1644L1617 1352L500 137H1254L1294 346H1431L1364 0H19ZM1427 1905Q1478 1949 1538 1949T1634 1905Q1669 1862 1657 1802T1593 1699Q1542
1656 1482 1656T1386 1699Q1351 1742 1363 1802T1427 1905Z" />
<glyph unicode="&#x17c;" glyph-name="zdotaccent" horiz-adv-x="1163" d="M91 1665Q103 1725 155 1768Q206 1811 266 1811T362 1768Q397 1725 385 1665Q374 1606 322 1562T210 1518T115 1562T91 1665ZM1215 944L515 195Q548 183 577 166Q704 98 783 98Q903 98
1083 243L1052 85Q875 -83 715 -83Q632 -79 504 -15Q361 58 305 58T191 35T109 -2L10 0L33 121L731 869Q699 880 671 897Q544 965 465 965Q345 965 165 820L196 978Q373 1146 533 1146Q616 1142 744 1078Q887 1005 943 1005T1057 1028T1139 1065L1238 1063L1215
944Z" />
<glyph unicode="&#x17d;" glyph-name="Zcaron" horiz-adv-x="1495" d="M19 0L46 141L1173 1356H458L415 1133H278L348 1493H1644L1617 1352L500 137H1254L1294 346H1431L1364 0H19ZM1521 1635L1350 1899H1514L1695 1737L1940 1899H2104L1829 1635H1521Z" />
<glyph unicode="&#x17e;" glyph-name="zcaron" horiz-adv-x="1163" d="M1215 944L515 195Q548 183 577 166Q704 98 783 98Q903 98 1083 243L1052 85Q875 -83 715 -83Q632 -79 504 -15Q361 58 305 58T191 35T109 -2L10 0L33 121L731 869Q699 880 671 897Q544 965
465 965Q345 965 165 820L196 978Q373 1146 533 1146Q616 1142 744 1078Q887 1005 943 1005T1057 1028T1139 1065L1238 1063L1215 944ZM268 1262L86 1638H250L418 1411L676 1638H840L510 1262H268Z" />
<glyph unicode="&#x17f;" glyph-name="longs" horiz-adv-x="1295" d="M1250 1290H1138Q1140 1305 1140 1318Q1140 1375 1115 1406Q1085 1444 1016 1444Q936 1444 889 1387T817 1200L578 -29Q537 -238 413 -298Q220 -389 1 -389Q12 -333 24 -277Q104 -277 151 -220T223
-33L413 942H255L278 1063H436L462 1196Q496 1373 627 1464T977 1556Q1062 1556 1141 1547T1295 1518L1250 1290Z" />
<glyph unicode="&#x180;" glyph-name="uni0180" horiz-adv-x="1303" d="M302 1436H150L173 1556H679L636 1333H995L968 1196H609L557 928Q618 1011 702 1051T898 1092Q1125 1092 1226 942Q1294 843 1294 694Q1294 619 1277 532Q1226 271 1067 121T680 -29Q568
-29 500 11T403 135L377 0H23L255 1196H97L124 1333H282L302 1436ZM470 479Q450 379 450 309Q450 249 465 210Q496 127 602 127Q711 127 772 215T879 532Q907 674 907 761Q907 815 896 848Q869 936 760 936Q654 936 590 853T490 584L470 479Z" />
<glyph unicode="&#x181;" glyph-name="uni0181" horiz-adv-x="1879" d="M649 1493H1343Q1620 1493 1735 1401Q1854 1306 1818 1124Q1793 991 1683 913Q1573 835 1383 815Q1608 815 1705 695Q1806 596 1774 432Q1731 210 1542 105Q1355 0 998 0H168L191 121H382L626
1372Q430 1372 343 1283Q256 1192 219 1006H21L91 1364Q187 1433 433 1476Q531 1493 649 1493ZM913 870H1044Q1216 870 1311 932Q1406 995 1431 1124Q1457 1254 1387 1313Q1319 1372 1142 1372H1011L913 870ZM767 121H910Q1101 121 1208 197T1346 432Q1377 592
1300 671T1033 750H890L767 121Z" />
<glyph unicode="&#x182;" glyph-name="uni0182" horiz-adv-x="1750" d="M14 0L37 121H228L472 1372H281L304 1493H1754L1682 1120H1547L1592 1356H853L759 870H891Q1137 870 1255 849Q1448 815 1570 695Q1647 620 1647 507Q1647 471 1639 432Q1596 210 1408 105T845
0H14ZM613 121H757Q966 121 1073 197T1211 432Q1220 479 1220 518Q1220 614 1166 669Q1087 750 880 750H736L613 121Z" />
<glyph unicode="&#x183;" glyph-name="uni0183" horiz-adv-x="1489" d="M608 479Q572 293 602 210Q634 127 740 127Q849 127 911 215Q972 303 1017 532T1034 848Q1007 936 898 936Q792 936 727 853Q664 770 628 584L608 479ZM1416 1556L1360 1268H1239L1272 1436H794L695
928Q756 1011 840 1052Q924 1092 1036 1092Q1263 1092 1365 942Q1466 793 1415 532T1205 121Q1045 -29 818 -29Q706 -29 638 12Q570 52 541 135L515 0H9L32 121H184L440 1436H288L311 1556H1416Z" />
<glyph unicode="&#x184;" glyph-name="uni0184" horiz-adv-x="1667" d="M752 870H884Q1088 870 1225 852Q1238 851 1248 849Q1439 815 1560 698Q1562 696 1563 695Q1664 596 1632 432Q1589 210 1401 105T838 0H7L30 121H221L360 834H73L97 955L873 1493L752 870ZM606
121H750Q952 121 1060 193Q1063 195 1066 197Q1173 273 1204 432Q1235 592 1157 671Q1083 746 889 750Q881 750 873 750H729L606 121Z" />
<glyph unicode="&#x185;" glyph-name="uni0185" horiz-adv-x="1469" d="M605 479Q568 293 599 210T737 127Q846 127 907 215T1013 532T1031 848T894 936Q788 936 725 853T625 584L605 479ZM154 1008L178 1128L814 1557L692 928Q753 1011 837 1051T1033 1092Q1260
1092 1361 943T1412 532T1202 121T815 -29Q703 -29 635 11T538 135L511 0H5L29 121H181L352 1008H154Z" />
<glyph unicode="&#x186;" glyph-name="uni0186" horiz-adv-x="1621" d="M160 1065Q264 1296 439 1408T872 1520Q1250 1520 1428 1312T1538 746Q1469 388 1209 180T570 -29Q437 -29 300 3T14 100L85 467H212Q214 279 299 186T553 92Q771 92 908 252T1110 746T1100
1239T805 1399Q656 1399 546 1316T359 1065H160Z" />
<glyph unicode="&#x187;" glyph-name="uni0187" horiz-adv-x="2034" d="M1456 426Q1352 195 1178 83T745 -29Q367 -29 189 180Q9 388 78 745Q148 1103 409 1312Q668 1520 1046 1520Q1179 1520 1317 1488Q1372 1475 1430 1457Q1471 1583 1569 1652Q1667 1721 1769
1721Q1829 1721 1895 1711T2030 1682L1987 1457H1874Q1889 1537 1865 1572Q1842 1608 1776 1608Q1703 1608 1665 1561T1603 1391L1532 1024H1405Q1402 1212 1317 1306Q1232 1399 1063 1399Q845 1399 708 1238Q571 1078 507 745T516 252T811 92Q960 92 1072 175Q1182
258 1257 426H1456Z" />
<glyph unicode="&#x188;" glyph-name="uni0188" horiz-adv-x="1636" d="M1087 332Q1014 150 879 60Q744 -29 542 -29Q258 -29 131 118T55 532Q106 796 289 944T746 1092Q856 1092 964 1071L974 1123Q1006 1286 1138 1370Q1269 1453 1372 1453Q1432 1453 1498 1443T1633
1414L1590 1189H1477Q1492 1269 1467 1304Q1445 1340 1379 1340Q1306 1340 1268 1293T1206 1123L1184 1008L1126 713H1014Q1024 848 974 914Q924 979 810 979Q662 979 580 879Q498 779 450 532Q403 291 444 188Q485 84 623 84Q730 84 806 148Q884 212 921 332H1087Z"
/>
<glyph unicode="&#x189;" glyph-name="uni0189" horiz-adv-x="1790" d="M616 121H755Q989 121 1126 270T1326 748Q1390 1074 1312 1223T999 1372H860L758 850H1090L1063 713H731L616 121ZM16 0L39 121H231L346 713H133L160 850H373L475 1372H283L306 1493H1074Q1474
1493 1649 1302T1754 748Q1684 385 1434 193T784 0H16Z" />
<glyph unicode="&#x18a;" glyph-name="uni018A" horiz-adv-x="1997" d="M650 1493H1225Q1627 1493 1802 1301T1908 748Q1838 385 1586 192Q1336 0 935 0H169L192 121H383L627 1372Q431 1372 344 1283Q257 1192 220 1006H22L92 1364Q188 1433 434 1476Q532 1493
650 1493ZM768 121H907Q1141 121 1280 271Q1417 421 1480 748Q1543 1073 1464 1222Q1386 1372 1151 1372H1012L768 121Z" />
<glyph unicode="&#x18b;" glyph-name="uni018B" horiz-adv-x="1822" d="M1205 1356H466L421 1120H286L358 1493H1808L1785 1372H1594L1350 121H1541L1518 0H687Q312 0 165 105Q18 210 61 432Q93 596 232 695Q234 696 237 698Q403 815 607 849Q617 851 631 852Q775
870 979 870H1111L1205 1356ZM965 121L1088 750H944H928Q733 750 628 671Q520 592 489 432Q458 273 535 197Q538 195 540 193Q619 121 821 121H965Z" />
<glyph unicode="&#x18c;" glyph-name="uni018C" horiz-adv-x="1575" d="M852 479L872 584Q908 770 876 853Q846 936 740 936Q631 936 569 848Q508 761 463 532T446 215Q473 127 582 127Q688 127 751 210Q816 293 852 479ZM1543 1436H1392L1136 121H1288L1265 0H759L785
135Q724 52 640 12Q556 -29 444 -29Q217 -29 116 121Q14 271 65 532T276 942Q435 1092 662 1092Q774 1092 842 1052Q910 1011 939 928L1038 1436H560L527 1268H406L462 1556H1566L1543 1436Z" />
<glyph unicode="&#x18d;" glyph-name="uni018D" horiz-adv-x="1334" d="M906 41Q1051 -53 1023 -197Q990 -366 843 -435L830 -441Q689 -504 472 -504Q372 -504 251 -491Q134 -478 23 -454L64 -241H176Q174 -277 186 -298Q193 -312 232 -345Q289 -391 396 -391Q516
-391 589 -343L627 -316Q673 -281 682 -193Q714 -29 564 -29Q281 -29 152 120Q22 269 73 531T313 942Q501 1092 782 1092T1193 942Q1324 793 1273 531Q1222 268 1033 120Q921 31 906 41ZM760 979Q648 979 583 883Q520 787 470 531T447 180Q473 84 586 84T764 180Q829
277 878 531T900 882T760 979Z" />
<glyph unicode="&#x18e;" glyph-name="uni018E" horiz-adv-x="1684" d="M1381 0H21L89 352H226L185 137H832L949 741H558L521 551H384L484 1067H621L584 877H975L1068 1356H440L399 1141H261L329 1493H1671L1648 1372H1457L1213 121H1404L1381 0Z" />
<glyph unicode="&#x18f;" glyph-name="uni018F" horiz-adv-x="1776" d="M1277 830Q1329 1099 1252 1238Q1177 1398 957 1398Q808 1398 697 1315Q587 1232 511 1063H312Q416 1294 591 1407Q765 1519 1023 1519Q1401 1519 1580 1310Q1759 1102 1690 745Q1620 383
1366 177Q1111 -29 735 -29Q358 -29 184 177T80 745L97 830H1277ZM1246 669H494Q440 388 507 254Q575 92 758 92Q949 92 1073 253Q1193 395 1246 669Z" />
<glyph unicode="&#x190;" glyph-name="uni0190" horiz-adv-x="1449" d="M223 1075Q223 1109 230 1147Q265 1327 428 1423T937 1520Q1185 1520 1436 1450L1378 1151H1257Q1258 1169 1258 1186Q1258 1284 1206 1343T985 1403T733 1336T625 1137Q617 1098 617 1065Q617
986 660 938Q721 870 988 870H1040L1017 750H951Q672 750 568 662Q423 539 423 295Q423 228 463 172Q523 88 715 88Q939 88 1067 265H1266Q1199 160 1040 66T644 -29Q264 -29 124 82Q15 169 15 314Q15 356 24 403Q92 753 491 815Q223 866 223 1075Z" />
<glyph unicode="&#x191;" glyph-name="uni0191" horiz-adv-x="1969" d="M330 -426Q166 -426 6 -358L51 -123H181Q154 -266 248 -296Q272 -305 305 -305Q402 -305 455 -230Q509 -155 548 49L805 1372H614L638 1493H1969L1900 1141H1763L1805 1356H1189L1096 877H1475L1512
1067H1649L1548 551H1411L1448 741H1069L933 41Q882 -222 716 -332Q573 -426 330 -426Z" />
<glyph unicode="&#x192;" glyph-name="florin" horiz-adv-x="1550" d="M1505 1290H1393Q1394 1305 1395 1318Q1395 1375 1371 1406Q1340 1444 1271 1444Q1191 1444 1144 1386Q1097 1329 1072 1200L1045 1063H1312L1289 942H1022L833 -29Q799 -206 668 -298Q537
-389 318 -389Q233 -389 154 -380Q75 -370 0 -351L45 -123H157Q156 -138 155 -151Q155 -208 179 -239Q210 -277 279 -277Q359 -277 406 -220Q453 -162 478 -33L668 942H510L533 1063H691L717 1196Q751 1373 882 1464Q1013 1556 1232 1556Q1317 1556 1396 1546Q1475
1537 1550 1518L1505 1290Z" />
<glyph unicode="&#x193;" glyph-name="uni0193" horiz-adv-x="2089" d="M1477 1435Q1532 1590 1621 1652Q1719 1721 1821 1721Q1881 1721 1947 1711T2083 1682L2039 1457H1926Q1941 1537 1916 1572Q1894 1608 1828 1608Q1755 1608 1717 1561T1655 1391L1584 1024H1457Q1450
1222 1362 1310Q1274 1399 1083 1399Q851 1399 712 1242Q573 1084 507 745Q442 409 515 250Q588 92 808 92Q892 92 968 111T1110 168L1190 578H1010L1033 698H1571L1460 125Q1277 47 1102 9Q927 -29 752 -29Q368 -29 189 178Q9 385 79 745Q150 1106 410 1313Q669
1520 1053 1520Q1289 1520 1362 1488L1477 1435Z" />
<glyph unicode="&#x194;" glyph-name="uni0194" horiz-adv-x="1629" d="M572 710L224 1386H40L60 1493H741L720 1386H665L850 966L1243 1386H1044L1064 1493H1627L1606 1386H1413L906 855Q1322 90 1107 -44Q877 -188 495 -188Q88 -188 55 12Q26 193 572 710ZM635
595Q243 212 220 80Q194 -70 518 -67Q807 -65 821 85Q832 202 635 595Z" />
<glyph unicode="&#x195;" glyph-name="uni0195" horiz-adv-x="1992" d="M1165 346Q1121 120 1274 121Q1375 121 1459 233T1579 530Q1610 691 1587 787Q1558 908 1533 935L1541 979H1670Q1834 915 1912 786Q1991 656 1963 514Q1942 406 1873 307Q1805 208 1698
135Q1602 68 1487 33Q1371 -3 1249 -3Q743 -3 812 348L877 686Q904 823 880 874Q855 926 770 926Q663 926 598 848Q533 769 499 598L383 0H29L308 1436H150L174 1556H686L561 913Q643 1008 733 1050T948 1092Q1125 1092 1198 986Q1269 881 1229 676L1165 346Z"
/>
<glyph unicode="&#x196;" glyph-name="uni0196" horiz-adv-x="865" d="M63 337L265 1372H74L97 1493H865L842 1372H650L451 351Q426 220 453 160Q481 99 576 99L557 0H357Q156 0 124 24Q18 102 63 337Z" />
<glyph unicode="&#x197;" glyph-name="uni0197" horiz-adv-x="1068" d="M5 0L28 121H219L334 713H121L148 850H361L463 1372H272L295 1493H1063L1040 1372H848L746 850H959L932 713H719L604 121H796L773 0H5Z" />
<glyph unicode="&#x198;" glyph-name="uni0198" horiz-adv-x="2078" d="M1638 1332L1065 911L1640 121H1787L1764 0H1258L734 725L616 121H808L785 0H17L40 121H231L475 1372H284L307 1493H1075L1052 1372H860L754 827L1493 1372Q1654 1491 1795 1493Q1847 1493
1921 1484Q1987 1474 2057 1455L2013 1230H1900Q1916 1310 1891 1346Q1867 1384 1802 1381Q1698 1377 1638 1332Z" />
<glyph unicode="&#x199;" glyph-name="uni0199" horiz-adv-x="1284" d="M448 412L368 0H14L252 1226Q284 1389 415 1472Q547 1556 772 1556Q832 1556 898 1546T1034 1517L990 1292H877Q892 1372 868 1408Q845 1443 779 1443Q706 1443 668 1396Q630 1347 606 1226L476
557L980 942H853L876 1063H1164L1141 942L819 696L1155 121H1270L1247 0H856L564 500L448 412Z" />
<glyph unicode="&#x19a;" glyph-name="uni019A" horiz-adv-x="729" d="M438 121H590L567 0H61L154 479H3L26 600H177L340 1436H189L212 1556H717L531 600H683L660 479H508L438 121Z" />
<glyph unicode="&#x19b;" glyph-name="uni019B" horiz-adv-x="1324" d="M1188 121H1311L1288 0H889L912 121H1051L933 700L514 121H643L620 0H10L33 121H150L846 1109V1110L376 859L334 964L812 1220Q766 1345 706 1376Q667 1398 579 1400Q514 1400 472 1363Q431
1326 413 1249H300L343 1470Q421 1492 480 1502Q551 1514 591 1513Q817 1513 909 1272L1146 1398L1189 1293L944 1162V1160L1188 121Z" />
<glyph unicode="&#x19c;" glyph-name="uni019C" horiz-adv-x="2203" d="M757 174Q662 68 567 20T356 -29Q173 -29 103 74T73 387L264 1372H112L136 1493H769L745 1372H618L437 440Q399 241 419 189T522 137Q616 137 682 209T775 416L960 1372H833L857 1493H1465L1441
1372H1314L1133 440Q1095 241 1115 189T1218 137Q1313 137 1379 209T1472 416L1657 1372H1530L1554 1493H2186L2162 1372H2011L1768 121H1919L1896 0H1391L1420 150Q1340 57 1252 14T1053 -29Q923 -29 852 20T757 174Z" />
<glyph unicode="&#x19d;" glyph-name="uni019D" horiz-adv-x="2343" d="M10 -358L55 -123H185Q158 -266 252 -296Q276 -305 309 -305Q406 -305 459 -230Q512 -156 552 49L809 1372H618L642 1493H1109L1804 436L1986 1372H1796L1820 1493H2342L2318 1372H2127L1860
0H1598L893 1079L691 41Q636 -244 506 -348Q409 -426 268 -426Q251 -426 171 -409T10 -358Z" />
<glyph unicode="&#x19e;" glyph-name="uni019E" horiz-adv-x="1270" d="M6 0L189 942H38L62 1063H567L538 913Q620 1008 710 1050T926 1092Q1105 1092 1175 986Q1246 880 1207 676L1016 -305H1167L1143 -426H638L855 686Q881 823 857 874Q832 926 747 926Q640
926 575 848Q510 769 477 598L360 0H6Z" />
<glyph unicode="&#x19f;" glyph-name="uni019F" horiz-adv-x="1784" d="M741 -29Q364 -29 191 177T87 745T412 1313T1043 1520Q1420 1520 1593 1314T1697 745Q1627 383 1372 177T741 -29ZM765 92Q956 92 1080 253Q1190 395 1253 669H501Q459 398 513 254Q575 92
765 92ZM533 830H1284Q1325 1098 1272 1238Q1210 1399 1019 1399Q829 1399 704 1236Q596 1096 533 830Z" />
<glyph unicode="&#x1a0;" glyph-name="Ohorn" horiz-adv-x="1784" d="M1739 1253L1763 1379Q1818 1330 1851 1311T1914 1291Q1955 1291 1983 1319T2021 1399Q2029 1438 2029 1478T2021 1557H2177Q2178 1503 2174 1455T2161 1365Q2139 1252 2081 1190T1939 1127Q1887
1127 1839 1157T1739 1253ZM764 92Q955 92 1079 253T1268 745Q1332 1077 1271 1238T1018 1399Q828 1399 703 1237T514 745Q450 417 512 255T764 92ZM740 -29Q363 -29 190 177T86 745T411 1313T1042 1520Q1419 1520 1592 1314T1696 745Q1626 383 1371 177T740 -29Z"
/>
<glyph unicode="&#x1a1;" glyph-name="ohorn" horiz-adv-x="1366" d="M1366 818L1390 944Q1445 895 1478 876T1541 856Q1582 856 1610 884T1648 964Q1656 1003 1656 1043T1648 1122H1804Q1805 1068 1801 1020T1788 930Q1766 817 1708 755T1566 692Q1514 692 1466
722T1366 818ZM549 84Q661 84 725 180T839 532Q872 699 872 798Q872 850 862 884Q836 979 723 979T545 883T431 532Q399 368 399 270Q399 215 409 181Q436 84 549 84ZM116 120Q22 228 22 394Q22 458 36 532Q87 795 275 943T745 1092Q1027 1092 1157 944Q1251 837
1251 671Q1251 606 1236 532Q1185 270 997 121T527 -29T116 120Z" />
<glyph unicode="&#x1a2;" glyph-name="uni01A2" horiz-adv-x="2293" d="M732 -29Q355 -29 181 177T77 745T402 1313T1033 1520Q1287 1520 1449 1426Q1541 1459 1626 1476Q1714 1493 1797 1493Q2064 1493 2164 1381T2218 1026L1974 -230H2165L2141 -351H1372L1396
-230H1587L1829 1018Q1869 1223 1845 1297T1724 1372Q1648 1372 1601 1328Q1593 1321 1586 1312Q1757 1106 1687 745Q1617 383 1363 177T732 -29ZM755 92Q946 92 1070 253T1259 745Q1324 1077 1262 1238T1009 1399Q819 1399 694 1237T505 745Q441 417 503 255T755
92Z" />
<glyph unicode="&#x1a3;" glyph-name="uni01A3" horiz-adv-x="1787" d="M1070 1027Q1221 1063 1336 1063Q1561 1063 1660 980T1728 733L1526 -305H1690L1666 -426H1147L1374 733Q1398 856 1378 903T1293 950T1192 923Q1301 777 1252 524T1015 121T545 -29T134
120T54 532T293 943T763 1092Q950 1092 1070 1027ZM448 532Q399 278 426 181T566 84T743 180T856 532T880 883T741 979T563 883T448 532Z" />
<glyph unicode="&#x1a4;" glyph-name="uni01A4" horiz-adv-x="1808" d="M649 1493H1308Q1557 1493 1681 1374Q1805 1256 1766 1057Q1727 857 1557 738Q1386 618 1138 618H864L767 121H1008L985 0H168L191 121H382L626 1372Q430 1372 343 1283Q256 1192 219 1006H21L91
1364Q187 1433 433 1476Q531 1493 649 1493ZM888 739H1000Q1130 739 1224 826Q1318 912 1346 1057Q1374 1201 1314 1286Q1254 1372 1123 1372H1011L888 739Z" />
<glyph unicode="&#x1a5;" glyph-name="uni01A5" horiz-adv-x="1402" d="M564 584L543 479Q507 293 538 210Q570 127 676 127Q785 127 847 215Q908 303 952 532T970 848Q942 936 833 936Q727 936 663 853Q600 770 564 584ZM314 1123Q346 1288 477 1370Q610 1453
835 1453Q895 1453 961 1443T1096 1414L1052 1189H939Q954 1267 931 1304Q908 1340 842 1340Q769 1340 731 1293T668 1123L631 928Q692 1011 776 1052Q859 1092 971 1092Q1198 1092 1300 942Q1401 793 1351 532T1141 121Q981 -29 754 -29Q642 -29 574 12Q505 52
476 135L367 -426H13L314 1123Z" />
<glyph unicode="&#x1a6;" glyph-name="uni01A6" horiz-adv-x="1602" d="M463 1372H272L295 1493H1059L1036 1372H848L815 1202H1091Q1351 1202 1472 1098Q1565 1018 1565 887Q1565 846 1556 801Q1495 490 1081 438Q1168 425 1219 380T1300 246L1437 -170H1590L1567
-291H1076L925 160Q876 307 839 342T715 377H654L601 121H793L769 0H1L25 121H216L463 1372ZM678 497H809Q949 497 1039 573T1157 790Q1165 834 1165 871Q1165 954 1123 1006Q1062 1081 922 1081H791L678 497Z" />
<glyph unicode="&#x1a7;" glyph-name="uni01A7" horiz-adv-x="1458" d="M1185 72Q1026 21 877 -4T582 -29Q279 -29 146 88Q13 206 57 432Q95 625 209 735Q324 845 542 897L777 952Q990 1004 1052 1052Q1113 1101 1131 1194Q1151 1296 1086 1348Q1020 1399 872
1399Q691 1399 579 1328Q467 1256 408 1102H281L345 1432Q506 1476 651 1498Q798 1520 929 1520Q1195 1520 1317 1396Q1442 1273 1398 1051Q1363 867 1254 768Q1146 668 916 612L681 557Q501 514 437 464T354 324Q332 210 401 151T626 92Q817 92 941 175T1127 426H1254L1185
72Z" />
<glyph unicode="&#x1a8;" glyph-name="uni01A8" horiz-adv-x="1166" d="M967 31Q837 1 723 -14T510 -29Q239 -29 127 56Q15 142 50 322Q77 461 172 539T487 670L639 707Q726 728 764 759T813 844Q826 910 777 944Q728 979 620 979Q492 979 413 924Q334 869 303
760H190L243 1028Q378 1061 487 1076Q597 1092 691 1092Q941 1092 1045 1008Q1148 923 1114 750Q1089 620 1000 544Q911 467 738 426L585 389Q475 363 431 328Q389 293 376 229Q363 159 413 122Q463 84 571 84Q700 84 787 146Q874 209 911 328H1024L967 31Z" />
<glyph unicode="&#x1a9;" glyph-name="uni01A9" horiz-adv-x="1448" d="M9 0L818 748L299 1493H1526L1462 1161H1339L1376 1356H865L1172 886L506 278H1167L1195 422H1318L1236 0H9Z" />
<glyph unicode="&#x1aa;" glyph-name="uni01AA" horiz-adv-x="1123" d="M1120 1523Q1103 1434 1040 1353Q991 1290 885 1235Q884 1231 883 1227L424 -100Q384 -216 423 -287Q456 -344 528 -344Q597 -344 642 -306T710 -190H822L778 -418Q696 -437 613 -446T445
-456Q238 -456 131 -365Q13 -263 70 -96L496 1133Q459 1131 421 1131Q358 1131 313 1142Q168 1179 198 1331Q241 1553 590 1556Q719 1557 815 1473Q879 1418 893 1349Q923 1372 946 1400Q983 1444 1010 1523H1120ZM527 1223L529 1227Q572 1351 533 1397Q509 1425
480 1427Q350 1434 333 1346Q308 1219 492 1221Q509 1221 527 1223Z" />
<glyph unicode="&#x1ab;" glyph-name="uni01AB" horiz-adv-x="938" d="M263 942H109L133 1063H287L351 1393H705L641 1063H936L912 942H617L491 291Q464 152 479 118T552 84H829L789 -125Q757 -288 626 -371T269 -455Q209 -455 143 -445T7 -416L51 -191H164Q150
-271 173 -306T262 -342Q333 -342 373 -295Q410 -250 435 -125L453 -29Q451 -29 449 -29Q230 -29 166 39T137 291L263 942Z" />
<glyph unicode="&#x1ac;" glyph-name="uni01AC" horiz-adv-x="1583" d="M619 1356Q411 1356 340 1283Q253 1192 216 1006H18L88 1364Q184 1433 430 1476Q528 1493 646 1493H1580L1508 1120H1373L1418 1356H1006L766 121H965L942 0H158L181 121H379L619 1356Z" />
<glyph unicode="&#x1ad;" glyph-name="uni01AD" horiz-adv-x="1020" d="M176 942H22L45 1063H199L231 1226Q263 1389 394 1472Q526 1556 751 1556Q811 1556 877 1546T1012 1517L969 1292H856Q869 1372 847 1408Q824 1443 758 1443Q688 1443 647 1396Q610 1354
585 1226L553 1063H848L825 942H530L403 291Q376 152 391 118T465 84Q529 84 568 127T627 260H776Q745 100 645 36Q554 -29 362 -29Q143 -29 78 40Q14 108 49 291L176 942Z" />
<glyph unicode="&#x1ae;" glyph-name="uni01AE" horiz-adv-x="1576" d="M349 41L605 1356H196L150 1120H13L86 1493H1566L1493 1120H1358L1404 1356H992L738 49Q698 -156 722 -230Q746 -305 843 -305Q919 -305 966 -261Q1013 -217 1037 -123H1167L1122 -358Q1028
-392 941 -409T770 -426Q503 -426 403 -314Q302 -202 349 41Z" />
<glyph unicode="&#x1af;" glyph-name="Uhorn" horiz-adv-x="1786" d="M249 1372H59L83 1493H851L827 1372H636L491 625Q437 346 502 235T779 123Q985 123 1093 235T1255 625L1400 1372H1210L1234 1493H1754L1730 1372H1539L1390 604Q1324 262 1148 117T622 -29Q275
-29 155 118T101 606L249 1372ZM2129 1367L2153 1493Q2208 1444 2241 1425T2304 1405Q2345 1405 2373 1433T2411 1513Q2419 1552 2419 1592T2411 1671H2567Q2568 1617 2564 1569T2551 1479Q2529 1366 2471 1304T2329 1241Q2277 1241 2229 1271T2129 1367Z" />
<glyph unicode="&#x1b0;" glyph-name="uhorn" horiz-adv-x="1489" d="M1279 1063L1096 121H1247L1224 0H718L747 150Q665 55 575 13T360 -29Q181 -29 110 76Q64 144 64 252Q64 313 79 387L187 942H35L58 1063H564L443 442Q419 317 419 250Q419 210 428 190Q450
137 538 137Q645 137 710 216T808 467L924 1063H1279ZM1489 818L1513 944Q1568 895 1601 876T1664 856Q1705 856 1733 884T1771 964Q1779 1003 1779 1043T1771 1122H1927Q1928 1068 1924 1020T1911 930Q1889 817 1831 755T1689 692Q1637 692 1589 722T1489 818Z"
/>
<glyph unicode="&#x1b1;" glyph-name="uni01B1" horiz-adv-x="1888" d="M689 1336H355L331 1211H194L254 1520H987L949 1327Q787 1295 678 1143T516 725Q459 430 529 276Q599 121 791 121T1113 276Q1242 430 1300 727Q1350 988 1299 1142Q1248 1295 1100 1327L1138
1520H1872L1812 1211H1676L1700 1336H1365Q1584 1244 1675 1084Q1766 923 1723 703Q1661 387 1399 194Q1137 0 767 0T210 194Q22 387 84 703Q127 923 280 1084Q433 1244 689 1336Z" />
<glyph unicode="&#x1b2;" glyph-name="uni01B2" horiz-adv-x="1578" d="M590 121Q782 121 911 275T1099 727Q1150 990 1099 1142Q1054 1272 994 1272L1014 1372H1134Q1363 1282 1475 1084Q1565 923 1523 703Q1461 387 1199 194T567 0H367Q166 0 134 24Q28 102
73 337L275 1372H84L107 1493H875L852 1372H660L465 373Q440 244 467 182Q494 121 590 121Z" />
<glyph unicode="&#x1b3;" glyph-name="uni01B3" horiz-adv-x="1733" d="M1243 1372Q1340 1495 1511 1495Q1560 1495 1596 1485Q1662 1475 1732 1456L1688 1231H1575Q1589 1311 1566 1346T1477 1382Q1403 1382 1366 1335L845 670L738 121H939L916 0H127L150 121H351L448
618L150 1372H23L47 1493H763L739 1372H573L799 803L1243 1372Z" />
<glyph unicode="&#x1b4;" glyph-name="uni01B4" horiz-adv-x="1657" d="M1291 932L592 -240Q522 -357 445 -406T252 -455Q203 -455 145 -444T20 -412L63 -190L176 -191Q164 -268 190 -305T284 -342Q349 -342 395 -307T502 -172L525 -135L271 942H156L180 1063H793L769
942H642L790 313L1164 942Q1254 1093 1424 1092Q1455 1092 1521 1082T1657 1053L1613 828H1500Q1514 908 1491 943T1402 979Q1322 983 1291 932Z" />
<glyph unicode="&#x1b5;" glyph-name="uni01B5" horiz-adv-x="1665" d="M19 0L46 141L576 713H313L340 850H704L1173 1356H458L415 1133H278L348 1493H1644L1617 1352L1155 850H1412L1385 713H1029L500 137H1254L1294 346H1431L1364 0H19Z" />
<glyph unicode="&#x1b6;" glyph-name="uni01B6" horiz-adv-x="1248" d="M168 479L191 600H480L731 869Q706 878 671 897Q547 965 465 965Q345 965 165 820L196 978Q376 1148 533 1146Q611 1145 744 1078Q887 1005 943 1005T1057 1028T1139 1065L1238 1063L1215
944L894 600H1080L1057 479H780L515 195Q541 186 577 166Q701 98 783 98Q903 98 1083 243L1052 85Q872 -85 715 -83Q637 -82 504 -15Q361 58 305 58T191 35T109 -2L10 0L33 121L367 479H168Z" />
<glyph unicode="&#x1b7;" glyph-name="uni01B7" horiz-adv-x="1337" d="M827 839Q1043 818 1138 734Q1275 613 1234 403Q1193 194 1006 83T505 -29Q387 -29 266 -9T15 51L78 379H199Q183 237 246 163T448 88Q600 88 699 172T829 412Q860 574 791 662T562 750H496L540
974L879 1356H449L406 1133H269L339 1493H1318L1291 1356L827 839Z" />
<glyph unicode="&#x1b8;" glyph-name="uni01B8" horiz-adv-x="1388" d="M628 839L364 1356L391 1493H1370L1300 1133H1163L1206 1356H776L967 974L923 750H857Q698 750 595 662T460 412Q430 257 496 173T715 88Q853 88 945 162T1076 379H1197L1134 51Q989 11 860
-9T612 -29Q298 -29 154 82T51 403Q92 613 275 734Q403 818 628 839Z" />
<glyph unicode="&#x1b9;" glyph-name="uni01B9" horiz-adv-x="1391" d="M628 452Q628 452 360 944L383 1063H1373L1315 764H1196L1231 946H772L967 588L924 363H858Q699 363 595 275T460 25Q430 -130 496 -214T715 -299Q853 -299 945 -225T1077 -8H1198L1134 -336Q989
-376 860 -396T612 -416Q298 -416 155 -305T51 16Q92 226 276 347Q403 431 628 452Z" />
<glyph unicode="&#x1ba;" glyph-name="uni01BA" horiz-adv-x="1285" d="M517 363H451L495 588L829 946H370L335 764H216L274 1063H1264L1241 944L781 452Q1230 408 1230 242Q1230 229 1227 216Q1200 79 832 4T433 -228Q431 -240 431 -251Q431 -356 651 -356Q894
-356 1024 -168H1137L1101 -352Q848 -450 416 -450Q19 -450 19 -286Q19 -272 22 -256Q53 -96 424 -2T822 225Q824 235 824 245Q824 363 517 363Z" />
<glyph unicode="&#x1bb;" glyph-name="uni01BB" horiz-adv-x="1385" d="M367 1124H247L309 1446Q438 1483 561 1501T807 1520Q1092 1520 1228 1404T1325 1079Q1301 954 1217 850H1347L1321 713H1070Q963 633 795 535L326 262H1033L1067 438H1204L1119 0H15L63
244L313 397Q616 582 740 713H249L275 850H840Q890 942 911 1049Q945 1222 891 1312T700 1403Q582 1403 497 1332T367 1124Z" />
<glyph unicode="&#x1bc;" glyph-name="uni01BC" horiz-adv-x="1482" d="M942 840Q1131 809 1207 707T1244 403Q1203 194 1016 83T515 -29Q397 -29 276 -9T25 51L88 379H209Q193 237 256 163T458 88Q610 88 709 172T839 412Q870 574 801 662T572 750H185L306 1372H115L139
1493H1470L1401 1141H1265L1306 1356H690L596 870Q766 869 942 840Z" />
<glyph unicode="&#x1bd;" glyph-name="uni01BD" horiz-adv-x="1404" d="M831 472Q1084 419 1142 367Q1279 246 1234 16Q1194 -193 1007 -304T505 -416Q387 -416 266 -396T15 -336L79 -8H200Q183 -150 246 -224T448 -299Q600 -299 699 -215T829 25Q860 187 791
275T563 363H300L412 942H261L285 1063H1389L1333 774H1212L1244 942H766L677 483Q789 481 831 472Z" />
<glyph unicode="&#x1be;" glyph-name="uni01BE" horiz-adv-x="870" d="M420 1393H774L707 1049H855L832 928H684L657 787Q682 779 756 702Q838 617 791 380Q748 156 632 63T256 -30Q184 -30 121 -14T3 36L38 234H151Q139 152 160 118Q181 83 272 83Q373 83 408
130Q442 178 492 412Q536 623 499 666Q473 696 401 696H285L330 928H175L198 1049H353L420 1393Z" />
<glyph unicode="&#x1bf;" glyph-name="uni01BF" horiz-adv-x="1476" d="M459 15Q1014 349 1095 769Q1117 882 1061 924T879 967Q776 967 608 784L459 15ZM642 955Q829 1147 1150 1147Q1354 1147 1415 1026T1449 769Q1368 349 430 -132L373 -426H19L285 942H133L157
1063H663L642 955Z" />
<glyph unicode="&#x1c0;" glyph-name="uni01C0" horiz-adv-x="506" d="M506 1493L215 0H0L291 1493H506Z" />
<glyph unicode="&#x1c1;" glyph-name="uni01C1" horiz-adv-x="1008" d="M910 1493L619 0H404L695 1493H910ZM506 1493L215 0H0L291 1493H506Z" />
<glyph unicode="&#x1c2;" glyph-name="uni01C2" horiz-adv-x="1008" d="M417 851H72L104 1013H448L542 1493H757L663 1013H1008L976 851H632L591 642H936L904 480H560L466 0H251L345 480H0L32 642H376L417 851Z" />
<glyph unicode="&#x1c3;" glyph-name="uni01C3" horiz-adv-x="506" d="M257 216L215 0H0L42 216H257ZM506 1493L299 432H84L291 1493H506Z" />
<glyph unicode="&#x1c4;" glyph-name="uni01C4" horiz-adv-x="3404" d="M1759 0L1786 141L2913 1356H2198L2155 1133H2018L2088 1493H3384L3357 1352L2240 137H2994L3034 346H3171L3104 0H1759ZM2615 1635L2444 1899H2608L2789 1737L3034 1899H3198L2923 1635H2615ZM602
121H741Q975 121 1113 271T1314 748Q1377 1073 1299 1222T985 1372H846L602 121ZM3 0L26 121H217L461 1372H270L293 1493H1059Q1461 1493 1636 1301T1742 748Q1672 385 1421 193T769 0H3Z" />
<glyph unicode="&#x1c5;" glyph-name="uni01C5" horiz-adv-x="3063" d="M3012 944L2312 195Q2345 183 2374 166Q2501 98 2580 98Q2700 98 2880 243L2849 85Q2672 -83 2512 -83Q2429 -79 2301 -15Q2158 58 2102 58T1988 35T1906 -2L1807 0L1830 121L2528 869Q2496
880 2468 897Q2341 965 2262 965Q2142 965 1962 820L1993 978Q2170 1146 2330 1146Q2413 1142 2541 1078Q2684 1005 2740 1005T2854 1028T2936 1065L3035 1063L3012 944ZM2400 1262L2218 1638H2382L2550 1411L2808 1638H2972L2642 1262H2400ZM612 121H751Q985 121
1123 271T1324 748Q1387 1073 1309 1222T995 1372H856L612 121ZM13 0L36 121H227L471 1372H280L303 1493H1069Q1471 1493 1646 1301T1752 748Q1682 385 1431 193T779 0H13Z" />
<glyph unicode="&#x1c6;" glyph-name="uni01C6" horiz-adv-x="2645" d="M2596 944L1896 195Q1929 183 1958 166Q2085 98 2164 98Q2284 98 2464 243L2433 85Q2256 -83 2096 -83Q2013 -79 1885 -15Q1742 58 1686 58T1572 35T1490 -2L1391 0L1414 121L2112 869Q2080
880 2052 897Q1925 965 1846 965Q1726 965 1546 820L1577 978Q1754 1146 1914 1146Q1997 1142 2125 1078Q2268 1005 2324 1005T2438 1028T2520 1065L2619 1063L2596 944ZM1984 1262L1802 1638H1966L2134 1411L2392 1638H2556L2226 1262H1984ZM813 479L833 584Q852
683 852 753Q852 814 837 853Q806 936 701 936Q591 936 530 849T423 532Q396 391 396 304Q396 249 406 215Q434 127 543 127Q648 127 712 210T813 479ZM1376 1556L1074 0H720L746 135Q685 52 601 12T404 -29Q178 -29 78 121Q11 221 11 369Q11 444 28 532Q79 794
237 943T622 1092Q734 1092 802 1052T900 928L999 1436H847L870 1556H1376Z" />
<glyph unicode="&#x1c7;" glyph-name="uni01C7" horiz-adv-x="2409" d="M1441 -358L1486 -123H1616Q1604 -217 1634 -261T1740 -305Q1837 -305 1890 -231T1983 49L2240 1372H2023L2047 1493H2842L2818 1372H2627L2368 41Q2321 -202 2177 -314T1765 -426Q1682 -426
1602 -409T1441 -358ZM9 0L32 121H223L467 1372H276L299 1493H1067L1044 1372H852L612 137H1200L1245 373H1380L1308 0H9Z" />
<glyph unicode="&#x1c8;" glyph-name="uni01C8" horiz-adv-x="2181" d="M2117 1364Q2133 1445 2199 1500T2347 1556Q2425 1556 2471 1500Q2504 1458 2504 1403Q2504 1385 2500 1364Q2485 1285 2419 1230T2273 1174Q2192 1174 2147 1229Q2113 1270 2113 1325Q2113
1344 2117 1364ZM2076 942H1925L1949 1063H2454L2223 -125Q2191 -288 2060 -371T1703 -455Q1643 -455 1577 -445T1441 -416L1485 -190L1598 -191Q1593 -221 1593 -245Q1593 -284 1607 -306Q1630 -342 1696 -342Q1769 -342 1807 -295T1869 -125L2076 942ZM9 0L32
121H223L467 1372H276L299 1493H1067L1044 1372H852L612 137H1200L1245 373H1380L1308 0H9Z" />
<glyph unicode="&#x1c9;" glyph-name="uni01C9" horiz-adv-x="1519" d="M1455 1364Q1471 1445 1537 1500T1685 1556Q1763 1556 1809 1500Q1842 1458 1842 1403Q1842 1385 1838 1364Q1823 1285 1757 1230T1611 1174Q1530 1174 1485 1229Q1451 1270 1451 1325Q1451
1344 1455 1364ZM1414 942H1263L1287 1063H1792L1561 -125Q1529 -288 1398 -371T1041 -455Q981 -455 915 -445T779 -416L823 -190L936 -191Q931 -221 931 -245Q931 -284 945 -306Q968 -342 1034 -342Q1107 -342 1145 -295T1207 -125L1414 942ZM386 121H538L515
0H9L288 1436H137L160 1556H665L386 121Z" />
<glyph unicode="&#x1ca;" glyph-name="uni01CA" horiz-adv-x="2841" d="M1873 -358L1918 -123H2048Q2036 -217 2066 -261T2172 -305Q2269 -305 2322 -231T2415 49L2672 1372H2455L2479 1493H3274L3250 1372H3059L2800 41Q2753 -202 2609 -314T2197 -426Q2114 -426
2034 -409T1873 -358ZM16 0L39 121H230L474 1372H283L306 1493H773L1469 436L1651 1372H1461L1484 1493H2006L1983 1372H1792L1525 0H1263L558 1079L371 121H561L538 0H16Z" />
<glyph unicode="&#x1cb;" glyph-name="uni01CB" horiz-adv-x="2613" d="M2549 1364Q2565 1445 2631 1500T2779 1556Q2857 1556 2903 1500Q2936 1458 2936 1403Q2936 1385 2932 1364Q2917 1285 2851 1230T2705 1174Q2624 1174 2579 1229Q2545 1270 2545 1325Q2545
1344 2549 1364ZM2508 942H2357L2381 1063H2886L2655 -125Q2623 -288 2492 -371T2135 -455Q2075 -455 2009 -445T1873 -416L1917 -190L2030 -191Q2025 -221 2025 -245Q2025 -284 2039 -306Q2062 -342 2128 -342Q2201 -342 2239 -295T2301 -125L2508 942ZM16 0L39
121H230L474 1372H283L306 1493H773L1469 436L1651 1372H1461L1484 1493H2006L1983 1372H1792L1525 0H1263L558 1079L371 121H561L538 0H16Z" />
<glyph unicode="&#x1cc;" glyph-name="uni01CC" horiz-adv-x="2230" d="M2166 1364Q2182 1445 2248 1500T2396 1556Q2474 1556 2520 1500Q2553 1458 2553 1403Q2553 1385 2549 1364Q2534 1285 2468 1230T2322 1174Q2241 1174 2196 1229Q2162 1270 2162 1325Q2162
1344 2166 1364ZM2125 942H1974L1998 1063H2503L2272 -125Q2240 -288 2109 -371T1752 -455Q1692 -455 1626 -445T1490 -416L1534 -190L1647 -191Q1642 -221 1642 -245Q1642 -284 1656 -306Q1679 -342 1745 -342Q1818 -342 1856 -295T1918 -125L2125 942ZM26 0L209
942H58L81 1063H586L557 913Q640 1008 730 1050T945 1092Q1124 1092 1195 986Q1241 919 1241 811Q1241 750 1226 676L1118 121H1270L1247 0H741L874 686Q888 756 888 804Q888 848 876 874Q852 926 767 926Q660 926 595 848T496 598L380 0H26Z" />
<glyph unicode="&#x1cd;" glyph-name="uni01CD" horiz-adv-x="1589" d="M0 0L23 121H145L974 1493H1213L1509 121H1651L1628 0H929L952 121H1098L1035 426H474L289 121H467L444 0H0ZM546 547H1009L890 1118L546 547ZM1493 1635L1322 1899H1486L1667 1737L1912
1899H2076L1801 1635H1493Z" />
<glyph unicode="&#x1ce;" glyph-name="uni01CE" horiz-adv-x="1327" d="M827 876Q824 936 767 936Q633 936 502 776Q441 702 393 455Q357 270 383 199T504 127Q597 127 655 210T750 479L827 876ZM1167 1031L992 121L1125 123L1101 0H657L683 135Q573 -29 378 -29Q185
-29 99 98T57 448Q100 671 292 864Q519 1092 823 1092Q1123 1092 1167 1031ZM268 1262L86 1638H250L418 1411L676 1638H840L510 1262H268Z" />
<glyph unicode="&#x1cf;" glyph-name="uni01CF" horiz-adv-x="958" d="M4 0L27 121H218L462 1372H271L294 1493H1062L1039 1372H847L603 121H795L772 0H4ZM1227 1635L1056 1899H1220L1401 1737L1646 1899H1810L1535 1635H1227Z" />
<glyph unicode="&#x1d0;" glyph-name="uni01D0" horiz-adv-x="778" d="M400 121H552L529 0H23L206 942H55L78 1063H583L400 121ZM59 1262L-123 1638H41L209 1411L467 1638H631L301 1262H59Z" />
<glyph unicode="&#x1d1;" glyph-name="uni01D1" horiz-adv-x="1784" d="M764 92Q955 92 1079 253T1268 745Q1332 1077 1271 1238T1018 1399Q828 1399 703 1237T514 745Q450 417 512 255T764 92ZM740 -29Q363 -29 190 177T86 745T411 1313T1042 1520Q1419 1520
1592 1314T1696 745Q1626 383 1371 177T740 -29ZM1669 1635L1498 1899H1662L1843 1737L2088 1899H2252L1977 1635H1669Z" />
<glyph unicode="&#x1d2;" glyph-name="uni01D2" horiz-adv-x="1366" d="M548 84Q660 84 724 180T838 532Q871 699 871 798Q871 850 861 884Q835 979 722 979T544 883T430 532Q398 368 398 270Q398 215 408 181Q435 84 548 84ZM115 120Q21 228 21 394Q21 458 35
532Q86 795 274 943T744 1092Q1026 1092 1156 944Q1250 837 1250 671Q1250 606 1235 532Q1184 270 996 121T526 -29T115 120ZM423 1262L241 1638H405L573 1411L831 1638H995L665 1262H423Z" />
<glyph unicode="&#x1d3;" glyph-name="uni01D3" horiz-adv-x="1786" d="M243 1372H53L77 1493H845L821 1372H630L485 625Q431 346 496 235T773 123Q979 123 1087 235T1249 625L1394 1372H1204L1228 1493H1748L1724 1372H1533L1384 604Q1318 262 1142 117T616 -29Q269
-29 149 118T95 606L243 1372ZM1725 1635L1554 1899H1718L1899 1737L2144 1899H2308L2033 1635H1725Z" />
<glyph unicode="&#x1d4;" glyph-name="uni01D4" horiz-adv-x="1489" d="M1275 1063L1092 121H1243L1220 0H714L743 150Q661 55 571 13T356 -29Q177 -29 106 76Q60 144 60 252Q60 313 75 387L183 942H31L54 1063H560L439 442Q415 317 415 250Q415 210 424 190Q446
137 534 137Q641 137 706 216T804 467L920 1063H1275ZM393 1262L211 1638H375L543 1411L801 1638H965L635 1262H393Z" />
<glyph unicode="&#x1d5;" glyph-name="uni01D5" horiz-adv-x="1733" d="M675 1850Q727 1894 787 1894Q846 1894 881 1850Q916 1807 904 1747T841 1644Q791 1601 731 1601T635 1644T611 1747T675 1850ZM1122 1850Q1173 1894 1233 1894T1329 1850Q1365 1807 1353
1747T1289 1644T1177 1601T1081 1644Q1046 1687 1058 1747T1122 1850ZM739 2122H1369L1333 1934H703L739 2122ZM225 1372H35L59 1493H827L803 1372H612L467 625Q413 346 478 235T755 123Q961 123 1069 235T1231 625L1376 1372H1186L1210 1493H1730L1706 1372H1515L1366
604Q1300 262 1124 117T598 -29Q251 -29 131 118T77 606L225 1372Z" />
<glyph unicode="&#x1d6;" glyph-name="uni01D6" horiz-adv-x="1270" d="M1251 1063L1068 121H1219L1196 0H690L719 150Q637 55 547 13T332 -29Q153 -29 82 76Q36 144 36 252Q36 313 51 387L159 942H7L30 1063H536L415 442Q391 317 391 250Q391 210 400 190Q422
137 510 137Q617 137 682 216T780 467L896 1063H1251ZM462 1570Q514 1614 574 1614Q633 1614 668 1570Q703 1527 691 1467T628 1364Q578 1321 518 1321T422 1364T398 1467T462 1570ZM909 1570Q960 1614 1020 1614T1116 1570Q1152 1527 1140 1467T1076 1364T964
1321T868 1364Q833 1407 845 1467T909 1570ZM526 1842H1156L1120 1654H490L526 1842Z" />
<glyph unicode="&#x1d7;" glyph-name="uni01D7" horiz-adv-x="1731" d="M223 1372H33L57 1493H825L801 1372H610L465 625Q411 346 476 235T753 123Q959 123 1067 235T1229 625L1374 1372H1184L1208 1493H1728L1704 1372H1513L1364 604Q1298 262 1122 117T596 -29Q249
-29 129 118T75 606L223 1372ZM673 1850Q725 1894 785 1894Q844 1894 879 1850Q914 1807 902 1747T839 1644Q789 1601 729 1601T633 1644T609 1747T673 1850ZM1120 1850Q1171 1894 1231 1894T1327 1850Q1363 1807 1351 1747T1287 1644T1175 1601T1079 1644Q1044
1687 1056 1747T1120 1850ZM1122 2165H1401L1052 1901H888L1122 2165Z" />
<glyph unicode="&#x1d8;" glyph-name="uni01D8" horiz-adv-x="1266" d="M1247 1063L1064 121H1215L1192 0H686L715 150Q633 55 543 13T328 -29Q149 -29 78 76Q32 144 32 252Q32 313 47 387L155 942H3L26 1063H532L411 442Q387 317 387 250Q387 210 396 190Q418
137 506 137Q613 137 678 216T776 467L892 1063H1247ZM458 1570Q510 1614 570 1614Q629 1614 664 1570Q699 1527 687 1467T624 1364Q574 1321 514 1321T418 1364T394 1467T458 1570ZM905 1570Q956 1614 1016 1614T1112 1570Q1148 1527 1136 1467T1072 1364T960
1321T864 1364Q829 1407 841 1467T905 1570ZM907 1885H1186L837 1621H673L907 1885Z" />
<glyph unicode="&#x1d9;" glyph-name="uni01D9" horiz-adv-x="1733" d="M225 1372H35L59 1493H827L803 1372H612L467 625Q413 346 478 235T755 123Q961 123 1069 235T1231 625L1376 1372H1186L1210 1493H1730L1706 1372H1515L1366 604Q1300 262 1124 117T598 -29Q251
-29 131 118T77 606L225 1372ZM675 1850Q727 1894 787 1894Q846 1894 881 1850Q916 1807 904 1747T841 1644Q791 1601 731 1601T635 1644T611 1747T675 1850ZM1122 1850Q1173 1894 1233 1894T1329 1850Q1365 1807 1353 1747T1289 1644T1177 1601T1081 1644Q1046
1687 1058 1747T1122 1850ZM858 1901L687 2165H851L1032 2003L1277 2165H1441L1166 1901H858Z" />
<glyph unicode="&#x1da;" glyph-name="uni01DA" horiz-adv-x="1272" d="M1251 1063L1068 121H1219L1196 0H690L719 150Q637 55 547 13T332 -29Q153 -29 82 76Q36 144 36 252Q36 313 51 387L159 942H7L30 1063H536L415 442Q391 317 391 250Q391 210 400 190Q422
137 510 137Q617 137 682 216T780 467L896 1063H1251ZM462 1570Q514 1614 574 1614Q633 1614 668 1570Q703 1527 691 1467T628 1364Q578 1321 518 1321T422 1364T398 1467T462 1570ZM909 1570Q960 1614 1020 1614T1116 1570Q1152 1527 1140 1467T1076 1364T964
1321T868 1364Q833 1407 845 1467T909 1570ZM645 1621L474 1885H638L819 1723L1064 1885H1228L953 1621H645Z" />
<glyph unicode="&#x1db;" glyph-name="uni01DB" horiz-adv-x="1731" d="M224 1372H34L58 1493H826L802 1372H611L466 625Q412 346 477 235T754 123Q960 123 1068 235T1230 625L1375 1372H1185L1209 1493H1729L1705 1372H1514L1365 604Q1299 262 1123 117T597 -29Q250
-29 130 118T76 606L224 1372ZM674 1850Q726 1894 786 1894Q845 1894 880 1850Q915 1807 903 1747T840 1644Q790 1601 730 1601T634 1644T610 1747T674 1850ZM1121 1850Q1172 1894 1232 1894T1328 1850Q1364 1807 1352 1747T1288 1644T1176 1601T1080 1644Q1045
1687 1057 1747T1121 1850ZM988 2165L1118 1901H954L709 2165H988Z" />
<glyph unicode="&#x1dc;" glyph-name="uni01DC" horiz-adv-x="1263" d="M1250 1063L1067 121H1218L1195 0H689L718 150Q636 55 546 13T331 -29Q152 -29 81 76Q35 144 35 252Q35 313 50 387L158 942H6L29 1063H535L414 442Q390 317 390 250Q390 210 399 190Q421
137 509 137Q616 137 681 216T779 467L895 1063H1250ZM461 1570Q513 1614 573 1614Q632 1614 667 1570Q702 1527 690 1467T627 1364Q577 1321 517 1321T421 1364T397 1467T461 1570ZM908 1570Q959 1614 1019 1614T1115 1570Q1151 1527 1139 1467T1075 1364T963
1321T867 1364Q832 1407 844 1467T908 1570ZM775 1885L905 1621H741L496 1885H775Z" />
<glyph unicode="&#x1dd;" glyph-name="uni01DD" horiz-adv-x="1303" d="M429 463Q388 253 410 169T527 84Q618 84 673 167T767 445L771 463H429ZM63 582H794L795 590Q835 796 791 887T609 979Q494 979 411 918T286 741H120Q198 922 342 1007T717 1092Q993 1092
1112 947T1179 531Q1128 267 948 119T499 -29Q235 -29 125 126T63 582Z" />
<glyph unicode="&#x1de;" glyph-name="uni01DE" horiz-adv-x="1668" d="M0 0L23 121H145L974 1493H1213L1509 121H1651L1628 0H929L952 121H1098L1035 426H474L289 121H467L444 0H0ZM546 547H1009L890 1118L546 547ZM820 1850Q872 1894 932 1894Q991 1894 1026
1850Q1061 1807 1049 1747T986 1644Q936 1601 876 1601T780 1644T756 1747T820 1850ZM1267 1850Q1318 1894 1378 1894T1474 1850Q1510 1807 1498 1747T1434 1644T1322 1601T1226 1644Q1191 1687 1203 1747T1267 1850ZM884 2122H1514L1478 1934H848L884 2122Z" />
<glyph unicode="&#x1df;" glyph-name="uni01DF" horiz-adv-x="1181" d="M817 876Q814 936 757 936Q623 936 492 776Q431 702 383 455Q347 270 373 199T494 127Q587 127 645 210T740 479L817 876ZM1157 1031L982 121L1115 123L1091 0H647L673 135Q563 -29 368 -29Q175
-29 89 98T47 448Q90 671 282 864Q509 1092 813 1092Q1113 1092 1157 1031ZM451 1570Q503 1614 563 1614Q622 1614 657 1570Q692 1527 680 1467T617 1364Q567 1321 507 1321T411 1364T387 1467T451 1570ZM898 1570Q949 1614 1009 1614T1105 1570Q1141 1527 1129
1467T1065 1364T953 1321T857 1364Q822 1407 834 1467T898 1570ZM515 1842H1145L1109 1654H479L515 1842Z" />
<glyph unicode="&#x1e0;" glyph-name="uni01E0" horiz-adv-x="1663" d="M0 0L23 121H145L974 1493H1213L1509 121H1651L1628 0H929L952 121H1098L1035 426H474L289 121H467L444 0H0ZM546 547H1009L890 1118L546 547ZM885 2122H1515L1479 1934H849L885 2122ZM1044
1850Q1095 1894 1155 1894T1251 1850Q1286 1807 1274 1747T1210 1644Q1159 1601 1099 1601T1003 1644Q968 1687 980 1747T1044 1850Z" />
<glyph unicode="&#x1e1;" glyph-name="uni01E1" horiz-adv-x="1174" d="M815 876Q812 936 755 936Q621 936 490 776Q429 702 381 455Q345 270 371 199T492 127Q585 127 643 210T738 479L815 876ZM1155 1031L980 121L1113 123L1089 0H645L671 135Q561 -29 366 -29Q173
-29 87 98T45 448Q88 671 280 864Q507 1092 811 1092Q1111 1092 1155 1031ZM514 1842H1144L1108 1654H478L514 1842ZM673 1570Q724 1614 784 1614T880 1570Q915 1527 903 1467T839 1364Q788 1321 728 1321T632 1364Q597 1407 609 1467T673 1570Z" />
<glyph unicode="&#x1e2;" glyph-name="uni01E2" horiz-adv-x="2118" d="M841 1872H1471L1435 1684H805L841 1872ZM575 545H1040L1201 1372H1126L575 545ZM744 0L767 121H957L1016 424H494L292 121H456L433 0H5L28 121H142L978 1372H777L800 1493H2351L2283 1141H2145L2186
1356H1584L1491 877H1858L1895 1067H2030L1930 551H1795L1832 741H1465L1348 137H1971L2012 352H2147L2079 0H744Z" />
<glyph unicode="&#x1e3;" glyph-name="uni01E3" horiz-adv-x="1997" d="M527 1562H1157L1121 1374H491L527 1562ZM1434 831Q1434 979 1310 979Q1215 979 1163 895T1063 581L1052 519Q1385 519 1427 762Q1434 799 1434 831ZM810 876Q807 936 750 936Q616 936 485
776Q424 702 390 527T356 289T366 198Q392 127 486 127T638 210T733 479L810 876ZM1106 1060Q1210 1092 1333 1092Q1524 1092 1656 1018T1789 808Q1789 781 1783 752Q1720 428 1029 400Q1022 366 1022 334Q1022 84 1228 84Q1343 84 1426 145T1551 322H1717Q1639
141 1495 56T1115 -29T757 82Q610 -29 361 -29Q168 -29 82 98Q25 183 25 310Q25 613 263 852T806 1092Q1023 1092 1106 1060Z" />
<glyph unicode="&#x1e4;" glyph-name="uni01E4" horiz-adv-x="1742" d="M1463 1024Q1457 1222 1369 1310T1090 1399Q858 1399 719 1242T514 745Q449 409 522 251T815 92Q899 92 974 111T1117 168L1145 311H776L799 431H1168L1196 578H1016L1040 698H1578L1526
431H1725L1702 311H1503L1466 125Q1283 47 1108 9T758 -29Q374 -29 195 178T86 745Q156 1106 416 1313T1060 1520Q1220 1520 1368 1488T1661 1391L1590 1024H1463Z" />
<glyph unicode="&#x1e5;" glyph-name="uni01E5" horiz-adv-x="1420" d="M959 876Q954 936 890 936Q708 936 594 776Q523 675 480 455Q444 270 474 199T614 127Q718 127 782 210Q845 292 881 475H674L698 596H905L959 876ZM1236 475L1146 14Q1098 -231 919 -332Q700
-455 445 -455Q339 -455 233 -439T18 -389L68 -135H181Q180 -144 180 -152Q180 -244 235 -291Q295 -342 424 -342Q588 -342 670 -264T792 14L815 135Q693 -29 468 -29Q245 -29 142 98T82 448Q135 720 388 916Q615 1092 948 1092Q1217 1092 1337 996L1259 596H1410L1386
475H1236Z" />
<glyph unicode="&#x1e6;" glyph-name="Gcaron" horiz-adv-x="1749" d="M1629 1635L1458 1899H1622L1803 1737L2048 1899H2212L1937 1635H1629ZM1676 1276Q1670 1474 1582 1562T1303 1651Q1071 1651 932 1494T727 997Q662 661 735 503T1028 344Q1112 344 1187 363T1330
420L1409 830H1229L1253 950H1791L1679 377Q1496 299 1321 261T971 223Q587 223 408 430T299 997Q369 1358 629 1565T1273 1772Q1433 1772 1581 1740T1874 1643L1803 1276H1676Z" />
<glyph unicode="&#x1e7;" glyph-name="gcaron" horiz-adv-x="1432" d="M394 1262L212 1638H376L544 1411L802 1638H966L636 1262H394ZM1161 876Q1156 936 1092 936Q910 936 796 776Q725 675 682 455Q646 270 676 199T816 127Q920 127 984 210T1084 479L1161 876ZM1539
996L1348 14Q1300 -232 1121 -332Q903 -455 647 -455Q541 -455 435 -439T220 -389L270 -135H383Q382 -144 382 -152Q382 -244 437 -291Q497 -342 626 -342Q790 -342 872 -264T994 14L1017 135Q895 -29 670 -29Q447 -29 344 98T284 448Q337 720 590 916Q817 1092
1150 1092Q1419 1092 1539 996Z" />
<glyph unicode="&#x1e8;" glyph-name="uni01E8" horiz-adv-x="1780" d="M237 0L260 121H451L695 1372H504L527 1493H1295L1272 1372H1080L974 827L1713 1372H1553L1576 1493H2133L2110 1372H1911L1285 911L1860 121H2007L1984 0H1478L954 725L836 121H1028L1005
0H237ZM1751 1635L1580 1899H1744L1925 1737L2170 1899H2334L2059 1635H1751Z" />
<glyph unicode="&#x1e9;" glyph-name="uni01E9" horiz-adv-x="1419" d="M598 0H244L523 1436H372L395 1556H900L706 557L1210 942H1083L1106 1063H1394L1371 942L1049 696L1385 121H1500L1477 0H1086L794 500L678 412L598 0ZM1045 1635L874 1899H1038L1219 1737L1464
1899H1628L1353 1635H1045Z" />
<glyph unicode="&#x1ea;" glyph-name="uni01EA" horiz-adv-x="1784" d="M764 92Q955 92 1079 253T1268 745Q1332 1077 1271 1238T1018 1399Q828 1399 703 1237T514 745Q450 417 512 255T764 92ZM740 -29Q363 -29 190 177T86 745T411 1313T1042 1520Q1419 1520
1592 1314T1696 745Q1626 383 1371 177T740 -29ZM411 -15H536Q474 -80 448 -117T415 -183Q407 -224 431 -246T508 -269Q547 -269 589 -261T672 -238L640 -394Q584 -405 535 -410T444 -416Q331 -416 278 -370T240 -240Q250 -188 292 -134T411 -15Z" />
<glyph unicode="&#x1eb;" glyph-name="uni01EB" horiz-adv-x="1366" d="M548 84Q660 84 724 180T838 532Q871 699 871 798Q871 850 861 884Q835 979 722 979T544 883T430 532Q398 368 398 270Q398 215 408 181Q435 84 548 84ZM115 120Q21 228 21 394Q21 458 35
532Q86 795 274 943T744 1092Q1026 1092 1156 944Q1250 837 1250 671Q1250 606 1235 532Q1184 270 996 121T526 -29T115 120ZM239 241H364Q302 176 276 139T243 73Q235 32 259 10T336 -13Q375 -13 417 -5T500 18L468 -138Q412 -149 363 -154T272 -160Q159 -160
106 -114T68 16Q78 68 120 122T239 241Z" />
<glyph unicode="&#x1ec;" glyph-name="uni01EC" horiz-adv-x="1756" d="M752 92Q943 92 1067 253T1256 745Q1320 1077 1259 1238T1006 1399Q816 1399 691 1237T502 745Q438 417 500 255T752 92ZM728 -29Q351 -29 178 177T74 745T399 1313T1030 1520Q1407 1520
1580 1314T1684 745Q1614 383 1359 177T728 -29ZM681 -16H806Q744 -81 718 -118T685 -184Q677 -225 701 -247T778 -270Q817 -270 859 -262T942 -239L910 -395Q854 -406 805 -411T714 -417Q601 -417 548 -371T510 -241Q520 -189 562 -135T681 -16ZM722 1872H1352L1316
1684H686L722 1872Z" />
<glyph unicode="&#x1ed;" glyph-name="uni01ED" horiz-adv-x="1234" d="M530 84Q642 84 706 180T820 532Q853 699 853 798Q853 850 843 884Q817 979 704 979T526 883T412 532Q380 368 380 270Q380 215 390 181Q417 84 530 84ZM97 120Q3 228 3 394Q3 458 17 532Q68
795 256 943T726 1092Q1008 1092 1138 944Q1232 837 1232 671Q1232 606 1217 532Q1166 270 978 121T508 -29T97 120ZM454 -16H579Q517 -81 491 -118T458 -184Q450 -225 474 -247T551 -270Q590 -270 632 -262T715 -239L683 -395Q627 -406 578 -411T487 -417Q374
-417 321 -371T283 -241Q293 -189 335 -135T454 -16ZM460 1562H1090L1054 1374H424L460 1562Z" />
<glyph unicode="&#x1ee;" glyph-name="uni01EE" horiz-adv-x="1345" d="M1339 1635L1168 1899H1332L1513 1737L1758 1899H1922L1647 1635H1339ZM827 839Q1043 818 1138 734Q1275 613 1234 403Q1193 194 1006 83T505 -29Q387 -29 266 -9T15 51L78 379H199Q183 237
246 163T448 88Q600 88 699 172T829 412Q860 574 791 662T562 750H496L540 974L879 1356H449L406 1133H269L339 1493H1318L1291 1356L827 839Z" />
<glyph unicode="&#x1ef;" glyph-name="uni01EF" horiz-adv-x="1313" d="M664 1262L482 1638H646L814 1411L1072 1638H1236L906 1262H664ZM816 452Q1033 431 1128 347Q1264 226 1223 16Q1183 -193 996 -304T494 -416Q376 -416 255 -396T4 -336L68 -8H189Q172 -150
235 -224T437 -299Q589 -299 688 -215T818 25Q849 187 780 275T552 363H486L529 588L864 946H405L370 764H251L309 1063H1299L1276 944L816 452Z" />
<glyph unicode="&#x1f0;" glyph-name="uni01F0" horiz-adv-x="741" d="M357 1262L175 1638H339L507 1411L765 1638H929L599 1262H357ZM635 942H484L508 1063H1013L782 -125Q750 -288 618 -371T261 -455Q201 -455 135 -445T0 -416L44 -190L157 -191Q143 -271 165
-306T254 -342Q327 -342 365 -295T428 -125L635 942Z" />
<glyph unicode="&#x1f1;" glyph-name="uni01F1" horiz-adv-x="3271" d="M1795 0L1822 141L2949 1356H2234L2191 1133H2054L2124 1493H3420L3393 1352L2276 137H3030L3070 346H3207L3140 0H1795ZM613 121H752Q986 121 1124 271T1325 748Q1388 1073 1310 1222T996
1372H857L613 121ZM14 0L37 121H228L472 1372H281L304 1493H1070Q1472 1493 1647 1301T1753 748Q1683 385 1432 193T780 0H14Z" />
<glyph unicode="&#x1f2;" glyph-name="uni01F2" horiz-adv-x="2939" d="M2991 944L2291 195Q2324 183 2353 166Q2480 98 2559 98Q2679 98 2859 243L2828 85Q2651 -83 2491 -83Q2408 -79 2280 -15Q2137 58 2081 58T1967 35T1885 -2L1786 0L1809 121L2507 869Q2475
880 2447 897Q2320 965 2241 965Q2121 965 1941 820L1972 978Q2149 1146 2309 1146Q2392 1142 2520 1078Q2663 1005 2719 1005T2833 1028T2915 1065L3014 1063L2991 944ZM613 121H752Q986 121 1124 271T1325 748Q1388 1073 1310 1222T996 1372H857L613 121ZM14
0L37 121H228L472 1372H281L304 1493H1070Q1472 1493 1647 1301T1753 748Q1683 385 1432 193T780 0H14Z" />
<glyph unicode="&#x1f3;" glyph-name="uni01F3" horiz-adv-x="2595" d="M2647 944L1947 195Q1980 183 2009 166Q2136 98 2215 98Q2335 98 2515 243L2484 85Q2307 -83 2147 -83Q2064 -79 1936 -15Q1793 58 1737 58T1623 35T1541 -2L1442 0L1465 121L2163 869Q2131
880 2103 897Q1976 965 1897 965Q1777 965 1597 820L1628 978Q1805 1146 1965 1146Q2048 1142 2176 1078Q2319 1005 2375 1005T2489 1028T2571 1065L2670 1063L2647 944ZM805 479L825 584Q844 683 844 753Q844 814 829 853Q798 936 693 936Q583 936 522 849T415
532Q388 391 388 304Q388 249 398 215Q426 127 535 127Q640 127 704 210T805 479ZM1368 1556L1066 0H712L738 135Q677 52 593 12T396 -29Q170 -29 70 121Q3 221 3 369Q3 444 20 532Q71 794 229 943T614 1092Q726 1092 794 1052T892 928L991 1436H839L862 1556H1368Z"
/>
<glyph unicode="&#x1f4;" glyph-name="uni01F4" horiz-adv-x="1749" d="M1684 1900H1963L1614 1636H1450L1684 1900ZM1681 1026Q1675 1224 1587 1312T1308 1401Q1076 1401 937 1244T732 747Q667 411 740 253T1033 94Q1117 94 1192 113T1335 170L1414 580H1234L1258
700H1796L1684 127Q1501 49 1326 11T976 -27Q592 -27 413 180T304 747Q374 1108 634 1315T1278 1522Q1438 1522 1586 1490T1879 1393L1808 1026H1681Z" />
<glyph unicode="&#x1f5;" glyph-name="uni01F5" horiz-adv-x="1432" d="M517 1591H796L349 1215H185L517 1591ZM1161 876Q1156 936 1092 936Q910 936 796 776Q725 675 682 455Q646 270 676 199T816 127Q920 127 984 210T1084 479L1161 876ZM1539 996L1348 14Q1300
-232 1121 -332Q903 -455 647 -455Q541 -455 435 -439T220 -389L270 -135H383Q382 -144 382 -152Q382 -244 437 -291Q497 -342 626 -342Q790 -342 872 -264T994 14L1017 135Q895 -29 670 -29Q447 -29 344 98T284 448Q337 720 590 916Q817 1092 1150 1092Q1419 1092
1539 996Z" />
<glyph unicode="&#x1f6;" glyph-name="uni01F6" horiz-adv-x="2576" d="M1693 625Q1629 296 1667 234Q1736 123 1888 123Q2064 123 2172 235T2334 625L2396 943H2206L2229 1063H2558L2469 604Q2402 259 2226 116Q2046 -29 1731 -29Q1422 -29 1320 118Q1234 241
1304 604L1329 733H735L616 121H808L785 0H17L40 121H231L474 1372H283L307 1493H1075L1051 1372H859L762 870H1356L1453 1372H1262L1286 1493H2054L2030 1372H1838L1693 625Z" />
<glyph unicode="&#x1f7;" glyph-name="uni01F7" horiz-adv-x="1839" d="M719 267Q1311 635 1402 1104Q1426 1228 1375 1281T1184 1334Q1066 1334 888 1140L719 267ZM921 1308Q1126 1520 1480 1520Q1704 1520 1771 1386T1809 1104Q1719 642 689 113L607 -305H848L825
-426H8L31 -305H222L548 1372H357L381 1493H957L921 1308Z" />
<glyph unicode="&#x1f8;" glyph-name="uni01F8" horiz-adv-x="1872" d="M238 0L261 121H452L696 1372H505L528 1493H995L1691 436L1873 1372H1683L1706 1493H2228L2205 1372H2014L1747 0H1485L780 1079L593 121H783L760 0H238ZM1783 1899L1913 1635H1749L1504 1899H1783Z" />
<glyph unicode="&#x1f9;" glyph-name="uni01F9" horiz-adv-x="1410" d="M2 0L25 121H176L336 942H185L208 1063H713L684 913Q767 1008 857 1050T1072 1092Q1251 1092 1322 987T1353 676L1245 121H1397L1374 0H739L762 121H891L1001 686Q1027 821 1003 873T894
926Q787 926 722 848T623 598L530 121H660L637 0H2ZM822 1638L1007 1262H843L543 1638H822Z" />
<glyph unicode="&#x1fa;" glyph-name="Aringacute" horiz-adv-x="1669" d="M547 547H1010L893 1118L547 547ZM1057 1299Q1112 1299 1158 1337T1214 1430T1194 1522T1108 1561Q1055 1561 1009 1523T952 1430T972 1338T1057 1299ZM1260 1900H1539L1257 1687Q1295
1666 1323 1631Q1390 1547 1367 1430Q1353 1356 1311 1297Q1292 1270 1267 1247L1510 121H1652L1628 0H929L953 121H1099L1035 426H474L290 121H468L444 0H0L24 121H146L827 1247Q812 1269 804 1296Q784 1356 798 1430Q821 1547 921 1631Q1002 1699 1093 1712L1260
1900Z" />
<glyph unicode="&#x1fb;" glyph-name="aringacute" horiz-adv-x="1211" d="M815 876Q812 936 755 936Q621 936 490 776Q429 702 381 455Q345 270 371 199T492 127Q585 127 643 210T738 479L815 876ZM1155 1031L980 121L1113 123L1089 0H645L671 135Q561 -29 366
-29Q173 -29 87 98T45 448Q88 671 280 864Q507 1092 811 1092Q1111 1092 1155 1031ZM916 1900H1195L914 1687Q951 1667 980 1632Q1047 1548 1024 1430T902 1229T684 1145T499 1228T454 1430T577 1632Q657 1699 750 1712L916 1900ZM608 1430Q597 1375 628 1337T714
1299Q769 1299 814 1337T870 1430T849 1522T764 1561Q709 1561 664 1523T608 1430Z" />
<glyph unicode="&#x1fc;" glyph-name="AEacute" horiz-adv-x="2118" d="M1992 1900H2271L1922 1636H1758L1992 1900ZM575 545H1040L1201 1372H1126L575 545ZM744 0L767 121H957L1016 424H494L292 121H456L433 0H5L28 121H142L978 1372H777L800 1493H2351L2283
1141H2145L2186 1356H1584L1491 877H1858L1895 1067H2030L1930 551H1795L1832 741H1465L1348 137H1971L2012 352H2147L2079 0H744Z" />
<glyph unicode="&#x1fd;" glyph-name="aeacute" horiz-adv-x="1781" d="M1207 1638H1486L1039 1262H875L1207 1638ZM1412 831Q1412 979 1288 979Q1193 979 1141 895T1041 581L1030 519Q1363 519 1405 762Q1412 799 1412 831ZM788 876Q785 936 728 936Q594 936
463 776Q402 702 368 527T334 289T344 198Q370 127 464 127T616 210T711 479L788 876ZM1084 1060Q1188 1092 1311 1092Q1502 1092 1634 1018T1767 808Q1767 781 1761 752Q1698 428 1007 400Q1000 366 1000 334Q1000 84 1206 84Q1321 84 1404 145T1529 322H1695Q1617
141 1473 56T1093 -29T735 82Q588 -29 339 -29Q146 -29 60 98Q3 183 3 310Q3 613 241 852T784 1092Q1001 1092 1084 1060Z" />
<glyph unicode="&#x1fe;" glyph-name="Oslashacute" horiz-adv-x="1784" d="M1684 1900H1963L1614 1636H1450L1684 1900ZM571 479L1380 1157Q1361 1276 1292 1337T1106 1399Q916 1399 791 1237T602 745Q587 669 579 603T571 479ZM579 334Q600 212 668 152T852
92Q1047 92 1171 259T1365 784Q1378 849 1382 899T1381 993L579 334ZM1708 1280Q1778 1176 1797 1043T1784 745Q1714 383 1459 177T828 -29Q670 -29 546 10T330 127L86 -78L13 12L252 213Q181 315 162 448T174 745Q244 1107 499 1313T1130 1520Q1290 1520 1415
1482T1630 1366L1872 1569L1945 1479L1708 1280Z" />
<glyph unicode="&#x1ff;" glyph-name="oslashacute" horiz-adv-x="1484" d="M1026 1638H1305L858 1262H694L1026 1638ZM515 416L977 801Q977 891 941 935T827 979Q717 979 652 884T542 553L515 416ZM504 262Q502 173 539 129T653 84Q762 84 826 178T937 508L964
649L504 262ZM1282 913Q1334 841 1348 746T1340 532Q1290 270 1101 121T631 -29Q520 -29 432 -5T274 70L68 -102L1 -16L197 147Q146 222 132 318T140 532Q192 795 380 943T849 1092Q965 1092 1055 1067T1207 993L1408 1161L1477 1075L1282 913Z" />
<glyph unicode="&#x200;" glyph-name="uni0200" horiz-adv-x="1589" d="M1843 1900L1973 1636H1809L1564 1900H1843ZM2175 1900L2305 1636H2141L1896 1900H2175ZM0 0L23 121H145L974 1493H1213L1509 121H1651L1628 0H929L952 121H1098L1035 426H474L289 121H467L444
0H0ZM546 547H1009L890 1118L546 547Z" />
<glyph unicode="&#x201;" glyph-name="uni0201" horiz-adv-x="1327" d="M1429 1638L1581 1262H1417L1193 1638H1429ZM1795 1638L1911 1262H1749L1578 1638H1795ZM827 876Q824 936 767 936Q633 936 502 776Q441 702 393 455Q357 270 383 199T504 127Q597 127 655
210T750 479L827 876ZM1167 1031L992 121L1125 123L1101 0H657L683 135Q573 -29 378 -29Q185 -29 99 98T57 448Q100 671 292 864Q519 1092 823 1092Q1123 1092 1167 1031Z" />
<glyph unicode="&#x202;" glyph-name="uni0202" horiz-adv-x="1589" d="M2083 1651H1958Q1966 1724 1918 1763Q1869 1802 1770 1802T1608 1763Q1544 1724 1524 1651H1399Q1427 1797 1534 1880Q1640 1962 1801 1962Q1964 1962 2037 1881T2083 1651ZM0 0L23 121H145L974
1493H1213L1509 121H1651L1628 0H929L952 121H1098L1035 426H474L289 121H467L444 0H0ZM546 547H1009L890 1118L546 547Z" />
<glyph unicode="&#x203;" glyph-name="uni0203" horiz-adv-x="1327" d="M1860 1278H1735Q1743 1351 1695 1390Q1646 1429 1547 1429T1385 1390Q1321 1351 1301 1278H1176Q1204 1424 1311 1507Q1417 1589 1578 1589Q1741 1589 1814 1508T1860 1278ZM827 876Q824
936 767 936Q633 936 502 776Q441 702 393 455Q357 270 383 199T504 127Q597 127 655 210T750 479L827 876ZM1167 1031L992 121L1125 123L1101 0H657L683 135Q573 -29 378 -29Q185 -29 99 98T57 448Q100 671 292 864Q519 1092 823 1092Q1123 1092 1167 1031Z" />
<glyph unicode="&#x204;" glyph-name="uni0204" horiz-adv-x="1561" d="M1885 1900L2015 1636H1851L1606 1900H1885ZM2217 1900L2347 1636H2183L1938 1900H2217ZM12 0L35 121H226L470 1372H279L302 1493H1644L1576 1141H1438L1479 1356H851L758 877H1149L1186
1067H1323L1223 551H1086L1123 741H732L615 137H1262L1303 352H1440L1372 0H12Z" />
<glyph unicode="&#x205;" glyph-name="uni0205" horiz-adv-x="1303" d="M1480 1638L1632 1262H1468L1244 1638H1480ZM1846 1638L1962 1262H1800L1629 1638H1846ZM813 832Q813 979 689 979Q594 979 538 890T431 519Q431 519 453 519Q759 519 806 762Q813 800 813
832ZM407 400Q401 366 401 295Q402 84 607 84Q722 84 805 145T930 322H1096Q1018 141 874 56T499 -29Q223 -29 104 116Q21 218 21 379Q21 448 37 529Q88 796 268 944T712 1092Q903 1092 1035 1018T1168 808Q1168 781 1162 752Q1099 428 407 400Z" />
<glyph unicode="&#x206;" glyph-name="uni0206" horiz-adv-x="1561" d="M2126 1651H2001Q2009 1724 1961 1763Q1912 1802 1813 1802T1651 1763Q1587 1724 1567 1651H1442Q1470 1797 1577 1880Q1683 1962 1844 1962Q2007 1962 2080 1881T2126 1651ZM12 0L35 121H226L470
1372H279L302 1493H1644L1576 1141H1438L1479 1356H851L758 877H1149L1186 1067H1323L1223 551H1086L1123 741H732L615 137H1262L1303 352H1440L1372 0H12Z" />
<glyph unicode="&#x207;" glyph-name="uni0207" horiz-adv-x="1303" d="M1911 1278H1786Q1794 1351 1746 1390Q1697 1429 1598 1429T1436 1390Q1372 1351 1352 1278H1227Q1255 1424 1362 1507Q1468 1589 1629 1589Q1792 1589 1865 1508T1911 1278ZM813 832Q813
979 689 979Q594 979 538 890T431 519Q431 519 453 519Q759 519 806 762Q813 800 813 832ZM407 400Q401 366 401 295Q402 84 607 84Q722 84 805 145T930 322H1096Q1018 141 874 56T499 -29Q223 -29 104 116Q21 218 21 379Q21 448 37 529Q88 796 268 944T712 1092Q903
1092 1035 1018T1168 808Q1168 781 1162 752Q1099 428 407 400Z" />
<glyph unicode="&#x208;" glyph-name="uni0208" horiz-adv-x="958" d="M1543 1900L1673 1636H1509L1264 1900H1543ZM1875 1900L2005 1636H1841L1596 1900H1875ZM4 0L27 121H218L462 1372H271L294 1493H1062L1039 1372H847L603 121H795L772 0H4Z" />
<glyph unicode="&#x209;" glyph-name="uni0209" horiz-adv-x="778" d="M1141 1641L1293 1265H1129L905 1641H1141ZM1507 1641L1623 1265H1461L1290 1641H1507ZM608 121H760L737 0H231L414 942H263L286 1063H791L608 121Z" />
<glyph unicode="&#x20a;" glyph-name="uni020A" horiz-adv-x="958" d="M1790 1651H1665Q1673 1724 1625 1763Q1576 1802 1477 1802T1315 1763Q1251 1724 1231 1651H1106Q1134 1797 1241 1880Q1347 1962 1508 1962Q1671 1962 1744 1881T1790 1651ZM4 0L27 121H218L462
1372H271L294 1493H1062L1039 1372H847L603 121H795L772 0H4Z" />
<glyph unicode="&#x20b;" glyph-name="uni020B" horiz-adv-x="778" d="M608 121H760L737 0H231L414 942H263L286 1063H791L608 121ZM1561 1260H1436Q1444 1333 1396 1372Q1347 1411 1248 1411T1086 1372Q1022 1333 1002 1260H877Q905 1406 1012 1489Q1118 1571
1279 1571Q1442 1571 1515 1490T1561 1260Z" />
<glyph unicode="&#x20c;" glyph-name="uni020C" horiz-adv-x="1784" d="M1957 1900L2087 1636H1923L1678 1900H1957ZM2289 1900L2419 1636H2255L2010 1900H2289ZM764 92Q955 92 1079 253T1268 745Q1332 1077 1271 1238T1018 1399Q828 1399 703 1237T514 745Q450
417 512 255T764 92ZM740 -29Q363 -29 190 177T86 745T411 1313T1042 1520Q1419 1520 1592 1314T1696 745Q1626 383 1371 177T740 -29Z" />
<glyph unicode="&#x20d;" glyph-name="uni020D" horiz-adv-x="1366" d="M1513 1638L1665 1262H1501L1277 1638H1513ZM1879 1638L1995 1262H1833L1662 1638H1879ZM548 84Q660 84 724 180T838 532Q871 699 871 798Q871 850 861 884Q835 979 722 979T544 883T430
532Q398 368 398 270Q398 215 408 181Q435 84 548 84ZM115 120Q21 228 21 394Q21 458 35 532Q86 795 274 943T744 1092Q1026 1092 1156 944Q1250 837 1250 671Q1250 606 1235 532Q1184 270 996 121T526 -29T115 120Z" />
<glyph unicode="&#x20e;" glyph-name="uni020E" horiz-adv-x="1784" d="M2204 1651H2079Q2087 1724 2039 1763Q1990 1802 1891 1802T1729 1763Q1665 1724 1645 1651H1520Q1548 1797 1655 1880Q1761 1962 1922 1962Q2085 1962 2158 1881T2204 1651ZM764 92Q955
92 1079 253T1268 745Q1332 1077 1271 1238T1018 1399Q828 1399 703 1237T514 745Q450 417 512 255T764 92ZM740 -29Q363 -29 190 177T86 745T411 1313T1042 1520Q1419 1520 1592 1314T1696 745Q1626 383 1371 177T740 -29Z" />
<glyph unicode="&#x20f;" glyph-name="uni020F" horiz-adv-x="1366" d="M1944 1278H1819Q1827 1351 1779 1390Q1730 1429 1631 1429T1469 1390Q1405 1351 1385 1278H1260Q1288 1424 1395 1507Q1501 1589 1662 1589Q1825 1589 1898 1508T1944 1278ZM548 84Q660
84 724 180T838 532Q871 699 871 798Q871 850 861 884Q835 979 722 979T544 883T430 532Q398 368 398 270Q398 215 408 181Q435 84 548 84ZM115 120Q21 228 21 394Q21 458 35 532Q86 795 274 943T744 1092Q1026 1092 1156 944Q1250 837 1250 671Q1250 606 1235
532Q1184 270 996 121T526 -29T115 120Z" />
<glyph unicode="&#x210;" glyph-name="uni0210" horiz-adv-x="1702" d="M1933 1900L2063 1636H1899L1654 1900H1933ZM2265 1900L2395 1636H2231L1986 1900H2265ZM1145 729Q1231 716 1283 670T1363 537L1500 121H1653L1630 0H1139L989 451Q947 591 906 629T779
668H718L611 121H803L780 0H12L35 121H226L470 1372H279L302 1493H1154Q1414 1493 1535 1389T1619 1092Q1589 936 1471 846T1145 729ZM741 788H872Q1012 788 1102 864T1220 1081T1187 1297T986 1372H855L741 788Z" />
<glyph unicode="&#x211;" glyph-name="uni0211" horiz-adv-x="1079" d="M1493 1638L1645 1262H1481L1257 1638H1493ZM1859 1638L1975 1262H1813L1642 1638H1859ZM1113 1075L1051 758H938Q941 779 941 797Q941 853 917 884Q885 926 809 926Q693 926 606 824T484
541L379 0H25L208 942H46L69 1063H585L549 874Q622 985 718 1038T938 1092Q969 1092 1012 1088T1113 1075Z" />
<glyph unicode="&#x212;" glyph-name="uni0212" horiz-adv-x="1702" d="M2176 1651H2051Q2059 1724 2011 1763Q1962 1802 1863 1802T1701 1763Q1637 1724 1617 1651H1492Q1520 1797 1627 1880Q1733 1962 1894 1962Q2057 1962 2130 1881T2176 1651ZM1145 729Q1231
716 1283 670T1363 537L1500 121H1653L1630 0H1139L989 451Q947 591 906 629T779 668H718L611 121H803L780 0H12L35 121H226L470 1372H279L302 1493H1154Q1414 1493 1535 1389T1619 1092Q1589 936 1471 846T1145 729ZM741 788H872Q1012 788 1102 864T1220 1081T1187
1297T986 1372H855L741 788Z" />
<glyph unicode="&#x213;" glyph-name="uni0213" horiz-adv-x="1079" d="M1924 1278H1799Q1807 1351 1759 1390Q1710 1429 1611 1429T1449 1390Q1385 1351 1365 1278H1240Q1268 1424 1375 1507Q1481 1589 1642 1589Q1805 1589 1878 1508T1924 1278ZM1113 1075L1051
758H938Q941 779 941 797Q941 853 917 884Q885 926 809 926Q693 926 606 824T484 541L379 0H25L208 942H46L69 1063H585L549 874Q622 985 718 1038T938 1092Q969 1092 1012 1088T1113 1075Z" />
<glyph unicode="&#x214;" glyph-name="uni0214" horiz-adv-x="1786" d="M2011 1900L2141 1636H1977L1732 1900H2011ZM2343 1900L2473 1636H2309L2064 1900H2343ZM243 1372H53L77 1493H845L821 1372H630L485 625Q431 346 496 235T773 123Q979 123 1087 235T1249
625L1394 1372H1204L1228 1493H1748L1724 1372H1533L1384 604Q1318 262 1142 117T616 -29Q269 -29 149 118T95 606L243 1372Z" />
<glyph unicode="&#x215;" glyph-name="uni0215" horiz-adv-x="1489" d="M1536 1638L1688 1262H1524L1300 1638H1536ZM1902 1638L2018 1262H1856L1685 1638H1902ZM1275 1063L1092 121H1243L1220 0H714L743 150Q661 55 571 13T356 -29Q177 -29 106 76Q60 144 60
252Q60 313 75 387L183 942H31L54 1063H560L439 442Q415 317 415 250Q415 210 424 190Q446 137 534 137Q641 137 706 216T804 467L920 1063H1275Z" />
<glyph unicode="&#x216;" glyph-name="uni0216" horiz-adv-x="1786" d="M2255 1651H2130Q2138 1724 2090 1763Q2041 1802 1942 1802T1780 1763Q1716 1724 1696 1651H1571Q1599 1797 1706 1880Q1812 1962 1973 1962Q2136 1962 2209 1881T2255 1651ZM243 1372H53L77
1493H845L821 1372H630L485 625Q431 346 496 235T773 123Q979 123 1087 235T1249 625L1394 1372H1204L1228 1493H1748L1724 1372H1533L1384 604Q1318 262 1142 117T616 -29Q269 -29 149 118T95 606L243 1372Z" />
<glyph unicode="&#x217;" glyph-name="uni0217" horiz-adv-x="1489" d="M1967 1278H1842Q1850 1351 1802 1390Q1753 1429 1654 1429T1492 1390Q1428 1351 1408 1278H1283Q1311 1424 1418 1507Q1524 1589 1685 1589Q1848 1589 1921 1508T1967 1278ZM1275 1063L1092
121H1243L1220 0H714L743 150Q661 55 571 13T356 -29Q177 -29 106 76Q60 144 60 252Q60 313 75 387L183 942H31L54 1063H560L439 442Q415 317 415 250Q415 210 424 190Q446 137 534 137Q641 137 706 216T804 467L920 1063H1275Z" />
<glyph unicode="&#x218;" glyph-name="Scommaaccent" horiz-adv-x="1479" d="M1217 -400Q1303 -358 1350 -306T1411 -185L1419 -142H1633L1632 -146Q1611 -257 1525 -336Q1441 -416 1286 -471L1217 -400ZM14 72L83 426H210Q206 258 298 175T581 92Q736 92 828
151T943 324Q961 414 916 464T706 557L493 612Q285 668 216 767T181 1051Q225 1273 396 1396T834 1520Q965 1520 1102 1498T1382 1432L1318 1102H1191Q1192 1256 1108 1327T843 1399Q695 1399 610 1348T504 1194Q486 1101 528 1053T764 952L977 897Q1175 845 1247
735T1282 432Q1238 206 1059 89T577 -29Q431 -29 292 -4T14 72Z" />
<glyph unicode="&#x219;" glyph-name="scommaaccent" horiz-adv-x="1153" d="M1025 -400Q1111 -358 1158 -306T1219 -185L1227 -142H1441L1440 -146Q1419 -257 1333 -336Q1249 -416 1094 -471L1025 -400ZM73 328H186Q185 313 185 299Q185 201 244 143T422 84Q655
84 683 229Q687 248 687 276Q687 303 662 333T536 389L397 426Q240 467 190 532T140 677Q140 711 147 750Q181 923 317 1007T672 1092T1128 1028L1075 760H962Q965 779 965 796Q965 979 739 979Q512 979 486 844Q483 828 483 805Q483 740 606 707L744 670Q943 617
998 551T1053 398Q1053 363 1045 322Q1010 142 865 57T449 -29Q252 -29 16 31L73 328Z" />
<glyph unicode="&#x21a;" glyph-name="uni021A" horiz-adv-x="1524" d="M1234 -400Q1320 -358 1367 -306T1428 -185L1436 -142H1650L1649 -146Q1628 -257 1542 -336Q1458 -416 1303 -471L1234 -400ZM152 0L175 121H373L613 1356H204L159 1120H22L94 1493H1574L1502
1120H1367L1412 1356H1000L760 121H959L936 0H152Z" />
<glyph unicode="&#x21b;" glyph-name="uni021B" horiz-adv-x="946" d="M1025 -400Q1111 -358 1158 -306T1219 -185L1227 -142H1441L1440 -146Q1419 -257 1333 -336Q1249 -416 1094 -471L1025 -400ZM171 942H17L40 1063H194L258 1393H612L548 1063H843L820 942H525L398
291Q381 202 381 157Q381 130 386 118Q402 84 460 84Q524 84 563 127T622 260H771Q731 100 640 36T357 -29Q138 -29 73 40Q31 84 31 176Q31 226 44 291L171 942Z" />
<glyph unicode="&#x21c;" glyph-name="uni021C" horiz-adv-x="1437" d="M416 1024H289L360 1391Q533 1456 651 1487T925 1520Q1170 1523 1301 1411T1400 1133T1271 857T1028 674Q1171 655 1234 541T1276 311Q1241 132 967 -46Q784 -165 503 -277T6 -430L32 -301Q155
-274 417 -145Q804 46 849 278Q871 389 821 456Q734 573 567 495L338 388L364 519L604 657Q773 754 850 850Q941 961 970 1110T944 1330Q872 1417 791 1399Q543 1344 416 1024Z" />
<glyph unicode="&#x21d;" glyph-name="uni021D" horiz-adv-x="1252" d="M681 973Q567 973 476 908T343 707H231L288 1002Q542 1087 776 1087T1129 987T1225 773Q1185 569 906 441Q1036 426 1094 334T1135 147Q1090 -82 406 -326Q201 -399 9 -433L31 -320Q186 -286
359 -208Q711 -51 741 104Q759 199 714 254T597 310Q536 310 491 295L294 230L316 343L520 430Q637 480 734 585Q814 671 831 758Q851 864 803 916Q753 973 681 973Z" />
<glyph unicode="&#x21e;" glyph-name="uni021E" horiz-adv-x="1935" d="M1703 1635L1532 1899H1696L1877 1737L2122 1899H2286L2011 1635H1703ZM16 0L39 121H230L474 1372H283L306 1493H1074L1051 1372H859L761 870H1355L1453 1372H1262L1285 1493H2053L2030 1372H1838L1594
121H1786L1763 0H995L1018 121H1209L1328 733H734L615 121H807L784 0H16Z" />
<glyph unicode="&#x21f;" glyph-name="uni021F" horiz-adv-x="1489" d="M1079 1635L908 1899H1072L1253 1737L1498 1899H1662L1387 1635H1079ZM22 0L301 1436H143L166 1556H678L553 913Q636 1008 726 1050T941 1092Q1120 1092 1191 986Q1236 919 1236 811Q1236
750 1222 676L1114 121H1266L1243 0H737L870 686Q884 756 884 804Q884 848 872 874Q848 926 763 926Q656 926 591 848T492 598L376 0H22Z" />
<glyph unicode="&#x220;" glyph-name="uni0220" horiz-adv-x="1717" d="M1 0L25 121H215L458 1372H307L330 1493H868L838 1339Q938 1436 1048 1478T1314 1521Q1544 1521 1633 1380Q1688 1293 1688 1180Q1688 1068 1668 965L1421 -305H1613L1590 -426H823L847 -305H1037L1276
927Q1306 1080 1306 1158T1294 1273Q1263 1370 1141 1370Q990 1370 893 1246T741 841L602 121H793L769 0H1Z" />
<glyph unicode="&#x221;" glyph-name="uni0221" horiz-adv-x="1536" d="M679 42Q672 33 626 12Q542 -29 430 -29Q204 -29 104 121T54 532Q105 794 263 943T648 1092Q760 1092 828 1052T926 928L1024 1436H872L896 1556H1402L1176 393L1265 395Q1311 395 1373 384Q1519
358 1488 195Q1444 -27 1096 -30Q956 -31 870 52Q852 71 854 75Q824 52 801 24Q765 -20 737 -99H627Q642 -21 679 42ZM1158 303L1157 299Q1133 175 1153 129Q1166 102 1205 99Q1336 92 1353 180Q1377 307 1193 305Q1176 305 1158 303ZM838 479L859 584Q895 770
863 853T726 936Q616 936 555 849T449 532T432 215T569 127Q674 127 738 210T838 479Z" />
<glyph unicode="&#x222;" glyph-name="uni0222" horiz-adv-x="1428" d="M580 1116Q570 1063 853 941Q1091 1045 1110 1144Q1162 1413 953 1413L974 1520Q1409 1520 1334 1137Q1303 980 1046 842Q1383 637 1331 368Q1254 -29 576 -29Q3 -29 81 368Q124 590 444
765Q267 895 300 1063Q356 1352 749 1352L728 1244Q605 1244 580 1116ZM600 92Q919 92 971 361Q998 501 625 664Q351 539 318 368Q264 92 600 92Z" />
<glyph unicode="&#x223;" glyph-name="uni0223" horiz-adv-x="1268" d="M1029 1232Q1051 1346 941 1497L1064 1556Q1250 1398 1210 1188Q1183 1049 927 894Q1204 704 1141 378Q1062 -29 519 -29Q6 -29 85 378Q128 599 443 783Q256 925 303 1169Q344 1378 586 1556L665
1510Q531 1415 502 1268Q478 1144 789 981Q1000 1083 1029 1232ZM540 80Q789 80 847 378Q880 547 577 695Q321 577 282 378Q224 80 540 80Z" />
<glyph unicode="&#x224;" glyph-name="uni0224" horiz-adv-x="1634" d="M1 0L29 141L1156 1356H441L397 1133H260L330 1493H1626L1599 1352L482 137H1088H1373L1368 111Q1325 -110 1202 -269T865 -538L782 -397Q911 -307 972 -209Q1034 -109 1060 0H1Z" />
<glyph unicode="&#x225;" glyph-name="uni0225" horiz-adv-x="1236" d="M2 0L25 121L796 946H337L301 764H182L241 1063H1231L1207 944L436 119H762H1047L1046 111Q1003 -110 880 -269T542 -538L460 -397Q580 -313 649 -209Q710 -118 738 0H2Z" />
<glyph unicode="&#x226;" glyph-name="uni0226" horiz-adv-x="1589" d="M1441 1879Q1492 1923 1552 1923T1648 1879Q1683 1836 1671 1776T1607 1673Q1556 1630 1496 1630T1400 1673Q1365 1716 1377 1776T1441 1879ZM0 0L23 121H145L974 1493H1213L1509 121H1651L1628
0H929L952 121H1098L1035 426H474L289 121H467L444 0H0ZM546 547H1009L890 1118L546 547Z" />
<glyph unicode="&#x227;" glyph-name="uni0227" horiz-adv-x="1170" d="M585 1468Q597 1528 649 1571Q700 1614 760 1614T856 1571Q891 1528 879 1468Q868 1409 816 1365T704 1321T609 1365T585 1468ZM816 876Q813 936 756 936Q622 936 491 776Q430 702 382 455Q346
270 372 199T493 127Q586 127 644 210T739 479L816 876ZM1156 1031L981 121L1114 123L1090 0H646L672 135Q562 -29 367 -29Q174 -29 88 98T46 448Q89 671 281 864Q508 1092 812 1092Q1112 1092 1156 1031Z" />
<glyph unicode="&#x228;" glyph-name="uni0228" horiz-adv-x="1649" d="M1221 0Q1271 -64 1289 -118T1298 -225Q1282 -311 1209 -356T1014 -401Q966 -401 917 -395T817 -375L846 -219Q888 -236 929 -245T1006 -254Q1066 -254 1102 -231T1146 -162Q1152 -134 1142
-101T1094 0H1221ZM1 0L24 121H215L459 1372H268L291 1493H1633L1565 1141H1427L1468 1356H840L747 877H1138L1175 1067H1312L1212 551H1075L1112 741H721L604 137H1251L1292 352H1429L1361 0H1Z" />
<glyph unicode="&#x229;" glyph-name="uni0229" horiz-adv-x="1170" d="M853 0Q903 -64 921 -118T930 -225Q914 -311 841 -356T646 -401Q598 -401 549 -395T449 -375L478 -219Q520 -236 561 -245T638 -254Q698 -254 734 -231T778 -162Q784 -134 774 -101T726 0H853ZM800
832Q800 979 676 979Q581 979 525 890T418 519Q418 519 440 519Q746 519 793 762Q800 800 800 832ZM394 400Q388 366 388 295Q389 84 594 84Q709 84 792 145T917 322H1083Q1005 141 861 56T486 -29Q210 -29 91 116Q8 218 8 379Q8 448 24 529Q75 796 255 944T699
1092Q890 1092 1022 1018T1155 808Q1155 781 1149 752Q1086 428 394 400Z" />
<glyph unicode="&#x22a;" glyph-name="uni022A" horiz-adv-x="1766" d="M752 92Q943 92 1067 253T1256 745Q1320 1077 1259 1238T1006 1399Q816 1399 691 1237T502 745Q438 417 500 255T752 92ZM728 -29Q351 -29 178 177T74 745T399 1313T1030 1520Q1407 1520
1580 1314T1684 745Q1614 383 1359 177T728 -29ZM769 1850Q821 1894 881 1894Q940 1894 975 1850Q1010 1807 998 1747T935 1644Q885 1601 825 1601T729 1644T705 1747T769 1850ZM1216 1850Q1267 1894 1327 1894T1423 1850Q1459 1807 1447 1747T1383 1644T1271 1601T1175
1644Q1140 1687 1152 1747T1216 1850ZM833 2122H1463L1427 1934H797L833 2122Z" />
<glyph unicode="&#x22b;" glyph-name="uni022B" horiz-adv-x="1253" d="M531 84Q643 84 707 180T821 532Q854 699 854 798Q854 850 844 884Q818 979 705 979T527 883T413 532Q381 368 381 270Q381 215 391 181Q418 84 531 84ZM98 120Q4 228 4 394Q4 458 18 532Q69
795 257 943T727 1092Q1009 1092 1139 944Q1233 837 1233 671Q1233 606 1218 532Q1167 270 979 121T509 -29T98 120ZM493 1570Q545 1614 605 1614Q664 1614 699 1570Q734 1527 722 1467T659 1364Q609 1321 549 1321T453 1364T429 1467T493 1570ZM940 1570Q991 1614
1051 1614T1147 1570Q1183 1527 1171 1467T1107 1364T995 1321T899 1364Q864 1407 876 1467T940 1570ZM557 1842H1187L1151 1654H521L557 1842Z" />
<glyph unicode="&#x22c;" glyph-name="uni022C" horiz-adv-x="1766" d="M752 92Q943 92 1067 253T1256 745Q1320 1077 1259 1238T1006 1399Q816 1399 691 1237T502 745Q438 417 500 255T752 92ZM728 -29Q351 -29 178 177T74 745T399 1313T1030 1520Q1407 1520
1580 1314T1684 745Q1614 383 1359 177T728 -29ZM832 2122H1462L1426 1934H796L832 2122ZM690 1601L692 1613Q716 1736 783 1803Q850 1869 950 1869Q1011 1869 1084 1830Q1092 1826 1095 1824L1161 1791Q1187 1778 1204 1773Q1221 1769 1239 1769Q1280 1769 1309
1794Q1339 1819 1347 1863L1348 1867H1458L1455 1852Q1431 1730 1365 1665Q1299 1599 1198 1599Q1164 1599 1132 1608T1053 1644L1001 1672Q976 1685 952 1692T909 1699Q868 1699 839 1673Q809 1648 801 1605L800 1601H690Z" />
<glyph unicode="&#x22d;" glyph-name="uni022D" horiz-adv-x="1250" d="M530 84Q642 84 706 180T820 532Q853 699 853 798Q853 850 843 884Q817 979 704 979T526 883T412 532Q380 368 380 270Q380 215 390 181Q417 84 530 84ZM97 120Q3 228 3 394Q3 458 17 532Q68
795 256 943T726 1092Q1008 1092 1138 944Q1232 837 1232 671Q1232 606 1217 532Q1166 270 978 121T508 -29T97 120ZM554 1830H1184L1148 1642H518L554 1830ZM412 1309L414 1321Q438 1444 505 1511Q572 1577 672 1577Q733 1577 806 1538Q814 1534 817 1532L883
1499Q909 1486 926 1481Q943 1477 961 1477Q1002 1477 1031 1502Q1061 1527 1069 1571L1070 1575H1180L1177 1560Q1153 1438 1087 1373Q1021 1307 920 1307Q886 1307 854 1316T775 1352L723 1380Q698 1393 674 1400T631 1407Q590 1407 561 1381Q531 1356 523 1313L522
1309H412Z" />
<glyph unicode="&#x22e;" glyph-name="uni022E" horiz-adv-x="1784" d="M764 92Q955 92 1079 253T1268 745Q1332 1077 1271 1238T1018 1399Q828 1399 703 1237T514 745Q450 417 512 255T764 92ZM740 -29Q363 -29 190 177T86 745T411 1313T1042 1520Q1419 1520
1592 1314T1696 745Q1626 383 1371 177T740 -29ZM1494 1879Q1545 1923 1605 1923T1701 1879Q1736 1836 1724 1776T1660 1673Q1609 1630 1549 1630T1453 1673Q1418 1716 1430 1776T1494 1879Z" />
<glyph unicode="&#x22f;" glyph-name="uni022F" horiz-adv-x="1366" d="M548 84Q660 84 724 180T838 532Q871 699 871 798Q871 850 861 884Q835 979 722 979T544 883T430 532Q398 368 398 270Q398 215 408 181Q435 84 548 84ZM115 120Q21 228 21 394Q21 458 35
532Q86 795 274 943T744 1092Q1026 1092 1156 944Q1250 837 1250 671Q1250 606 1235 532Q1184 270 996 121T526 -29T115 120ZM199 1468Q211 1528 263 1571Q314 1614 374 1614T470 1571Q505 1528 493 1468Q482 1409 430 1365T318 1321T223 1365T199 1468Z" />
<glyph unicode="&#x230;" glyph-name="uni0230" horiz-adv-x="1763" d="M751 92Q942 92 1066 253T1255 745Q1319 1077 1258 1238T1005 1399Q815 1399 690 1237T501 745Q437 417 499 255T751 92ZM727 -29Q350 -29 177 177T73 745T398 1313T1029 1520Q1406 1520
1579 1314T1683 745Q1613 383 1358 177T727 -29ZM833 2122H1463L1427 1934H797L833 2122ZM992 1850Q1043 1894 1103 1894T1199 1850Q1234 1807 1222 1747T1158 1644Q1107 1601 1047 1601T951 1644Q916 1687 928 1747T992 1850Z" />
<glyph unicode="&#x231;" glyph-name="uni0231" horiz-adv-x="1247" d="M530 84Q642 84 706 180T820 532Q853 699 853 798Q853 850 843 884Q817 979 704 979T526 883T412 532Q380 368 380 270Q380 215 390 181Q417 84 530 84ZM97 120Q3 228 3 394Q3 458 17 532Q68
795 256 943T726 1092Q1008 1092 1138 944Q1232 837 1232 671Q1232 606 1217 532Q1166 270 978 121T508 -29T97 120ZM557 1842H1187L1151 1654H521L557 1842ZM716 1570Q767 1614 827 1614T923 1570Q958 1527 946 1467T882 1364Q831 1321 771 1321T675 1364Q640
1407 652 1467T716 1570Z" />
<glyph unicode="&#x232;" glyph-name="uni0232" horiz-adv-x="1462" d="M430 1872H1060L1024 1684H394L430 1872ZM124 0L147 121H348L445 618L148 1372H21L44 1493H760L737 1372H571L796 803L1241 1372H1092L1115 1493H1543L1520 1372H1393L842 670L735 121H936L913
0H124Z" />
<glyph unicode="&#x233;" glyph-name="uni0233" horiz-adv-x="1190" d="M170 1562H800L764 1374H134L170 1562ZM558 -273L274 942H159L183 1063H617L855 35Q970 201 1047 388T1200 940L1058 941L1081 1062L1368 1063Q1343 935 1307 770Q1218 364 1107 176Q814
-314 579 -404Q446 -455 254 -455Q160 -455 23 -412L66 -190L179 -191Q175 -215 175 -235Q175 -304 222 -326Q243 -336 286 -342Q310 -345 334 -345Q445 -345 558 -273Z" />
<glyph unicode="&#x234;" glyph-name="uni0234" horiz-adv-x="962" d="M430 222Q494 69 650 70Q788 69 808 176Q833 301 743 300Q487 298 430 222ZM425 524Q407 430 412 316Q574 390 754 390Q962 390 920 172Q879 -38 542 -41Q361 -43 244 30Q227 -2 211 -87L183
-231H47L76 -87Q99 14 143 93Q124 112 124 112Q21 266 71 524L248 1436H97L121 1556H626L425 524Z" />
<glyph unicode="&#x235;" glyph-name="uni0235" horiz-adv-x="1725" d="M1191 222Q1255 69 1411 70Q1549 69 1570 176Q1594 301 1504 300Q1248 298 1191 222ZM1186 524Q1168 430 1173 316Q1335 390 1515 390Q1723 390 1681 172Q1640 -38 1303 -41Q1122 -43 1005
30Q988 -2 972 -87L944 -231H808L837 -87Q860 14 904 93Q904 93 885 112Q782 266 832 524L864 686Q890 821 866 873T756 926Q649 926 584 848T486 598L369 0H15L198 942H47L71 1063H576L547 913Q629 1008 719 1050T935 1092Q1114 1092 1185 987T1216 676L1186 524Z"
/>
<glyph unicode="&#x236;" glyph-name="uni0236" horiz-adv-x="981" d="M449 222Q512 69 669 70Q807 69 827 176Q852 301 761 300Q506 298 449 222ZM89 520L171 942H17L41 1063H195L259 1393H613L549 1063H844L820 942H525L443 520Q426 430 430 316Q593 390 773
390Q981 390 938 172Q898 -38 561 -41Q380 -43 262 30Q245 -2 230 -87L202 -231H65L95 -87Q118 14 162 93Q143 112 143 112Q40 266 89 520Z" />
<glyph unicode="&#x237;" glyph-name="dotlessj" horiz-adv-x="1023" d="M635 942H484L508 1063H1013L782 -125Q750 -288 618 -371T261 -455Q201 -455 135 -445T0 -416L44 -190L157 -191Q143 -271 165 -306T254 -342Q327 -342 365 -295T428 -125L635 942Z" />
<glyph unicode="&#x238;" glyph-name="uni0238" horiz-adv-x="2070" d="M1199 479Q1163 293 1194 210T1331 127Q1440 127 1501 215T1608 532T1626 848T1489 936Q1383 936 1319 853T1219 584L1199 479ZM775 121L778 135Q717 52 633 12T436 -29Q210 -29 110 121T60
532Q111 794 269 943T654 1092Q766 1092 834 1052T932 928L1031 1436H879L902 1556H1408L1286 928Q1347 1011 1431 1051T1627 1092Q1854 1092 1955 943T2006 532T1796 121T1409 -29Q1297 -29 1229 11T1132 135L1129 121L1106 0H752L775 121ZM845 479L865 584Q901
770 870 853T733 936Q623 936 562 849T455 532T438 215T575 127Q680 127 744 210T845 479Z" />
<glyph unicode="&#x239;" glyph-name="uni0239" horiz-adv-x="2071" d="M1293 928Q1354 1011 1438 1051T1635 1092Q1861 1092 1961 942T2010 531Q1960 269 1802 120T1417 -29Q1305 -29 1236 11T1139 135L1053 -305H1205L1182 -425L675 -426L785 135Q723 52 640
12T444 -29Q217 -29 116 120T64 531T275 942T662 1092Q774 1092 842 1052T939 928L965 1063H1319L1293 928ZM872 584Q908 770 876 853T739 936Q629 936 568 849T462 532T445 215T582 127Q687 127 751 210T851 479L872 584ZM1226 584L1205 479Q1169 293 1200 210T1338
127Q1447 127 1508 215T1614 532T1632 848T1495 936Q1389 936 1326 853T1226 584Z" />
<glyph unicode="&#x23a;" glyph-name="uni023A" horiz-adv-x="1938" d="M72 -78L0 12L15 25L34 121H130L182 164L984 1493H1223L1307 1107L1859 1569L1931 1479L1334 979L1520 121H1662L1638 0H939L963 121H1109L1045 426H674L310 121H478L454 0H166L72 -78ZM963
819L900 1118L556 547H639L963 819ZM819 547H1019L990 690L819 547ZM473 409L494 426H484L473 409Z" />
<glyph unicode="&#x23b;" glyph-name="uni023B" horiz-adv-x="1945" d="M81 -78L8 12L300 256Q188 450 245 745Q314 1103 574 1311T1213 1520Q1346 1520 1483 1488Q1585 1464 1693 1423L1867 1569L1940 1479L1757 1326L1698 1024H1571Q1570 1098 1556 1158L647
396Q655 312 683 252Q758 92 978 92Q1127 92 1237 175T1424 426H1623Q1519 195 1344 83T911 -29Q548 -29 369 163L81 -78ZM645 546L1511 1270Q1498 1289 1484 1306Q1399 1399 1230 1399Q1012 1399 875 1239T673 745Q652 636 645 546Z" />
<glyph unicode="&#x23c;" glyph-name="uni023C" horiz-adv-x="1486" d="M1238 332Q1164 150 1029 61T692 -29Q435 -29 306 92L74 -102L6 -16L239 178Q163 316 205 532Q257 796 439 944T896 1092Q1007 1092 1116 1071Q1189 1057 1261 1034L1413 1161L1483 1075L1321
940L1277 713H1165Q1169 766 1163 808L575 317Q575 237 595 188Q635 84 773 84Q880 84 957 148T1072 332H1238ZM1122 917Q1071 979 960 979Q812 979 730 879T600 532Q594 501 590 472L1122 917Z" />
<glyph unicode="&#x23d;" glyph-name="uni023D" horiz-adv-x="1391" d="M10 0L33 121H224L339 713H126L153 850H366L468 1372H277L300 1493H1068L1045 1372H853L751 850H1083L1056 713H724L613 137H1201L1246 373H1381L1309 0H10Z" />
<glyph unicode="&#x23e;" glyph-name="uni023E" horiz-adv-x="1941" d="M1220 0H436L460 121H659L725 461L81 -78L8 12L760 641L899 1356H487L441 1120H306L378 1493H1776L1867 1569L1940 1479L1839 1395L1786 1120H1649L1676 1258L1187 849L1046 121H1244L1220
0ZM1613 1356H1286L1222 1029L1613 1356Z" />
<glyph unicode="&#x23f;" glyph-name="uni023F" horiz-adv-x="1140" d="M847 -402Q712 -440 602 -444Q567 -445 497 -445Q364 -445 280 -386Q191 -324 172 -230L130 -24Q126 -3 108 9Q77 15 45 23Q29 26 13 31L71 328H184Q169 140 329 96Q374 86 429 84Q623 84
671 197Q677 212 681 229Q696 310 640 347Q608 369 534 389L395 426Q237 468 179 544Q120 620 145 750Q193 996 451 1064Q558 1092 701 1092Q887 1092 1125 1028L1073 760H960Q984 979 728 979Q520 979 486 856Q484 850 483 844Q469 771 526 737Q553 721 604 707L741
670Q937 617 1003 540Q1070 461 1043 322Q1002 112 810 30Q684 -24 487 -29Q490 -40 493 -52L516 -162Q536 -260 569 -296Q603 -332 669 -332Q678 -332 718 -295T777 -181L890 -180L847 -402Z" />
<glyph unicode="&#x240;" glyph-name="uni0240" horiz-adv-x="1252" d="M207 0H5L28 121L799 946H340L304 764H185L244 1063H1234L1210 944L439 119Q627 120 657 -34L684 -172Q704 -269 738 -306Q771 -342 837 -342Q846 -342 887 -305T946 -191L1059 -190L1016
-412Q941 -433 879 -444T665 -455Q533 -455 449 -396Q361 -334 341 -240L300 -44Q290 0 207 0Z" />
<glyph unicode="&#x241;" glyph-name="uni0241" horiz-adv-x="1421" d="M505 1372Q402 1372 375 1344Q341 1311 321 1229H208L246 1427Q315 1461 387 1477T528 1493H921Q1170 1493 1294 1375T1380 1057T1170 739T751 619H712L615 121H856L833 0H16L39 121H230L352
740H613Q743 740 837 826T959 1057Q987 1201 927 1286T736 1372H505Z" />
<glyph unicode="&#x242;" glyph-name="uni0242" horiz-adv-x="1006" d="M196 339Q326 339 420 425T542 656Q570 800 510 886Q450 971 319 971Q216 971 189 944Q155 910 135 828H22L60 1026Q129 1060 201 1076T342 1092H504Q753 1092 877 974Q1001 855 962 656Q924
457 753 338Q655 269 530 239L484 0H129L196 339Z" />
<glyph unicode="&#x243;" glyph-name="uni0243" horiz-adv-x="1724" d="M63 363L90 500H302L472 1372H281L304 1493H1189Q1462 1493 1581 1401T1664 1124Q1638 991 1529 913T1229 815Q1450 794 1551 695T1620 432Q1577 210 1389 105T844 0H14L37 121H228L275 363H63ZM759
870H890Q1062 870 1157 932T1277 1124Q1302 1254 1234 1313T988 1372H857L759 870ZM613 121H756Q947 121 1054 197T1192 432Q1223 592 1146 671T879 750H736L687 500H1020L993 363H660L613 121Z" />
<glyph unicode="&#x244;" glyph-name="uni0244" horiz-adv-x="1859" d="M347 1372H157L181 1493H949L925 1372H734L633 850H1397L1498 1372H1308L1332 1493H1852L1828 1372H1637L1536 850H1737L1710 713H1509L1488 604Q1422 262 1246 117T720 -29Q373 -29 253
118T199 606L219 713H18L45 850H246L347 1372ZM1370 713H606L589 625Q535 346 600 235T877 123Q1083 123 1191 235T1353 625L1370 713Z" />
<glyph unicode="&#x245;" glyph-name="uni0245" horiz-adv-x="1589" d="M289 121H467L444 0H0L23 121H145L974 1493H1213L1509 121H1651L1628 0H929L952 121H1098L890 1118L289 121Z" />
<glyph unicode="&#x246;" glyph-name="uni0246" horiz-adv-x="1648" d="M613 -116L500 -79L539 0H5L29 121H220L463 1372H272L295 1493H1286L1344 1608L1457 1571L1418 1493H1637L1569 1141H1431L1473 1356H1350L1205 1067H1316L1216 551H1079L1116 741H1042L740
137H1255L1296 352H1433L1365 0H671L613 -116ZM608 137L910 741H725L608 137ZM1163 983L1110 877H1142L1163 983ZM977 877L1218 1356H845L751 877H977Z" />
<glyph unicode="&#x247;" glyph-name="uni0247" horiz-adv-x="1168" d="M793 597Q905 664 905 787Q905 891 841 931L646 540Q728 558 793 597ZM319 -115L210 -80L254 7Q156 43 96 116Q13 218 13 379Q13 447 29 529Q81 797 260 944Q440 1092 704 1092Q750 1092
793 1088L844 1189L953 1154L909 1066Q973 1048 1027 1018Q1159 944 1160 808Q1160 781 1154 752Q1100 474 583 414L445 137Q497 84 599 84Q714 84 797 145T922 322H1088Q1010 141 866 56T491 -29Q424 -29 366 -20L319 -115ZM399 400Q393 366 393 295Q393 291 393
287L451 403Q426 401 399 400ZM511 522L735 970Q712 979 681 979Q586 979 530 890T423 519H445Q480 519 511 522Z" />
<glyph unicode="&#x248;" glyph-name="uni0248" horiz-adv-x="1403" d="M1 -358L46 -123H176Q164 -217 194 -261T300 -305Q397 -305 450 -231T543 49L672 713H434L461 850H699L800 1372H583L607 1493H1402L1378 1372H1187L1086 850H1298L1271 713H1059L928 41Q881
-202 737 -314T325 -426Q242 -426 162 -409T1 -358Z" />
<glyph unicode="&#x249;" glyph-name="uni0249" horiz-adv-x="792" d="M102 1324Q102 1428 178 1492T335 1556T454 1508T493 1405Q493 1301 417 1238T261 1174T142 1222T102 1324ZM636 942H485L509 1063H1014L924 600H1078L1054 479H900L783 -125Q751 -288 619
-371T262 -455Q202 -455 136 -445T1 -416L45 -190L158 -191Q144 -271 166 -306T255 -342Q328 -342 366 -295T429 -125L546 479H397L421 600H570L636 942Z" />
<glyph unicode="&#x24a;" glyph-name="uni024A" horiz-adv-x="1814" d="M1202 1490H1791L1766 1360H1564L1309 49Q1269 -156 1293 -230T1414 -305Q1490 -305 1537 -261T1609 -123H1739L1693 -358Q1599 -392 1512 -409T1342 -426Q1075 -426 974 -314T921 41L942
151Q869 60 766 15Q665 -29 525 -29Q246 -29 127 178Q7 386 78 746Q148 1107 348 1314Q547 1520 826 1520Q966 1520 1050 1476Q1136 1431 1173 1340L1202 1490ZM1073 824Q1127 1104 1084 1228T895 1352Q742 1352 655 1221Q567 1089 501 746T471 271T660 139Q806
139 897 263T1042 667L1073 824Z" />
<glyph unicode="&#x24b;" glyph-name="uni024B" horiz-adv-x="1465" d="M923 876Q918 936 853 936Q671 936 557 776Q485 675 443 455Q407 270 438 199T577 127Q681 127 745 210T845 479L923 876ZM779 135Q657 -29 432 -29Q209 -29 106 98T46 448Q99 720 351 916Q578
1092 911 1092Q1179 1092 1300 996L1079 -143Q1058 -251 1078 -296T1171 -341Q1237 -341 1273 -306T1327 -190L1440 -189L1396 -415Q1319 -434 1250 -444T1120 -454Q895 -454 796 -371T728 -124L779 135Z" />
<glyph unicode="&#x24c;" glyph-name="uni024C" horiz-adv-x="1687" d="M743 788H874Q1014 788 1104 864T1222 1081T1189 1297T988 1372H857L743 788ZM1147 729Q1233 716 1285 670Q1336 625 1365 537L1502 121H1655L1632 0H1141L991 451Q949 591 908 629T781 668H720L613
121H805L782 0H14L37 121H228L335 668H122L145 788H358L472 1372H281L304 1493H1156Q1416 1493 1537 1389T1621 1092Q1591 936 1473 846T1147 729Z" />
<glyph unicode="&#x24d;" glyph-name="uni024D" horiz-adv-x="1174" d="M17 479L40 600H202L269 942H107L130 1063H646L610 874Q684 985 779 1038T999 1092Q1030 1092 1073 1088T1174 1075L1112 758H999Q1010 843 978 884T870 926Q754 926 667 824Q594 739 558
600H816L793 479H533L440 0H86L179 479H17Z" />
<glyph unicode="&#x24e;" glyph-name="uni024E" horiz-adv-x="1602" d="M181 0L204 121H405L502 618L331 1053H16L42 1190H276L205 1372H78L101 1493H817L794 1372H628L699 1190H1155L1298 1372H1149L1172 1493H1600L1577 1372H1450L1307 1190H1541L1515 1053H1200L899
670L792 121H993L970 0H181ZM1049 1053H754L853 803L1049 1053Z" />
<glyph unicode="&#x24f;" glyph-name="uni024F" horiz-adv-x="1414" d="M139 479L163 600H354L274 942H159L183 1063H617L724 600H1118Q1159 745 1200 940L1058 941L1081 1062L1368 1063Q1343 935 1307 770Q1287 680 1266 600H1410L1386 479H1232Q1174 289 1107
176Q814 -314 579 -404Q446 -455 254 -455Q159 -455 23 -412L66 -190L179 -191Q175 -215 175 -235Q176 -304 222 -326Q243 -336 286 -342Q310 -345 334 -345Q445 -345 558 -273L382 479H139ZM1081 479H752L855 35Q970 201 1047 389Q1064 430 1081 479Z" />
<glyph unicode="&#x250;" glyph-name="uni0250" horiz-adv-x="1192" d="M366 187Q369 127 426 127Q560 127 691 287Q751 361 800 608Q836 793 811 864T689 936Q597 936 538 853T443 584L366 187ZM26 32L201 942L68 940L92 1063H536L510 928Q620 1092 815 1092Q1008
1092 1093 965T1136 615Q1092 391 901 199Q674 -29 370 -29Q70 -29 26 32Z" />
<glyph unicode="&#x251;" glyph-name="uni0251" horiz-adv-x="1576" d="M1180 931Q1280 1012 1385 1063H1514L1505 1019Q1367 924 1288 825Q1262 791 1195 672L1186 346Q1180 130 1267 126Q1352 122 1446 188L1415 33Q1119 -76 953 45Q922 68 892 104Q844 46 758
12Q659 -29 510 -29Q219 -29 119 121T69 532Q120 792 279 943Q436 1092 753 1088Q1102 1086 1180 931ZM833 361L865 780Q876 926 742 936Q637 944 570 848Q509 761 465 532T448 215Q476 126 585 127Q691 128 754 210Q770 231 833 361Z" />
<glyph unicode="&#x252;" glyph-name="uni0252" horiz-adv-x="1524" d="M344 128Q244 46 139 -4H10L19 40Q157 134 236 234Q263 268 329 387L338 714Q344 930 258 934Q173 938 79 872L109 1026Q406 1134 571 1014Q602 992 632 955Q680 1013 766 1048Q865 1088
1014 1088Q1305 1088 1405 938T1455 528Q1404 268 1245 116Q1088 -33 771 -29Q422 -26 344 128ZM691 698L659 280Q648 134 782 124Q887 116 954 211Q1016 299 1060 527T1076 844T939 932Q833 932 770 850Q754 828 691 698Z" />
<glyph unicode="&#x253;" glyph-name="uni0253" horiz-adv-x="1332" d="M462 479Q426 293 457 210T594 127Q703 127 764 215T871 532T889 848T752 936Q646 936 582 853T482 584L462 479ZM254 1226Q286 1389 417 1472T774 1556Q834 1556 900 1546T1035 1517L992
1292H879Q892 1372 870 1407T781 1443Q708 1443 670 1396T608 1226L550 930Q611 1011 694 1052Q778 1092 890 1092Q1117 1092 1218 943T1269 532T1059 121T672 -29Q560 -29 492 11T395 135L369 0H15L254 1226Z" />
<glyph unicode="&#x254;" glyph-name="uni0254" horiz-adv-x="1211" d="M112 731Q185 913 320 1002T657 1092Q941 1092 1068 945T1144 531Q1093 267 910 119T453 -29Q342 -29 233 -8T15 55L73 350H185Q174 215 224 150T389 84Q537 84 619 184T749 531Q796 772
755 875T576 979Q469 979 392 915T278 731H112Z" />
<glyph unicode="&#x255;" glyph-name="uni0255" horiz-adv-x="1200" d="M463 222Q525 71 682 70Q934 69 957 186Q979 302 775 300Q519 298 463 222ZM444 316Q602 388 846 390Q1114 390 1064 158Q1022 -41 574 -41Q391 -41 276 30Q259 -2 244 -87L216 -231H79L108
-87Q131 14 175 93Q165 103 156 112Q17 266 66 520Q116 775 315 928Q514 1080 792 1080Q953 1080 1036 1056Q1120 1033 1199 985L1147 713H1052Q1061 853 1012 917Q962 981 847 981Q698 981 600 866Q498 746 457 520Q439 426 444 316Z" />
</font>
</defs>
</svg>
