<?xml version="1.0" standalone="no"?> <!DOCTYPE svg PUBLIC "-//W3C//DTD SVG 1.0//EN" "http://www.w3.org/TR/2001/REC-SVG-20010904/DTD/svg10.dtd" > <svg xmlns="http://www.w3.org/2000/svg" width="100%" height="100%">
<defs >
<font horiz-adv-x="1394" ><font-face
    font-family="DejaVu Sans"
    units-per-em="2048"
    panose-1="2 11 8 3 3 6 4 2 2 4"
    ascent="1901"
    descent="-483"
    alphabetic="0" />
<missing-glyph horiz-adv-x="1103" d="M39 -362V1444H1063V-362H39ZM154 -248H949V1329H154V-248Z" />
<glyph unicode=" " glyph-name="space" horiz-adv-x="713" />
<glyph unicode="!" glyph-name="exclam" horiz-adv-x="415" d="M39 1493H399V920L348 502H90L39 920V1493ZM39 356H399V0H39V356Z" />
<glyph unicode="&quot;" glyph-name="quotedbl" horiz-adv-x="756" d="M716 1493V938H479V1493H716ZM276 1493V938H39V1493H276Z" />
<glyph unicode="#" glyph-name="numbersign" horiz-adv-x="1450" d="M778 1470L682 1085H946L1043 1470H1264L1167 1085H1444V872H1114L1045 598H1329V383H993L897 0H676L772 383H508L412 0H189L285 383H6V598H334L404 872H121V1085H459L555 1470H778ZM891 872H627L557
598H821L891 872Z" />
<glyph unicode="$" glyph-name="dollar" horiz-adv-x="1134" d="M640 -301H478L477 0Q352 5 235 28T7 92V354Q122 295 239 264T478 228V539L445 545Q206 587 106 677T5 936Q5 1115 127 1215T477 1325L478 1556H640V1329Q740 1321 840 1304T1041 1260V1006Q941
1048 841 1071T640 1100V813L672 807Q926 767 1028 674T1131 397Q1131 213 1009 115T640 2V-301ZM478 836V1097Q407 1093 365 1059T322 971Q322 912 361 879T478 836ZM640 510V232Q727 233 770 266T814 365Q814 433 774 466T640 510Z" />
<glyph unicode="%" glyph-name="percent" horiz-adv-x="1953" d="M1537 616Q1466 616 1427 555T1388 379Q1388 264 1426 203T1537 141Q1609 141 1647 202T1685 379Q1685 493 1647 554T1537 616ZM1537 784Q1723 784 1830 676T1937 379Q1937 190 1830 81T1537 -29Q1351
-29 1244 80T1136 379Q1136 567 1243 675T1537 784ZM620 -29H399L1332 1520H1554L620 -29ZM415 1520Q601 1520 707 1412T814 1114Q814 925 708 816T415 707Q229 707 123 816T16 1114Q16 1303 122 1411T415 1520ZM415 1352Q343 1352 304 1290T265 1114Q265 999 304
937T415 874Q487 874 525 936T564 1114Q564 1228 525 1290T415 1352Z" />
<glyph unicode="&amp;" glyph-name="ampersand" horiz-adv-x="1601" d="M693 991L1102 541Q1155 611 1182 698T1215 895H1526Q1511 713 1456 571T1301 322L1594 0H1170L1072 109Q967 39 851 5T605 -29Q342 -29 180 109T17 467Q17 613 88 725T322 944Q280 997 260
1050T240 1161Q240 1324 367 1422T705 1520Q796 1520 894 1506T1100 1462V1184Q1006 1232 922 1255T758 1278Q681 1278 639 1249T596 1165Q596 1131 620 1088T693 991ZM494 743Q429 696 396 637T363 506Q363 391 448 310T652 229Q719 229 777 249T885 311L494 743Z"
/>
<glyph unicode="&apos;" glyph-name="quotesingle" horiz-adv-x="317" d="M276 1493V938H39V1493H276Z" />
<glyph unicode="(" glyph-name="parenleft" horiz-adv-x="620" d="M605 -270H308Q155 -23 82 199T9 641Q9 860 82 1084T308 1554H605Q477 1317 413 1091T349 643Q349 422 412 195T605 -270Z" />
<glyph unicode=")" glyph-name="parenright" horiz-adv-x="620" d="M15 -270Q143 -32 207 195T271 643Q271 864 207 1090T15 1554H312Q464 1309 537 1085T611 641Q611 422 538 200T312 -270H15Z" />
<glyph unicode="*" glyph-name="asterisk" horiz-adv-x="996" d="M992 1217L662 1044L992 870L916 729L583 913V569H413V913L79 729L3 870L337 1044L3 1217L79 1358L413 1176V1520H583V1176L916 1358L992 1217Z" />
<glyph unicode="+" glyph-name="plus" horiz-adv-x="1282" d="M760 1284V760H1282V524H760V0H522V524H0V760H522V1284H760Z" />
<glyph unicode="," glyph-name="comma" horiz-adv-x="485" d="M114 387H474V82L227 -291H14L114 82V387Z" />
<glyph unicode="-" glyph-name="hyphen" horiz-adv-x="707" d="M39 735H667V444H39V735Z" />
<glyph unicode="." glyph-name="period" horiz-adv-x="439" d="M39 387H399V0H39V387Z" />
<glyph unicode="/" glyph-name="slash" horiz-adv-x="748" d="M526 1493H748L221 -190H0L526 1493Z" />
<glyph unicode="0" glyph-name="zero" horiz-adv-x="1273" d="M866 748Q866 1028 814 1142T637 1257Q513 1257 460 1143T407 748Q407 465 460 349T637 233Q760 233 813 349T866 748ZM1251 745Q1251 374 1091 173T637 -29Q342 -29 182 172T22 745Q22 1117 182 1318T637
1520Q931 1520 1091 1319T1251 745Z" />
<glyph unicode="1" glyph-name="one" horiz-adv-x="1096" d="M43 266H383V1231L34 1159V1421L381 1493H747V266H1087V0H43V266Z" />
<glyph unicode="2" glyph-name="two" horiz-adv-x="1148" d="M463 283H1120V0H35V283L580 764Q653 830 688 893T723 1024Q723 1129 653 1193T465 1257Q375 1257 268 1219T39 1104V1432Q169 1475 296 1497T545 1520Q813 1520 961 1402T1110 1073Q1110 951 1047
846T782 563L463 283Z" />
<glyph unicode="3" glyph-name="three" horiz-adv-x="1174" d="M844 805Q995 766 1073 670T1152 424Q1152 202 982 87T486 -29Q371 -29 256 -11T27 45V342Q135 288 241 261T451 233Q604 233 685 286T767 438Q767 540 684 592T437 645H283V893H445Q590 893 661
938T732 1077Q732 1163 663 1210T468 1257Q375 1257 280 1236T91 1174V1456Q205 1488 317 1504T537 1520Q828 1520 972 1425T1117 1137Q1117 1006 1048 923T844 805Z" />
<glyph unicode="4" glyph-name="four" horiz-adv-x="1252" d="M664 1176L242 551H664V1176ZM600 1493H1028V551H1241V272H1028V0H664V272H2V602L600 1493Z" />
<glyph unicode="5" glyph-name="five" horiz-adv-x="1174" d="M88 1493H1045V1210H395V979Q439 991 483 997T576 1004Q849 1004 1001 868T1153 487Q1153 245 988 108T528 -29Q401 -29 277 -5T29 70V373Q151 303 260 268T467 233Q607 233 687 301T768 487Q768 605
688 673T467 741Q384 741 290 720T88 653V1493Z" />
<glyph unicode="6" glyph-name="six" horiz-adv-x="1229" d="M634 737Q533 737 483 672T432 475Q432 344 482 279T634 213Q736 213 786 278T837 475Q837 606 787 671T634 737ZM1110 1454V1178Q1015 1223 931 1244T767 1266Q595 1266 499 1171T387 887Q453 936
530 960T698 985Q927 985 1067 851T1208 500Q1208 260 1051 116T630 -29Q339 -29 180 167T20 725Q20 1095 206 1306T718 1518Q821 1518 918 1502T1110 1454Z" />
<glyph unicode="7" glyph-name="seven" horiz-adv-x="1146" d="M18 1493H1143V1276L561 0H186L737 1210H18V1493Z" />
<glyph unicode="8" glyph-name="eight" horiz-adv-x="1219" d="M611 668Q503 668 445 609T387 440Q387 330 445 272T611 213Q718 213 775 271T832 440Q832 551 775 609T611 668ZM330 795Q194 836 125 921T56 1133Q56 1322 197 1421T611 1520Q882 1520 1023 1422T1164
1133Q1164 1006 1095 921T889 795Q1041 753 1118 659T1196 420Q1196 198 1049 85T611 -29Q320 -29 172 84T23 420Q23 564 100 658T330 795ZM420 1094Q420 1005 469 957T611 909Q701 909 750 957T799 1094Q799 1183 750 1230T611 1278Q519 1278 470 1230T420 1094Z"
/>
<glyph unicode="9" glyph-name="nine" horiz-adv-x="1229" d="M120 33V309Q212 266 296 245T462 223Q634 223 730 318T843 602Q775 552 698 527T531 502Q302 502 162 635T21 987Q21 1228 177 1373T597 1518Q889 1518 1049 1321T1209 764Q1209 394 1022 183T509
-29Q404 -29 308 -14T120 33ZM595 752Q696 752 747 817T798 1014Q798 1144 747 1210T595 1276Q494 1276 443 1210T392 1014Q392 883 443 818T595 752Z" />
<glyph unicode=":" glyph-name="colon" horiz-adv-x="410" d="M39 1120H400V733H39V1120ZM39 387H400V0H39V387Z" />
<glyph unicode=";" glyph-name="semicolon" horiz-adv-x="491" d="M112 387H473V82L225 -291H12L112 82V387ZM112 1120H473V733H112V1120Z" />
<glyph unicode="&lt;" glyph-name="less" horiz-adv-x="1298" d="M1282 973L318 641L1282 311V61L0 524V760L1282 1223V973Z" />
<glyph unicode="=" glyph-name="equal" horiz-adv-x="1330" d="M39 987H1321V752H39V987ZM39 532H1321V295H39V532Z" />
<glyph unicode="&gt;" glyph-name="greater" horiz-adv-x="1321" d="M39 973V1223L1321 760V524L39 61V311L1004 641L39 973Z" />
<glyph unicode="?" glyph-name="question" horiz-adv-x="933" d="M582 504H221V553Q221 635 254 698T393 860L457 918Q514 970 540 1016T567 1108Q567 1178 519 1217T385 1257Q304 1257 210 1224T14 1124V1438Q135 1480 235 1500T428 1520Q672 1520 800 1421T928
1130Q928 1032 889 955T756 788L692 731Q624 669 603 632T582 549V504ZM221 356H582V0H221V356Z" />
<glyph unicode="@" glyph-name="at" horiz-adv-x="1802" d="M714 539Q714 416 766 345T909 274Q998 274 1051 345T1104 539Q1104 660 1051 730T907 801Q819 801 767 731T714 539ZM1124 238Q1094 167 1028 128T872 88Q700 88 593 212T485 537Q485 737 593 862T872
987Q961 987 1027 947T1124 836V967H1333V274Q1457 293 1528 393T1599 651Q1599 751 1570 838T1482 999Q1387 1121 1245 1187T936 1253Q820 1253 714 1223T518 1133Q370 1035 288 880T205 543Q205 394 258 264T413 33Q513 -65 642 -116T919 -168Q1045 -168 1171
-121T1386 6L1493 -156Q1368 -253 1221 -304T921 -356Q736 -356 572 -291T280 -100Q152 25 85 189T18 543Q18 725 86 890T280 1180Q406 1304 573 1372T921 1440Q1145 1440 1328 1355T1634 1108Q1709 1010 1747 896T1786 655Q1786 384 1623 234T1163 84H1124V238Z"
/>
<glyph unicode="A" glyph-name="A" horiz-adv-x="1581" d="M1092 272H490L395 0H8L561 1493H1020L1573 0H1186L1092 272ZM586 549H995L791 1143L586 549Z" />
<glyph unicode="B" glyph-name="B" horiz-adv-x="1291" d="M637 915Q728 915 775 955T822 1073Q822 1150 775 1190T637 1231H424V915H637ZM650 262Q766 262 824 311T883 459Q883 556 825 604T650 653H424V262H650ZM1008 799Q1132 763 1200 666T1268 428Q1268 212
1122 106T678 0H39V1493H617Q928 1493 1067 1399T1207 1098Q1207 989 1156 913T1008 799Z" />
<glyph unicode="C" glyph-name="C" horiz-adv-x="1317" d="M1286 82Q1180 27 1065 -1T825 -29Q452 -29 234 179T16 745Q16 1103 234 1311T825 1520Q950 1520 1065 1492T1286 1409V1100Q1179 1173 1075 1207T856 1241Q650 1241 532 1109T414 745Q414 514 532 382T856
250Q971 250 1075 284T1286 391V82Z" />
<glyph unicode="D" glyph-name="D" horiz-adv-x="1461" d="M423 1202V291H561Q797 291 921 408T1046 748Q1046 970 922 1086T561 1202H423ZM38 1493H444Q784 1493 950 1445T1236 1280Q1341 1179 1392 1047T1443 748Q1443 579 1392 447T1236 213Q1116 97 948 49T444
0H38V1493Z" />
<glyph unicode="E" glyph-name="E" horiz-adv-x="1135" d="M38 1493H1077V1202H423V924H1038V633H423V291H1099V0H38V1493Z" />
<glyph unicode="F" glyph-name="F" horiz-adv-x="1078" d="M38 1493H1077V1202H423V924H1038V633H423V0H38V1493Z" />
<glyph unicode="G" glyph-name="G" horiz-adv-x="1475" d="M1446 111Q1302 41 1147 6T827 -29Q454 -29 236 179T18 745Q18 1106 240 1313T848 1520Q997 1520 1133 1492T1391 1409V1100Q1266 1171 1143 1206T895 1241Q665 1241 541 1113T416 745Q416 508 536 379T877
250Q937 250 988 257T1081 281V571H846V829H1446V111Z" />
<glyph unicode="H" glyph-name="H" horiz-adv-x="1412" d="M37 1493H422V924H990V1493H1375V0H990V633H422V0H37V1493Z" />
<glyph unicode="I" glyph-name="I" horiz-adv-x="460" d="M37 1493H422V0H37V1493Z" />
<glyph unicode="J" glyph-name="J" horiz-adv-x="721" d="M306 1493H691V145Q691 -134 540 -272T81 -410H3V-119H63Q183 -119 244 -52T306 145V1493Z" />
<glyph unicode="K" glyph-name="K" horiz-adv-x="1514" d="M37 1493H422V948L977 1493H1424L705 786L1498 0H1016L422 588V0H37V1493Z" />
<glyph unicode="L" glyph-name="L" horiz-adv-x="1098" d="M37 1493H422V291H1098V0H37V1493Z" />
<glyph unicode="M" glyph-name="M" horiz-adv-x="1733" d="M36 1493H526L866 694L1208 1493H1697V0H1333V1092L989 287H745L401 1092V0H36V1493Z" />
<glyph unicode="N" glyph-name="N" horiz-adv-x="1410" d="M36 1493H466L1009 469V1493H1374V0H944L401 1024V0H36V1493Z" />
<glyph unicode="O" glyph-name="O" horiz-adv-x="1576" d="M788 1241Q612 1241 515 1111T418 745Q418 510 515 380T788 250Q965 250 1062 380T1159 745Q1159 981 1062 1111T788 1241ZM788 1520Q1148 1520 1352 1314T1556 745Q1556 383 1352 177T788 -29Q429 -29
225 177T20 745Q20 1108 224 1314T788 1520Z" />
<glyph unicode="P" glyph-name="P" horiz-adv-x="1266" d="M36 1493H675Q960 1493 1112 1367T1265 1006Q1265 771 1113 645T675 518H421V0H36V1493ZM421 1214V797H634Q746 797 807 851T868 1006Q868 1106 807 1160T634 1214H421Z" />
<glyph unicode="Q" glyph-name="Q" horiz-adv-x="1562" d="M817 -27H787Q418 -27 213 177T8 745Q8 1108 212 1314T776 1520Q1139 1520 1341 1316T1544 745Q1544 493 1437 311T1127 37L1428 -299H1061L817 -27ZM776 1241Q600 1241 503 1111T406 745Q406 505 501
378T776 250Q953 250 1050 380T1147 745Q1147 981 1050 1111T776 1241Z" />
<glyph unicode="R" glyph-name="R" d="M582 831Q703 831 755 876T808 1024Q808 1126 756 1170T582 1214H420V831H582ZM420 565V0H35V1493H623Q918 1493 1055 1394T1193 1081Q1193 933 1122 838T906 698Q985 680 1047 617T1174 424L1383 0H973L791 371Q736 483
680 524T529 565H420Z" />
<glyph unicode="S" glyph-name="S" horiz-adv-x="1221" d="M1104 1446V1130Q981 1185 864 1213T643 1241Q505 1241 439 1203T373 1085Q373 1025 417 992T579 934L743 901Q992 851 1097 749T1202 459Q1202 212 1056 92T608 -29Q466 -29 323 -2T37 78V403Q180 327
313 289T571 250Q697 250 764 292T831 412Q831 482 786 520T604 588L455 621Q231 669 128 774T24 1057Q24 1280 168 1400T582 1520Q705 1520 835 1502T1104 1446Z" />
<glyph unicode="T" glyph-name="T" horiz-adv-x="1388" d="M6 1493H1382V1202H887V0H502V1202H6V1493Z" />
<glyph unicode="U" glyph-name="U" horiz-adv-x="1345" d="M29 1493H414V598Q414 413 474 334T672 254Q810 254 870 333T931 598V1493H1316V598Q1316 281 1157 126T672 -29Q347 -29 188 126T29 598V1493Z" />
<glyph unicode="V" glyph-name="V" horiz-adv-x="1577" d="M6 1493H393L789 391L1184 1493H1571L1018 0H559L6 1493Z" />
<glyph unicode="W" glyph-name="W" horiz-adv-x="2170" d="M18 1493H387L645 408L901 1493H1272L1528 408L1786 1493H2152L1800 0H1356L1085 1135L817 0H373L18 1493Z" />
<glyph unicode="X" glyph-name="X" horiz-adv-x="1543" d="M1003 762L1521 0H1120L771 510L425 0H22L540 762L42 1493H444L771 1012L1097 1493H1501L1003 762Z" />
<glyph unicode="Y" glyph-name="Y" horiz-adv-x="1529" d="M3 1493H424L764 961L1104 1493H1526L957 629V0H572V629L3 1493Z" />
<glyph unicode="Z" glyph-name="Z" horiz-adv-x="1365" d="M55 1493H1310V1260L509 291H1333V0H32V233L833 1202H55V1493Z" />
<glyph unicode="[" glyph-name="bracketleft" horiz-adv-x="673" d="M34 1556H655V1331H374V-45H655V-270H34V1556Z" />
<glyph unicode="\" glyph-name="backslash" horiz-adv-x="748" d="M526 -190L0 1493H221L748 -190H526Z" />
<glyph unicode="]" glyph-name="bracketright" horiz-adv-x="673" d="M638 -270H17V-45H298V1331H17V1556H638V-270Z" />
<glyph unicode="^" glyph-name="asciicircum" horiz-adv-x="1312" d="M779 1493L1307 936H1066L656 1237L247 936H5L533 1493H779Z" />
<glyph unicode="_" glyph-name="underscore" horiz-adv-x="1092" d="M1058 -293V-483H34V-293H1058Z" />
<glyph unicode="`" glyph-name="grave" horiz-adv-x="567" d="M283 1638L565 1262H369L0 1638H283Z" />
<glyph unicode="a" glyph-name="a" horiz-adv-x="1181" d="M606 504Q494 504 438 466T381 354Q381 286 426 248T553 209Q654 209 723 281T792 463V504H606ZM1153 639V0H792V166Q720 64 630 18T411 -29Q237 -29 129 72T20 336Q20 533 155 625T581 717H792V745Q792
830 725 869T516 909Q401 909 302 886T118 817V1090Q233 1118 349 1132T581 1147Q884 1147 1018 1028T1153 639Z" />
<glyph unicode="b" glyph-name="b" horiz-adv-x="1239" d="M630 231Q745 231 805 315T866 559Q866 719 806 803T630 887Q515 887 454 803T392 559Q392 400 453 316T630 231ZM392 956Q466 1054 556 1100T763 1147Q970 1147 1103 983T1236 559Q1236 300 1103 136T763
-29Q646 -29 556 17T392 162V0H34V1556H392V956Z" />
<glyph unicode="c" glyph-name="c" horiz-adv-x="1035" d="M1004 1085V793Q931 843 858 867T705 891Q555 891 472 804T388 559Q388 402 471 315T705 227Q789 227 864 252T1004 326V33Q920 2 834 -13T660 -29Q357 -29 186 126T15 559Q15 836 186 991T660 1147Q748
1147 833 1132T1004 1085Z" />
<glyph unicode="d" glyph-name="d" horiz-adv-x="1239" d="M845 956V1556H1205V0H845V162Q771 63 682 17T476 -29Q269 -29 136 135T3 559Q3 818 136 982T476 1147Q592 1147 681 1101T845 956ZM609 231Q724 231 784 315T845 559Q845 719 785 803T609 887Q495 887
435 803T374 559Q374 399 434 315T609 231Z" />
<glyph unicode="e" glyph-name="e" horiz-adv-x="1239" d="M1220 563V461H383Q396 335 474 272T692 209Q805 209 923 242T1167 344V68Q1040 20 913 -4T659 -29Q355 -29 187 125T18 559Q18 833 183 990T639 1147Q903 1147 1061 988T1220 563ZM852 682Q852 784 793
846T637 909Q533 909 468 851T387 682H852Z" />
<glyph unicode="f" glyph-name="f" horiz-adv-x="881" d="M875 1556V1321H677Q601 1321 571 1294T541 1198V1120H847V864H541V0H183V864H5V1120H183V1198Q183 1381 285 1468T601 1556H875Z" />
<glyph unicode="g" glyph-name="g" horiz-adv-x="1248" d="M860 190Q786 92 697 46T491 0Q286 0 152 161T18 573Q18 824 152 984T491 1145Q608 1145 697 1099T860 954V1120H1220V113Q1220 -157 1050 -299T555 -442Q450 -442 352 -426T155 -377V-98Q249 -152 339
-178T520 -205Q696 -205 778 -128T860 113V190ZM624 887Q513 887 451 805T389 573Q389 419 449 340T624 260Q736 260 798 342T860 573Q860 723 798 805T624 887Z" />
<glyph unicode="h" glyph-name="h" horiz-adv-x="1166" d="M1160 682V0H800V111V520Q800 667 794 722T771 803Q750 838 714 857T632 877Q520 877 456 791T392 551V0H34V1556H392V956Q473 1054 564 1100T765 1147Q959 1147 1059 1028T1160 682Z" />
<glyph unicode="i" glyph-name="i" horiz-adv-x="427" d="M34 1120H392V0H34V1120ZM34 1556H392V1264H34V1556Z" />
<glyph unicode="j" glyph-name="j" horiz-adv-x="628" d="M241 1120H599V20Q599 -205 491 -323T178 -442H1V-207H63Q165 -207 203 -161T241 20V1120ZM241 1556H599V1264H241V1556Z" />
<glyph unicode="k" glyph-name="k" horiz-adv-x="1263" d="M34 1556H392V709L804 1120H1220L673 606L1263 0H829L392 467V0H34V1556Z" />
<glyph unicode="l" glyph-name="l" horiz-adv-x="427" d="M34 1556H392V0H34V1556Z" />
<glyph unicode="m" glyph-name="m" horiz-adv-x="1867" d="M1074 934Q1142 1038 1235 1092T1441 1147Q1634 1147 1735 1028T1836 682V0H1476V584Q1477 597 1477 611T1478 651Q1478 770 1443 823T1330 877Q1228 877 1173 793T1115 550V0H755V584Q755 770 723 823T609
877Q506 877 450 793T394 551V0H34V1120H394V956Q460 1051 545 1099T734 1147Q850 1147 939 1091T1074 934Z" />
<glyph unicode="n" glyph-name="n" horiz-adv-x="1190" d="M1160 682V0H800V111V522Q800 667 794 722T771 803Q750 838 714 857T632 877Q520 877 456 791T392 551V0H34V1120H392V956Q473 1054 564 1100T765 1147Q959 1147 1059 1028T1160 682Z" />
<glyph unicode="o" glyph-name="o" horiz-adv-x="1269" d="M636 891Q517 891 455 806T392 559Q392 398 454 313T636 227Q753 227 815 312T877 559Q877 720 815 805T636 891ZM636 1147Q925 1147 1087 991T1250 559Q1250 283 1088 127T636 -29Q346 -29 183 127T19
559Q19 835 182 991T636 1147Z" />
<glyph unicode="p" glyph-name="p" horiz-adv-x="1239" d="M392 162V-426H34V1120H392V956Q466 1054 556 1100T763 1147Q970 1147 1103 983T1236 559Q1236 300 1103 136T763 -29Q646 -29 556 17T392 162ZM630 887Q515 887 454 803T392 559Q392 400 453 316T630
231Q745 231 805 315T866 559Q866 719 806 803T630 887Z" />
<glyph unicode="q" glyph-name="q" horiz-adv-x="1239" d="M609 887Q495 887 435 803T374 559Q374 399 434 315T609 231Q724 231 784 315T845 559Q845 719 785 803T609 887ZM845 162Q771 63 682 17T476 -29Q269 -29 136 135T3 559Q3 818 136 981T476 1145Q593
1145 682 1099T845 954V1120H1205V-426H845V162Z" />
<glyph unicode="r" glyph-name="r" horiz-adv-x="867" d="M866 815Q819 837 773 847T679 858Q541 858 467 770T392 516V0H34V1120H392V936Q461 1046 550 1096T765 1147Q783 1147 804 1146T865 1139L866 815Z" />
<glyph unicode="s" glyph-name="s" horiz-adv-x="1059" d="M965 1085V813Q850 861 743 885T541 909Q439 909 390 884T340 805Q340 762 377 739T512 705L575 696Q850 661 945 581T1040 330Q1040 151 908 61T514 -29Q403 -29 285 -12T41 41V313Q148 261 260 235T489
209Q594 209 647 238T700 324Q700 372 664 395T518 432L455 440Q216 470 120 551T24 797Q24 975 146 1061T520 1147Q619 1147 728 1132T965 1085Z" />
<glyph unicode="t" glyph-name="t" horiz-adv-x="918" d="M542 1438V1120H911V864H542V389Q542 311 573 284T696 256H880V0H573Q361 0 273 88T184 389V864H6V1120H184V1438H542Z" />
<glyph unicode="u" glyph-name="u" horiz-adv-x="1190" d="M30 436V1120H390V1008Q390 917 389 780T388 596Q388 461 395 402T419 315Q441 280 476 261T558 242Q670 242 734 328T798 567V1120H1156V0H798V162Q717 64 627 18T427 -29Q233 -29 132 90T30 436Z" />
<glyph unicode="v" glyph-name="v" horiz-adv-x="1288" d="M7 1120H365L644 346L922 1120H1281L840 0H447L7 1120Z" />
<glyph unicode="w" glyph-name="w" horiz-adv-x="1785" d="M18 1120H366L554 348L743 1120H1042L1230 356L1419 1120H1767L1472 0H1081L892 770L704 0H313L18 1120Z" />
<glyph unicode="x" glyph-name="x" horiz-adv-x="1303" d="M446 573L42 1120H421L650 788L882 1120H1261L857 575L1281 0H902L650 354L401 0H22L446 573Z" />
<glyph unicode="y" glyph-name="y" horiz-adv-x="1291" d="M16 1120H374L675 360L931 1120H1289L818 -106Q747 -293 653 -367T403 -442H196V-207H308Q399 -207 440 -178T505 -74L515 -43L16 1120Z" />
<glyph unicode="z" glyph-name="z" horiz-adv-x="1046" d="M57 1120H1034V870L444 256H1034V0H32V250L622 864H57V1120Z" />
<glyph unicode="{" glyph-name="braceleft" horiz-adv-x="969" d="M946 -109V-334H729Q511 -334 411 -246T311 35V227Q311 377 257 435T61 494H0V717H61Q203 717 257 775T311 983V1188Q311 1381 411 1468T729 1556H946V1331H877Q736 1331 694 1288T651 1102V936Q651
779 606 708T451 612Q562 585 606 514T651 287V121Q651 -22 693 -65T877 -109H946Z" />
<glyph unicode="|" glyph-name="bar" horiz-adv-x="297" d="M261 1565V-483H34V1565H261Z" />
<glyph unicode="}" glyph-name="braceright" horiz-adv-x="969" d="M23 -109H93Q233 -109 275 -66T318 121V287Q318 443 363 514T519 612Q408 637 363 708T318 936V1102Q318 1244 276 1287T93 1331H23V1556H240Q458 1556 558 1469T658 1188V983Q658 833 712 775T908
717H969V494H908Q766 494 712 436T658 227V35Q658 -158 558 -246T240 -334H23V-109Z" />
<glyph unicode="~" glyph-name="asciitilde" horiz-adv-x="1326" d="M1304 850V606Q1198 526 1109 492T923 457Q816 457 673 515Q659 521 651 524Q644 527 629 533Q474 594 380 594Q292 594 206 556T22 434V678Q129 758 218 792T403 827Q510 827 653 769Q668 763
675 760Q682 757 697 751Q852 690 946 690Q1032 690 1116 727T1304 850Z" />
<glyph unicode="" glyph-name="uni007F" horiz-adv-x="0" />
<glyph unicode="&#xa0;" glyph-name="nbspace" horiz-adv-x="713" />
<glyph unicode="&#xa1;" glyph-name="exclamdown" horiz-adv-x="428" d="M34 0V573L85 991H343L394 573V0H34ZM34 1137V1493H394V1137H34Z" />
<glyph unicode="&#xa2;" glyph-name="cent" horiz-adv-x="993" d="M529 858Q451 814 413 741T374 559Q374 450 412 376T529 260V858ZM988 1085V793Q914 841 843 866T706 891H691V228Q780 229 855 254T988 326V33Q905 3 832 -13T701 -29H691V-313H529V-25Q267 15
134 166T1 575Q1 819 136 964T529 1145V1432H691L692 1145Q763 1142 836 1128T988 1085Z" />
<glyph unicode="&#xa3;" glyph-name="sterling" horiz-adv-x="1173" d="M1129 1466V1180Q1059 1219 985 1238T834 1257Q716 1257 660 1195T603 1001V831H976V592H603V266H1141V0H11V266H238V592H44V831H238V1001Q238 1272 365 1396T767 1520Q859 1520 949 1507T1129
1466Z" />
<glyph unicode="&#xa4;" glyph-name="currency" horiz-adv-x="1202" d="M383 268L176 61L23 215L230 422Q202 471 188 524T174 641Q174 704 189 758T234 858L25 1063L178 1217L385 1010Q433 1040 487 1054T602 1069Q656 1069 710 1056T821 1014L1028 1221L1180
1067L973 860Q1002 805 1016 750T1030 641Q1030 578 1016 526T971 426L1178 219L1024 66L817 272Q771 242 718 228T602 213Q544 213 490 226T383 268ZM602 422Q693 422 757 485T821 641Q821 733 758 796T602 860Q511 860 447 797T383 641Q383 548 446 485T602 422Z"
/>
<glyph unicode="&#xa5;" glyph-name="yen" horiz-adv-x="1392" d="M1341 416H886V0H505V416H51V610H505V676L456 762H51V954H343L8 1493H407L696 1032L984 1493H1384L1048 954H1341V762H935L886 676V610H1341V416Z" />
<glyph unicode="&#xa6;" glyph-name="brokenbar" horiz-adv-x="282" d="M261 1432V674H34V1432H261ZM261 408V-350H34V408H261Z" />
<glyph unicode="&#xa7;" glyph-name="section" horiz-adv-x="1032" d="M887 1462V1235Q788 1274 709 1293T573 1313Q498 1313 460 1289T422 1217Q422 1150 610 1071Q636 1060 649 1055Q859 966 938 880T1018 668Q1018 551 962 472T788 344Q865 303 902 247T940
117Q940 -28 819 -111T485 -195Q400 -195 310 -181T117 -137V100Q232 59 323 38T471 16Q536 16 575 41T614 106Q614 176 434 250Q398 264 379 272Q176 359 96 448T16 668Q16 772 71 849T240 977Q165 1028 133 1083T100 1214Q100 1358 214 1439T530 1520Q614 1520
704 1506T887 1462ZM436 856Q368 828 335 790T301 702Q301 635 362 586T606 471Q671 494 706 533T741 625Q741 692 672 745T436 856Z" />
<glyph unicode="&#xa8;" glyph-name="dieresis" horiz-adv-x="699" d="M34 1585H269V1339H34V1585ZM429 1585H664V1339H429V1585Z" />
<glyph unicode="&#xa9;" glyph-name="copyright" horiz-adv-x="1514" d="M1056 1126V911Q999 948 944 965T831 983Q718 983 655 919T591 741Q591 626 654 563T831 500Q895 500 952 518T1056 571V358Q991 336 926 325T798 313Q587 313 460 430T333 741Q333 936
460 1052T798 1169Q867 1169 931 1159T1056 1126ZM757 1331Q636 1331 532 1288T341 1157Q254 1070 211 967T167 741Q167 620 210 517T341 326Q427 240 531 197T757 154Q880 154 983 196T1173 326Q1260 413 1303 516T1347 741Q1347 863 1304 966T1173 1157Q1085
1245 982 1288T757 1331ZM757 1485Q909 1485 1040 1430T1281 1266Q1390 1157 1444 1026T1498 741Q1498 589 1444 459T1281 219Q1172 110 1041 55T757 0Q605 0 474 55T233 219Q124 328 70 458T16 741Q16 895 70 1026T233 1266Q342 1375 473 1430T757 1485Z" />
<glyph unicode="&#xaa;" glyph-name="ordfeminine" horiz-adv-x="895" d="M42 573H855V373H42V573ZM509 1081Q376 1081 324 1055T272 967Q272 916 305 887T396 858Q485 858 542 915T599 1059V1081H509ZM867 1165V717H622V844Q567 768 497 732T333 696Q188 696
106 763T24 946Q24 1087 129 1153T460 1219H597V1239Q597 1295 553 1324T423 1354Q336 1354 253 1337T91 1284V1464Q183 1492 267 1506T427 1520Q651 1520 759 1433T867 1165Z" />
<glyph unicode="&#xab;" glyph-name="guillemotleft" horiz-adv-x="1003" d="M497 1063V821L204 600L497 379V137L4 506V692L497 1063ZM976 1063V821L684 600L976 379V137L483 506V692L976 1063Z" />
<glyph unicode="&#xac;" glyph-name="logicalnot" horiz-adv-x="1316" d="M0 909H1282V287H1047V672H0V909Z" />
<glyph unicode="&#xad;" glyph-name="sfthyphen" horiz-adv-x="697" d="M34 735H662V444H34V735Z" />
<glyph unicode="&#xae;" glyph-name="registered" horiz-adv-x="1514" d="M757 1331Q636 1331 532 1288T341 1157Q254 1070 211 967T167 741Q167 620 210 517T341 326Q427 240 531 197T757 154Q880 154 983 196T1173 326Q1260 413 1303 516T1347 741Q1347 863
1304 966T1173 1157Q1085 1245 982 1288T757 1331ZM700 1036H665V829H700Q778 829 817 855T857 934Q857 986 819 1011T700 1036ZM737 1174Q913 1174 1000 1115T1087 934Q1087 848 1035 792T886 719Q927 697 962 657T1027 559L1138 338H909L802 551Q764 629 735
661T677 694H665V338H452V1174H737ZM757 1485Q909 1485 1040 1430T1281 1266Q1390 1157 1444 1026T1498 741Q1498 589 1444 459T1281 219Q1172 110 1041 55T757 0Q605 0 474 55T233 219Q124 328 70 458T16 741Q16 895 70 1026T233 1266Q342 1375 473 1430T757 1485Z"
/>
<glyph unicode="&#xaf;" glyph-name="overscore" horiz-adv-x="699" d="M34 1556H664V1368H34V1556Z" />
<glyph unicode="&#xb0;" glyph-name="degree" horiz-adv-x="699" d="M351 1372Q279 1372 229 1322T179 1200Q179 1128 228 1079T351 1030Q423 1030 473 1079T523 1200Q523 1272 473 1322T351 1372ZM351 1534Q417 1534 478 1509T587 1436Q634 1388 658 1328T683
1200Q683 1133 659 1073T589 967Q541 919 479 894T349 868Q208 868 113 963T17 1200Q17 1341 113 1437T351 1534Z" />
<glyph unicode="&#xb1;" glyph-name="plusminus" horiz-adv-x="1300" d="M769 1284V930H1291V694H769V340H531V694H9V930H531V1284H769ZM9 238H1291V0H9V238Z" />
<glyph unicode="&#xb2;" glyph-name="twosuperior" horiz-adv-x="727" d="M332 836H702V668H29V821L342 1087Q403 1140 429 1180T455 1260Q455 1310 419 1341T323 1372Q261 1372 190 1350T35 1280V1466Q122 1493 203 1506T360 1520Q518 1520 608 1456T698 1280Q698
1208 663 1148T526 1001L332 836Z" />
<glyph unicode="&#xb3;" glyph-name="threesuperior" horiz-adv-x="741" d="M528 1120Q620 1102 671 1047T722 911Q722 782 623 718T323 653Q242 653 168 664T26 698V872Q92 836 156 818T280 799Q375 799 427 831T479 922Q479 986 426 1016T258 1047H184V1184H268Q366
1184 411 1207T456 1282Q456 1327 417 1349T298 1372Q246 1372 185 1359T53 1319V1485Q118 1502 193 1511T356 1520Q523 1520 611 1464T700 1303Q700 1234 655 1186T528 1120Z" />
<glyph unicode="&#xb4;" glyph-name="acute" horiz-adv-x="567" d="M284 1638H567L198 1262H2L284 1638Z" />
<glyph unicode="&#xb5;" glyph-name="mu" horiz-adv-x="1304" d="M34 -428V1120H395V469Q395 353 445 297T597 240Q700 240 750 296T800 469V1120H1160V371Q1160 300 1176 272T1232 244Q1250 244 1266 249T1302 266V16Q1249 -7 1203 -18T1111 -29Q1022 -29 966
8T874 129Q827 50 760 11T603 -29Q529 -29 477 -6T395 66V-428H34Z" />
<glyph unicode="&#xb6;" glyph-name="paragraph" horiz-adv-x="1032" d="M478 1493H998V-197H808V1346H619V-197H429V649Q225 674 114 783T3 1071Q3 1261 133 1377T478 1493Z" />
<glyph unicode="&#xb7;" glyph-name="middot" horiz-adv-x="429" d="M34 905H394V518H34V905Z" />
<glyph unicode="&#xb8;" glyph-name="cedilla" horiz-adv-x="476" d="M344 0Q402 -62 429 -115T457 -215Q457 -310 396 -355T207 -401Q159 -401 108 -395T5 -375L4 -223Q54 -239 95 -246T170 -254Q228 -254 260 -231T293 -168Q293 -142 272 -101T205 0H344Z" />
<glyph unicode="&#xb9;" glyph-name="onesuperior" horiz-adv-x="695" d="M45 825H252V1346L27 1294V1454L256 1503H482V825H686V668H45V825Z" />
<glyph unicode="&#xba;" glyph-name="ordmasculine" horiz-adv-x="963" d="M482 1520Q695 1520 818 1409T942 1108Q942 918 819 808T482 698Q268 698 145 808T21 1108Q21 1298 144 1409T482 1520ZM70 573H893V373H70V573ZM482 1350Q398 1350 353 1287T307 1108Q307
992 352 930T482 868Q565 868 610 930T656 1108Q656 1224 611 1287T482 1350Z" />
<glyph unicode="&#xbb;" glyph-name="guillemotright" horiz-adv-x="1010" d="M513 1063L1006 692V506L513 137V379L806 600L513 821V1063ZM34 1063L525 692V506L34 137V379L326 600L34 821V1063Z" />
<glyph unicode="&#xbc;" glyph-name="onequarter" horiz-adv-x="2120" d="M1538 641L1299 318H1538V641ZM1520 836H1768V318H1905V163H1768V1H1538V163H1147V331L1520 836ZM1142 -29H918L1852 1520H2076L1142 -29ZM279 825H486V1346L261 1294V1454L490 1503H716V825H920V668H279V825Z"
/>
<glyph unicode="&#xbd;" glyph-name="onehalf" horiz-adv-x="2120" d="M1142 -29H918L1852 1520H2076L1142 -29ZM1571 169H1941V1H1268V154L1581 420Q1642 473 1668 513T1694 593Q1694 643 1658 674T1562 705Q1500 705 1429 683T1274 613V799Q1361 826 1442 839T1599
853Q1757 853 1847 789T1937 613Q1937 541 1902 481T1765 334L1571 169ZM279 825H486V1346L261 1294V1454L490 1503H716V825H920V668H279V825Z" />
<glyph unicode="&#xbe;" glyph-name="threequarters" horiz-adv-x="2120" d="M1538 641L1299 318H1538V641ZM1520 836H1768V318H1905V163H1768V1H1538V163H1147V331L1520 836ZM1142 -29H918L1852 1520H2076L1142 -29ZM542 1120Q634 1102 685 1047T736 911Q736
782 637 718T337 653Q256 653 182 664T40 698V872Q106 836 170 818T294 799Q389 799 441 831T493 922Q493 986 440 1016T272 1047H198V1184H282Q380 1184 425 1207T470 1282Q470 1327 431 1349T312 1372Q260 1372 199 1359T67 1319V1485Q132 1502 207 1511T370
1520Q537 1520 625 1464T714 1303Q714 1234 669 1186T542 1120Z" />
<glyph unicode="&#xbf;" glyph-name="questiondown" horiz-adv-x="930" d="M350 987H711V938Q711 857 679 794T537 631L473 573Q417 522 391 476T365 383Q365 313 413 273T547 233Q628 233 722 267T918 367V53Q799 11 698 -9T504 -29Q260 -29 132 70T4 360Q4 459
43 536T176 702L240 760Q308 821 329 859T350 942V987ZM711 1137H350V1493H711V1137Z" />
<glyph unicode="&#xc0;" glyph-name="Agrave" horiz-adv-x="1585" d="M1092 272H490L395 0H8L561 1493H1020L1573 0H1186L1092 272ZM586 549H995L791 1143L586 549ZM1563 1899L1761 1635H1565L1280 1899H1563Z" />
<glyph unicode="&#xc1;" glyph-name="Aacute" horiz-adv-x="1585" d="M1092 272H490L395 0H8L561 1493H1020L1573 0H1186L1092 272ZM586 549H995L791 1143L586 549ZM1483 1899H1766L1481 1635H1285L1483 1899Z" />
<glyph unicode="&#xc2;" glyph-name="Acircumflex" horiz-adv-x="1585" d="M1092 272H490L395 0H8L561 1493H1020L1573 0H1186L1092 272ZM586 549H995L791 1143L586 549ZM1537 1899H1845L2068 1635H1890L1691 1796L1492 1635H1314L1537 1899Z" />
<glyph unicode="&#xc3;" glyph-name="Atilde" horiz-adv-x="1585" d="M1092 272H490L395 0H8L561 1493H1020L1573 0H1186L1092 272ZM586 549H995L791 1143L586 549ZM1679 1690L1623 1725Q1620 1727 1613 1731Q1568 1757 1540 1757Q1508 1757 1488 1727T1468 1647V1641H1329Q1329
1646 1330 1656T1331 1671Q1331 1777 1384 1842T1525 1907Q1562 1907 1599 1895T1675 1858L1734 1819Q1755 1805 1774 1798T1810 1790Q1847 1790 1866 1820T1886 1907H2025Q2025 1901 2024 1891T2023 1876Q2023 1770 1970 1706T1829 1641Q1791 1641 1756 1652T1679
1690Z" />
<glyph unicode="&#xc4;" glyph-name="Adieresis" horiz-adv-x="1585" d="M1092 272H490L395 0H8L561 1493H1020L1573 0H1186L1092 272ZM586 549H995L791 1143L586 549ZM1332 1899H1567V1653H1332V1899ZM1727 1899H1962V1653H1727V1899Z" />
<glyph unicode="&#xc5;" glyph-name="Aring" horiz-adv-x="1575" d="M1027 1464L1570 0H1183L1089 272H487L392 0H5L548 1464Q525 1498 514 1535T503 1616Q503 1733 586 1817T788 1901Q904 1901 988 1817T1072 1616Q1072 1569 1061 1531T1027 1464ZM657 1616Q657
1562 695 1524T788 1485Q842 1485 880 1523T919 1616Q919 1670 880 1708T788 1747Q734 1747 696 1709T657 1616ZM583 549H992L788 1143L583 549Z" />
<glyph unicode="&#xc6;" glyph-name="AE" horiz-adv-x="2115" d="M900 1237L644 627H1021V1237H900ZM634 1493H2059V1202H1406V924H2020V633H1406V291H2082V0H1021V350H527L380 0H9L634 1493Z" />
<glyph unicode="&#xc7;" glyph-name="Ccedilla" horiz-adv-x="1503" d="M1286 82Q1180 27 1065 -1T825 -29Q452 -29 234 179T16 745Q16 1103 234 1311T825 1520Q950 1520 1065 1492T1286 1409V1100Q1179 1173 1075 1207T856 1241Q650 1241 532 1109T414 745Q414
514 532 382T856 250Q971 250 1075 284T1286 391V82ZM715 0Q773 -62 800 -115T828 -215Q828 -310 767 -355T578 -401Q530 -401 479 -395T376 -375L375 -223Q425 -239 466 -246T541 -254Q599 -254 631 -231T664 -168Q664 -142 643 -101T576 0H715Z" />
<glyph unicode="&#xc8;" glyph-name="Egrave" horiz-adv-x="1399" d="M38 1493H1077V1202H423V924H1038V633H423V291H1099V0H38V1493ZM1487 1899L1685 1635H1489L1204 1899H1487Z" />
<glyph unicode="&#xc9;" glyph-name="Eacute" horiz-adv-x="1399" d="M38 1493H1077V1202H423V924H1038V633H423V291H1099V0H38V1493ZM1407 1899H1690L1405 1635H1209L1407 1899Z" />
<glyph unicode="&#xca;" glyph-name="Ecircumflex" horiz-adv-x="1399" d="M38 1493H1077V1202H423V924H1038V633H423V291H1099V0H38V1493ZM1437 1899H1745L1968 1635H1790L1591 1796L1392 1635H1214L1437 1899Z" />
<glyph unicode="&#xcb;" glyph-name="Edieresis" horiz-adv-x="1399" d="M38 1493H1077V1202H423V924H1038V633H423V291H1099V0H38V1493ZM1238 1899H1473V1653H1238V1899ZM1633 1899H1868V1653H1633V1899Z" />
<glyph unicode="&#xcc;" glyph-name="Igrave" horiz-adv-x="762" d="M37 1493H422V0H37V1493ZM1151 1899L1349 1635H1153L868 1899H1151Z" />
<glyph unicode="&#xcd;" glyph-name="Iacute" horiz-adv-x="762" d="M37 1493H422V0H37V1493ZM1071 1899H1354L1069 1635H873L1071 1899Z" />
<glyph unicode="&#xce;" glyph-name="Icircumflex" horiz-adv-x="762" d="M37 1493H422V0H37V1493ZM1125 1899H1433L1656 1635H1478L1279 1796L1080 1635H902L1125 1899Z" />
<glyph unicode="&#xcf;" glyph-name="Idieresis" horiz-adv-x="762" d="M37 1493H422V0H37V1493ZM926 1899H1161V1653H926V1899ZM1321 1899H1556V1653H1321V1899Z" />
<glyph unicode="&#xd0;" glyph-name="Eth" horiz-adv-x="1614" d="M576 1202V881H811V621H576V291H713Q949 291 1073 408T1198 748Q1198 970 1074 1086T713 1202H576ZM191 1493H596Q937 1493 1103 1445T1389 1280Q1493 1179 1544 1047T1596 748Q1596 579 1545
447T1389 213Q1268 97 1100 49T596 0H191V621H17V881H191V1493Z" />
<glyph unicode="&#xd1;" glyph-name="Ntilde" horiz-adv-x="1714" d="M36 1493H466L1009 469V1493H1374V0H944L401 1024V0H36V1493ZM1708 1684L1652 1719Q1649 1721 1642 1725Q1597 1751 1569 1751Q1537 1751 1517 1721T1497 1641V1635H1358Q1358 1640 1359 1650T1360
1665Q1360 1771 1413 1836T1554 1901Q1591 1901 1628 1889T1704 1852L1763 1813Q1784 1799 1803 1792T1839 1784Q1876 1784 1895 1814T1915 1901H2054Q2054 1895 2053 1885T2052 1870Q2052 1764 1999 1700T1858 1635Q1820 1635 1785 1646T1708 1684Z" />
<glyph unicode="&#xd2;" glyph-name="Ograve" horiz-adv-x="1741" d="M788 1241Q612 1241 515 1111T418 745Q418 510 515 380T788 250Q965 250 1062 380T1159 745Q1159 981 1062 1111T788 1241ZM788 1520Q1148 1520 1352 1314T1556 745Q1556 383 1352 177T788
-29Q429 -29 225 177T20 745Q20 1108 224 1314T788 1520ZM1641 1899L1839 1635H1643L1358 1899H1641Z" />
<glyph unicode="&#xd3;" glyph-name="Oacute" horiz-adv-x="1741" d="M788 1241Q612 1241 515 1111T418 745Q418 510 515 380T788 250Q965 250 1062 380T1159 745Q1159 981 1062 1111T788 1241ZM788 1520Q1148 1520 1352 1314T1556 745Q1556 383 1352 177T788
-29Q429 -29 225 177T20 745Q20 1108 224 1314T788 1520ZM1561 1899H1844L1559 1635H1363L1561 1899Z" />
<glyph unicode="&#xd4;" glyph-name="Ocircumflex" horiz-adv-x="1741" d="M788 1241Q612 1241 515 1111T418 745Q418 510 515 380T788 250Q965 250 1062 380T1159 745Q1159 981 1062 1111T788 1241ZM788 1520Q1148 1520 1352 1314T1556 745Q1556 383 1352 177T788
-29Q429 -29 225 177T20 745Q20 1108 224 1314T788 1520ZM1591 1899H1899L2122 1635H1944L1745 1796L1546 1635H1368L1591 1899Z" />
<glyph unicode="&#xd5;" glyph-name="Otilde" horiz-adv-x="1741" d="M788 1241Q612 1241 515 1111T418 745Q418 510 515 380T788 250Q965 250 1062 380T1159 745Q1159 981 1062 1111T788 1241ZM788 1520Q1148 1520 1352 1314T1556 745Q1556 383 1352 177T788
-29Q429 -29 225 177T20 745Q20 1108 224 1314T788 1520ZM1758 1684L1702 1719Q1699 1721 1692 1725Q1647 1751 1619 1751Q1587 1751 1567 1721T1547 1641V1635H1408Q1408 1640 1409 1650T1410 1665Q1410 1771 1463 1836T1604 1901Q1641 1901 1678 1889T1754 1852L1813
1813Q1834 1799 1853 1792T1889 1784Q1926 1784 1945 1814T1965 1901H2104Q2104 1895 2103 1885T2102 1870Q2102 1764 2049 1700T1908 1635Q1870 1635 1835 1646T1758 1684Z" />
<glyph unicode="&#xd6;" glyph-name="Odieresis" horiz-adv-x="1741" d="M788 1241Q612 1241 515 1111T418 745Q418 510 515 380T788 250Q965 250 1062 380T1159 745Q1159 981 1062 1111T788 1241ZM788 1520Q1148 1520 1352 1314T1556 745Q1556 383 1352 177T788
-29Q429 -29 225 177T20 745Q20 1108 224 1314T788 1520ZM1416 1899H1651V1653H1416V1899ZM1811 1899H2046V1653H1811V1899Z" />
<glyph unicode="&#xd7;" glyph-name="multiply" horiz-adv-x="1250" d="M1227 1075L793 641L1227 209L1059 41L625 473L191 41L23 209L457 641L23 1075L191 1243L625 809L1059 1243L1227 1075Z" />
<glyph unicode="&#xd8;" glyph-name="Oslash" horiz-adv-x="1674" d="M575 371Q627 309 692 280T841 250Q1018 250 1115 380T1212 745Q1212 813 1205 871T1181 979L575 371ZM1104 1126Q1053 1184 988 1212T841 1241Q665 1241 568 1111T471 745Q471 681 478 625T499
522L1104 1126ZM221 244Q147 344 110 469T73 745Q73 1108 277 1314T841 1520Q995 1520 1119 1483T1345 1368L1544 1567L1657 1452L1456 1253Q1533 1154 1571 1027T1609 745Q1609 383 1405 177T841 -29Q688 -29 561 10T331 129L129 -74L16 39L221 244Z" />
<glyph unicode="&#xd9;" glyph-name="Ugrave" horiz-adv-x="1663" d="M29 1493H414V598Q414 413 474 334T672 254Q810 254 870 333T931 598V1493H1316V598Q1316 281 1157 126T672 -29Q347 -29 188 126T29 598V1493ZM1602 1899L1800 1635H1604L1319 1899H1602Z" />
<glyph unicode="&#xda;" glyph-name="Uacute" horiz-adv-x="1663" d="M29 1493H414V598Q414 413 474 334T672 254Q810 254 870 333T931 598V1493H1316V598Q1316 281 1157 126T672 -29Q347 -29 188 126T29 598V1493ZM1522 1899H1805L1520 1635H1324L1522 1899Z" />
<glyph unicode="&#xdb;" glyph-name="Ucircumflex" horiz-adv-x="1663" d="M29 1493H414V598Q414 413 474 334T672 254Q810 254 870 333T931 598V1493H1316V598Q1316 281 1157 126T672 -29Q347 -29 188 126T29 598V1493ZM1577 1899H1885L2108 1635H1930L1731 1796L1532
1635H1354L1577 1899Z" />
<glyph unicode="&#xdc;" glyph-name="Udieresis" horiz-adv-x="1663" d="M29 1493H414V598Q414 413 474 334T672 254Q810 254 870 333T931 598V1493H1316V598Q1316 281 1157 126T672 -29Q347 -29 188 126T29 598V1493ZM1378 1899H1613V1653H1378V1899ZM1773 1899H2008V1653H1773V1899Z"
/>
<glyph unicode="&#xdd;" glyph-name="Yacute" horiz-adv-x="1483" d="M3 1493H424L764 961L1104 1493H1526L957 629V0H572V629L3 1493ZM1432 1899H1715L1430 1635H1234L1432 1899Z" />
<glyph unicode="&#xde;" glyph-name="Thorn" horiz-adv-x="1263" d="M419 258V0H34V1493H419V1233H673Q958 1233 1110 1107T1263 745Q1263 511 1111 385T673 258H419ZM419 956V537H632Q744 537 805 591T866 745Q866 846 805 901T632 956H419Z" />
<glyph unicode="&#xdf;" glyph-name="germandbls" horiz-adv-x="1257" d="M31 1114Q31 1336 166 1446T574 1556Q836 1556 970 1444T1104 1114V1043Q953 1033 881 994T809 881Q809 844 833 816T951 735L1020 698Q1136 634 1189 550T1243 348Q1243 159 1129 65T783
-29Q718 -29 649 -17T506 20V264Q562 237 619 223T731 209Q803 209 847 245T891 338Q891 385 864 419T738 508L668 547Q580 596 538 663T496 821Q496 937 565 1016T780 1145Q779 1230 731 1274T592 1319Q491 1319 440 1264T389 1100V0H31V1114Z" />
<glyph unicode="&#xe0;" glyph-name="agrave" horiz-adv-x="1382" d="M606 504Q494 504 438 466T381 354Q381 286 426 248T553 209Q654 209 723 281T792 463V504H606ZM1153 639V0H792V166Q720 64 630 18T411 -29Q237 -29 129 72T20 336Q20 533 155 625T581 717H792V745Q792
830 725 869T516 909Q401 909 302 886T118 817V1090Q233 1118 349 1132T581 1147Q884 1147 1018 1028T1153 639ZM469 1638L751 1262H555L186 1638H469Z" />
<glyph unicode="&#xe1;" glyph-name="aacute" horiz-adv-x="1382" d="M606 504Q494 504 438 466T381 354Q381 286 426 248T553 209Q654 209 723 281T792 463V504H606ZM1153 639V0H792V166Q720 64 630 18T411 -29Q237 -29 129 72T20 336Q20 533 155 625T581 717H792V745Q792
830 725 869T516 909Q401 909 302 886T118 817V1090Q233 1118 349 1132T581 1147Q884 1147 1018 1028T1153 639ZM470 1638H753L384 1262H188L470 1638Z" />
<glyph unicode="&#xe2;" glyph-name="acircumflex" horiz-adv-x="1382" d="M606 504Q494 504 438 466T381 354Q381 286 426 248T553 209Q654 209 723 281T792 463V504H606ZM1153 639V0H792V166Q720 64 630 18T411 -29Q237 -29 129 72T20 336Q20 533 155 625T581
717H792V745Q792 830 725 869T516 909Q401 909 302 886T118 817V1090Q233 1118 349 1132T581 1147Q884 1147 1018 1028T1153 639ZM450 1638H692L948 1262H770L571 1487L372 1262H194L450 1638Z" />
<glyph unicode="&#xe3;" glyph-name="atilde" horiz-adv-x="1382" d="M606 504Q494 504 438 466T381 354Q381 286 426 248T553 209Q654 209 723 281T792 463V504H606ZM1153 639V0H792V166Q720 64 630 18T411 -29Q237 -29 129 72T20 336Q20 533 155 625T581 717H792V745Q792
830 725 869T516 909Q401 909 302 886T118 817V1090Q233 1118 349 1132T581 1147Q884 1147 1018 1028T1153 639ZM561 1364L506 1401Q502 1403 496 1407Q449 1438 424 1438Q388 1438 369 1407T350 1317V1309H211Q211 1445 262 1519T407 1593Q443 1593 479 1580T557
1536L618 1493Q640 1478 658 1470T692 1462Q728 1462 748 1494T768 1583V1591H907Q907 1455 856 1381T711 1307Q675 1307 642 1319T561 1364Z" />
<glyph unicode="&#xe4;" glyph-name="adieresis" horiz-adv-x="1382" d="M606 504Q494 504 438 466T381 354Q381 286 426 248T553 209Q654 209 723 281T792 463V504H606ZM1153 639V0H792V166Q720 64 630 18T411 -29Q237 -29 129 72T20 336Q20 533 155 625T581
717H792V745Q792 830 725 869T516 909Q401 909 302 886T118 817V1090Q233 1118 349 1132T581 1147Q884 1147 1018 1028T1153 639ZM220 1585H455V1339H220V1585ZM615 1585H850V1339H615V1585Z" />
<glyph unicode="&#xe5;" glyph-name="aring" horiz-adv-x="1382" d="M606 504Q494 504 438 466T381 354Q381 286 426 248T553 209Q654 209 723 281T792 463V504H606ZM1153 639V0H792V166Q720 64 630 18T411 -29Q237 -29 129 72T20 336Q20 533 155 625T581 717H792V745Q792
830 725 869T516 909Q401 909 302 886T118 817V1090Q233 1118 349 1132T581 1147Q884 1147 1018 1028T1153 639ZM356 1534Q356 1479 394 1441T487 1403Q542 1403 580 1441T618 1534Q618 1588 580 1626T487 1665Q432 1665 394 1627T356 1534ZM202 1534Q202 1652
285 1735T487 1819Q605 1819 688 1736T772 1534Q772 1416 689 1333T487 1249Q369 1249 286 1332T202 1534Z" />
<glyph unicode="&#xe6;" glyph-name="ae" horiz-adv-x="2011" d="M1617 682Q1617 784 1558 846T1402 909Q1299 909 1235 851T1155 682H1617ZM612 504Q500 504 444 466T387 354Q387 286 432 248T559 209Q660 209 729 281T798 463V504H612ZM124 1090Q243 1118 354
1132T563 1147Q713 1147 821 1109T1001 991Q1078 1068 1180 1107T1404 1147Q1669 1147 1827 988T1986 563V461H1148Q1162 335 1239 272T1458 209Q1571 209 1689 242T1933 344V68Q1806 20 1679 -4T1425 -29Q1246 -29 1114 24T909 178Q808 71 697 21T446 -29Q252
-29 139 69T26 336Q26 533 161 625T587 717H798V745Q798 830 731 869T522 909Q407 909 308 886T124 817V1090Z" />
<glyph unicode="&#xe7;" glyph-name="ccedilla" horiz-adv-x="1214" d="M1004 1085V793Q931 843 858 867T705 891Q555 891 472 804T388 559Q388 402 471 315T705 227Q789 227 864 252T1004 326V33Q920 2 834 -13T660 -29Q357 -29 186 126T15 559Q15 836 186 991T660
1147Q748 1147 833 1132T1004 1085ZM528 0Q586 -62 613 -115T641 -215Q641 -310 580 -355T391 -401Q343 -401 292 -395T189 -375L188 -223Q238 -239 279 -246T354 -254Q412 -254 444 -231T477 -168Q477 -142 456 -101T389 0H528Z" />
<glyph unicode="&#xe8;" glyph-name="egrave" horiz-adv-x="1389" d="M1220 563V461H383Q396 335 474 272T692 209Q805 209 923 242T1167 344V68Q1040 20 913 -4T659 -29Q355 -29 187 125T18 559Q18 833 183 990T639 1147Q903 1147 1061 988T1220 563ZM852 682Q852
784 793 846T637 909Q533 909 468 851T387 682H852ZM500 1638L782 1262H586L217 1638H500Z" />
<glyph unicode="&#xe9;" glyph-name="eacute" horiz-adv-x="1389" d="M1220 563V461H383Q396 335 474 272T692 209Q805 209 923 242T1167 344V68Q1040 20 913 -4T659 -29Q355 -29 187 125T18 559Q18 833 183 990T639 1147Q903 1147 1061 988T1220 563ZM852 682Q852
784 793 846T637 909Q533 909 468 851T387 682H852ZM501 1638H784L415 1262H219L501 1638Z" />
<glyph unicode="&#xea;" glyph-name="ecircumflex" horiz-adv-x="1389" d="M1220 563V461H383Q396 335 474 272T692 209Q805 209 923 242T1167 344V68Q1040 20 913 -4T659 -29Q355 -29 187 125T18 559Q18 833 183 990T639 1147Q903 1147 1061 988T1220 563ZM852
682Q852 784 793 846T637 909Q533 909 468 851T387 682H852ZM481 1638H723L979 1262H801L602 1487L403 1262H225L481 1638Z" />
<glyph unicode="&#xeb;" glyph-name="edieresis" horiz-adv-x="1389" d="M1220 563V461H383Q396 335 474 272T692 209Q805 209 923 242T1167 344V68Q1040 20 913 -4T659 -29Q355 -29 187 125T18 559Q18 833 183 990T639 1147Q903 1147 1061 988T1220 563ZM852
682Q852 784 793 846T637 909Q533 909 468 851T387 682H852ZM251 1585H486V1339H251V1585ZM646 1585H881V1339H646V1585Z" />
<glyph unicode="&#xec;" glyph-name="igrave" horiz-adv-x="702" d="M34 1120H392V0H34V1120ZM147 1638L429 1262H233L-136 1638H147Z" />
<glyph unicode="&#xed;" glyph-name="iacute" horiz-adv-x="702" d="M34 1120H392V0H34V1120ZM148 1638H431L62 1262H-134L148 1638Z" />
<glyph unicode="&#xee;" glyph-name="icircumflex" horiz-adv-x="702" d="M34 1120H392V0H34V1120ZM103 1638H345L601 1262H423L224 1487L25 1262H-153L103 1638Z" />
<glyph unicode="&#xef;" glyph-name="idieresis" horiz-adv-x="702" d="M34 1120H392V0H34V1120ZM-127 1585H108V1339H-127V1585ZM268 1585H503V1339H268V1585Z" />
<glyph unicode="&#xf0;" glyph-name="eth" horiz-adv-x="1261" d="M845 743Q790 770 736 783T630 797Q513 797 450 731T386 543Q386 395 451 311T630 227Q747 227 809 312T871 559Q871 604 865 650T845 743ZM1021 1100Q1138 964 1191 836T1244 559Q1244 283 1082
127T630 -29Q340 -29 177 127T13 559Q13 790 163 922T578 1055Q624 1055 663 1049T738 1028L548 1247L175 1128L138 1257L445 1354L257 1556H609L720 1440L1096 1554L1131 1425L816 1329L1021 1100Z" />
<glyph unicode="&#xf1;" glyph-name="ntilde" horiz-adv-x="1458" d="M1160 682V0H800V111V522Q800 667 794 722T771 803Q750 838 714 857T632 877Q520 877 456 791T392 551V0H34V1120H392V956Q473 1054 564 1100T765 1147Q959 1147 1059 1028T1160 682ZM617 1364L562
1401Q558 1403 552 1407Q505 1438 480 1438Q444 1438 425 1407T406 1317V1309H267Q267 1445 318 1519T463 1593Q499 1593 535 1580T613 1536L674 1493Q696 1478 714 1470T748 1462Q784 1462 804 1494T824 1583V1591H963Q963 1455 912 1381T767 1307Q731 1307 698
1319T617 1364Z" />
<glyph unicode="&#xf2;" glyph-name="ograve" horiz-adv-x="1407" d="M636 891Q517 891 455 806T392 559Q392 398 454 313T636 227Q753 227 815 312T877 559Q877 720 815 805T636 891ZM636 1147Q925 1147 1087 991T1250 559Q1250 283 1088 127T636 -29Q346 -29
183 127T19 559Q19 835 182 991T636 1147ZM498 1638L780 1262H584L215 1638H498Z" />
<glyph unicode="&#xf3;" glyph-name="oacute" horiz-adv-x="1407" d="M636 891Q517 891 455 806T392 559Q392 398 454 313T636 227Q753 227 815 312T877 559Q877 720 815 805T636 891ZM636 1147Q925 1147 1087 991T1250 559Q1250 283 1088 127T636 -29Q346 -29
183 127T19 559Q19 835 182 991T636 1147ZM499 1638H782L413 1262H217L499 1638Z" />
<glyph unicode="&#xf4;" glyph-name="ocircumflex" horiz-adv-x="1407" d="M636 891Q517 891 455 806T392 559Q392 398 454 313T636 227Q753 227 815 312T877 559Q877 720 815 805T636 891ZM636 1147Q925 1147 1087 991T1250 559Q1250 283 1088 127T636 -29Q346
-29 183 127T19 559Q19 835 182 991T636 1147ZM455 1638H697L953 1262H775L576 1487L377 1262H199L455 1638Z" />
<glyph unicode="&#xf5;" glyph-name="otilde" horiz-adv-x="1407" d="M636 891Q517 891 455 806T392 559Q392 398 454 313T636 227Q753 227 815 312T877 559Q877 720 815 805T636 891ZM636 1147Q925 1147 1087 991T1250 559Q1250 283 1088 127T636 -29Q346 -29
183 127T19 559Q19 835 182 991T636 1147ZM565 1364L510 1401Q506 1403 500 1407Q453 1438 428 1438Q392 1438 373 1407T354 1317V1309H215Q215 1445 266 1519T411 1593Q447 1593 483 1580T561 1536L622 1493Q644 1478 662 1470T696 1462Q732 1462 752 1494T772
1583V1591H911Q911 1455 860 1381T715 1307Q679 1307 646 1319T565 1364Z" />
<glyph unicode="&#xf6;" glyph-name="odieresis" horiz-adv-x="1407" d="M636 891Q517 891 455 806T392 559Q392 398 454 313T636 227Q753 227 815 312T877 559Q877 720 815 805T636 891ZM636 1147Q925 1147 1087 991T1250 559Q1250 283 1088 127T636 -29Q346
-29 183 127T19 559Q19 835 182 991T636 1147ZM224 1585H459V1339H224V1585ZM619 1585H854V1339H619V1585Z" />
<glyph unicode="&#xf7;" glyph-name="divide" horiz-adv-x="1282" d="M488 395H795V86H488V395ZM488 1198H795V889H488V1198ZM0 760H1282V524H0V760Z" />
<glyph unicode="&#xf8;" glyph-name="oslash" horiz-adv-x="1278" d="M795 836Q766 864 729 877T644 891Q525 891 463 806T400 559Q400 518 403 486T414 426L795 836ZM486 287Q517 257 556 242T644 227Q761 227 823 312T885 559Q885 602 882 635T871 698L486 287ZM162
158Q95 236 61 336T27 559Q27 835 190 991T644 1147Q750 1147 839 1125T1004 1059L1151 1217L1260 1116L1119 967Q1189 887 1223 786T1258 559Q1258 283 1096 127T644 -29Q536 -29 445 -7T277 61L129 -94L17 0L162 158Z" />
<glyph unicode="&#xf9;" glyph-name="ugrave" horiz-adv-x="1458" d="M30 436V1120H390V1008Q390 917 389 780T388 596Q388 461 395 402T419 315Q441 280 476 261T558 242Q670 242 734 328T798 567V1120H1156V0H798V162Q717 64 627 18T427 -29Q233 -29 132 90T30
436ZM525 1638L807 1262H611L242 1638H525Z" />
<glyph unicode="&#xfa;" glyph-name="uacute" horiz-adv-x="1458" d="M30 436V1120H390V1008Q390 917 389 780T388 596Q388 461 395 402T419 315Q441 280 476 261T558 242Q670 242 734 328T798 567V1120H1156V0H798V162Q717 64 627 18T427 -29Q233 -29 132 90T30
436ZM526 1638H809L440 1262H244L526 1638Z" />
<glyph unicode="&#xfb;" glyph-name="ucircumflex" horiz-adv-x="1458" d="M30 436V1120H390V1008Q390 917 389 780T388 596Q388 461 395 402T419 315Q441 280 476 261T558 242Q670 242 734 328T798 567V1120H1156V0H798V162Q717 64 627 18T427 -29Q233 -29 132
90T30 436ZM476 1638H718L974 1262H796L597 1487L398 1262H220L476 1638Z" />
<glyph unicode="&#xfc;" glyph-name="udieresis" horiz-adv-x="1458" d="M30 436V1120H390V1008Q390 917 389 780T388 596Q388 461 395 402T419 315Q441 280 476 261T558 242Q670 242 734 328T798 567V1120H1156V0H798V162Q717 64 627 18T427 -29Q233 -29 132
90T30 436ZM246 1585H481V1339H246V1585ZM641 1585H876V1339H641V1585Z" />
<glyph unicode="&#xfd;" glyph-name="yacute" horiz-adv-x="1335" d="M16 1120H374L675 360L931 1120H1289L818 -106Q747 -293 653 -367T403 -442H196V-207H308Q399 -207 440 -178T505 -74L515 -43L16 1120ZM440 1638H723L354 1262H158L440 1638Z" />
<glyph unicode="&#xfe;" glyph-name="thorn" horiz-adv-x="1236" d="M392 162V-426H34V1556H392V956Q466 1054 556 1100T763 1147Q970 1147 1103 983T1236 559Q1236 300 1103 136T763 -29Q646 -29 556 17T392 162ZM630 887Q515 887 454 803T392 559Q392 400 453
316T630 231Q745 231 805 315T866 559Q866 719 806 803T630 887Z" />
<glyph unicode="&#xff;" glyph-name="ydieresis" horiz-adv-x="1335" d="M16 1120H374L675 360L931 1120H1289L818 -106Q747 -293 653 -367T403 -442H196V-207H308Q399 -207 440 -178T505 -74L515 -43L16 1120ZM190 1585H425V1339H190V1585ZM585 1585H820V1339H585V1585Z" />
<glyph unicode="&#x100;" glyph-name="Amacron" horiz-adv-x="1585" d="M314 1871H944V1683H314V1871ZM1092 272H490L395 0H8L561 1493H1020L1573 0H1186L1092 272ZM586 549H995L791 1143L586 549Z" />
<glyph unicode="&#x101;" glyph-name="amacron" horiz-adv-x="1382" d="M171 1562H801V1374H171V1562ZM606 504Q494 504 438 466T381 354Q381 286 426 248T553 209Q654 209 723 281T792 463V504H606ZM1153 639V0H792V166Q720 64 630 18T411 -29Q237 -29 129 72T20
336Q20 533 155 625T581 717H792V745Q792 830 725 869T516 909Q401 909 302 886T118 817V1090Q233 1118 349 1132T581 1147Q884 1147 1018 1028T1153 639Z" />
<glyph unicode="&#x102;" glyph-name="Abreve" horiz-adv-x="1585" d="M294 1914H437Q448 1844 497 1807T630 1770Q713 1770 762 1807T823 1914H966Q960 1770 873 1694T630 1617Q474 1617 387 1693T294 1914ZM1092 272H490L395 0H8L561 1493H1020L1573 0H1186L1092
272ZM586 549H995L791 1143L586 549Z" />
<glyph unicode="&#x103;" glyph-name="abreve" horiz-adv-x="1382" d="M235 1598H378Q389 1528 438 1491T571 1454Q654 1454 703 1491T764 1598H907Q901 1454 814 1378T571 1301Q415 1301 328 1377T235 1598ZM606 504Q494 504 438 466T381 354Q381 286 426 248T553
209Q654 209 723 281T792 463V504H606ZM1153 639V0H792V166Q720 64 630 18T411 -29Q237 -29 129 72T20 336Q20 533 155 625T581 717H792V745Q792 830 725 869T516 909Q401 909 302 886T118 817V1090Q233 1118 349 1132T581 1147Q884 1147 1018 1028T1153 639Z"
/>
<glyph unicode="&#x104;" glyph-name="Aogonek" horiz-adv-x="1585" d="M864 0H1005Q955 -67 936 -103T917 -166Q917 -205 946 -229T1025 -254Q1064 -254 1102 -247T1181 -223V-379Q1126 -390 1079 -395T991 -401Q876 -401 815 -355T753 -223Q753 -170 780 -116T864
0ZM1092 272H490L395 0H8L561 1493H1020L1573 0H1186L1092 272ZM586 549H995L791 1143L586 549Z" />
<glyph unicode="&#x105;" glyph-name="aogonek" horiz-adv-x="1382" d="M541 0H682Q632 -67 613 -103T594 -166Q594 -205 623 -229T702 -254Q741 -254 779 -247T858 -223V-379Q803 -390 756 -395T668 -401Q553 -401 492 -355T430 -223Q430 -170 457 -116T541 0ZM606
504Q494 504 438 466T381 354Q381 286 426 248T553 209Q654 209 723 281T792 463V504H606ZM1153 639V0H792V166Q720 64 630 18T411 -29Q237 -29 129 72T20 336Q20 533 155 625T581 717H792V745Q792 830 725 869T516 909Q401 909 302 886T118 817V1090Q233 1118
349 1132T581 1147Q884 1147 1018 1028T1153 639Z" />
<glyph unicode="&#x106;" glyph-name="Cacute" horiz-adv-x="1503" d="M1286 82Q1180 27 1065 -1T825 -29Q452 -29 234 179T16 745Q16 1103 234 1311T825 1520Q950 1520 1065 1492T1286 1409V1100Q1179 1173 1075 1207T856 1241Q650 1241 532 1109T414 745Q414
514 532 382T856 250Q971 250 1075 284T1286 391V82ZM1585 1899H1868L1583 1635H1387L1585 1899Z" />
<glyph unicode="&#x107;" glyph-name="cacute" horiz-adv-x="1214" d="M1004 1085V793Q931 843 858 867T705 891Q555 891 472 804T388 559Q388 402 471 315T705 227Q789 227 864 252T1004 326V33Q920 2 834 -13T660 -29Q357 -29 186 126T15 559Q15 836 186 991T660
1147Q748 1147 833 1132T1004 1085ZM495 1638H778L409 1262H213L495 1638Z" />
<glyph unicode="&#x108;" glyph-name="Ccircumflex" horiz-adv-x="1503" d="M1656 1899H1964L2187 1635H2009L1810 1796L1611 1635H1433L1656 1899ZM1286 82Q1180 27 1065 -1T825 -29Q452 -29 234 179T16 745Q16 1103 234 1311T825 1520Q950 1520 1065 1492T1286
1409V1100Q1179 1173 1075 1207T856 1241Q650 1241 532 1109T414 745Q414 514 532 382T856 250Q971 250 1075 284T1286 391V82Z" />
<glyph unicode="&#x109;" glyph-name="ccircumflex" horiz-adv-x="1214" d="M485 1638H727L983 1262H805L606 1487L407 1262H229L485 1638ZM1004 1085V793Q931 843 858 867T705 891Q555 891 472 804T388 559Q388 402 471 315T705 227Q789 227 864 252T1004 326V33Q920
2 834 -13T660 -29Q357 -29 186 126T15 559Q15 836 186 991T660 1147Q748 1147 833 1132T1004 1085Z" />
<glyph unicode="&#x10a;" glyph-name="Cdotaccent" horiz-adv-x="1503" d="M1457 1899H1731V1653H1457V1899ZM1286 82Q1180 27 1065 -1T825 -29Q452 -29 234 179T16 745Q16 1103 234 1311T825 1520Q950 1520 1065 1492T1286 1409V1100Q1179 1173 1075 1207T856
1241Q650 1241 532 1109T414 745Q414 514 532 382T856 250Q971 250 1075 284T1286 391V82Z" />
<glyph unicode="&#x10b;" glyph-name="cdotaccent" horiz-adv-x="1214" d="M1281 1556H1639V1264H1281V1556ZM1004 1085V793Q931 843 858 867T705 891Q555 891 472 804T388 559Q388 402 471 315T705 227Q789 227 864 252T1004 326V33Q920 2 834 -13T660 -29Q357
-29 186 126T15 559Q15 836 186 991T660 1147Q748 1147 833 1132T1004 1085Z" />
<glyph unicode="&#x10c;" glyph-name="Ccaron" horiz-adv-x="1503" d="M1286 82Q1180 27 1065 -1T825 -29Q452 -29 234 179T16 745Q16 1103 234 1311T825 1520Q950 1520 1065 1492T1286 1409V1100Q1179 1173 1075 1207T856 1241Q650 1241 532 1109T414 745Q414
514 532 382T856 250Q971 250 1075 284T1286 391V82ZM1614 1635L1391 1899H1569L1768 1737L1967 1899H2145L1922 1635H1614Z" />
<glyph unicode="&#x10d;" glyph-name="ccaron" horiz-adv-x="1214" d="M1004 1085V793Q931 843 858 867T705 891Q555 891 472 804T388 559Q388 402 471 315T705 227Q789 227 864 252T1004 326V33Q920 2 834 -13T660 -29Q357 -29 186 126T15 559Q15 836 186 991T660
1147Q748 1147 833 1132T1004 1085ZM474 1262L218 1638H396L595 1411L794 1638H972L716 1262H474Z" />
<glyph unicode="&#x10e;" glyph-name="Dcaron" horiz-adv-x="1700" d="M423 1202V291H561Q797 291 921 408T1046 748Q1046 970 922 1086T561 1202H423ZM38 1493H444Q784 1493 950 1445T1236 1280Q1341 1179 1392 1047T1443 748Q1443 579 1392 447T1236 213Q1116
97 948 49T444 0H38V1493ZM1523 1635L1300 1899H1478L1677 1737L1876 1899H2054L1831 1635H1523Z" />
<glyph unicode="&#x10f;" glyph-name="dcaron" horiz-adv-x="1466" d="M845 956V1556H1205V0H845V162Q771 63 682 17T476 -29Q269 -29 136 135T3 559Q3 818 136 982T476 1147Q592 1147 681 1101T845 956ZM609 231Q724 231 784 315T845 559Q845 719 785 803T609
887Q495 887 435 803T374 559Q374 399 434 315T609 231ZM2175 1555H2458L2291 1179H2095L2175 1555Z" />
<glyph unicode="&#x110;" glyph-name="Dcroat" horiz-adv-x="1716" d="M576 1202V881H811V621H576V291H713Q949 291 1073 408T1198 748Q1198 970 1074 1086T713 1202H576ZM191 1493H596Q937 1493 1103 1445T1389 1280Q1493 1179 1544 1047T1596 748Q1596 579 1545
447T1389 213Q1268 97 1100 49T596 0H191V621H17V881H191V1493Z" />
<glyph unicode="&#x111;" glyph-name="" horiz-adv-x="1381" d="M850 956V1237H524V1442H850V1556H1210V1442H1364V1237H1210V0H850V162Q776 63 687 17T481 -29Q274 -29 141 135T8 559Q8 818 141 982T481 1147Q597 1147 686 1101T850 956ZM614 231Q729 231 789
315T850 559Q850 719 790 803T614 887Q500 887 440 803T379 559Q379 399 439 315T614 231Z" />
<glyph unicode="&#x112;" glyph-name="Emacron" horiz-adv-x="1399" d="M230 1871H860V1683H230V1871ZM38 1493H1077V1202H423V924H1038V633H423V291H1099V0H38V1493Z" />
<glyph unicode="&#x113;" glyph-name="emacron" horiz-adv-x="1389" d="M207 1563H837V1375H207V1563ZM1220 563V461H383Q396 335 474 272T692 209Q805 209 923 242T1167 344V68Q1040 20 913 -4T659 -29Q355 -29 187 125T18 559Q18 833 183 990T639 1147Q903 1147
1061 988T1220 563ZM852 682Q852 784 793 846T637 909Q533 909 468 851T387 682H852Z" />
<glyph unicode="&#x114;" glyph-name="Ebreve" horiz-adv-x="1399" d="M1220 1899H1363Q1384 1838 1432 1808T1556 1778Q1632 1778 1680 1808T1749 1899H1892Q1876 1770 1790 1703T1556 1635Q1408 1635 1322 1702T1220 1899ZM38 1493H1077V1202H423V924H1038V633H423V291H1099V0H38V1493Z"
/>
<glyph unicode="&#x115;" glyph-name="ebreve" horiz-adv-x="1389" d="M234 1606H377Q388 1536 437 1499T570 1462Q653 1462 702 1499T763 1606H906Q900 1462 813 1386T570 1309Q414 1309 327 1385T234 1606ZM1220 563V461H383Q396 335 474 272T692 209Q805 209
923 242T1167 344V68Q1040 20 913 -4T659 -29Q355 -29 187 125T18 559Q18 833 183 990T639 1147Q903 1147 1061 988T1220 563ZM852 682Q852 784 793 846T637 909Q533 909 468 851T387 682H852Z" />
<glyph unicode="&#x116;" glyph-name="Edotaccent" horiz-adv-x="1399" d="M1238 1899H1512V1653H1238V1899ZM38 1493H1077V1202H423V924H1038V633H423V291H1099V0H38V1493Z" />
<glyph unicode="&#x117;" glyph-name="edotaccent" horiz-adv-x="1389" d="M1277 1556H1635V1264H1277V1556ZM1220 563V461H383Q396 335 474 272T692 209Q805 209 923 242T1167 344V68Q1040 20 913 -4T659 -29Q355 -29 187 125T18 559Q18 833 183 990T639 1147Q903
1147 1061 988T1220 563ZM852 682Q852 784 793 846T637 909Q533 909 468 851T387 682H852Z" />
<glyph unicode="&#x118;" glyph-name="Eogonek" horiz-adv-x="1399" d="M609 0H750Q700 -67 681 -103T662 -166Q662 -205 691 -229T770 -254Q809 -254 847 -247T926 -223V-379Q871 -390 824 -395T736 -401Q621 -401 560 -355T498 -223Q498 -170 525 -116T609 0ZM38
1493H1077V1202H423V924H1038V633H423V291H1099V0H38V1493Z" />
<glyph unicode="&#x119;" glyph-name="eogonek" horiz-adv-x="1389" d="M537 0H678Q628 -67 609 -103T590 -166Q590 -205 619 -229T698 -254Q737 -254 775 -247T854 -223V-379Q799 -390 752 -395T664 -401Q549 -401 488 -355T426 -223Q426 -170 453 -116T537 0ZM1220
563V461H383Q396 335 474 272T692 209Q805 209 923 242T1167 344V68Q1040 20 913 -4T659 -29Q355 -29 187 125T18 559Q18 833 183 990T639 1147Q903 1147 1061 988T1220 563ZM852 682Q852 784 793 846T637 909Q533 909 468 851T387 682H852Z" />
<glyph unicode="&#x11a;" glyph-name="Ecaron" horiz-adv-x="1399" d="M38 1493H1077V1202H423V924H1038V633H423V291H1099V0H38V1493ZM1457 1635L1234 1899H1412L1611 1737L1810 1899H1988L1765 1635H1457Z" />
<glyph unicode="&#x11b;" glyph-name="ecaron" horiz-adv-x="1389" d="M1220 563V461H383Q396 335 474 272T692 209Q805 209 923 242T1167 344V68Q1040 20 913 -4T659 -29Q355 -29 187 125T18 559Q18 833 183 990T639 1147Q903 1147 1061 988T1220 563ZM852 682Q852
784 793 846T637 909Q533 909 468 851T387 682H852ZM474 1262L218 1638H396L595 1411L794 1638H972L716 1262H474Z" />
<glyph unicode="&#x11c;" glyph-name="Gcircumflex" horiz-adv-x="1681" d="M1677 1899H1985L2208 1635H2030L1831 1796L1632 1635H1454L1677 1899ZM1446 111Q1302 41 1147 6T827 -29Q454 -29 236 179T18 745Q18 1106 240 1313T848 1520Q997 1520 1133 1492T1391
1409V1100Q1266 1171 1143 1206T895 1241Q665 1241 541 1113T416 745Q416 508 536 379T877 250Q937 250 988 257T1081 281V571H846V829H1446V111Z" />
<glyph unicode="&#x11d;" glyph-name="gcircumflex" horiz-adv-x="1466" d="M450 1638H692L948 1262H770L571 1487L372 1262H194L450 1638ZM860 190Q786 92 697 46T491 0Q286 0 152 161T18 573Q18 824 152 984T491 1145Q608 1145 697 1099T860 954V1120H1220V113Q1220
-157 1050 -299T555 -442Q450 -442 352 -426T155 -377V-98Q249 -152 339 -178T520 -205Q696 -205 778 -128T860 113V190ZM624 887Q513 887 451 805T389 573Q389 419 449 340T624 260Q736 260 798 342T860 573Q860 723 798 805T624 887Z" />
<glyph unicode="&#x11e;" glyph-name="Gbreve" horiz-adv-x="1681" d="M1446 111Q1302 41 1147 6T827 -29Q454 -29 236 179T18 745Q18 1106 240 1313T848 1520Q997 1520 1133 1492T1391 1409V1100Q1266 1171 1143 1206T895 1241Q665 1241 541 1113T416 745Q416
508 536 379T877 250Q937 250 988 257T1081 281V571H846V829H1446V111ZM1345 1899H1488Q1509 1838 1557 1808T1681 1778Q1757 1778 1805 1808T1874 1899H2017Q2001 1770 1915 1703T1681 1635Q1533 1635 1447 1702T1345 1899Z" />
<glyph unicode="&#x11f;" glyph-name="gbreve" horiz-adv-x="1466" d="M860 190Q786 92 697 46T491 0Q286 0 152 161T18 573Q18 824 152 984T491 1145Q608 1145 697 1099T860 954V1120H1220V113Q1220 -157 1050 -299T555 -442Q450 -442 352 -426T155 -377V-98Q249
-152 339 -178T520 -205Q696 -205 778 -128T860 113V190ZM624 887Q513 887 451 805T389 573Q389 419 449 340T624 260Q736 260 798 342T860 573Q860 723 798 805T624 887ZM238 1606H381Q392 1536 441 1499T574 1462Q657 1462 706 1499T767 1606H910Q904 1462 817
1386T574 1309Q418 1309 331 1385T238 1606Z" />
<glyph unicode="&#x120;" glyph-name="Gdotaccent" horiz-adv-x="1681" d="M1478 1899H1752V1653H1478V1899ZM1446 111Q1302 41 1147 6T827 -29Q454 -29 236 179T18 745Q18 1106 240 1313T848 1520Q997 1520 1133 1492T1391 1409V1100Q1266 1171 1143 1206T895
1241Q665 1241 541 1113T416 745Q416 508 536 379T877 250Q937 250 988 257T1081 281V571H846V829H1446V111Z" />
<glyph unicode="&#x121;" glyph-name="gdotaccent" horiz-adv-x="1466" d="M1246 1556H1604V1264H1246V1556ZM860 190Q786 92 697 46T491 0Q286 0 152 161T18 573Q18 824 152 984T491 1145Q608 1145 697 1099T860 954V1120H1220V113Q1220 -157 1050 -299T555 -442Q450
-442 352 -426T155 -377V-98Q249 -152 339 -178T520 -205Q696 -205 778 -128T860 113V190ZM624 887Q513 887 451 805T389 573Q389 419 449 340T624 260Q736 260 798 342T860 573Q860 723 798 805T624 887Z" />
<glyph unicode="&#x122;" glyph-name="Gcommaaccent" horiz-adv-x="1681" d="M1480 -160H1804L1582 -458H1390L1480 -160ZM1446 111Q1302 41 1147 6T827 -29Q454 -29 236 179T18 745Q18 1106 240 1313T848 1520Q997 1520 1133 1492T1391 1409V1100Q1266 1171 1143
1206T895 1241Q665 1241 541 1113T416 745Q416 508 536 379T877 250Q937 250 988 257T1081 281V571H846V829H1446V111Z" />
<glyph unicode="&#x123;" glyph-name="gcommaaccent" horiz-adv-x="1466" d="M1423 1269H1099L1321 1567H1513L1423 1269ZM860 190Q786 92 697 46T491 0Q286 0 152 161T18 573Q18 824 152 984T491 1145Q608 1145 697 1099T860 954V1120H1220V113Q1220 -157 1050
-299T555 -442Q450 -442 352 -426T155 -377V-98Q249 -152 339 -178T520 -205Q696 -205 778 -128T860 113V190ZM624 887Q513 887 451 805T389 573Q389 419 449 340T624 260Q736 260 798 342T860 573Q860 723 798 805T624 887Z" />
<glyph unicode="&#x124;" glyph-name="Hcircumflex" horiz-adv-x="1714" d="M1602 1899H1910L2133 1635H1955L1756 1796L1557 1635H1379L1602 1899ZM37 1493H422V924H990V1493H1375V0H990V633H422V0H37V1493Z" />
<glyph unicode="&#x125;" glyph-name="hcircumflex" horiz-adv-x="1458" d="M1103 1899H1411L1634 1635H1456L1257 1796L1058 1635H880L1103 1899ZM1160 682V0H800V111V520Q800 667 794 722T771 803Q750 838 714 857T632 877Q520 877 456 791T392 551V0H34V1556H392V956Q473
1054 564 1100T765 1147Q959 1147 1059 1028T1160 682Z" />
<glyph unicode="&#x126;" glyph-name="Hbar" horiz-adv-x="1660" d="M161 1493H546V1306H1114V1493H1499V1306H1639V1112H1499V0H1114V633H546V0H161V1112H21V1306H161V1493ZM546 1112V924H1114V1112H546Z" />
<glyph unicode="&#x127;" glyph-name="hbar" horiz-adv-x="1318" d="M1304 682V0H944V111V520Q944 667 938 722T915 803Q894 838 858 857T776 877Q664 877 600 791T536 551V0H178V1255H18V1449H178V1556H536V1449H899V1255H536V956Q617 1054 708 1100T909 1147Q1103
1147 1203 1028T1304 682Z" />
<glyph unicode="&#x128;" glyph-name="Itilde" horiz-adv-x="762" d="M1267 1684L1211 1719Q1208 1721 1201 1725Q1156 1751 1128 1751Q1096 1751 1076 1721T1056 1641V1635H917Q917 1640 918 1650T919 1665Q919 1771 972 1836T1113 1901Q1150 1901 1187 1889T1263
1852L1322 1813Q1343 1799 1362 1792T1398 1784Q1435 1784 1454 1814T1474 1901H1613Q1613 1895 1612 1885T1611 1870Q1611 1764 1558 1700T1417 1635Q1379 1635 1344 1646T1267 1684ZM37 1493H422V0H37V1493Z" />
<glyph unicode="&#x129;" glyph-name="itilde" horiz-adv-x="702" d="M215 1364L160 1401Q156 1403 150 1407Q103 1438 78 1438Q42 1438 23 1407T4 1317V1309H-135Q-135 1445 -84 1519T61 1593Q97 1593 133 1580T211 1536L272 1493Q294 1478 312 1470T346 1462Q382
1462 402 1494T422 1583V1591H561Q561 1455 510 1381T365 1307Q329 1307 296 1319T215 1364ZM34 1120H392V0H34V1120Z" />
<glyph unicode="&#x12a;" glyph-name="Imacron" horiz-adv-x="762" d="M-97 1871H533V1683H-97V1871ZM37 1493H422V0H37V1493Z" />
<glyph unicode="&#x12b;" glyph-name="imacron" horiz-adv-x="702" d="M-126 1563H504V1375H-126V1563ZM34 1120H392V0H34V1120Z" />
<glyph unicode="&#x12c;" glyph-name="Ibreve" horiz-adv-x="762" d="M908 1899H1051Q1072 1838 1120 1808T1244 1778Q1320 1778 1368 1808T1437 1899H1580Q1564 1770 1478 1703T1244 1635Q1096 1635 1010 1702T908 1899ZM37 1493H422V0H37V1493Z" />
<glyph unicode="&#x12d;" glyph-name="ibreve" horiz-adv-x="702" d="M-143 1606H0Q11 1536 60 1499T193 1462Q276 1462 325 1499T386 1606H529Q523 1462 436 1386T193 1309Q37 1309 -50 1385T-143 1606ZM34 1120H392V0H34V1120Z" />
<glyph unicode="&#x12e;" glyph-name="Iogonek" horiz-adv-x="762" d="M365 0H506Q456 -67 437 -103T418 -166Q418 -205 447 -229T526 -254Q565 -254 603 -247T682 -223V-379Q627 -390 580 -395T492 -401Q377 -401 316 -355T254 -223Q254 -170 281 -116T365 0ZM37
1493H422V0H37V1493Z" />
<glyph unicode="&#x12f;" glyph-name="iogonek" horiz-adv-x="702" d="M322 0H463Q413 -67 394 -103T375 -166Q375 -205 404 -229T483 -254Q522 -254 560 -247T639 -223V-379Q584 -390 537 -395T449 -401Q334 -401 273 -355T211 -223Q211 -170 238 -116T322 0ZM34
1120H392V0H34V1120ZM34 1556H392V1264H34V1556Z" />
<glyph unicode="&#x130;" glyph-name="Idot" horiz-adv-x="762" d="M37 1493H422V0H37V1493ZM930 1899H1204V1653H930V1899Z" />
<glyph unicode="&#x131;" glyph-name="dotlessi" horiz-adv-x="427" d="M34 1120H392V0H34V1120Z" />
<glyph unicode="&#x132;" glyph-name="IJ" horiz-adv-x="1524" d="M1067 1493H1452V145Q1452 -134 1301 -272T842 -410H764V-119H824Q944 -119 1005 -52T1067 145V1493ZM37 1493H422V0H37V1493Z" />
<glyph unicode="&#x133;" glyph-name="ij" horiz-adv-x="1404" d="M943 1120H1301V20Q1301 -205 1193 -323T880 -442H703V-207H765Q867 -207 905 -161T943 20V1120ZM943 1556H1301V1264H943V1556ZM34 1120H392V0H34V1120ZM34 1556H392V1264H34V1556Z" />
<glyph unicode="&#x134;" glyph-name="Jcircumflex" horiz-adv-x="762" d="M1125 1899H1433L1656 1635H1478L1279 1796L1080 1635H902L1125 1899ZM306 1493H691V145Q691 -134 540 -272T81 -410H3V-119H63Q183 -119 244 -52T306 145V1493Z" />
<glyph unicode="&#x135;" glyph-name="jcircumflex" horiz-adv-x="702" d="M104 1638H346L602 1262H424L225 1487L26 1262H-152L104 1638ZM244 1120H602V20Q602 -205 494 -323T181 -442H4V-207H66Q168 -207 206 -161T244 20V1120Z" />
<glyph unicode="&#x136;" glyph-name="Kcommaaccent" horiz-adv-x="1587" d="M1487 -131H1811L1589 -429H1397L1487 -131ZM37 1493H422V948L977 1493H1424L705 786L1498 0H1016L422 588V0H37V1493Z" />
<glyph unicode="&#x137;" glyph-name="kcommaaccent" horiz-adv-x="1362" d="M1355 -131H1679L1457 -429H1265L1355 -131ZM34 1556H392V709L804 1120H1220L673 606L1263 0H829L392 467V0H34V1556Z" />
<glyph unicode="&#x138;" glyph-name="kgreenlandic" horiz-adv-x="1280" d="M34 1120H392V709L804 1120H1220L673 606L1263 0H829L392 467V0H34V1120Z" />
<glyph unicode="&#x139;" glyph-name="Lacute" horiz-adv-x="1305" d="M1162 1900H1445L1160 1636H964L1162 1900ZM37 1493H422V291H1098V0H37V1493Z" />
<glyph unicode="&#x13a;" glyph-name="lacute" horiz-adv-x="702" d="M1112 1900H1395L1110 1636H914L1112 1900ZM34 1556H392V0H34V1556Z" />
<glyph unicode="&#x13b;" glyph-name="Lcommaaccent" horiz-adv-x="1305" d="M1287 -131H1611L1389 -429H1197L1287 -131ZM37 1493H422V291H1098V0H37V1493Z" />
<glyph unicode="&#x13c;" glyph-name="lcommaaccent" horiz-adv-x="702" d="M920 -131H1244L1022 -429H830L920 -131ZM34 1556H392V0H34V1556Z" />
<glyph unicode="&#x13d;" glyph-name="Lcaron" horiz-adv-x="1305" d="M1637 1494H1920L1753 1118H1557L1637 1494ZM37 1493H422V291H1098V0H37V1493Z" />
<glyph unicode="&#x13e;" glyph-name="lcaron" horiz-adv-x="982" d="M1373 1556H1656L1489 1180H1293L1373 1556ZM34 1556H392V0H34V1556Z" />
<glyph unicode="&#x13f;" glyph-name="Ldot" horiz-adv-x="1305" d="M676 1091H1036V704H676V1091ZM37 1493H422V291H1098V0H37V1493Z" />
<glyph unicode="&#x140;" glyph-name="ldot" horiz-adv-x="1140" d="M456 1087H816V700H456V1087ZM34 1556H392V0H34V1556Z" />
<glyph unicode="&#x141;" glyph-name="Lslash" horiz-adv-x="1361" d="M297 1493H682V1077L936 1262L1079 1069L682 797V291H1358V0H297V524L149 418L6 608L297 805V1493Z" />
<glyph unicode="&#x142;" glyph-name="lslash" horiz-adv-x="838" d="M237 1556H597V1055L726 1143L837 989L597 825V0H237V641L112 555L1 709L237 872V1556Z" />
<glyph unicode="&#x143;" glyph-name="Nacute" horiz-adv-x="1714" d="M1526 1900H1809L1524 1636H1328L1526 1900ZM36 1493H466L1009 469V1493H1374V0H944L401 1024V0H36V1493Z" />
<glyph unicode="&#x144;" glyph-name="nacute" horiz-adv-x="1458" d="M409 1645H692L323 1269H127L409 1645ZM1160 682V0H800V111V522Q800 667 794 722T771 803Q750 838 714 857T632 877Q520 877 456 791T392 551V0H34V1120H392V956Q473 1054 564 1100T765 1147Q959
1147 1059 1028T1160 682Z" />
<glyph unicode="&#x145;" glyph-name="Ncommaaccent" horiz-adv-x="1714" d="M1426 -131H1750L1528 -429H1336L1426 -131ZM36 1493H466L1009 469V1493H1374V0H944L401 1024V0H36V1493Z" />
<glyph unicode="&#x146;" glyph-name="ncommaaccent" horiz-adv-x="1458" d="M1304 -131H1628L1406 -429H1214L1304 -131ZM1160 682V0H800V111V522Q800 667 794 722T771 803Q750 838 714 857T632 877Q520 877 456 791T392 551V0H34V1120H392V956Q473 1054 564
1100T765 1147Q959 1147 1059 1028T1160 682Z" />
<glyph unicode="&#x147;" glyph-name="Ncaron" horiz-adv-x="1714" d="M36 1493H466L1009 469V1493H1374V0H944L401 1024V0H36V1493ZM1625 1635L1402 1899H1580L1779 1737L1978 1899H2156L1933 1635H1625Z" />
<glyph unicode="&#x148;" glyph-name="ncaron" horiz-adv-x="1458" d="M1160 682V0H800V111V522Q800 667 794 722T771 803Q750 838 714 857T632 877Q520 877 456 791T392 551V0H34V1120H392V956Q473 1054 564 1100T765 1147Q959 1147 1059 1028T1160 682ZM432
1262L176 1638H354L553 1411L752 1638H930L674 1262H432Z" />
<glyph unicode="&#x149;" glyph-name="napostrophe" horiz-adv-x="1734" d="M1727 682V0H1367V111V522Q1367 667 1361 722T1338 803Q1317 838 1281 857T1199 877Q1087 877 1023 791T959 551V0H601V1120H959V956Q1040 1054 1131 1100T1332 1147Q1526 1147 1626
1028T1727 682ZM107 1493H447V1208L220 856H7L107 1208V1493Z" />
<glyph unicode="&#x14a;" glyph-name="Eng" horiz-adv-x="1368" d="M1340 145Q1340 -152 1208 -272Q1057 -410 750 -410H672V-119H732Q852 -119 915 -50T979 145V691Q979 1001 930 1070Q864 1162 719 1162Q562 1162 473 1047T384 730V0H16V1493H388V1266Q499 1401
615 1460T876 1520Q1103 1520 1221 1362T1340 903V145Z" />
<glyph unicode="&#x14b;" glyph-name="eng" horiz-adv-x="1170" d="M1142 682V20Q1142 -203 1032 -324Q924 -442 719 -442H438V-207H604Q706 -207 744 -161T782 20V522Q782 667 776 722Q769 777 753 803Q732 838 696 858Q660 877 614 877Q502 877 438 790Q374
704 374 551V0H16V1120H374V956Q455 1054 546 1100Q637 1147 747 1147Q941 1147 1042 1028Q1142 909 1142 682Z" />
<glyph unicode="&#x14c;" glyph-name="Omacron" horiz-adv-x="1741" d="M392 1871H1022V1683H392V1871ZM788 1241Q612 1241 515 1111T418 745Q418 510 515 380T788 250Q965 250 1062 380T1159 745Q1159 981 1062 1111T788 1241ZM788 1520Q1148 1520 1352 1314T1556
745Q1556 383 1352 177T788 -29Q429 -29 225 177T20 745Q20 1108 224 1314T788 1520Z" />
<glyph unicode="&#x14d;" glyph-name="omacron" horiz-adv-x="1407" d="M227 1563H857V1375H227V1563ZM636 891Q517 891 455 806T392 559Q392 398 454 313T636 227Q753 227 815 312T877 559Q877 720 815 805T636 891ZM636 1147Q925 1147 1087 991T1250 559Q1250
283 1088 127T636 -29Q346 -29 183 127T19 559Q19 835 182 991T636 1147Z" />
<glyph unicode="&#x14e;" glyph-name="Obreve" horiz-adv-x="1741" d="M1392 1899H1535Q1556 1838 1604 1808T1728 1778Q1804 1778 1852 1808T1921 1899H2064Q2048 1770 1962 1703T1728 1635Q1580 1635 1494 1702T1392 1899ZM788 1241Q612 1241 515 1111T418 745Q418
510 515 380T788 250Q965 250 1062 380T1159 745Q1159 981 1062 1111T788 1241ZM788 1520Q1148 1520 1352 1314T1556 745Q1556 383 1352 177T788 -29Q429 -29 225 177T20 745Q20 1108 224 1314T788 1520Z" />
<glyph unicode="&#x14f;" glyph-name="obreve" horiz-adv-x="1407" d="M208 1612H351Q362 1542 411 1505T544 1468Q627 1468 676 1505T737 1612H880Q874 1468 787 1392T544 1315Q388 1315 301 1391T208 1612ZM636 891Q517 891 455 806T392 559Q392 398 454 313T636
227Q753 227 815 312T877 559Q877 720 815 805T636 891ZM636 1147Q925 1147 1087 991T1250 559Q1250 283 1088 127T636 -29Q346 -29 183 127T19 559Q19 835 182 991T636 1147Z" />
<glyph unicode="&#x150;" glyph-name="Ohungarumlaut" horiz-adv-x="1741" d="M1945 1899H2228L1943 1635H1747L1945 1899ZM1570 1899H1853L1568 1635H1372L1570 1899ZM788 1241Q612 1241 515 1111T418 745Q418 510 515 380T788 250Q965 250 1062 380T1159 745Q1159
981 1062 1111T788 1241ZM788 1520Q1148 1520 1352 1314T1556 745Q1556 383 1352 177T788 -29Q429 -29 225 177T20 745Q20 1108 224 1314T788 1520Z" />
<glyph unicode="&#x151;" glyph-name="ohungarumlaut" horiz-adv-x="1407" d="M422 1638H639L391 1262H228L422 1638ZM785 1638H1016L744 1262H570L785 1638ZM636 891Q517 891 455 806T392 559Q392 398 454 313T636 227Q753 227 815 312T877 559Q877 720 815 805T636
891ZM636 1147Q925 1147 1087 991T1250 559Q1250 283 1088 127T636 -29Q346 -29 183 127T19 559Q19 835 182 991T636 1147Z" />
<glyph unicode="&#x152;" glyph-name="OE" horiz-adv-x="2193" d="M1099 1202H994Q705 1202 562 1089T419 748Q419 519 562 405T994 291H1099V1202ZM1009 1493H2137V1202H1484V924H2098V633H1484V291H2160V0H1009Q996 0 973 -1T937 -2Q495 -2 258 192T21 748Q21
1108 258 1301T937 1495Q948 1495 972 1494T1009 1493Z" />
<glyph unicode="&#x153;" glyph-name="oe" horiz-adv-x="2103" d="M1710 682Q1710 784 1651 846T1495 909Q1391 909 1326 851T1245 682H1710ZM2078 563V461H1241Q1254 335 1332 272T1550 209Q1663 209 1781 242T2025 344V68Q1899 20 1771 -4T1517 -29Q1352 -29
1245 11T1066 139Q984 55 878 13T641 -29Q351 -29 188 127T24 559Q24 835 187 991T641 1147Q775 1147 878 1106T1062 979Q1144 1066 1243 1106T1478 1147Q1756 1147 1917 990T2078 563ZM641 891Q522 891 460 806T397 559Q397 398 459 313T641 227Q758 227 820 312T882
559Q882 720 820 805T641 891Z" />
<glyph unicode="&#x154;" glyph-name="Racute" horiz-adv-x="1577" d="M1412 1900H1695L1410 1636H1214L1412 1900ZM582 831Q703 831 755 876T808 1024Q808 1126 756 1170T582 1214H420V831H582ZM420 565V0H35V1493H623Q918 1493 1055 1394T1193 1081Q1193 933
1122 838T906 698Q985 680 1047 617T1174 424L1383 0H973L791 371Q736 483 680 524T529 565H420Z" />
<glyph unicode="&#x155;" glyph-name="racute" horiz-adv-x="1010" d="M409 1645H692L323 1269H127L409 1645ZM866 815Q819 837 773 847T679 858Q541 858 467 770T392 516V0H34V1120H392V936Q461 1046 550 1096T765 1147Q783 1147 804 1146T865 1139L866 815Z" />
<glyph unicode="&#x156;" glyph-name="Rcommaaccent" horiz-adv-x="1577" d="M1431 -131H1755L1533 -429H1341L1431 -131ZM582 831Q703 831 755 876T808 1024Q808 1126 756 1170T582 1214H420V831H582ZM420 565V0H35V1493H623Q918 1493 1055 1394T1193 1081Q1193
933 1122 838T906 698Q985 680 1047 617T1174 424L1383 0H973L791 371Q736 483 680 524T529 565H420Z" />
<glyph unicode="&#x157;" glyph-name="rcommaaccent" horiz-adv-x="1010" d="M920 -131H1244L1022 -429H830L920 -131ZM866 815Q819 837 773 847T679 858Q541 858 467 770T392 516V0H34V1120H392V936Q461 1046 550 1096T765 1147Q783 1147 804 1146T865 1139L866 815Z" />
<glyph unicode="&#x158;" glyph-name="Rcaron" horiz-adv-x="1577" d="M582 831Q703 831 755 876T808 1024Q808 1126 756 1170T582 1214H420V831H582ZM420 565V0H35V1493H623Q918 1493 1055 1394T1193 1081Q1193 933 1122 838T906 698Q985 680 1047 617T1174 424L1383
0H973L791 371Q736 483 680 524T529 565H420ZM1457 1635L1234 1899H1412L1611 1737L1810 1899H1988L1765 1635H1457Z" />
<glyph unicode="&#x159;" glyph-name="rcaron" horiz-adv-x="1010" d="M866 815Q819 837 773 847T679 858Q541 858 467 770T392 516V0H34V1120H392V936Q461 1046 550 1096T765 1147Q783 1147 804 1146T865 1139L866 815ZM348 1262L92 1638H270L469 1411L668 1638H846L590
1262H348Z" />
<glyph unicode="&#x15a;" glyph-name="Sacute" horiz-adv-x="1475" d="M1412 1900H1695L1410 1636H1214L1412 1900ZM1104 1446V1130Q981 1185 864 1213T643 1241Q505 1241 439 1203T373 1085Q373 1025 417 992T579 934L743 901Q992 851 1097 749T1202 459Q1202
212 1056 92T608 -29Q466 -29 323 -2T37 78V403Q180 327 313 289T571 250Q697 250 764 292T831 412Q831 482 786 520T604 588L455 621Q231 669 128 774T24 1057Q24 1280 168 1400T582 1520Q705 1520 835 1502T1104 1446Z" />
<glyph unicode="&#x15b;" glyph-name="sacute" horiz-adv-x="1219" d="M409 1645H692L323 1269H127L409 1645ZM965 1085V813Q850 861 743 885T541 909Q439 909 390 884T340 805Q340 762 377 739T512 705L575 696Q850 661 945 581T1040 330Q1040 151 908 61T514
-29Q403 -29 285 -12T41 41V313Q148 261 260 235T489 209Q594 209 647 238T700 324Q700 372 664 395T518 432L455 440Q216 470 120 551T24 797Q24 975 146 1061T520 1147Q619 1147 728 1132T965 1085Z" />
<glyph unicode="&#x15c;" glyph-name="Scircumflex" horiz-adv-x="1475" d="M1450 1899H1758L1981 1635H1803L1604 1796L1405 1635H1227L1450 1899ZM1104 1446V1130Q981 1185 864 1213T643 1241Q505 1241 439 1203T373 1085Q373 1025 417 992T579 934L743 901Q992
851 1097 749T1202 459Q1202 212 1056 92T608 -29Q466 -29 323 -2T37 78V403Q180 327 313 289T571 250Q697 250 764 292T831 412Q831 482 786 520T604 588L455 621Q231 669 128 774T24 1057Q24 1280 168 1400T582 1520Q705 1520 835 1502T1104 1446Z" />
<glyph unicode="&#x15d;" glyph-name="scircumflex" horiz-adv-x="1219" d="M354 1638H596L852 1262H674L475 1487L276 1262H98L354 1638ZM965 1085V813Q850 861 743 885T541 909Q439 909 390 884T340 805Q340 762 377 739T512 705L575 696Q850 661 945 581T1040
330Q1040 151 908 61T514 -29Q403 -29 285 -12T41 41V313Q148 261 260 235T489 209Q594 209 647 238T700 324Q700 372 664 395T518 432L455 440Q216 470 120 551T24 797Q24 975 146 1061T520 1147Q619 1147 728 1132T965 1085Z" />
<glyph unicode="&#x15e;" glyph-name="Scedilla" horiz-adv-x="1475" d="M1104 1446V1130Q981 1185 864 1213T643 1241Q505 1241 439 1203T373 1085Q373 1025 417 992T579 934L743 901Q992 851 1097 749T1202 459Q1202 212 1056 92T608 -29Q466 -29 323 -2T37
78V403Q180 327 313 289T571 250Q697 250 764 292T831 412Q831 482 786 520T604 588L455 621Q231 669 128 774T24 1057Q24 1280 168 1400T582 1520Q705 1520 835 1502T1104 1446ZM565 0Q623 -62 650 -115T678 -215Q678 -310 617 -355T428 -401Q380 -401 329 -395T226
-375L225 -223Q275 -239 316 -246T391 -254Q449 -254 481 -231T514 -168Q514 -142 493 -101T426 0H565Z" />
<glyph unicode="&#x15f;" glyph-name="scedilla" horiz-adv-x="1219" d="M965 1085V813Q850 861 743 885T541 909Q439 909 390 884T340 805Q340 762 377 739T512 705L575 696Q850 661 945 581T1040 330Q1040 151 908 61T514 -29Q403 -29 285 -12T41 41V313Q148
261 260 235T489 209Q594 209 647 238T700 324Q700 372 664 395T518 432L455 440Q216 470 120 551T24 797Q24 975 146 1061T520 1147Q619 1147 728 1132T965 1085ZM442 0Q500 -62 527 -115T555 -215Q555 -310 494 -355T305 -401Q257 -401 206 -395T103 -375L102
-223Q152 -239 193 -246T268 -254Q326 -254 358 -231T391 -168Q391 -142 370 -101T303 0H442Z" />
<glyph unicode="&#x160;" glyph-name="Scaron" horiz-adv-x="1475" d="M1104 1446V1130Q981 1185 864 1213T643 1241Q505 1241 439 1203T373 1085Q373 1025 417 992T579 934L743 901Q992 851 1097 749T1202 459Q1202 212 1056 92T608 -29Q466 -29 323 -2T37 78V403Q180
327 313 289T571 250Q697 250 764 292T831 412Q831 482 786 520T604 588L455 621Q231 669 128 774T24 1057Q24 1280 168 1400T582 1520Q705 1520 835 1502T1104 1446ZM1457 1635L1234 1899H1412L1611 1737L1810 1899H1988L1765 1635H1457Z" />
<glyph unicode="&#x161;" glyph-name="scaron" horiz-adv-x="1046" d="M392 1262L136 1638H314L513 1411L712 1638H890L634 1262H392ZM958 1085V813Q843 861 736 885T534 909Q432 909 383 884T333 805Q333 762 370 739T505 705L568 696Q843 661 938 581T1033 330Q1033
151 901 61T507 -29Q396 -29 278 -12T34 41V313Q141 261 253 235T482 209Q587 209 640 238T693 324Q693 372 657 395T511 432L448 440Q209 470 113 551T17 797Q17 975 139 1061T513 1147Q612 1147 721 1132T958 1085Z" />
<glyph unicode="&#x162;" glyph-name="Tcommaaccent" horiz-adv-x="1397" d="M533 0Q591 -62 618 -115T646 -215Q646 -310 585 -355T396 -401Q348 -401 297 -395T194 -375L193 -223Q243 -239 284 -246T359 -254Q417 -254 449 -231T482 -168Q482 -142 461 -101T394
0H533ZM6 1493H1382V1202H887V0H502V1202H6V1493Z" />
<glyph unicode="&#x163;" glyph-name="tcommaaccent" horiz-adv-x="979" d="M344 0Q402 -62 429 -115T457 -215Q457 -310 396 -355T207 -401Q159 -401 108 -395T5 -375L4 -223Q54 -239 95 -246T170 -254Q228 -254 260 -231T293 -168Q293 -142 272 -101T205 0H344ZM542
1438V1120H911V864H542V389Q542 311 573 284T696 256H880V0H573Q361 0 273 88T184 389V864H6V1120H184V1438H542Z" />
<glyph unicode="&#x164;" glyph-name="Tcaron" horiz-adv-x="1397" d="M6 1493H1382V1202H887V0H502V1202H6V1493ZM1439 1641L1216 1905H1394L1593 1743L1792 1905H1970L1747 1641H1439Z" />
<glyph unicode="&#x165;" glyph-name="tcaron" horiz-adv-x="979" d="M542 1438V1120H911V864H542V389Q542 311 573 284T696 256H880V0H573Q361 0 273 88T184 389V864H6V1120H184V1438H542ZM1430 1667H1713L1546 1291H1350L1430 1667Z" />
<glyph unicode="&#x166;" glyph-name="Tbar" horiz-adv-x="1389" d="M6 1493H1382V1202H887V697H1134V505H887V0H502V505H255V697H502V1202H6V1493Z" />
<glyph unicode="&#x167;" glyph-name="tbar" horiz-adv-x="921" d="M545 1438V1120H914V864H545V722H729V530H545V389Q545 311 576 284Q607 256 699 256H883V0H576Q364 0 276 88Q187 177 187 389V530H9V722H187V864H9V1120H187V1438H545Z" />
<glyph unicode="&#x168;" glyph-name="Utilde" horiz-adv-x="1663" d="M1718 1684L1662 1719Q1659 1721 1652 1725Q1607 1751 1579 1751Q1547 1751 1527 1721T1507 1641V1635H1368Q1368 1640 1369 1650T1370 1665Q1370 1771 1423 1836T1564 1901Q1601 1901 1638
1889T1714 1852L1773 1813Q1794 1799 1813 1792T1849 1784Q1886 1784 1905 1814T1925 1901H2064Q2064 1895 2063 1885T2062 1870Q2062 1764 2009 1700T1868 1635Q1830 1635 1795 1646T1718 1684ZM29 1493H414V598Q414 413 474 334T672 254Q810 254 870 333T931
598V1493H1316V598Q1316 281 1157 126T672 -29Q347 -29 188 126T29 598V1493Z" />
<glyph unicode="&#x169;" glyph-name="utilde" horiz-adv-x="1458" d="M617 1364L562 1401Q558 1403 552 1407Q505 1438 480 1438Q444 1438 425 1407T406 1317V1309H267Q267 1445 318 1519T463 1593Q499 1593 535 1580T613 1536L674 1493Q696 1478 714 1470T748
1462Q784 1462 804 1494T824 1583V1591H963Q963 1455 912 1381T767 1307Q731 1307 698 1319T617 1364ZM30 436V1120H390V1008Q390 917 389 780T388 596Q388 461 395 402T419 315Q441 280 476 261T558 242Q670 242 734 328T798 567V1120H1156V0H798V162Q717 64 627
18T427 -29Q233 -29 132 90T30 436Z" />
<glyph unicode="&#x16a;" glyph-name="Umacron" horiz-adv-x="1663" d="M354 1871H984V1683H354V1871ZM29 1493H414V598Q414 413 474 334T672 254Q810 254 870 333T931 598V1493H1316V598Q1316 281 1157 126T672 -29Q347 -29 188 126T29 598V1493Z" />
<glyph unicode="&#x16b;" glyph-name="umacron" horiz-adv-x="1458" d="M245 1562H875V1374H245V1562ZM30 436V1120H390V1008Q390 917 389 780T388 596Q388 461 395 402T419 315Q441 280 476 261T558 242Q670 242 734 328T798 567V1120H1156V0H798V162Q717 64
627 18T427 -29Q233 -29 132 90T30 436Z" />
<glyph unicode="&#x16c;" glyph-name="Ubreve" horiz-adv-x="1663" d="M1360 1899H1503Q1524 1838 1572 1808T1696 1778Q1772 1778 1820 1808T1889 1899H2032Q2016 1770 1930 1703T1696 1635Q1548 1635 1462 1702T1360 1899ZM29 1493H414V598Q414 413 474 334T672
254Q810 254 870 333T931 598V1493H1316V598Q1316 281 1157 126T672 -29Q347 -29 188 126T29 598V1493Z" />
<glyph unicode="&#x16d;" glyph-name="ubreve" horiz-adv-x="1458" d="M259 1606H402Q413 1536 462 1499T595 1462Q678 1462 727 1499T788 1606H931Q925 1462 838 1386T595 1309Q439 1309 352 1385T259 1606ZM30 436V1120H390V1008Q390 917 389 780T388 596Q388
461 395 402T419 315Q441 280 476 261T558 242Q670 242 734 328T798 567V1120H1156V0H798V162Q717 64 627 18T427 -29Q233 -29 132 90T30 436Z" />
<glyph unicode="&#x16e;" glyph-name="Uring" horiz-adv-x="1663" d="M29 1493H414V598Q414 413 474 334T672 254Q810 254 870 333T931 598V1493H1316V598Q1316 281 1157 126T672 -29Q347 -29 188 126T29 598V1493ZM494 1617Q494 1562 532 1524T625 1486Q680 1486
718 1524T756 1617Q756 1671 718 1709T625 1748Q570 1748 532 1710T494 1617ZM340 1617Q340 1735 423 1818T625 1902Q743 1902 826 1819T910 1617Q910 1499 827 1416T625 1332Q507 1332 424 1415T340 1617Z" />
<glyph unicode="&#x16f;" glyph-name="uring" horiz-adv-x="1458" d="M30 436V1120H390V1008Q390 917 389 780T388 596Q388 461 395 402T419 315Q441 280 476 261T558 242Q670 242 734 328T798 567V1120H1156V0H798V162Q717 64 627 18T427 -29Q233 -29 132 90T30
436ZM390 1521Q390 1466 428 1428T521 1390Q576 1390 614 1428T652 1521Q652 1575 614 1613T521 1652Q466 1652 428 1614T390 1521ZM236 1521Q236 1639 319 1722T521 1806Q639 1806 722 1723T806 1521Q806 1403 723 1320T521 1236Q403 1236 320 1319T236 1521Z"
/>
<glyph unicode="&#x170;" glyph-name="Uhungarumlaut" horiz-adv-x="1663" d="M1906 1899H2189L1904 1635H1708L1906 1899ZM1531 1899H1814L1529 1635H1333L1531 1899ZM29 1493H414V598Q414 413 474 334T672 254Q810 254 870 333T931 598V1493H1316V598Q1316 281
1157 126T672 -29Q347 -29 188 126T29 598V1493Z" />
<glyph unicode="&#x171;" glyph-name="uhungarumlaut" horiz-adv-x="1458" d="M449 1638H666L418 1262H255L449 1638ZM812 1638H1043L771 1262H597L812 1638ZM30 436V1120H390V1008Q390 917 389 780T388 596Q388 461 395 402T419 315Q441 280 476 261T558 242Q670
242 734 328T798 567V1120H1156V0H798V162Q717 64 627 18T427 -29Q233 -29 132 90T30 436Z" />
<glyph unicode="&#x172;" glyph-name="Uogonek" horiz-adv-x="1663" d="M29 1493H414V598Q414 413 474 334T672 254Q810 254 870 333T931 598V1493H1316V598Q1316 281 1157 126T672 -29Q347 -29 188 126T29 598V1493ZM437 -15H578Q528 -82 509 -118T490 -181Q490
-220 519 -244T598 -269Q637 -269 675 -262T754 -238V-394Q699 -405 652 -410T564 -416Q449 -416 388 -370T326 -238Q326 -185 353 -131T437 -15Z" />
<glyph unicode="&#x173;" glyph-name="uogonek" horiz-adv-x="1458" d="M30 436V1120H390V1008Q390 917 389 780T388 596Q388 461 395 402T419 315Q441 280 476 261T558 242Q670 242 734 328T798 567V1120H1156V0H798V162Q717 64 627 18T427 -29Q233 -29 132 90T30
436ZM825 0H966Q916 -67 897 -103T878 -166Q878 -205 907 -229T986 -254Q1025 -254 1063 -247T1142 -223V-379Q1087 -390 1040 -395T952 -401Q837 -401 776 -355T714 -223Q714 -170 741 -116T825 0Z" />
<glyph unicode="&#x174;" glyph-name="Wcircumflex" horiz-adv-x="2259" d="M1873 1906H2181L2404 1642H2226L2027 1803L1828 1642H1650L1873 1906ZM18 1493H387L645 408L901 1493H1272L1528 408L1786 1493H2152L1800 0H1356L1085 1135L817 0H373L18 1493Z" />
<glyph unicode="&#x175;" glyph-name="wcircumflex" horiz-adv-x="1892" d="M698 1638H940L1196 1262H1018L819 1487L620 1262H442L698 1638ZM18 1120H366L554 348L743 1120H1042L1230 356L1419 1120H1767L1472 0H1081L892 770L704 0H313L18 1120Z" />
<glyph unicode="&#x176;" glyph-name="Ycircumflex" horiz-adv-x="1483" d="M1486 1906H1794L2017 1642H1839L1640 1803L1441 1642H1263L1486 1906ZM3 1493H424L764 961L1104 1493H1526L957 629V0H572V629L3 1493Z" />
<glyph unicode="&#x177;" glyph-name="ycircumflex" horiz-adv-x="1335" d="M413 1638H655L911 1262H733L534 1487L335 1262H157L413 1638ZM16 1120H374L675 360L931 1120H1289L818 -106Q747 -293 653 -367T403 -442H196V-207H308Q399 -207 440 -178T505 -74L515
-43L16 1120Z" />
<glyph unicode="&#x178;" glyph-name="Ydieresis" horiz-adv-x="1483" d="M3 1493H424L764 961L1104 1493H1526L957 629V0H572V629L3 1493ZM1287 1899H1522V1653H1287V1899ZM1682 1899H1917V1653H1682V1899Z" />
<glyph unicode="&#x179;" glyph-name="Zacute" horiz-adv-x="1485" d="M1412 1900H1695L1410 1636H1214L1412 1900ZM55 1493H1310V1260L509 291H1333V0H32V233L833 1202H55V1493Z" />
<glyph unicode="&#x17a;" glyph-name="zacute" horiz-adv-x="1192" d="M409 1645H692L323 1269H127L409 1645ZM57 1120H1034V870L444 256H1034V0H32V250L622 864H57V1120Z" />
<glyph unicode="&#x17b;" glyph-name="Zdotaccent" horiz-adv-x="1485" d="M1268 1903H1542V1657H1268V1903ZM55 1493H1310V1260L509 291H1333V0H32V233L833 1202H55V1493Z" />
<glyph unicode="&#x17c;" glyph-name="zdotaccent" horiz-adv-x="1192" d="M1144 1556H1502V1264H1144V1556ZM57 1120H1034V870L444 256H1034V0H32V250L622 864H57V1120Z" />
<glyph unicode="&#x17d;" glyph-name="Zcaron" horiz-adv-x="1485" d="M55 1493H1310V1260L509 291H1333V0H32V233L833 1202H55V1493ZM1463 1635L1240 1899H1418L1617 1737L1816 1899H1994L1771 1635H1463Z" />
<glyph unicode="&#x17e;" glyph-name="zcaron" horiz-adv-x="1192" d="M57 1120H1034V870L444 256H1034V0H32V250L622 864H57V1120ZM347 1262L91 1638H269L468 1411L667 1638H845L589 1262H347Z" />
<glyph unicode="&#x17f;" glyph-name="longs" horiz-adv-x="879" d="M541 0H183V864H5V1120H183V1198Q183 1381 285 1468T601 1556H875V1321H677Q601 1321 571 1294Q541 1265 541 1198V0Z" />
<glyph unicode="&#x180;" glyph-name="uni0180" horiz-adv-x="1381" d="M767 231Q882 231 942 315T1003 559Q1003 719 943 803T767 887Q652 887 591 803T529 559Q529 400 590 316T767 231ZM529 956Q603 1054 693 1100T900 1147Q1107 1147 1240 983T1373 559Q1373
300 1240 136T900 -29Q783 -29 693 17T529 162V0H171V1237H17V1442H171V1556H529V1442H857V1237H529V956Z" />
<glyph unicode="&#x181;" glyph-name="uni0181" horiz-adv-x="1690" d="M1036 915Q1127 915 1174 955T1221 1073Q1221 1150 1174 1190T1036 1231H823V915H1036ZM1049 262Q1165 262 1223 311T1282 459Q1282 556 1224 604T1049 653H823V262H1049ZM1407 799Q1531
763 1599 666T1667 428Q1667 212 1521 106T1077 0H438V1231H359Q317 1231 285 1203Q266 1186 266 1126V1079H10V1156Q10 1327 109 1412Q203 1493 438 1493H1016Q1327 1493 1466 1399T1606 1098Q1606 989 1555 913T1407 799Z" />
<glyph unicode="&#x182;" glyph-name="uni0182" horiz-adv-x="1561" d="M645 262Q766 262 820 307Q878 356 878 449Q878 540 820 588Q767 633 645 633H419V262H645ZM673 0H34V1493H1163V1202H419V924H673Q956 924 1117 807Q1263 701 1263 461Q1263 223 1117 117Q956
0 673 0Z" />
<glyph unicode="&#x183;" glyph-name="uni0183" horiz-adv-x="1254" d="M630 231Q745 231 805 315T866 559Q866 719 806 803T630 887Q515 887 454 803T392 559Q392 400 453 316T630 231ZM392 956Q466 1054 556 1100T763 1147Q970 1147 1103 983T1236 559Q1236
300 1103 136T763 -29Q646 -29 556 17T392 162V0H34V1556H1063V1265H392V956Z" />
<glyph unicode="&#x184;" glyph-name="uni0184" horiz-adv-x="1429" d="M809 262Q930 262 984 307Q1042 356 1042 449Q1042 540 984 588Q931 633 809 633H583V262H809ZM837 0H198V924L10 1104L583 1493V924H837Q1120 924 1281 807Q1427 701 1427 461Q1427 223
1281 117Q1120 0 837 0Z" />
<glyph unicode="&#x185;" glyph-name="uni0185" horiz-adv-x="1390" d="M541 956Q615 1054 705 1100Q795 1147 912 1147Q1119 1147 1252 982Q1385 818 1385 559T1252 136Q1119 -29 912 -29Q795 -29 705 18Q615 64 541 162V0H183V924L11 1104L541 1556V956ZM955
315Q1015 399 1015 559T955 803Q894 887 779 887T603 802Q541 718 541 559T603 316Q664 231 779 231T955 315Z" />
<glyph unicode="&#x186;" glyph-name="uni0186" horiz-adv-x="1313" d="M28 1409Q134 1464 249 1492T489 1520Q862 1520 1080 1312T1298 745Q1298 388 1080 180T489 -29Q364 -29 249 -1T28 82V391Q135 318 239 284T458 250Q664 250 782 382T900 745Q900 977 782
1109T458 1241Q343 1241 239 1207T28 1100V1409Z" />
<glyph unicode="&#x187;" glyph-name="uni0187" horiz-adv-x="1592" d="M1275 82Q1169 27 1054 -1T814 -29Q441 -29 223 179T5 745Q5 1103 223 1311T814 1520Q862 1520 909 1516Q943 1665 1041 1754Q1193 1892 1500 1892H1578V1601H1518Q1398 1601 1337 1534T1275
1337V1100Q1168 1173 1064 1207T845 1241Q639 1241 521 1109T403 745Q403 514 521 382T845 250Q960 250 1064 284T1275 391V82Z" />
<glyph unicode="&#x188;" glyph-name="uni0188" horiz-adv-x="1248" d="M994 1021V793Q921 843 848 867T695 891Q545 891 462 804T378 559Q378 402 461 315T695 227Q779 227 854 252T994 326V33Q910 2 824 -13T650 -29Q347 -29 176 126T5 559Q5 836 164 991T644
1147Q667 1281 744 1365Q852 1483 1057 1483H1234V1248H1172Q1070 1248 1032 1202T994 1021Z" />
<glyph unicode="&#x189;" glyph-name="uni0189" horiz-adv-x="1716" d="M576 1202V881H811V621H576V291H713Q949 291 1073 408T1198 748Q1198 970 1074 1086T713 1202H576ZM191 1493H596Q937 1493 1103 1445T1389 1280Q1493 1179 1544 1047T1596 748Q1596 579
1545 447T1389 213Q1268 97 1100 49T596 0H191V621H17V881H191V1493Z" />
<glyph unicode="&#x18a;" glyph-name="uni018A" horiz-adv-x="1865" d="M825 1202V291H963Q1199 291 1323 408T1448 748Q1448 970 1324 1086T963 1202H825ZM440 1493H846Q1186 1493 1352 1445T1638 1280Q1743 1179 1794 1047T1845 748Q1845 579 1794 447T1638
213Q1518 97 1350 49T846 0H440V1231H361Q319 1231 287 1203Q268 1186 268 1126V1079H12V1156Q12 1327 111 1412Q205 1493 440 1493Z" />
<glyph unicode="&#x18b;" glyph-name="uni018B" horiz-adv-x="1281" d="M608 0Q336 0 179 103T21 466Q21 720 180 822T608 924H862V1202H116V1493H1247V0H608ZM403 449Q403 345 465 304T636 262H862V633H636Q529 633 466 592T403 449Z" />
<glyph unicode="&#x18c;" glyph-name="uni018C" horiz-adv-x="1254" d="M191 1265V1556H1220V0H860V162Q786 63 697 17T491 -29Q284 -29 151 135T18 559Q18 818 151 982T491 1147Q607 1147 696 1101T860 956V1265H191ZM624 231Q739 231 799 315T860 559Q860 719
800 803T624 887Q510 887 450 803T389 559Q389 399 449 315T624 231Z" />
<glyph unicode="&#x18d;" glyph-name="uni018D" horiz-adv-x="1264" d="M180 -146Q302 -216 622 -216Q792 -216 792 -118Q792 -25 559 10Q326 45 186 157Q16 292 16 563Q16 834 180 990T631 1147Q918 1147 1083 991T1248 559Q1248 351 1084 190Q1032 140 968 108Q1116
29 1116 -130Q1116 -454 588 -454Q324 -454 180 -384V-146ZM716 238Q770 260 812 316Q878 403 878 560Q878 717 812 805T633 893Q520 893 454 804T388 564Q388 415 459 340T628 253Q674 248 716 238Z" />
<glyph unicode="&#x18e;" glyph-name="uni018E" horiz-adv-x="1127" d="M1093 1493V0H32V291H708V633H93V924H708V1202H54V1493H1093Z" />
<glyph unicode="&#x18f;" glyph-name="uni018F" horiz-adv-x="1566" d="M1148 829Q1148 986 1026 1112Q901 1241 671 1241Q547 1241 424 1206T175 1100V1409Q296 1464 432 1492T718 1520Q1104 1520 1326 1313T1548 745Q1548 383 1344 177T780 -29Q433 -29 217
177Q15 369 15 829H1148ZM1135 571H426Q450 457 507 380Q604 250 780 250Q957 250 1054 380Q1112 457 1135 571Z" />
<glyph unicode="&#x190;" glyph-name="uni0190" horiz-adv-x="1168" d="M327 805Q192 839 123 922T54 1137Q54 1329 198 1424T634 1520Q742 1520 854 1504T1080 1456V1174Q986 1215 891 1236T703 1257Q577 1257 508 1210T439 1077Q439 984 510 939T726 893H888V645H734Q571
645 488 593T404 438Q404 339 485 286T720 233Q823 233 929 260T1144 342V45Q1031 8 916 -10T685 -29Q359 -29 189 86T19 424Q19 573 97 669T327 805Z" />
<glyph unicode="&#x191;" glyph-name="uni0191" horiz-adv-x="1355" d="M316 1493H1355V1202H701V924H1316V633H701V145Q701 -134 550 -272T91 -410H13V-119H73Q193 -119 254 -52T316 145V1493Z" />
<glyph unicode="&#x192;" glyph-name="florin" horiz-adv-x="1032" d="M1029 1556V1321H831Q755 1321 725 1293T695 1198V1120H1001V864H695V-68Q695 -256 589 -341T277 -426H3V-191H201Q277 -191 307 -163T337 -68V864H159V1120H337V1198Q337 1386 443 1471T755
1556H1029Z" />
<glyph unicode="&#x193;" glyph-name="uni0193" horiz-adv-x="1697" d="M1433 111Q1289 41 1134 6T814 -29Q441 -29 223 179T5 745Q5 1106 227 1313T835 1520Q925 1520 1010 1510Q1044 1663 1145 1754Q1296 1892 1603 1892H1681V1601H1621Q1501 1601 1440 1534T1378
1337V1100Q1253 1171 1130 1206T882 1241Q652 1241 528 1113T403 745Q403 508 523 379T864 250Q924 250 975 257T1068 281V571H833V829H1433V111Z" />
<glyph unicode="&#x194;" glyph-name="uni0194" horiz-adv-x="1635" d="M815 176Q783 121 756 77T710 -15T691 -100Q691 -147 728 -173T815 -200Q865 -200 902 -174T939 -100Q939 -62 921 -15T875 76T815 176ZM8 1493H400L811 820L1235 1496H1627L1011 500Q1061
420 1109 336T1194 178T1255 26T1279 -120Q1279 -282 1172 -357T827 -432Q572 -432 464 -362T355 -128Q355 -55 377 24T442 189T523 337T619 488L8 1493Z" />
<glyph unicode="&#x195;" glyph-name="uni0195" horiz-adv-x="1912" d="M800 462V520Q800 667 794 722T771 803Q750 838 714 857T632 877Q520 877 456 791T392 551V0H34V1556H392V956Q473 1054 564 1100T765 1147Q959 1147 1059 1028T1160 682V462Q1160 314 1186
262Q1202 233 1257 233H1278Q1396 233 1478 330Q1553 418 1553 560Q1553 668 1496 782Q1454 866 1370 938V1120Q1581 1120 1699 1027Q1781 962 1851 835Q1910 727 1910 569Q1910 315 1757 158Q1603 0 1360 0H1223Q1019 0 910 118Q800 238 800 462Z" />
<glyph unicode="&#x196;" glyph-name="uni0196" horiz-adv-x="716" d="M25 1493H410V555Q410 425 471 358T653 291H713V0H635Q328 0 177 138T25 555V1493Z" />
<glyph unicode="&#x197;" glyph-name="uni0197" horiz-adv-x="784" d="M195 1493H580V881H781V621H580V0H195V621H4V881H195V1493Z" />
<glyph unicode="&#x198;" glyph-name="uni0198" horiz-adv-x="1515" d="M1074 1156L702 786L1495 0H1013L419 588V0H34V1493H419V948L903 1427Q997 1520 1128 1520Q1263 1520 1354 1427Q1446 1333 1446 1203V987H1206V1100Q1206 1130 1189 1148Q1162 1178 1137
1178Q1096 1178 1074 1156Z" />
<glyph unicode="&#x199;" glyph-name="uni0199" horiz-adv-x="1262" d="M389 709L801 1120H1217L670 606L1260 0H826L389 467V0H31V1094Q31 1317 141 1438Q249 1556 454 1556H735V1321H569Q469 1321 429 1275T389 1094V709Z" />
<glyph unicode="&#x19a;" glyph-name="uni019A" horiz-adv-x="724" d="M186 1556H544V881H721V621H544V0H186V621H3V881H186V1556Z" />
<glyph unicode="&#x19b;" glyph-name="uni019B" horiz-adv-x="1194" d="M93 0L442 1020L365 1229L47 1128L10 1257L319 1354L244 1556H602L640 1455L968 1554L1003 1425L687 1328L1183 0H825L633 514L451 0H93Z" />
<glyph unicode="&#x19c;" glyph-name="uni019C" horiz-adv-x="1868" d="M794 186Q726 82 632 28Q539 -27 427 -27Q245 -27 133 92Q32 199 32 438V1493H392V536Q391 523 390 509Q390 495 390 469Q390 350 425 296Q460 243 538 243Q640 243 696 327Q751 411 753
570V1493H1113V536Q1113 350 1145 296Q1177 243 1259 243Q1363 243 1418 328Q1474 413 1474 569V1493H1834V0H1474V164Q1408 69 1322 21Q1237 -27 1134 -27Q1018 -27 929 29T794 186Z" />
<glyph unicode="&#x19d;" glyph-name="uni019D" horiz-adv-x="1668" d="M319 1493H749L1292 469V1493H1657V0H1227L684 1024V145Q684 -134 533 -272T74 -410H16V-119H76Q196 -119 257 -52T319 145V1493Z" />
<glyph unicode="&#x19e;" glyph-name="uni019E" horiz-adv-x="1458" d="M1133 682V-426H773V111V522Q773 667 767 722T744 803Q723 838 687 857T605 877Q493 877 429 791T365 551V0H7V1120H365V956Q446 1054 537 1100T738 1147Q932 1147 1032 1028T1133 682Z" />
<glyph unicode="&#x19f;" glyph-name="uni019F" horiz-adv-x="1572" d="M786 1520Q1146 1520 1350 1314T1554 745Q1554 383 1350 177T786 -29Q427 -29 222 177Q18 383 18 745Q18 1108 222 1314Q427 1520 786 1520ZM787 1241Q610 1241 513 1111Q456 1034 432 920H1141Q1117
1034 1060 1111Q963 1241 787 1241ZM419 662Q434 486 513 380Q610 250 787 250Q963 250 1060 380Q1139 486 1154 662H419Z" />
<glyph unicode="&#x1a0;" glyph-name="Ohorn" horiz-adv-x="1789" d="M1706 1241V1382Q1773 1332 1809 1313T1872 1294Q1911 1294 1935 1323T1960 1402Q1960 1441 1953 1479T1929 1558H2085Q2096 1503 2101 1456T2107 1368Q2107 1253 2061 1192T1929 1130Q1876
1130 1822 1157T1706 1241ZM794 1241Q618 1241 521 1111T424 745Q424 510 521 380T794 250Q971 250 1068 380T1165 745Q1165 981 1068 1111T794 1241ZM794 1520Q1154 1520 1358 1314T1562 745Q1562 383 1358 177T794 -29Q435 -29 231 177T26 745Q26 1108 230 1314T794
1520Z" />
<glyph unicode="&#x1a1;" glyph-name="ohorn" horiz-adv-x="1407" d="M1408 931V1072Q1475 1022 1511 1003T1574 984Q1613 984 1637 1013T1662 1092Q1662 1131 1655 1169T1631 1248H1787Q1798 1193 1803 1146T1809 1058Q1809 943 1763 882T1631 820Q1578 820 1524
847T1408 931ZM643 891Q524 891 462 806T399 559Q399 398 461 313T643 227Q760 227 822 312T884 559Q884 720 822 805T643 891ZM643 1147Q932 1147 1094 991T1257 559Q1257 283 1095 127T643 -29Q353 -29 190 127T26 559Q26 835 189 991T643 1147Z" />
<glyph unicode="&#x1a2;" glyph-name="uni01A2" horiz-adv-x="2011" d="M1981 938V0H1596V938Q1596 1068 1535 1135T1353 1202V177Q1149 -29 789 -29Q430 -29 226 177T21 745Q21 1108 225 1314T789 1520Q919 1520 1029 1493H1371Q1678 1493 1829 1355T1981 938ZM789
250Q966 250 1063 326V1176Q966 1241 789 1241Q613 1241 516 1111T419 745Q419 510 516 380T789 250Z" />
<glyph unicode="&#x1a3;" glyph-name="uni01A3" horiz-adv-x="1637" d="M1606 658V-442H1248V658Q1248 793 1210 839T1070 885V127Q908 -29 619 -29Q329 -29 166 127T2 559Q2 835 165 991T619 1147Q739 1147 838 1120H1185Q1390 1120 1498 1002T1606 658ZM619
227Q736 227 798 272V839Q736 891 619 891Q500 891 438 806T375 559Q375 398 437 313T619 227Z" />
<glyph unicode="&#x1a4;" glyph-name="uni01A4" horiz-adv-x="1672" d="M389 1493H1077Q1362 1493 1514 1367T1667 1006Q1667 771 1515 645T1077 518H823V0H438V1231H404Q324 1231 295 1206T265 1106V1079H10V1156Q10 1326 104 1409T389 1493ZM823 1214V797H1036Q1148
797 1209 851T1270 1006Q1270 1106 1209 1160T1036 1214H823Z" />
<glyph unicode="&#x1a5;" glyph-name="uni01A5" horiz-adv-x="1235" d="M391 162V-426H33V1198Q33 1381 135 1468T451 1556H725V1321H527Q451 1321 421 1294T391 1198V956Q465 1054 555 1100T762 1147Q969 1147 1102 983T1235 559Q1235 300 1102 136T762 -29Q645
-29 555 17T391 162ZM629 887Q514 887 453 803T391 559Q391 400 452 316T629 231Q744 231 804 315T865 559Q865 719 805 803T629 887Z" />
<glyph unicode="&#x1a6;" glyph-name="uni01A6" horiz-adv-x="1384" d="M562 573Q683 573 735 618T788 766Q788 868 736 912T562 956H400V573H562ZM400 307V0H15V1493H400V1235H603Q898 1235 1035 1136T1173 823Q1173 675 1102 580T886 440Q965 422 1027 359T1154
166L1383 -299H973L771 113Q716 225 660 266T509 307H400Z" />
<glyph unicode="&#x1a7;" glyph-name="uni01A7" horiz-adv-x="1220" d="M117 1446Q256 1483 386 1502Q516 1520 639 1520Q909 1520 1053 1400T1197 1057Q1197 879 1094 774Q990 669 766 621L617 588Q481 558 436 520Q390 482 390 412Q390 334 457 292T650 250Q774
250 908 288Q1041 327 1184 403V78Q1041 25 898 -2T613 -29Q312 -29 166 92Q19 212 19 459Q19 647 124 749T478 901L642 934Q759 958 804 992Q848 1025 848 1085Q848 1165 782 1203T578 1241Q474 1241 357 1213T117 1130V1446Z" />
<glyph unicode="&#x1a8;" glyph-name="uni01A8" horiz-adv-x="1059" d="M94 1085Q222 1117 331 1132T539 1147Q791 1147 913 1061T1035 797Q1035 632 939 551T604 440L541 432Q432 419 396 396Q359 372 359 324Q359 267 412 238T570 209Q686 209 798 235Q911 261
1018 313V41Q893 6 774 -12Q656 -29 545 -29Q283 -29 151 61T19 330Q19 501 114 581T484 696L547 705Q644 716 682 739Q719 762 719 805Q719 858 670 884Q620 909 518 909Q423 909 316 885T94 813V1085Z" />
<glyph unicode="&#x1a9;" glyph-name="uni01A9" horiz-adv-x="1399" d="M385 291H1095V0H34V321L510 794L34 1185V1493H1073V1202H402L895 798L385 291Z" />
<glyph unicode="&#x1aa;" glyph-name="uni01AA" horiz-adv-x="1218" d="M345 1556H458Q645 1556 771 1436Q876 1336 876 1180H1047V968H879V-86Q879 -154 909 -182Q939 -209 1015 -209H1213V-444H939Q725 -444 623 -356Q521 -269 521 -86V968H312Q1 968 1 1245Q1
1556 345 1556ZM516 1180Q507 1244 483 1273Q445 1319 343 1319H300Q207 1319 207 1254Q207 1180 313 1180Q313 1180 516 1180Z" />
<glyph unicode="&#x1ab;" glyph-name="uni01AB" horiz-adv-x="913" d="M539 1438V1120H908V864H539V389Q539 311 570 284Q601 256 693 256H877V0Q872 -210 769 -324Q661 -442 456 -442H279V-207H341Q443 -207 481 -161Q516 -118 519 1Q347 11 270 88Q181 177 181
389V864H3V1120H181V1438H539Z" />
<glyph unicode="&#x1ac;" glyph-name="uni01AC" horiz-adv-x="1417" d="M411 1493H1411V1202H916V0H531V1202H528Q375 1202 327 1164Q278 1126 278 1021V972H5V1149Q5 1330 101 1412Q197 1493 411 1493Z" />
<glyph unicode="&#x1ad;" glyph-name="uni01AD" horiz-adv-x="936" d="M541 1198V1120H910V864H541V389Q541 311 572 284T695 256H879V0H572Q360 0 272 88T183 389V864H5V1120H183V1198Q183 1381 285 1468T601 1556H875V1321H677Q601 1321 571 1294T541 1198Z" />
<glyph unicode="&#x1ae;" glyph-name="uni01AE" horiz-adv-x="1395" d="M1 1493H1377V1202H882V145Q882 15 943 -52T1125 -119H1185V-410H1107Q800 -410 649 -272T497 145V1202H1V1493Z" />
<glyph unicode="&#x1af;" glyph-name="Uhorn" horiz-adv-x="1711" d="M1664 1241V1382Q1731 1332 1767 1313T1830 1294Q1869 1294 1893 1323T1918 1402Q1918 1441 1911 1479T1887 1558H2043Q2054 1503 2059 1456T2065 1368Q2065 1253 2019 1192T1887 1130Q1834
1130 1780 1157T1664 1241ZM29 1493H414V598Q414 413 474 334T672 254Q810 254 870 333T931 598V1493H1316V598Q1316 281 1157 126T672 -29Q347 -29 188 126T29 598V1493Z" />
<glyph unicode="&#x1b0;" glyph-name="uhorn" horiz-adv-x="1458" d="M1459 931V1072Q1526 1022 1562 1003T1625 984Q1664 984 1688 1013T1713 1092Q1713 1131 1706 1169T1682 1248H1838Q1849 1193 1854 1146T1860 1058Q1860 943 1814 882T1682 820Q1629 820 1575
847T1459 931ZM281 436V1120H641V1008Q641 917 640 780T639 596Q639 461 646 402T670 315Q692 280 727 261T809 242Q921 242 985 328T1049 567V1120H1407V0H1049V162Q968 64 878 18T678 -29Q484 -29 383 90T281 436Z" />
<glyph unicode="&#x1b1;" glyph-name="uni01B1" horiz-adv-x="1671" d="M835 -29Q476 -29 272 177T67 693Q67 843 122 973T327 1200H20V1491H705V1179Q592 1106 529 981T465 702Q465 510 562 380T835 250Q1011 250 1108 380T1205 702Q1205 855 1142 980T965 1179V1491H1650V1200H1343Q1493
1103 1548 973T1603 693Q1603 383 1399 177T835 -29Z" />
<glyph unicode="&#x1b2;" glyph-name="uni01B2" horiz-adv-x="1434" d="M717 0H639Q332 0 181 138Q29 276 29 555V1493H414V555Q414 425 475 358Q537 291 657 291H717Q895 291 997 408Q1114 542 1114 675Q1114 878 1048 972Q933 1134 765 1229V1374H1035Q1225
1237 1361 964Q1422 841 1422 661Q1422 408 1218 212Q998 0 717 0Z" />
<glyph unicode="&#x1b3;" glyph-name="uni01B3" horiz-adv-x="1657" d="M1241 1061L957 629V0H572V629L3 1493H424L764 961L983 1303Q1122 1520 1335 1520Q1470 1520 1561 1427Q1653 1333 1653 1203V987H1413V1056Q1413 1086 1396 1104Q1369 1133 1344 1133Q1288
1133 1241 1061Z" />
<glyph unicode="&#x1b4;" glyph-name="uni01B4" horiz-adv-x="1585" d="M1585 646H1342V706Q1342 739 1329 767T1292 812T1241 829T1191 812Q1166 794 1154 767Q1149 752 1142 737L818 -106Q746 -294 653 -368Q558 -442 403 -442H196V-207H308Q399 -207 441 -178Q481
-150 505 -74L515 -43L16 1120H374L675 360L865 924Q940 1147 1211 1147Q1312 1147 1398 1097T1534 961T1585 773V646Z" />
<glyph unicode="&#x1b5;" glyph-name="uni01B5" horiz-adv-x="1365" d="M55 1493H1310V1260L997 881H1191V621H782L509 291H1333V0H32V233L353 621H174V881H568L833 1202H55V1493Z" />
<glyph unicode="&#x1b6;" glyph-name="uni01B6" horiz-adv-x="1050" d="M57 1120H1034V870L853 682H977V461H641L444 256H1034V0H32V250L235 461H118V682H447L622 864H57V1120Z" />
<glyph unicode="&#x1b7;" glyph-name="uni01B7" horiz-adv-x="1388" d="M663 195Q821 195 903 248Q984 301 984 400Q984 502 901 554Q817 607 654 607H467V852L772 1202H27V1493H1249V1243L864 809Q997 798 1079 777Q1205 744 1291 632Q1369 529 1369 386Q1369
164 1199 48Q1029 -67 666 -67Q511 -67 356 -37Q201 -6 49 55V345Q205 271 360 233Q514 195 663 195Z" />
<glyph unicode="&#x1b8;" glyph-name="uni01B8" horiz-adv-x="1388" d="M725 195Q874 195 1028 233Q1183 271 1339 345V55Q1187 -6 1032 -37Q877 -67 722 -67Q359 -67 189 48Q19 164 19 386Q19 529 97 632Q183 744 309 777Q391 798 524 809L139 1243V1493H1361V1202H616L921
852V607H734Q571 607 487 554Q404 502 404 400Q404 301 485 248Q567 195 725 195Z" />
<glyph unicode="&#x1b9;" glyph-name="uni01B9" horiz-adv-x="1171" d="M919 479V234H732Q569 234 485 182Q402 129 402 27Q402 -72 483 -125Q565 -178 718 -178Q821 -178 927 -150Q1034 -123 1142 -69V-366Q1029 -403 913 -422Q798 -440 683 -440Q357 -440 187
-324Q17 -209 17 13Q17 156 95 258Q181 371 307 404Q393 427 555 436L137 870V1120H1114V864H549L919 479Z" />
<glyph unicode="&#x1ba;" glyph-name="uni01BA" horiz-adv-x="1032" d="M692 546Q803 529 881 481Q997 409 997 261Q997 123 905 56Q816 -9 587 -36L527 -43Q422 -55 389 -73Q354 -92 354 -132Q354 -180 405 -204Q455 -228 555 -228Q665 -228 772 -206Q879 -185
980 -142Q980 -142 980 -368Q853 -399 750 -412Q637 -426 531 -426Q285 -426 157 -351Q31 -277 31 -127Q31 14 122 81Q199 138 473 175L533 183Q633 196 660 210Q696 228 696 266Q696 311 649 331Q599 352 351 352H99L591 864H26V1120H1003V870L692 546Z" />
<glyph unicode="&#x1bb;" glyph-name="uni01BB" horiz-adv-x="1139" d="M458 283H1115V0H30V283L328 546H102V806H618Q659 850 683 893Q718 956 718 1024Q718 1129 648 1193Q577 1257 460 1257Q370 1257 263 1218Q156 1180 34 1104V1432Q164 1475 291 1498Q418
1520 540 1520Q808 1520 956 1402Q1105 1284 1105 1073Q1105 951 1042 846Q1031 827 1015 806H1042V546H758L458 283Z" />
<glyph unicode="&#x1bc;" glyph-name="uni01BC" horiz-adv-x="1439" d="M123 607V852V1493H1184V1202H508V852H727Q982 852 1151 792Q1264 752 1347 632Q1425 517 1425 386Q1425 164 1255 48Q1085 -67 722 -67Q341 -67 189 48Q19 178 19 400H404Q404 301 485 248Q567
195 720 195Q877 195 959 248Q1040 301 1040 400Q1040 502 957 554Q873 607 710 607H508H123Z" />
<glyph unicode="&#x1bd;" glyph-name="uni01BD" horiz-adv-x="1160" d="M119 234V479V1120H968V899H477V479H483Q726 479 835 432Q997 362 1069 258Q1148 143 1148 13Q1148 -209 978 -324Q808 -440 482 -440Q367 -440 251 -422Q136 -403 23 -366V-69Q131 -123
237 -150Q344 -178 447 -178Q600 -178 681 -125Q763 -72 763 27Q763 129 679 182Q596 234 433 234H119Z" />
<glyph unicode="&#x1be;" glyph-name="uni01BE" horiz-adv-x="1031" d="M219 789V1096H62V1290H219V1438H577V1290H835V1096H577V1029Q765 998 867 904Q1022 759 1022 528Q1022 313 890 180Q681 -30 440 -30Q259 -30 178 -12Q97 5 21 40V338Q99 295 177 274Q256
252 336 252Q515 252 614 366Q671 432 672 528Q672 599 615 675Q529 789 312 789H219Z" />
<glyph unicode="&#x1bf;" glyph-name="uni01BF" horiz-adv-x="1236" d="M392 -132V-426H34V1120H392V955Q479 1066 565 1103Q670 1147 863 1147Q1067 1147 1145 1035Q1236 908 1236 769Q1236 349 392 -132ZM392 145Q866 479 866 643Q866 756 809 822Q753 887 627
887Q539 887 392 684V145Z" />
<glyph unicode="&#x1c0;" glyph-name="uni01C0" horiz-adv-x="454" d="M34 1493H419V-426H34V1493Z" />
<glyph unicode="&#x1c1;" glyph-name="uni01C1" horiz-adv-x="1349" d="M34 1493H419V-426H34V1493ZM621 1493H1006V-426H621V1493Z" />
<glyph unicode="&#x1c2;" glyph-name="uni01C2" horiz-adv-x="1089" d="M352 1493H737V933H1088V698H737V478H1088V241H737V-426H352V241H1V478H352V698H1V933H352V1493Z" />
<glyph unicode="&#x1c3;" glyph-name="uni01C3" horiz-adv-x="762" d="M211 1493H571V920L520 502H262L211 920V1493ZM211 356H571V0H211V356Z" />
<glyph unicode="&#x1c4;" glyph-name="uni01C4" horiz-adv-x="2933" d="M1637 1493H2892V1260L2091 291H2915V0H1614V233L2415 1202H1637V1493ZM2087 1635L1864 1899H2042L2241 1737L2440 1899H2618L2395 1635H2087ZM395 1202V291H533Q769 291 893 408T1018 748Q1018
970 894 1086T533 1202H395ZM10 1493H416Q756 1493 922 1445T1208 1280Q1313 1179 1364 1047T1415 748Q1415 579 1364 447T1208 213Q1088 97 920 49T416 0H10V1493Z" />
<glyph unicode="&#x1c5;" glyph-name="uni01C5" horiz-adv-x="2660" d="M1656 1120H2633V870L2043 256H2633V0H1631V250L2221 864H1656V1120ZM2014 1262L1758 1638H1936L2135 1411L2334 1638H2512L2256 1262H2014ZM412 1202V291H550Q786 291 910 408T1035 748Q1035
970 911 1086T550 1202H412ZM27 1493H433Q773 1493 939 1445T1225 1280Q1330 1179 1381 1047T1432 748Q1432 579 1381 447T1225 213Q1105 97 937 49T433 0H27V1493Z" />
<glyph unicode="&#x1c6;" glyph-name="uni01C6" horiz-adv-x="2502" d="M1502 1120H2479V870L1889 256H2479V0H1477V250L2067 864H1502V1120ZM1860 1262L1604 1638H1782L1981 1411L2180 1638H2358L2102 1262H1860ZM853 956V1556H1213V0H853V162Q779 63 690 17T484
-29Q277 -29 144 135T11 559Q11 818 144 982T484 1147Q600 1147 689 1101T853 956ZM617 231Q732 231 792 315T853 559Q853 719 793 803T617 887Q503 887 443 803T382 559Q382 399 442 315T617 231Z" />
<glyph unicode="&#x1c7;" glyph-name="uni01C7" horiz-adv-x="2067" d="M1611 1493H1996V145Q1996 -134 1845 -272T1386 -410H1308V-119H1368Q1488 -119 1549 -52T1611 145V1493ZM37 1493H422V291H1098V0H37V1493Z" />
<glyph unicode="&#x1c8;" glyph-name="uni01C8" horiz-adv-x="2007" d="M1546 1120H1904V20Q1904 -205 1796 -323T1483 -442H1306V-207H1368Q1470 -207 1508 -161T1546 20V1120ZM1546 1556H1904V1264H1546V1556ZM37 1493H422V291H1098V0H37V1493Z" />
<glyph unicode="&#x1c9;" glyph-name="uni01C9" horiz-adv-x="1404" d="M943 1120H1301V20Q1301 -205 1193 -323T880 -442H703V-207H765Q867 -207 905 -161T943 20V1120ZM943 1556H1301V1264H943V1556ZM34 1556H392V0H34V1556Z" />
<glyph unicode="&#x1ca;" glyph-name="uni01CA" horiz-adv-x="2476" d="M2020 1493H2405V145Q2405 -134 2254 -272T1795 -410H1717V-119H1777Q1897 -119 1958 -52T2020 145V1493ZM36 1493H466L1009 469V1493H1374V0H944L401 1024V0H36V1493Z" />
<glyph unicode="&#x1cb;" glyph-name="uni01CB" horiz-adv-x="2416" d="M1955 1120H2313V20Q2313 -205 2205 -323T1892 -442H1715V-207H1777Q1879 -207 1917 -161T1955 20V1120ZM1955 1556H2313V1264H1955V1556ZM36 1493H466L1009 469V1493H1374V0H944L401 1024V0H36V1493Z"
/>
<glyph unicode="&#x1cc;" glyph-name="uni01CC" horiz-adv-x="2160" d="M1699 1120H2057V20Q2057 -205 1949 -323T1636 -442H1459V-207H1521Q1623 -207 1661 -161T1699 20V1120ZM1699 1556H2057V1264H1699V1556ZM1160 682V0H800V111V522Q800 667 794 722T771 803Q750
838 714 857T632 877Q520 877 456 791T392 551V0H34V1120H392V956Q473 1054 564 1100T765 1147Q959 1147 1059 1028T1160 682Z" />
<glyph unicode="&#x1cd;" glyph-name="uni01CD" horiz-adv-x="1585" d="M1092 272H490L395 0H8L561 1493H1020L1573 0H1186L1092 272ZM586 549H995L791 1143L586 549ZM1512 1635L1289 1899H1467L1666 1737L1865 1899H2043L1820 1635H1512Z" />
<glyph unicode="&#x1ce;" glyph-name="uni01CE" horiz-adv-x="1382" d="M606 504Q494 504 438 466T381 354Q381 286 426 248T553 209Q654 209 723 281T792 463V504H606ZM1153 639V0H792V166Q720 64 630 18T411 -29Q237 -29 129 72T20 336Q20 533 155 625T581 717H792V745Q792
830 725 869T516 909Q401 909 302 886T118 817V1090Q233 1118 349 1132T581 1147Q884 1147 1018 1028T1153 639ZM442 1262L186 1638H364L563 1411L762 1638H940L684 1262H442Z" />
<glyph unicode="&#x1cf;" glyph-name="uni01CF" horiz-adv-x="762" d="M37 1493H422V0H37V1493ZM1127 1635L904 1899H1082L1281 1737L1480 1899H1658L1435 1635H1127Z" />
<glyph unicode="&#x1d0;" glyph-name="uni01D0" horiz-adv-x="702" d="M34 1120H392V0H34V1120ZM133 1262L-123 1638H55L254 1411L453 1638H631L375 1262H133Z" />
<glyph unicode="&#x1d1;" glyph-name="uni01D1" horiz-adv-x="1741" d="M788 1241Q612 1241 515 1111T418 745Q418 510 515 380T788 250Q965 250 1062 380T1159 745Q1159 981 1062 1111T788 1241ZM788 1520Q1148 1520 1352 1314T1556 745Q1556 383 1352 177T788
-29Q429 -29 225 177T20 745Q20 1108 224 1314T788 1520ZM1589 1635L1366 1899H1544L1743 1737L1942 1899H2120L1897 1635H1589Z" />
<glyph unicode="&#x1d2;" glyph-name="uni01D2" horiz-adv-x="1407" d="M636 891Q517 891 455 806T392 559Q392 398 454 313T636 227Q753 227 815 312T877 559Q877 720 815 805T636 891ZM636 1147Q925 1147 1087 991T1250 559Q1250 283 1088 127T636 -29Q346 -29
183 127T19 559Q19 835 182 991T636 1147ZM477 1262L221 1638H399L598 1411L797 1638H975L719 1262H477Z" />
<glyph unicode="&#x1d3;" glyph-name="uni01D3" horiz-adv-x="1663" d="M29 1493H414V598Q414 413 474 334T672 254Q810 254 870 333T931 598V1493H1316V598Q1316 281 1157 126T672 -29Q347 -29 188 126T29 598V1493ZM1547 1635L1324 1899H1502L1701 1737L1900
1899H2078L1855 1635H1547Z" />
<glyph unicode="&#x1d4;" glyph-name="uni01D4" horiz-adv-x="1458" d="M502 1262L246 1638H424L623 1411L822 1638H1000L744 1262H502ZM30 436V1120H390V1008Q390 917 389 780T388 596Q388 461 395 402T419 315Q441 280 476 261T558 242Q670 242 734 328T798
567V1120H1156V0H798V162Q717 64 627 18T427 -29Q233 -29 132 90T30 436Z" />
<glyph unicode="&#x1d5;" glyph-name="uni01D5" horiz-adv-x="1317" d="M15 1493H400V598Q400 413 460 334T658 254Q796 254 856 333T917 598V1493H1302V598Q1302 281 1143 126T658 -29Q333 -29 174 126T15 598V1493ZM338 2130H968V1942H338V2130ZM338 1870H573V1624H338V1870ZM733
1870H968V1624H733V1870Z" />
<glyph unicode="&#x1d6;" glyph-name="uni01D6" horiz-adv-x="1152" d="M12 436V1120H372V1008Q372 917 371 780T370 596Q370 461 377 402T401 315Q423 280 458 261T540 242Q652 242 716 328T780 567V1120H1138V0H780V162Q699 64 609 18T409 -29Q215 -29 114 90T12
436ZM261 1585H496V1339H261V1585ZM656 1585H891V1339H656V1585ZM261 1871H891V1683H261V1871Z" />
<glyph unicode="&#x1d7;" glyph-name="uni01D7" horiz-adv-x="1305" d="M8 1493H393V598Q393 413 453 334T651 254Q789 254 849 333T910 598V1493H1295V598Q1295 281 1136 126T651 -29Q326 -29 167 126T8 598V1493ZM337 1899H572V1653H337V1899ZM732 1899H967V1653H732V1899ZM701
2282H984L699 2018H503L701 2282Z" />
<glyph unicode="&#x1d8;" glyph-name="uni01D8" horiz-adv-x="1149" d="M8 436V1120H368V1008Q368 917 367 780T366 596Q366 461 373 402T397 315Q419 280 454 261T536 242Q648 242 712 328T776 567V1120H1134V0H776V162Q695 64 605 18T405 -29Q211 -29 110 90T8
436ZM667 1877H950L665 1613H469L667 1877ZM257 1582H492V1336H257V1582ZM652 1582H887V1336H652V1582Z" />
<glyph unicode="&#x1d9;" glyph-name="uni01D9" horiz-adv-x="1309" d="M11 1493H396V598Q396 413 456 334T654 254Q792 254 852 333T913 598V1493H1298V598Q1298 281 1139 126T654 -29Q329 -29 170 126T11 598V1493ZM340 1899H575V1653H340V1899ZM735 1899H970V1653H735V1899ZM499
2018L276 2282H454L653 2120L852 2282H1030L807 2018H499Z" />
<glyph unicode="&#x1da;" glyph-name="uni01DA" horiz-adv-x="1156" d="M14 436V1120H374V1008Q374 917 373 780T372 596Q372 461 379 402T403 315Q425 280 460 261T542 242Q654 242 718 328T782 567V1120H1140V0H782V162Q701 64 611 18T411 -29Q217 -29 116 90T14
436ZM424 1613L201 1877H379L578 1715L777 1877H955L732 1613H424ZM263 1582H498V1336H263V1582ZM658 1582H893V1336H658V1582Z" />
<glyph unicode="&#x1db;" glyph-name="uni01DB" horiz-adv-x="1305" d="M10 1493H395V598Q395 413 455 334T653 254Q791 254 851 333T912 598V1493H1297V598Q1297 281 1138 126T653 -29Q328 -29 169 126T10 598V1493ZM339 1899H574V1653H339V1899ZM734 1899H969V1653H734V1899ZM601
2282L799 2018H603L318 2282H601Z" />
<glyph unicode="&#x1dc;" glyph-name="uni01DC" horiz-adv-x="1149" d="M14 436V1120H374V1008Q374 917 373 780T372 596Q372 461 379 402T403 315Q425 280 460 261T542 242Q654 242 718 328T782 567V1120H1140V0H782V162Q701 64 611 18T411 -29Q217 -29 116 90T14
436ZM469 1877L667 1613H471L186 1877H469ZM263 1582H498V1336H263V1582ZM658 1582H893V1336H658V1582Z" />
<glyph unicode="&#x1dd;" glyph-name="uni01DD" horiz-adv-x="1389" d="M20 555V657H857Q844 783 766 846T548 909Q435 909 317 876T73 774V1050Q200 1098 327 1122T581 1147Q885 1147 1053 993T1222 559Q1222 285 1057 128T601 -29Q337 -29 179 130T20 555ZM388
436Q388 334 447 272T603 209Q707 209 772 267T853 436H388Z" />
<glyph unicode="&#x1de;" glyph-name="uni01DE" horiz-adv-x="1571" d="M1087 272H485L390 0H3L556 1493H1015L1568 0H1181L1087 272ZM581 549H990L786 1143L581 549ZM488 2130H1118V1942H488V2130ZM488 1870H723V1624H488V1870ZM883 1870H1118V1624H883V1870Z" />
<glyph unicode="&#x1df;" glyph-name="uni01DF" horiz-adv-x="1152" d="M592 504Q480 504 424 466T367 354Q367 286 412 248T539 209Q640 209 709 281T778 463V504H592ZM1139 639V0H778V166Q706 64 616 18T397 -29Q223 -29 115 72T6 336Q6 533 141 625T567 717H778V745Q778
830 711 869T502 909Q387 909 288 886T104 817V1090Q219 1118 335 1132T567 1147Q870 1147 1004 1028T1139 639ZM301 1585H536V1339H301V1585ZM696 1585H931V1339H696V1585ZM301 1871H931V1683H301V1871Z" />
<glyph unicode="&#x1e0;" glyph-name="uni01E0" horiz-adv-x="1569" d="M1086 272H484L389 0H2L555 1493H1014L1567 0H1180L1086 272ZM580 549H989L785 1143L580 549ZM657 1873H931V1627H657V1873ZM479 2133H1109V1945H479V2133Z" />
<glyph unicode="&#x1e1;" glyph-name="uni01E1" horiz-adv-x="1147" d="M436 1556H794V1264H436V1556ZM591 504Q479 504 423 466T366 354Q366 286 411 248T538 209Q639 209 708 281T777 463V504H591ZM1138 639V0H777V166Q705 64 615 18T396 -29Q222 -29 114 72T5
336Q5 533 140 625T566 717H777V745Q777 830 710 869T501 909Q386 909 287 886T103 817V1090Q218 1118 334 1132T566 1147Q869 1147 1003 1028T1138 639ZM251 1872H881V1684H251V1872Z" />
<glyph unicode="&#x1e2;" glyph-name="uni01E2" horiz-adv-x="2222" d="M860 1871H1490V1683H860V1871ZM900 1237L644 627H1021V1237H900ZM634 1493H2059V1202H1406V924H2020V633H1406V291H2082V0H1021V350H527L380 0H9L634 1493Z" />
<glyph unicode="&#x1e3;" glyph-name="uni01E3" horiz-adv-x="2146" d="M568 1554H1198V1366H568V1554ZM1617 682Q1617 784 1558 846T1402 909Q1299 909 1235 851T1155 682H1617ZM612 504Q500 504 444 466T387 354Q387 286 432 248T559 209Q660 209 729 281T798
463V504H612ZM124 1090Q243 1118 354 1132T563 1147Q713 1147 821 1109T1001 991Q1078 1068 1180 1107T1404 1147Q1669 1147 1827 988T1986 563V461H1148Q1162 335 1239 272T1458 209Q1571 209 1689 242T1933 344V68Q1806 20 1679 -4T1425 -29Q1246 -29 1114 24T909
178Q808 71 697 21T446 -29Q252 -29 139 69T26 336Q26 533 161 625T587 717H798V745Q798 830 731 869T522 909Q407 909 308 886T124 817V1090Z" />
<glyph unicode="&#x1e4;" glyph-name="uni01E4" horiz-adv-x="1553" d="M1445 388V111Q1301 41 1146 6T826 -29Q453 -29 235 180Q17 388 17 745Q17 1106 239 1313T847 1520Q996 1520 1133 1492Q1269 1464 1390 1409V1100Q1265 1171 1141 1206Q1018 1241 894 1241Q664
1241 539 1112Q415 984 415 745Q415 508 535 379T876 250Q936 250 987 258Q1039 265 1080 281V388H931V462H1080V571H845V829H1445V462H1536V388H1445Z" />
<glyph unicode="&#x1e5;" glyph-name="uni01E5" horiz-adv-x="1325" d="M625 887Q514 887 452 805T390 573Q390 419 450 340Q510 260 625 260Q737 260 799 342T861 573Q861 723 799 805T625 887ZM832 -50Q861 16 861 113V190Q787 92 698 46T492 0Q287 0 153 162Q19
323 19 573Q19 824 153 984Q287 1145 492 1145Q609 1145 698 1099T861 954V1120H1221V113Q1221 24 1203 -51H1308V-140H1172Q1130 -233 1051 -299Q880 -442 556 -442Q451 -442 353 -426T156 -377V-98Q250 -152 340 -178Q430 -205 521 -205Q683 -205 765 -139L434
-140V-51L832 -50Z" />
<glyph unicode="&#x1e6;" glyph-name="Gcaron" horiz-adv-x="1681" d="M1446 111Q1302 41 1147 6T827 -29Q454 -29 236 179T18 745Q18 1106 240 1313T848 1520Q997 1520 1133 1492T1391 1409V1100Q1266 1171 1143 1206T895 1241Q665 1241 541 1113T416 745Q416
508 536 379T877 250Q937 250 988 257T1081 281V571H846V829H1446V111ZM1655 1635L1432 1899H1610L1809 1737L2008 1899H2186L1963 1635H1655Z" />
<glyph unicode="&#x1e7;" glyph-name="gcaron" horiz-adv-x="1466" d="M481 1262L225 1638H403L602 1411L801 1638H979L723 1262H481ZM860 190Q786 92 697 46T491 0Q286 0 152 161T18 573Q18 824 152 984T491 1145Q608 1145 697 1099T860 954V1120H1220V113Q1220
-157 1050 -299T555 -442Q450 -442 352 -426T155 -377V-98Q249 -152 339 -178T520 -205Q696 -205 778 -128T860 113V190ZM624 887Q513 887 451 805T389 573Q389 419 449 340T624 260Q736 260 798 342T860 573Q860 723 798 805T624 887Z" />
<glyph unicode="&#x1e8;" glyph-name="uni01E8" horiz-adv-x="1587" d="M37 1493H422V948L977 1493H1424L705 786L1498 0H1016L422 588V0H37V1493ZM1595 1635L1372 1899H1550L1749 1737L1948 1899H2126L1903 1635H1595Z" />
<glyph unicode="&#x1e9;" glyph-name="uni01E9" horiz-adv-x="1362" d="M34 1556H392V709L804 1120H1220L673 606L1263 0H829L392 467V0H34V1556ZM1110 1635L887 1899H1065L1264 1737L1463 1899H1641L1418 1635H1110Z" />
<glyph unicode="&#x1ea;" glyph-name="uni01EA" horiz-adv-x="1741" d="M475 -15H616Q566 -82 547 -118T528 -181Q528 -220 557 -244T636 -269Q675 -269 713 -262T792 -238V-394Q737 -405 690 -410T602 -416Q487 -416 426 -370T364 -238Q364 -185 391 -131T475
-15ZM788 1241Q612 1241 515 1111T418 745Q418 510 515 380T788 250Q965 250 1062 380T1159 745Q1159 981 1062 1111T788 1241ZM788 1520Q1148 1520 1352 1314T1556 745Q1556 383 1352 177T788 -29Q429 -29 225 177T20 745Q20 1108 224 1314T788 1520Z" />
<glyph unicode="&#x1eb;" glyph-name="uni01EB" horiz-adv-x="1407" d="M311 -15H452Q402 -82 383 -118T364 -181Q364 -220 393 -244T472 -269Q511 -269 549 -262T628 -238V-394Q573 -405 526 -410T438 -416Q323 -416 262 -370T200 -238Q200 -185 227 -131T311
-15ZM636 891Q517 891 455 806T392 559Q392 398 454 313T636 227Q753 227 815 312T877 559Q877 720 815 805T636 891ZM636 1147Q925 1147 1087 991T1250 559Q1250 283 1088 127T636 -29Q346 -29 183 127T19 559Q19 835 182 991T636 1147Z" />
<glyph unicode="&#x1ec;" glyph-name="uni01EC" horiz-adv-x="1544" d="M457 1871H1087V1683H457V1871ZM701 -16H842Q792 -83 773 -119T754 -182Q754 -221 783 -245T862 -270Q901 -270 939 -263T1018 -239V-395Q963 -406 916 -411T828 -417Q713 -417 652 -371T590
-239Q590 -186 617 -132T701 -16ZM772 1241Q596 1241 499 1111T402 745Q402 510 499 380T772 250Q949 250 1046 380T1143 745Q1143 981 1046 1111T772 1241ZM772 1520Q1132 1520 1336 1314T1540 745Q1540 383 1336 177T772 -29Q413 -29 209 177T4 745Q4 1108 208
1314T772 1520Z" />
<glyph unicode="&#x1ed;" glyph-name="uni01ED" horiz-adv-x="1237" d="M305 1562H935V1374H305V1562ZM550 -16H691Q641 -83 622 -119T603 -182Q603 -221 632 -245T711 -270Q750 -270 788 -263T867 -239V-395Q812 -406 765 -411T677 -417Q562 -417 501 -371T439
-239Q439 -186 466 -132T550 -16ZM620 891Q501 891 439 806T376 559Q376 398 438 313T620 227Q737 227 799 312T861 559Q861 720 799 805T620 891ZM620 1147Q909 1147 1071 991T1234 559Q1234 283 1072 127T620 -29Q330 -29 167 127T3 559Q3 835 166 991T620 1147Z"
/>
<glyph unicode="&#x1ee;" glyph-name="uni01EE" horiz-adv-x="1582" d="M1463 1635L1240 1899H1418L1617 1737L1816 1899H1994L1771 1635H1463ZM663 195Q821 195 903 248Q984 301 984 400Q984 502 901 554Q817 607 654 607H467V852L772 1202H27V1493H1249V1243L864
809Q997 798 1079 777Q1205 744 1291 632Q1369 529 1369 386Q1369 164 1199 48Q1029 -67 666 -67Q511 -67 356 -37Q201 -6 49 55V345Q205 271 360 233Q514 195 663 195Z" />
<glyph unicode="&#x1ef;" glyph-name="uni01EF" horiz-adv-x="1192" d="M252 479L622 864H57V1120H1034V870L616 436Q778 427 864 404Q990 371 1076 258Q1154 156 1154 13Q1154 -209 984 -324Q814 -440 488 -440Q373 -440 258 -422Q142 -403 29 -366V-69Q137 -123
244 -150Q350 -178 453 -178Q606 -178 688 -125Q769 -72 769 27Q769 129 686 182Q602 234 439 234H252V479ZM357 1506L101 1882H279L478 1655L677 1882H855L599 1506H357Z" />
<glyph unicode="&#x1f0;" glyph-name="uni01F0" horiz-adv-x="702" d="M244 1120H602V20Q602 -205 494 -323T181 -442H4V-207H66Q168 -207 206 -161T244 20V1120ZM111 1262L-145 1638H33L232 1411L431 1638H609L353 1262H111Z" />
<glyph unicode="&#x1f1;" glyph-name="uni01F1" horiz-adv-x="3185" d="M1755 1493H3010V1260L2209 291H3033V0H1732V233L2533 1202H1755V1493ZM423 1202V291H561Q797 291 921 408T1046 748Q1046 970 922 1086T561 1202H423ZM38 1493H444Q784 1493 950 1445T1236
1280Q1341 1179 1392 1047T1443 748Q1443 579 1392 447T1236 213Q1116 97 948 49T444 0H38V1493Z" />
<glyph unicode="&#x1f2;" glyph-name="uni01F2" horiz-adv-x="2892" d="M1757 1120H2734V870L2144 256H2734V0H1732V250L2322 864H1757V1120ZM423 1202V291H561Q797 291 921 408T1046 748Q1046 970 922 1086T561 1202H423ZM38 1493H444Q784 1493 950 1445T1236
1280Q1341 1179 1392 1047T1443 748Q1443 579 1392 447T1236 213Q1116 97 948 49T444 0H38V1493Z" />
<glyph unicode="&#x1f3;" glyph-name="uni01F3" horiz-adv-x="2658" d="M1523 1120H2500V870L1910 256H2500V0H1498V250L2088 864H1523V1120ZM845 956V1556H1205V0H845V162Q771 63 682 17T476 -29Q269 -29 136 135T3 559Q3 818 136 982T476 1147Q592 1147 681
1101T845 956ZM609 231Q724 231 784 315T845 559Q845 719 785 803T609 887Q495 887 435 803T374 559Q374 399 434 315T609 231Z" />
<glyph unicode="&#x1f4;" glyph-name="uni01F4" horiz-adv-x="1681" d="M1517 1900H1800L1515 1636H1319L1517 1900ZM1446 111Q1302 41 1147 6T827 -29Q454 -29 236 179T18 745Q18 1106 240 1313T848 1520Q997 1520 1133 1492T1391 1409V1100Q1266 1171 1143 1206T895
1241Q665 1241 541 1113T416 745Q416 508 536 379T877 250Q937 250 988 257T1081 281V571H846V829H1446V111Z" />
<glyph unicode="&#x1f5;" glyph-name="uni01F5" horiz-adv-x="1466" d="M860 190Q786 92 697 46T491 0Q286 0 152 161T18 573Q18 824 152 984T491 1145Q608 1145 697 1099T860 954V1120H1220V113Q1220 -157 1050 -299T555 -442Q450 -442 352 -426T155 -377V-98Q249
-152 339 -178T520 -205Q696 -205 778 -128T860 113V190ZM624 887Q513 887 451 805T389 573Q389 419 449 340T624 260Q736 260 798 342T860 573Q860 723 798 805T624 887ZM426 1638H709L340 1262H144L426 1638Z" />
<glyph unicode="&#x1f6;" glyph-name="uni01F6" horiz-adv-x="2288" d="M987 924V1493H1372V598Q1372 413 1432 334Q1493 254 1630 254Q1768 254 1828 334Q1889 413 1889 598V1120H2274V598Q2274 281 2115 126T1630 -29Q1306 -30 1146 126Q987 281 987 598V633H419V0H34V1493H419V924H987Z"
/>
<glyph unicode="&#x1f7;" glyph-name="uni01F7" horiz-adv-x="1356" d="M428 113V-426H34V1493H428V1308Q521 1428 618 1471Q730 1520 946 1520Q1170 1520 1256 1396Q1356 1254 1356 1104Q1356 642 428 113ZM428 417Q949 785 949 965Q949 1089 886 1162Q825 1234
686 1234Q589 1234 428 1010V417Z" />
<glyph unicode="&#x1f8;" glyph-name="uni01F8" horiz-adv-x="1714" d="M1760 1899L1958 1635H1762L1477 1899H1760ZM36 1493H466L1009 469V1493H1374V0H944L401 1024V0H36V1493Z" />
<glyph unicode="&#x1f9;" glyph-name="uni01F9" horiz-adv-x="1458" d="M1160 682V0H800V111V522Q800 667 794 722T771 803Q750 838 714 857T632 877Q520 877 456 791T392 551V0H34V1120H392V956Q473 1054 564 1100T765 1147Q959 1147 1059 1028T1160 682ZM638
1638L920 1262H724L355 1638H638Z" />
<glyph unicode="&#x1fa;" glyph-name="Aringacute" horiz-adv-x="1585" d="M1951 1907H2234L1949 1643H1753L1951 1907ZM1027 1464L1570 0H1183L1089 272H487L392 0H5L548 1464Q525 1498 514 1535T503 1616Q503 1733 586 1817T788 1901Q904 1901 988 1817T1072
1616Q1072 1569 1061 1531T1027 1464ZM657 1616Q657 1562 695 1524T788 1485Q842 1485 880 1523T919 1616Q919 1670 880 1708T788 1747Q734 1747 696 1709T657 1616ZM583 549H992L788 1143L583 549Z" />
<glyph unicode="&#x1fb;" glyph-name="aringacute" horiz-adv-x="1376" d="M593 504Q481 504 425 466T368 354Q368 286 413 248T540 209Q641 209 710 281T779 463V504H593ZM1140 639V0H779V166Q707 64 617 18T398 -29Q224 -29 116 72T7 336Q7 533 142 625T568
717H779V745Q779 830 712 869T503 909Q388 909 289 886T105 817V1090Q220 1118 336 1132T568 1147Q871 1147 1005 1028T1140 639ZM486 1534Q486 1479 524 1441T617 1403Q672 1403 710 1441T748 1534Q748 1588 710 1626T617 1665Q562 1665 524 1627T486 1534ZM332
1534Q332 1652 415 1735T617 1819Q735 1819 818 1736T902 1534Q902 1416 819 1333T617 1249Q499 1249 416 1332T332 1534ZM1086 1907H1369L1084 1643H888L1086 1907Z" />
<glyph unicode="&#x1fc;" glyph-name="AEacute" horiz-adv-x="2222" d="M1959 1899H2242L1957 1635H1761L1959 1899ZM900 1237L644 627H1021V1237H900ZM634 1493H2059V1202H1406V924H2020V633H1406V291H2082V0H1021V350H527L380 0H9L634 1493Z" />
<glyph unicode="&#x1fd;" glyph-name="aeacute" horiz-adv-x="2146" d="M1617 682Q1617 784 1558 846T1402 909Q1299 909 1235 851T1155 682H1617ZM612 504Q500 504 444 466T387 354Q387 286 432 248T559 209Q660 209 729 281T798 463V504H612ZM124 1090Q243 1118
354 1132T563 1147Q713 1147 821 1109T1001 991Q1078 1068 1180 1107T1404 1147Q1669 1147 1827 988T1986 563V461H1148Q1162 335 1239 272T1458 209Q1571 209 1689 242T1933 344V68Q1806 20 1679 -4T1425 -29Q1246 -29 1114 24T909 178Q808 71 697 21T446 -29Q252
-29 139 69T26 336Q26 533 161 625T587 717H798V745Q798 830 731 869T522 909Q407 909 308 886T124 817V1090ZM677 1638H960L591 1262H395L677 1638Z" />
<glyph unicode="&#x1fe;" glyph-name="Oslashacute" horiz-adv-x="1741" d="M1523 1899H1806L1521 1635H1325L1523 1899ZM575 371Q627 309 692 280T841 250Q1018 250 1115 380T1212 745Q1212 813 1205 871T1181 979L575 371ZM1104 1126Q1053 1184 988 1212T841
1241Q665 1241 568 1111T471 745Q471 681 478 625T499 522L1104 1126ZM221 244Q147 344 110 469T73 745Q73 1108 277 1314T841 1520Q995 1520 1119 1483T1345 1368L1544 1567L1657 1452L1456 1253Q1533 1154 1571 1027T1609 745Q1609 383 1405 177T841 -29Q688
-29 561 10T331 129L129 -74L16 39L221 244Z" />
<glyph unicode="&#x1ff;" glyph-name="oslashacute" horiz-adv-x="1407" d="M795 836Q766 864 729 877T644 891Q525 891 463 806T400 559Q400 518 403 486T414 426L795 836ZM486 287Q517 257 556 242T644 227Q761 227 823 312T885 559Q885 602 882 635T871 698L486
287ZM162 158Q95 236 61 336T27 559Q27 835 190 991T644 1147Q750 1147 839 1125T1004 1059L1151 1217L1260 1116L1119 967Q1189 887 1223 786T1258 559Q1258 283 1096 127T644 -29Q536 -29 445 -7T277 61L129 -94L17 0L162 158ZM321 1638H604L235 1262H39L321
1638Z" />
<glyph unicode="&#x200;" glyph-name="uni0200" horiz-adv-x="1585" d="M1092 272H490L395 0H8L561 1493H1020L1573 0H1186L1092 272ZM586 549H995L791 1143L586 549ZM1608 1900L1806 1636H1610L1325 1900H1608ZM1983 1900L2181 1636H1985L1700 1900H1983Z" />
<glyph unicode="&#x201;" glyph-name="uni0201" horiz-adv-x="1382" d="M606 504Q494 504 438 466T381 354Q381 286 426 248T553 209Q654 209 723 281T792 463V504H606ZM1153 639V0H792V166Q720 64 630 18T411 -29Q237 -29 129 72T20 336Q20 533 155 625T581 717H792V745Q792
830 725 869T516 909Q401 909 302 886T118 817V1090Q233 1118 349 1132T581 1147Q884 1147 1018 1028T1153 639ZM1813 1638L2007 1262H1844L1596 1638H1813ZM1450 1638L1665 1262H1491L1219 1638H1450Z" />
<glyph unicode="&#x202;" glyph-name="uni0202" horiz-adv-x="1585" d="M1092 272H490L395 0H8L561 1493H1020L1573 0H1186L1092 272ZM586 549H995L791 1143L586 549ZM1997 1626H1854Q1833 1687 1785 1717T1661 1747T1537 1717T1468 1626H1325Q1341 1755 1427
1822T1661 1890T1895 1823T1997 1626Z" />
<glyph unicode="&#x203;" glyph-name="uni0203" horiz-adv-x="1382" d="M606 504Q494 504 438 466T381 354Q381 286 426 248T553 209Q654 209 723 281T792 463V504H606ZM1153 639V0H792V166Q720 64 630 18T411 -29Q237 -29 129 72T20 336Q20 533 155 625T581 717H792V745Q792
830 725 869T516 909Q401 909 302 886T118 817V1090Q233 1118 349 1132T581 1147Q884 1147 1018 1028T1153 639ZM1901 1309H1758Q1747 1379 1698 1416T1565 1453T1433 1416T1372 1309H1229Q1235 1453 1322 1529T1565 1606T1808 1530T1901 1309Z" />
<glyph unicode="&#x204;" glyph-name="uni0204" horiz-adv-x="1399" d="M38 1493H1077V1202H423V924H1038V633H423V291H1099V0H38V1493ZM1573 1900L1771 1636H1575L1290 1900H1573ZM1948 1900L2146 1636H1950L1665 1900H1948Z" />
<glyph unicode="&#x205;" glyph-name="uni0205" horiz-adv-x="1389" d="M1220 563V461H383Q396 335 474 272T692 209Q805 209 923 242T1167 344V68Q1040 20 913 -4T659 -29Q355 -29 187 125T18 559Q18 833 183 990T639 1147Q903 1147 1061 988T1220 563ZM852 682Q852
784 793 846T637 909Q533 909 468 851T387 682H852ZM1844 1638L2038 1262H1875L1627 1638H1844ZM1481 1638L1696 1262H1522L1250 1638H1481Z" />
<glyph unicode="&#x206;" glyph-name="uni0206" horiz-adv-x="1399" d="M38 1493H1077V1202H423V924H1038V633H423V291H1099V0H38V1493ZM1943 1626H1800Q1779 1687 1731 1717T1607 1747T1483 1717T1414 1626H1271Q1287 1755 1373 1822T1607 1890T1841 1823T1943 1626Z" />
<glyph unicode="&#x207;" glyph-name="uni0207" horiz-adv-x="1389" d="M1220 563V461H383Q396 335 474 272T692 209Q805 209 923 242T1167 344V68Q1040 20 913 -4T659 -29Q355 -29 187 125T18 559Q18 833 183 990T639 1147Q903 1147 1061 988T1220 563ZM852 682Q852
784 793 846T637 909Q533 909 468 851T387 682H852ZM1932 1309H1789Q1778 1379 1729 1416T1596 1453T1464 1416T1403 1309H1260Q1266 1453 1353 1529T1596 1606T1839 1530T1932 1309Z" />
<glyph unicode="&#x208;" glyph-name="uni0208" horiz-adv-x="762" d="M37 1493H422V0H37V1493ZM1223 1900L1421 1636H1225L940 1900H1223ZM1598 1900L1796 1636H1600L1315 1900H1598Z" />
<glyph unicode="&#x209;" glyph-name="uni0209" horiz-adv-x="702" d="M1586 1638L1780 1262H1617L1369 1638H1586ZM1223 1638L1438 1262H1264L992 1638H1223ZM34 1120H392V0H34V1120Z" />
<glyph unicode="&#x20a;" glyph-name="uni020A" horiz-adv-x="762" d="M37 1493H422V0H37V1493ZM1583 1626H1440Q1419 1687 1371 1717T1247 1747T1123 1717T1054 1626H911Q927 1755 1013 1822T1247 1890T1481 1823T1583 1626Z" />
<glyph unicode="&#x20b;" glyph-name="uni020B" horiz-adv-x="702" d="M1542 1309H1399Q1388 1379 1339 1416T1206 1453T1074 1416T1013 1309H870Q876 1453 963 1529T1206 1606T1449 1530T1542 1309ZM34 1120H392V0H34V1120Z" />
<glyph unicode="&#x20c;" glyph-name="uni020C" horiz-adv-x="1741" d="M788 1241Q612 1241 515 1111T418 745Q418 510 515 380T788 250Q965 250 1062 380T1159 745Q1159 981 1062 1111T788 1241ZM788 1520Q1148 1520 1352 1314T1556 745Q1556 383 1352 177T788
-29Q429 -29 225 177T20 745Q20 1108 224 1314T788 1520ZM1685 1900L1883 1636H1687L1402 1900H1685ZM2060 1900L2258 1636H2062L1777 1900H2060Z" />
<glyph unicode="&#x20d;" glyph-name="uni020D" horiz-adv-x="1407" d="M636 891Q517 891 455 806T392 559Q392 398 454 313T636 227Q753 227 815 312T877 559Q877 720 815 805T636 891ZM636 1147Q925 1147 1087 991T1250 559Q1250 283 1088 127T636 -29Q346 -29
183 127T19 559Q19 835 182 991T636 1147ZM1820 1638L2014 1262H1851L1603 1638H1820ZM1457 1638L1672 1262H1498L1226 1638H1457Z" />
<glyph unicode="&#x20e;" glyph-name="uni020E" horiz-adv-x="1741" d="M788 1241Q612 1241 515 1111T418 745Q418 510 515 380T788 250Q965 250 1062 380T1159 745Q1159 981 1062 1111T788 1241ZM788 1520Q1148 1520 1352 1314T1556 745Q1556 383 1352 177T788
-29Q429 -29 225 177T20 745Q20 1108 224 1314T788 1520ZM2069 1626H1926Q1905 1687 1857 1717T1733 1747T1609 1717T1540 1626H1397Q1413 1755 1499 1822T1733 1890T1967 1823T2069 1626Z" />
<glyph unicode="&#x20f;" glyph-name="uni020F" horiz-adv-x="1407" d="M636 891Q517 891 455 806T392 559Q392 398 454 313T636 227Q753 227 815 312T877 559Q877 720 815 805T636 891ZM636 1147Q925 1147 1087 991T1250 559Q1250 283 1088 127T636 -29Q346 -29
183 127T19 559Q19 835 182 991T636 1147ZM1908 1309H1765Q1754 1379 1705 1416T1572 1453T1440 1416T1379 1309H1236Q1242 1453 1329 1529T1572 1606T1815 1530T1908 1309Z" />
<glyph unicode="&#x210;" glyph-name="uni0210" horiz-adv-x="1577" d="M582 831Q703 831 755 876T808 1024Q808 1126 756 1170T582 1214H420V831H582ZM420 565V0H35V1493H623Q918 1493 1055 1394T1193 1081Q1193 933 1122 838T906 698Q985 680 1047 617T1174
424L1383 0H973L791 371Q736 483 680 524T529 565H420ZM1532 1900L1730 1636H1534L1249 1900H1532ZM1907 1900L2105 1636H1909L1624 1900H1907Z" />
<glyph unicode="&#x211;" glyph-name="uni0211" horiz-adv-x="1010" d="M866 815Q819 837 773 847T679 858Q541 858 467 770T392 516V0H34V1120H392V936Q461 1046 550 1096T765 1147Q783 1147 804 1146T865 1139L866 815ZM1712 1638L1906 1262H1743L1495 1638H1712ZM1349
1638L1564 1262H1390L1118 1638H1349Z" />
<glyph unicode="&#x212;" glyph-name="uni0212" horiz-adv-x="1577" d="M582 831Q703 831 755 876T808 1024Q808 1126 756 1170T582 1214H420V831H582ZM420 565V0H35V1493H623Q918 1493 1055 1394T1193 1081Q1193 933 1122 838T906 698Q985 680 1047 617T1174
424L1383 0H973L791 371Q736 483 680 524T529 565H420ZM1891 1626H1748Q1727 1687 1679 1717T1555 1747T1431 1717T1362 1626H1219Q1235 1755 1321 1822T1555 1890T1789 1823T1891 1626Z" />
<glyph unicode="&#x213;" glyph-name="uni0213" horiz-adv-x="1010" d="M866 815Q819 837 773 847T679 858Q541 858 467 770T392 516V0H34V1120H392V936Q461 1046 550 1096T765 1147Q783 1147 804 1146T865 1139L866 815ZM1800 1309H1657Q1646 1379 1597 1416T1464
1453T1332 1416T1271 1309H1128Q1134 1453 1221 1529T1464 1606T1707 1530T1800 1309Z" />
<glyph unicode="&#x214;" glyph-name="uni0214" horiz-adv-x="1663" d="M29 1493H414V598Q414 413 474 334T672 254Q810 254 870 333T931 598V1493H1316V598Q1316 281 1157 126T672 -29Q347 -29 188 126T29 598V1493ZM1685 1900L1883 1636H1687L1402 1900H1685ZM2060
1900L2258 1636H2062L1777 1900H2060Z" />
<glyph unicode="&#x215;" glyph-name="uni0215" horiz-adv-x="1458" d="M30 436V1120H390V1008Q390 917 389 780T388 596Q388 461 395 402T419 315Q441 280 476 261T558 242Q670 242 734 328T798 567V1120H1156V0H798V162Q717 64 627 18T427 -29Q233 -29 132 90T30
436ZM1839 1638L2033 1262H1870L1622 1638H1839ZM1476 1638L1691 1262H1517L1245 1638H1476Z" />
<glyph unicode="&#x216;" glyph-name="uni0216" horiz-adv-x="1663" d="M29 1493H414V598Q414 413 474 334T672 254Q810 254 870 333T931 598V1493H1316V598Q1316 281 1157 126T672 -29Q347 -29 188 126T29 598V1493ZM2025 1626H1882Q1861 1687 1813 1717T1689
1747T1565 1717T1496 1626H1353Q1369 1755 1455 1822T1689 1890T1923 1823T2025 1626Z" />
<glyph unicode="&#x217;" glyph-name="uni0217" horiz-adv-x="1458" d="M30 436V1120H390V1008Q390 917 389 780T388 596Q388 461 395 402T419 315Q441 280 476 261T558 242Q670 242 734 328T798 567V1120H1156V0H798V162Q717 64 627 18T427 -29Q233 -29 132 90T30
436ZM1927 1309H1784Q1773 1379 1724 1416T1591 1453T1459 1416T1398 1309H1255Q1261 1453 1348 1529T1591 1606T1834 1530T1927 1309Z" />
<glyph unicode="&#x218;" glyph-name="Scommaaccent" horiz-adv-x="1475" d="M1254 -191H1578L1356 -489H1164L1254 -191ZM1104 1446V1130Q981 1185 864 1213T643 1241Q505 1241 439 1203T373 1085Q373 1025 417 992T579 934L743 901Q992 851 1097 749T1202 459Q1202
212 1056 92T608 -29Q466 -29 323 -2T37 78V403Q180 327 313 289T571 250Q697 250 764 292T831 412Q831 482 786 520T604 588L455 621Q231 669 128 774T24 1057Q24 1280 168 1400T582 1520Q705 1520 835 1502T1104 1446Z" />
<glyph unicode="&#x219;" glyph-name="scommaaccent" horiz-adv-x="1219" d="M1170 -191H1494L1272 -489H1080L1170 -191ZM965 1085V813Q850 861 743 885T541 909Q439 909 390 884T340 805Q340 762 377 739T512 705L575 696Q850 661 945 581T1040 330Q1040 151
908 61T514 -29Q403 -29 285 -12T41 41V313Q148 261 260 235T489 209Q594 209 647 238T700 324Q700 372 664 395T518 432L455 440Q216 470 120 551T24 797Q24 975 146 1061T520 1147Q619 1147 728 1132T965 1085Z" />
<glyph unicode="&#x21a;" glyph-name="uni021A" horiz-adv-x="1397" d="M1210 -191H1534L1312 -489H1120L1210 -191ZM6 1493H1382V1202H887V0H502V1202H6V1493Z" />
<glyph unicode="&#x21b;" glyph-name="uni021B" horiz-adv-x="979" d="M1051 -191H1375L1153 -489H961L1051 -191ZM542 1438V1120H911V864H542V389Q542 311 573 284T696 256H880V0H573Q361 0 273 88T184 389V864H6V1120H184V1438H542Z" />
<glyph unicode="&#x21c;" glyph-name="uni021C" horiz-adv-x="1156" d="M829 674Q978 638 1062 535T1147 311Q1147 207 1103 120T975 -40T752 -180T438 -307T22 -430V-147Q46 -142 84 -132T194 -99T335 -50T482 16T615 96T709 191T747 300Q747 364 712 410T630
477T531 498Q475 498 411 473L195 388V642L429 737Q510 770 569 809T657 882T703 954T723 1015T726 1066Q726 1120 701 1159T636 1218T555 1247T475 1256Q320 1256 86 1100V1356Q326 1520 561 1520Q679 1520 776 1492T934 1420T1036 1320T1095 1210T1112 1108Q1112
821 829 674Z" />
<glyph unicode="&#x21d;" glyph-name="uni021D" horiz-adv-x="1045" d="M750 461Q835 439 895 403T983 323T1024 243T1036 167Q1036 -241 23 -433V-204Q45 -199 79 -191T179 -165T307 -125T438 -72T558 -6T642 71T676 159Q676 233 616 276T481 319Q429 319 373
299L179 230V436L390 513Q465 540 518 573T597 632T638 691T655 739T657 779Q657 823 634 855T575 903T503 926T431 933Q292 933 81 807V1014Q286 1147 533 1147Q636 1147 718 1126T853 1072T940 993T989 902T1004 808Q1004 695 931 604T750 461Z" />
<glyph unicode="&#x21e;" glyph-name="uni021E" horiz-adv-x="1714" d="M37 1493H422V924H990V1493H1375V0H990V633H422V0H37V1493ZM1595 1635L1372 1899H1550L1749 1737L1948 1899H2126L1903 1635H1595Z" />
<glyph unicode="&#x21f;" glyph-name="uni021F" horiz-adv-x="1458" d="M1160 682V0H800V111V520Q800 667 794 722T771 803Q750 838 714 857T632 877Q520 877 456 791T392 551V0H34V1556H392V956Q473 1054 564 1100T765 1147Q959 1147 1059 1028T1160 682ZM1097
1635L874 1899H1052L1251 1737L1450 1899H1628L1405 1635H1097Z" />
<glyph unicode="&#x220;" glyph-name="uni0220" horiz-adv-x="1364" d="M9 1493H381V1266Q492 1401 608 1460T869 1520Q1096 1520 1214 1362T1333 903V-426H972V691Q972 1001 923 1070Q857 1162 712 1162Q555 1162 466 1047T377 730V0H9V1493Z" />
<glyph unicode="&#x221;" glyph-name="uni0221" horiz-adv-x="1607" d="M1305 230Q1439 230 1437 319Q1437 344 1410 344Q1335 344 1293 293L1256 246Q1278 230 1305 230ZM611 231Q726 231 787 315Q847 399 847 559T787 803Q726 887 611 887Q497 887 437 803Q376
719 376 559T437 315Q497 231 611 231ZM1207 514Q1283 606 1389 606Q1483 606 1534 550Q1598 481 1596 327Q1596 167 1530 80Q1453 -25 1287 -26Q1196 -26 1125 0Q1089 -74 1059 -154L895 -82Q915 -27 961 86Q945 100 933 118Q888 50 818 15Q730 -29 478 -29Q271
-29 138 136Q5 300 5 559T138 982Q271 1147 478 1147Q594 1147 683 1100Q773 1054 847 956V1556H1207V514Z" />
<glyph unicode="&#x222;" glyph-name="uni0222" horiz-adv-x="1441" d="M719 668Q558 668 471 609Q383 550 383 440T471 272Q558 213 719 213Q881 213 966 272Q1051 330 1051 440Q1051 551 966 610Q881 668 719 668ZM779 1346V1519Q1060 1511 1214 1422Q1383 1323
1383 1133Q1383 1006 1300 921Q1216 836 1053 795Q1235 753 1328 658Q1421 564 1421 420Q1421 198 1244 84Q1067 -29 719 -29Q370 -29 192 84Q14 198 14 420Q14 564 107 658Q200 753 382 795Q214 825 136 911Q53 1003 53 1083Q53 1191 222 1291Q338 1360 653 1369V1215Q541
1217 487 1180Q405 1124 405 1064Q405 995 487 947Q551 909 719 909Q852 909 949 967Q1030 1015 1030 1134Q1030 1241 949 1290Q870 1338 779 1346Z" />
<glyph unicode="&#x223;" glyph-name="uni0223" horiz-adv-x="1219" d="M761 1218L1116 1323Q1164 1244 1164 1133Q1164 1007 1094 921Q1025 836 889 795Q1039 754 1118 658Q1196 564 1196 420Q1196 198 1048 84Q901 -29 611 -29Q320 -29 172 84Q23 198 23 420Q23
564 100 658Q178 753 330 795Q194 836 125 921T56 1133Q56 1244 104 1323L458 1218Q420 1171 420 1094Q420 1005 470 957Q519 909 611 909Q701 909 750 957T799 1094Q799 1171 761 1218ZM611 668Q503 668 445 609T387 440T445 272Q503 213 611 213Q718 213 775
272Q832 330 832 440Q832 551 775 610Q718 668 611 668Z" />
<glyph unicode="&#x224;" glyph-name="uni0224" horiz-adv-x="1332" d="M1305 0Q1299 -268 1134 -377Q1035 -442 882 -442H601V-207H767Q869 -207 907 -161Q942 -118 945 0H4V233L805 1202H27V1493H1282V1260L481 291H1305V0Z" />
<glyph unicode="&#x225;" glyph-name="uni0225" horiz-adv-x="1041" d="M1014 0Q1008 -268 843 -377Q744 -442 591 -442H310V-207H476Q578 -207 616 -161Q651 -118 654 0H12V250L602 864H37V1120H1014V870L424 256H1014V0Z" />
<glyph unicode="&#x226;" glyph-name="uni0226" horiz-adv-x="1585" d="M1338 1899H1612V1653H1338V1899ZM1092 272H490L395 0H8L561 1493H1020L1573 0H1186L1092 272ZM586 549H995L791 1143L586 549Z" />
<glyph unicode="&#x227;" glyph-name="uni0227" horiz-adv-x="1382" d="M1246 1556H1604V1264H1246V1556ZM606 504Q494 504 438 466T381 354Q381 286 426 248T553 209Q654 209 723 281T792 463V504H606ZM1153 639V0H792V166Q720 64 630 18T411 -29Q237 -29 129
72T20 336Q20 533 155 625T581 717H792V745Q792 830 725 869T516 909Q401 909 302 886T118 817V1090Q233 1118 349 1132T581 1147Q884 1147 1018 1028T1153 639Z" />
<glyph unicode="&#x228;" glyph-name="uni0228" horiz-adv-x="1399" d="M38 1493H1077V1202H423V924H1038V633H423V291H1099V0H38V1493ZM481 7Q539 -55 566 -108T594 -208Q594 -303 533 -348T344 -394Q296 -394 245 -388T142 -368L141 -216Q191 -232 232 -239T307
-247Q365 -247 397 -224T430 -161Q430 -135 409 -94T342 7H481Z" />
<glyph unicode="&#x229;" glyph-name="uni0229" horiz-adv-x="1389" d="M1220 563V461H383Q396 335 474 272T692 209Q805 209 923 242T1167 344V68Q1040 20 913 -4T659 -29Q355 -29 187 125T18 559Q18 833 183 990T639 1147Q903 1147 1061 988T1220 563ZM852 682Q852
784 793 846T637 909Q533 909 468 851T387 682H852ZM488 0Q546 -62 573 -115T601 -215Q601 -310 540 -355T351 -401Q303 -401 252 -395T149 -375L148 -223Q198 -239 239 -246T314 -254Q372 -254 404 -231T437 -168Q437 -142 416 -101T349 0H488Z" />
<glyph unicode="&#x22a;" glyph-name="uni022A" horiz-adv-x="1553" d="M777 1241Q601 1241 504 1111T407 745Q407 510 504 380T777 250Q954 250 1051 380T1148 745Q1148 981 1051 1111T777 1241ZM777 1520Q1137 1520 1341 1314T1545 745Q1545 383 1341 177T777
-29Q418 -29 214 177T9 745Q9 1108 213 1314T777 1520ZM444 2130H1074V1942H444V2130ZM444 1870H679V1624H444V1870ZM839 1870H1074V1624H839V1870Z" />
<glyph unicode="&#x22b;" glyph-name="uni022B" horiz-adv-x="1245" d="M624 891Q505 891 443 806T380 559Q380 398 442 313T624 227Q741 227 803 312T865 559Q865 720 803 805T624 891ZM624 1147Q913 1147 1075 991T1238 559Q1238 283 1076 127T624 -29Q334 -29
171 127T7 559Q7 835 170 991T624 1147ZM306 1585H541V1339H306V1585ZM701 1585H936V1339H701V1585ZM331 1871H961V1683H331V1871Z" />
<glyph unicode="&#x22c;" glyph-name="uni022C" horiz-adv-x="1554" d="M777 1241Q601 1241 504 1111T407 745Q407 510 504 380T777 250Q954 250 1051 380T1148 745Q1148 981 1051 1111T777 1241ZM777 1520Q1137 1520 1341 1314T1545 745Q1545 383 1341 177T777
-29Q418 -29 214 177T9 745Q9 1108 213 1314T777 1520ZM779 1650L723 1685Q720 1687 713 1691Q668 1717 640 1717Q608 1717 588 1687T568 1607V1601H429Q429 1606 430 1616T431 1631Q431 1737 484 1802T625 1867Q662 1867 699 1855T775 1818L834 1779Q855 1765
874 1758T910 1750Q947 1750 966 1780T986 1867H1125Q1125 1861 1124 1851T1123 1836Q1123 1730 1070 1666T929 1601Q891 1601 856 1612T779 1650ZM460 2130H1090V1942H460V2130Z" />
<glyph unicode="&#x22d;" glyph-name="uni022D" horiz-adv-x="1247" d="M625 891Q506 891 444 806T381 559Q381 398 443 313T625 227Q742 227 804 312T866 559Q866 720 804 805T625 891ZM625 1147Q914 1147 1076 991T1239 559Q1239 283 1077 127T625 -29Q335 -29
172 127T8 559Q8 835 171 991T625 1147ZM627 1360L571 1395Q568 1397 561 1401Q516 1427 488 1427Q456 1427 436 1397T416 1317V1311H277Q277 1316 278 1326T279 1341Q279 1447 332 1512T473 1577Q510 1577 547 1565T623 1528L682 1489Q703 1475 722 1468T758 1460Q795
1460 814 1490T834 1577H973Q973 1571 972 1561T971 1546Q971 1440 918 1376T777 1311Q739 1311 704 1322T627 1360ZM308 1840H938V1652H308V1840Z" />
<glyph unicode="&#x22e;" glyph-name="uni022E" horiz-adv-x="1741" d="M1416 1899H1690V1653H1416V1899ZM788 1241Q612 1241 515 1111T418 745Q418 510 515 380T788 250Q965 250 1062 380T1159 745Q1159 981 1062 1111T788 1241ZM788 1520Q1148 1520 1352 1314T1556
745Q1556 383 1352 177T788 -29Q429 -29 225 177T20 745Q20 1108 224 1314T788 1520Z" />
<glyph unicode="&#x22f;" glyph-name="uni022F" horiz-adv-x="1407" d="M1253 1556H1611V1264H1253V1556ZM636 891Q517 891 455 806T392 559Q392 398 454 313T636 227Q753 227 815 312T877 559Q877 720 815 805T636 891ZM636 1147Q925 1147 1087 991T1250 559Q1250
283 1088 127T636 -29Q346 -29 183 127T19 559Q19 835 182 991T636 1147Z" />
<glyph unicode="&#x230;" glyph-name="uni0230" horiz-adv-x="1550" d="M775 1241Q599 1241 502 1111T405 745Q405 510 502 380T775 250Q952 250 1049 380T1146 745Q1146 981 1049 1111T775 1241ZM775 1520Q1135 1520 1339 1314T1543 745Q1543 383 1339 177T775
-29Q416 -29 212 177T7 745Q7 1108 211 1314T775 1520ZM660 1873H934V1627H660V1873ZM482 2133H1112V1945H482V2133Z" />
<glyph unicode="&#x231;" glyph-name="uni0231" horiz-adv-x="1241" d="M443 1556H801V1264H443V1556ZM622 891Q503 891 441 806T378 559Q378 398 440 313T622 227Q739 227 801 312T863 559Q863 720 801 805T622 891ZM622 1147Q911 1147 1073 991T1236 559Q1236
283 1074 127T622 -29Q332 -29 169 127T5 559Q5 835 168 991T622 1147ZM307 1872H937V1684H307V1872Z" />
<glyph unicode="&#x232;" glyph-name="uni0232" horiz-adv-x="1483" d="M264 1871H894V1683H264V1871ZM3 1493H424L764 961L1104 1493H1526L957 629V0H572V629L3 1493Z" />
<glyph unicode="&#x233;" glyph-name="uni0233" horiz-adv-x="1335" d="M184 1562H814V1374H184V1562ZM16 1120H374L675 360L931 1120H1289L818 -106Q747 -293 653 -367T403 -442H196V-207H308Q399 -207 440 -178T505 -74L515 -43L16 1120Z" />
<glyph unicode="&#x234;" glyph-name="uni0234" horiz-adv-x="778" d="M498 230Q632 230 630 319Q630 344 603 344Q528 344 486 293L449 246Q471 230 498 230ZM387 514Q463 606 569 606Q656 606 707 558Q778 490 776 327Q776 166 710 78Q633 -26 467 -26Q376 -26
305 0Q269 -74 239 -154L75 -82Q95 -27 141 86Q29 198 29 559V1556H387V514Z" />
<glyph unicode="&#x235;" glyph-name="uni0235" horiz-adv-x="1549" d="M1150 514Q1226 606 1332 606Q1413 606 1463 564Q1541 498 1539 327Q1537 154 1463 66Q1386 -26 1230 -26Q1139 -26 1068 0Q1032 -74 1002 -154L838 -82Q858 -27 904 86Q786 205 790 522Q792
656 784 722Q777 777 761 803Q740 838 704 858Q668 877 622 877Q510 877 446 790Q382 704 382 551V0H24V1120H382V956Q463 1054 554 1100Q645 1147 755 1147Q949 1147 1050 1028Q1150 909 1150 682V514ZM1261 230Q1395 234 1393 319Q1392 344 1366 344Q1291 346
1249 293L1212 246Q1234 230 1261 230Z" />
<glyph unicode="&#x236;" glyph-name="uni0236" horiz-adv-x="945" d="M644 240Q778 244 776 329Q775 354 749 354Q674 356 632 303L595 256Q617 240 644 240ZM542 1438V1120H911V864H542L543 508Q626 604 732 604Q823 604 874 552Q941 483 939 325T875 80Q799
-28 630 -28Q539 -28 468 -2Q432 -76 402 -156L238 -84Q259 -22 297 68Q284 77 273 88Q184 177 184 389V864H6V1120H184V1438H542Z" />
<glyph unicode="&#x237;" glyph-name="dotlessj" horiz-adv-x="631" d="M244 1120H602V20Q602 -205 494 -323T181 -442H4V-207H66Q168 -207 206 -161T244 20V1120Z" />
<glyph unicode="&#x238;" glyph-name="uni0238" horiz-adv-x="2066" d="M617 231Q732 231 793 315Q853 399 853 559T793 803Q732 887 617 887Q503 887 443 803Q382 719 382 559T443 315Q503 231 617 231ZM1625 315Q1685 399 1685 559T1625 803Q1564 887 1449 887T1273
802Q1222 733 1213 614V504Q1222 385 1273 316Q1334 231 1449 231T1625 315ZM1211 1556H1213V959Q1286 1055 1375 1100Q1465 1147 1582 1147Q1789 1147 1922 982Q2055 818 2055 559T1922 136Q1789 -29 1582 -29Q1465 -29 1375 18Q1286 63 1213 159V0H1211H853V162Q779
63 690 17T484 -29Q277 -29 144 136Q11 300 11 559T144 982Q277 1147 484 1147Q600 1147 689 1100Q779 1054 853 956V1556H1211Z" />
<glyph unicode="&#x239;" glyph-name="uni0239" horiz-adv-x="2068" d="M618 887Q504 887 444 803Q383 719 383 559T444 315Q504 231 618 231Q733 231 794 315Q854 399 854 559T794 803Q733 887 618 887ZM1274 802Q1223 733 1214 614V504Q1223 385 1274 316Q1335
231 1450 231T1626 315Q1686 399 1686 559T1626 803Q1565 887 1450 887T1274 802ZM1214 159V-426H1212H854V162Q780 63 691 17T485 -29Q278 -29 145 136Q12 300 12 559T145 982Q278 1145 485 1145Q602 1145 691 1099T854 954V1120H1212H1214V959Q1287 1055 1376
1100Q1466 1147 1583 1147Q1790 1147 1923 982Q2056 818 2056 559T1923 136Q1790 -29 1583 -29Q1466 -29 1376 18Q1287 63 1214 159Z" />
<glyph unicode="&#x23a;" glyph-name="uni023A" horiz-adv-x="1659" d="M1126 272H524L429 0H191L117 -74L43 0H42V1L4 39L87 122L595 1493H1054L1163 1198L1532 1567L1645 1452L1225 1032L1607 0H1220L1126 272ZM676 711L897 932L825 1143L676 711ZM741 549H1029L955
763L741 549Z" />
<glyph unicode="&#x23b;" glyph-name="uni023B" horiz-adv-x="1660" d="M122 -74L9 39L287 317Q180 495 180 745Q180 1103 398 1312Q616 1520 989 1520Q1114 1520 1229 1492Q1318 1470 1402 1432L1537 1567L1650 1452L1450 1252V1100Q1402 1133 1355 1157L647
450Q668 413 696 382Q814 250 1020 250Q1135 250 1239 284T1450 391V82Q1344 27 1229 -1T989 -29Q616 -29 398 180L387 190L122 -74ZM588 618L1191 1221Q1109 1241 1020 1241Q814 1241 696 1109T578 745Q578 677 588 618Z" />
<glyph unicode="&#x23c;" glyph-name="uni023C" horiz-adv-x="1259" d="M121 -94L9 0L207 213Q111 352 111 559Q111 836 282 992Q453 1147 756 1147Q844 1147 929 1132Q984 1122 1039 1105L1143 1217L1251 1116L1100 954V793Q1051 827 1001 849L538 352Q551 332
567 314Q651 227 801 227Q885 227 961 252Q1036 277 1100 326V33Q1016 2 929 -14Q843 -29 756 -29Q474 -29 307 105L121 -94ZM486 512L838 890Q819 891 801 891Q651 891 567 804Q484 716 484 559Q484 535 486 512Z" />
<glyph unicode="&#x23d;" glyph-name="uni023D" horiz-adv-x="1264" d="M202 1493H587V881H788V621H587V291H1263V0H202V621H11V881H202V1493Z" />
<glyph unicode="&#x23e;" glyph-name="uni023E" horiz-adv-x="1652" d="M1519 1320V1202H1401L1023 825V0H638V440L123 -74L10 39L638 667V1202H143V1493H1464L1538 1567L1651 1452L1519 1320ZM1023 1052L1173 1202H1023V1052Z" />
<glyph unicode="&#x23f;" glyph-name="uni023F" horiz-adv-x="1137" d="M949 1085V813Q834 861 727 885T525 909Q423 909 374 884Q324 858 324 805Q324 762 362 739Q399 716 496 705L559 696Q834 661 929 581T1024 330Q1024 151 892 61Q769 -23 535 -29L737 -186Q828
-257 906 -257H1121V-492H914Q747 -492 592 -372L362 -192Q97 14 36 38L25 41V313Q132 261 244 235Q357 209 473 209Q578 209 631 238T684 324Q684 372 648 396Q613 418 502 432L439 440Q200 470 104 551T8 797Q8 975 130 1061T504 1147Q603 1147 712 1132T949
1085Z" />
<glyph unicode="&#x240;" glyph-name="uni0240" horiz-adv-x="1155" d="M32 1120H1009V870L304 141Q405 83 520 -7L750 -186Q841 -257 919 -257H1134V-492H927Q760 -492 605 -372L375 -192Q150 -17 7 0V250L597 864H32V1120Z" />
<glyph unicode="&#x241;" glyph-name="uni0241" horiz-adv-x="1450" d="M436 1214Q358 1214 357 1213Q314 1213 297 1193Q266 1156 264 1109Q263 1095 263 1062H8V1139Q8 1294 56 1359Q74 1383 107 1412Q182 1475 320 1488Q371 1493 436 1493H854Q1139 1493 1291
1366Q1444 1240 1444 1006Q1444 771 1291 644Q1139 518 854 518H821V0H436V797H813Q925 797 986 852Q1047 906 1047 1006T986 1160T813 1214H436Z" />
<glyph unicode="&#x242;" glyph-name="uni0242" horiz-adv-x="1107" d="M465 451Q576 451 638 506Q699 560 699 660T638 814T465 868Q333 868 333 716H8Q12 1148 466 1147Q789 1147 943 1020Q1096 894 1096 660Q1096 425 943 298Q836 210 664 183V0H279V451H465Z" />
<glyph unicode="&#x243;" glyph-name="uni0243" horiz-adv-x="1440" d="M788 915Q879 915 926 955T973 1073Q973 1150 926 1190T788 1231H575V915H788ZM801 262Q917 262 975 311T1034 459Q1034 556 976 604T801 653H575V554H808V360H575V262H801ZM1159 799Q1283
763 1351 666T1419 428Q1419 212 1273 106T829 0H190V360H14V554H190V1493H768Q1079 1493 1218 1399T1358 1098Q1358 989 1307 913T1159 799Z" />
<glyph unicode="&#x244;" glyph-name="uni0244" horiz-adv-x="1598" d="M540 696V598Q540 413 600 334T798 254Q936 254 996 333T1057 598V696H540ZM155 1493H540V890H1057V1493H1442V890H1583V696H1442V598Q1442 281 1283 126T798 -29Q473 -29 314 126T155 598V696H15V890H155V1493Z"
/>
<glyph unicode="&#x245;" glyph-name="uni0245" horiz-adv-x="1585" d="M1185 0L790 1143L394 0H7L560 1493H1019L1572 0H1185Z" />
<glyph unicode="&#x246;" glyph-name="uni0246" horiz-adv-x="1096" d="M873 1683H1045L988 1493H1060V1202H900L816 924H1021V633H729L626 291H1082V0H538L481 -190H310L367 0H21V1493H816L873 1683ZM455 291L557 633H406V291H455ZM645 924L728 1202H406V924H645Z" />
<glyph unicode="&#x247;" glyph-name="uni0247" horiz-adv-x="1220" d="M1211 563V461H647L533 233Q596 209 683 209Q796 209 914 242T1158 344V68Q1031 20 904 -4T650 -29Q521 -29 416 -1L321 -190H150L273 56Q221 86 177 126Q9 280 9 559Q9 833 174 990T630
1147Q726 1147 809 1126L901 1310H1073L951 1067Q1006 1034 1053 988Q1211 829 1211 563ZM587 682L696 900Q664 909 628 909Q524 909 459 851T378 682H587ZM412 334L476 461H374Q382 386 412 334ZM758 682H843Q843 749 817 799L758 682Z" />
<glyph unicode="&#x248;" glyph-name="uni0248" horiz-adv-x="864" d="M310 1493H695V831H859V565H695V145Q695 -134 544 -272T85 -410H7V-119H67Q187 -119 248 -52T310 145V565H122V831H310V1493Z" />
<glyph unicode="&#x249;" glyph-name="uni0249" horiz-adv-x="812" d="M245 1120H603V632H811V438H603V20Q603 -205 495 -323T182 -442H5V-207H67Q169 -207 207 -161T245 20V438H37V632H245V1120ZM245 1556H603V1264H245V1556Z" />
<glyph unicode="&#x24a;" glyph-name="uni024A" horiz-adv-x="1819" d="M760 250Q933 250 1024 377T1116 745Q1116 987 1025 1114T760 1241Q588 1241 497 1114T405 745Q405 504 496 377T760 250ZM1116 222Q1018 92 901 32T629 -29Q356 -29 181 187T5 744Q5 1085
180 1301T629 1517Q782 1517 900 1456T1116 1266V1493H1481V145Q1481 15 1542 -52T1724 -119H1804V-410H1726Q1419 -410 1268 -272T1116 145V222Z" />
<glyph unicode="&#x24b;" glyph-name="uni024B" horiz-adv-x="1562" d="M611 231Q726 231 787 315Q847 399 847 559T787 803Q726 887 611 887Q497 887 437 803Q376 719 376 559T437 315Q497 231 611 231ZM1270 -442Q964 -442 878 -187Q850 -104 847 0V162Q773
63 684 17T478 -29Q271 -29 138 136Q5 300 5 559T138 982Q271 1147 478 1147Q594 1147 683 1100Q773 1054 847 956V1120H1207V20Q1207 -115 1245 -161T1385 -207H1551V-442H1270Z" />
<glyph unicode="&#x24c;" glyph-name="uni024C" horiz-adv-x="1553" d="M739 831Q860 831 912 876T965 1024Q965 1126 913 1170T739 1214H577V831H739ZM577 565V0H192V565H16V825H192V1493H780Q1075 1493 1212 1394T1350 1081Q1350 933 1279 838T1063 698Q1142
680 1204 617T1331 424L1540 0H1130L948 371Q893 483 837 524T686 565H577Z" />
<glyph unicode="&#x24d;" glyph-name="uni024D" horiz-adv-x="1055" d="M1052 815Q1005 837 959 847T865 858Q752 858 686 804T588 632H779V438H578V0H220V438H6V632H220V1120H578V936Q647 1046 736 1096T951 1147Q969 1147 990 1146T1051 1139L1052 815Z" />
<glyph unicode="&#x24e;" glyph-name="uni024E" horiz-adv-x="1533" d="M5 1493H426L546 1306H986L1106 1493H1528L1405 1306H1517V1112H1277L959 629V0H574V629L256 1112H15V1306H128L5 1493ZM863 1112H669L766 961L863 1112Z" />
<glyph unicode="&#x24f;" glyph-name="uni024F" horiz-adv-x="1369" d="M49 1120H407L580 682H816L964 1120H1322L1154 682H1367V488H1079L851 -106Q779 -294 686 -368Q591 -442 436 -442H229V-207H341Q432 -207 474 -178Q515 -149 538 -74L548 -43L320 488H15V682H237L49
1120ZM751 488H657L708 360L751 488Z" />
<glyph unicode="&#x250;" glyph-name="uni0250" horiz-adv-x="1181" d="M575 614Q687 614 743 652T800 764Q800 832 755 870T628 909Q527 909 458 837T389 655V614H575ZM28 479V1118H389V952Q461 1054 551 1100T770 1147Q944 1147 1052 1046T1161 782Q1161 585
1026 493T600 401H389V373Q389 288 456 249T665 209Q780 209 879 232T1063 301V28Q948 0 832 -14T600 -29Q297 -29 163 90T28 479Z" />
<glyph unicode="&#x251;" glyph-name="uni0251" horiz-adv-x="1256" d="M862 956V1120H1222V0H862V162Q788 63 699 17T493 -29Q286 -29 153 135T20 559Q20 818 153 982T493 1147Q609 1147 698 1101T862 956ZM626 231Q741 231 801 315T862 559Q862 719 802 803T626
887Q512 887 452 803T391 559Q391 399 451 315T626 231Z" />
<glyph unicode="&#x252;" glyph-name="uni0252" horiz-adv-x="1255" d="M629 231Q744 231 804 315T865 559Q865 719 805 803T629 887Q514 887 453 803T391 559Q391 400 452 316T629 231ZM391 956Q465 1054 555 1100T762 1147Q969 1147 1102 983T1235 559Q1235
300 1102 136T762 -29Q645 -29 555 17T391 162V0H33V1120H391V956Z" />
<glyph unicode="&#x253;" glyph-name="uni0253" horiz-adv-x="1241" d="M627 231Q742 231 802 315T863 559Q863 719 803 803T627 887Q512 887 451 803T389 559Q389 400 450 316T627 231ZM389 956Q463 1054 553 1100T760 1147Q967 1147 1100 983T1233 559Q1233
300 1100 136T760 -29Q643 -29 553 17T389 162V0H31V1094Q31 1319 139 1437T452 1556H735V1321H567Q465 1321 427 1275T389 1094V956Z" />
<glyph unicode="&#x254;" glyph-name="uni0254" horiz-adv-x="1034" d="M30 1085Q115 1116 200 1131T374 1147Q677 1147 848 992T1019 559T848 127T374 -29Q287 -29 201 -14T30 33V326Q94 277 169 252T329 227Q479 227 562 314T646 559T563 803T329 891Q250 891
177 867T30 793V1085Z" />
<glyph unicode="&#x255;" glyph-name="uni0255" horiz-adv-x="1020" d="M1001 1085V793Q928 843 855 867T702 891Q552 891 469 804T385 559Q385 436 436 356Q538 532 705 532Q994 527 994 294Q994 -30 650 -29Q578 -29 572 -27V-141L372 -140Q372 -53 373 15Q263
53 183 126Q12 282 12 559Q12 836 183 991T657 1147Q745 1147 830 1132T1001 1085ZM585 232Q643 207 701 207Q848 207 847 264Q846 339 715 339Q632 339 585 232Z" />
<glyph unicode="&#x256;" glyph-name="uni0256" horiz-adv-x="1460" d="M842 956V1556H1202V20Q1202 -115 1240 -161T1380 -207H1444V-442H1265Q1060 -442 952 -324T844 20V162Q770 63 680 17T473 -29Q266 -29 133 135T0 559Q0 818 133 982T473 1147Q589 1147
678 1101T842 956ZM606 231Q721 231 781 315T842 559Q842 719 782 803T606 887Q492 887 432 803T371 559Q371 399 431 315T606 231Z" />
<glyph unicode="&#x257;" glyph-name="uni0257" horiz-adv-x="1564" d="M847 956V1094Q847 1319 955 1437T1268 1556H1553V1321H1385Q1283 1321 1245 1275T1207 1094V0H847V162Q773 63 684 17T478 -29Q271 -29 138 135T5 559Q5 818 138 982T478 1147Q594 1147
683 1101T847 956ZM611 231Q726 231 786 315T847 559Q847 719 787 803T611 887Q497 887 437 803T376 559Q376 399 436 315T611 231Z" />
<glyph unicode="&#x258;" glyph-name="uni0258" horiz-adv-x="1240" d="M20 563Q20 829 178 988Q337 1147 601 1147Q891 1147 1056 990Q1222 833 1222 559Q1222 280 1054 126Q885 -29 581 -29Q454 -29 327 -4Q200 20 73 68V344Q198 276 316 242Q435 209 548 209Q688
209 766 272T857 461H20V563ZM388 682H853Q837 792 772 850Q707 909 603 909Q507 909 448 846Q388 784 388 682Z" />
<glyph unicode="&#x259;" glyph-name="uni0259" horiz-adv-x="1240" d="M20 555V657H857Q844 783 766 846T548 909Q435 909 317 876T73 774V1050Q200 1098 327 1122T581 1147Q885 1147 1053 993T1222 559Q1222 285 1057 128T601 -29Q337 -29 179 130T20 555ZM388
436Q388 334 447 272T603 209Q707 209 772 267T853 436H388Z" />
<glyph unicode="&#x25a;" glyph-name="uni025A" horiz-adv-x="1716" d="M822 540L397 295Q406 283 417 272Q476 209 572 209Q676 209 741 268Q806 326 822 436V540ZM1171 736Q1191 655 1191 559Q1191 285 1025 128Q860 -29 570 -29Q306 -29 147 130Q62 216 22
334L791 777Q769 818 735 846Q657 909 517 909Q404 909 285 876Q167 842 42 774V1050Q169 1098 296 1122Q423 1147 550 1147Q854 1147 1023 992Q1048 969 1070 942L1290 1072L1489 1074V903Q1489 727 1527 671Q1565 616 1670 616H1713V436H1617Q1434 436 1355 547Q1290
638 1290 804L1171 736Z" />
<glyph unicode="&#x25b;" glyph-name="uni025B" horiz-adv-x="1140" d="M266 604Q158 629 103 692Q47 756 47 853Q47 1004 163 1075Q279 1147 511 1147Q598 1147 687 1135Q777 1123 868 1099V860Q808 887 723 903T579 919Q484 919 429 884Q373 848 373 806Q373
762 430 728Q480 698 597 698H721V474H603Q474 474 412 437Q345 398 345 338Q345 280 411 240Q476 201 592 201Q669 201 754 221Q848 243 919 279V27Q829 -1 737 -15Q644 -29 552 -29Q291 -29 155 58T19 318Q19 430 82 502T266 604Z" />
<glyph unicode="&#x25c;" glyph-name="uni025C" horiz-adv-x="944" d="M678 604Q799 574 862 502T925 318Q925 145 789 58T392 -29Q300 -29 207 -15Q115 -1 25 27V279Q96 243 190 221Q275 201 352 201Q468 201 533 240Q599 280 599 338Q599 398 532 437Q470 474
341 474H223V698H347Q464 698 514 728Q571 762 571 806Q571 848 515 884Q460 919 365 919Q306 919 221 903T76 860V1099Q167 1123 257 1135Q346 1147 433 1147Q665 1147 781 1075Q897 1004 897 853Q897 756 841 692Q786 629 678 604Z" />
<glyph unicode="&#x25d;" glyph-name="uni025D" horiz-adv-x="1494" d="M681 604Q802 574 865 502T928 318Q928 145 792 58T395 -29Q303 -29 210 -15Q118 -1 28 27V279Q99 243 193 221Q278 201 355 201Q471 201 536 240Q602 280 602 338Q602 398 535 437Q473 474
344 474H226V698H350Q467 698 517 728Q574 762 574 806Q574 848 518 884Q463 919 368 919Q309 919 224 903T79 860V1099Q169 1123 260 1135Q349 1147 436 1147Q667 1147 784 1075Q855 1032 882 959L1070 1072L1269 1074V903Q1269 727 1307 671Q1345 616 1450 616H1493V436H1397Q1213
436 1135 547Q1069 638 1070 804L756 626V629Q722 614 681 604Z" />
<glyph unicode="&#x25e;" glyph-name="uni025E" horiz-adv-x="1292" d="M696 201Q812 201 877 240Q943 280 943 338Q943 398 876 437Q814 474 685 474H567V698H691Q808 698 858 728Q915 762 915 806Q915 848 859 884Q804 919 709 919Q573 920 474 820Q391 738
391 559Q391 389 474 296Q561 200 696 201ZM736 -29Q360 -29 189 126Q18 282 18 559T189 992Q360 1147 777 1147Q1009 1147 1125 1075Q1241 1004 1241 853Q1241 756 1185 692Q1130 629 1022 604Q1143 574 1206 502T1269 318Q1269 145 1133 58T736 -29Z" />
<glyph unicode="&#x25f;" glyph-name="uni025F" horiz-adv-x="818" d="M43 438V632H251V1120H609V632H817V438H609V20Q609 -205 501 -324Q393 -442 188 -442H11V-207H73Q175 -207 213 -161T251 20V438H43Z" />
<glyph unicode="&#x260;" glyph-name="uni0260" horiz-adv-x="1559" d="M848 190Q774 92 685 46T479 0Q274 0 140 161T6 573Q6 824 140 984T479 1145Q596 1145 685 1099T848 954V1094Q848 1319 956 1437T1269 1556H1554V1321H1386Q1284 1321 1246 1275T1208 1094V113Q1208
-157 1038 -299T543 -442Q438 -442 340 -426T143 -377V-98Q237 -152 327 -178T508 -205Q684 -205 766 -128T848 113V190ZM612 887Q501 887 439 805T377 573Q377 419 437 340T612 260Q724 260 786 342T848 573Q848 723 786 805T612 887Z" />
<glyph unicode="&#x261;" glyph-name="uni0261" horiz-adv-x="1248" d="M860 190Q786 92 697 46T491 0Q286 0 152 162Q18 323 18 573Q18 799 152 960Q286 1120 491 1120H860H1220V113Q1220 -157 1050 -300Q879 -442 555 -442Q450 -442 352 -426T155 -377V-98Q249
-152 339 -178Q429 -205 520 -205Q696 -205 778 -128T860 113V190ZM624 887Q513 887 451 805T389 573Q389 419 449 340Q509 260 624 260Q736 260 798 342T860 573V887H624Z" />
<glyph unicode="&#x262;" glyph-name="uni0262" horiz-adv-x="1073" d="M1045 72Q941 22 830 -4Q718 -29 599 -29Q331 -29 174 122Q17 272 17 545Q17 820 177 970Q337 1119 615 1119Q722 1119 820 1099T1006 1039V803Q916 852 827 876T648 900Q483 900 393 811Q304
723 304 545Q304 368 390 279T635 190Q679 190 716 196Q753 201 782 212L781 380H505V630H1045V72Z" />
<glyph unicode="&#x263;" glyph-name="uni0263" horiz-adv-x="1234" d="M616 53Q591 15 578 -16T565 -89Q565 -134 578 -155T616 -176Q641 -176 654 -155T668 -89Q668 -48 655 -17T616 53ZM820 356Q913 215 962 94T1011 -104Q1011 -259 915 -345T617 -432Q416
-432 320 -346T223 -104Q223 -27 272 94T414 356L9 1120H388L617 648L846 1120H1225L820 356Z" />
<glyph unicode="&#x264;" glyph-name="uni0264" horiz-adv-x="1232" d="M222 284Q222 408 413 604L8 1120H387L616 824L845 1120H1224L819 604Q1010 408 1010 284Q1010 -44 616 -44T222 284ZM615 212Q667 212 667 299Q667 358 616 430Q564 356 564 299Q564 216 615 212Z" />
<glyph unicode="&#x265;" glyph-name="uni0265" horiz-adv-x="1166" d="M6 436V1120H366V1008Q366 917 365 780T364 596Q364 461 371 402T395 315Q417 280 452 261T534 242Q646 242 710 328T774 567V1120H1132V-438H774V162Q693 64 603 18T403 -29Q209 -29 108 90T6 436Z" />
<glyph unicode="&#x266;" glyph-name="uni0266" horiz-adv-x="1171" d="M1157 682V0H797V111V520Q797 667 791 722Q784 777 768 803Q747 838 711 858Q675 877 629 877Q517 877 453 790Q389 704 389 551V0H31V1094Q31 1317 141 1438Q249 1556 454 1556H735V1321H569Q467
1321 429 1275T391 1094V958Q471 1055 561 1100Q652 1147 762 1147Q956 1147 1057 1028Q1157 909 1157 682Z" />
<glyph unicode="&#x267;" glyph-name="uni0267" horiz-adv-x="1157" d="M376 958Q456 1055 546 1100Q637 1147 747 1147Q941 1147 1042 1028Q1142 909 1142 682V240V20V0Q1137 -208 1032 -324Q924 -442 719 -442H438V-207H604Q706 -207 744 -161T782 20V111V240V520Q782
667 776 722Q769 777 753 803Q732 838 696 858Q660 877 614 877Q502 877 438 790Q374 704 374 551V0H16V1094Q16 1317 126 1438Q234 1556 439 1556H720V1321H554Q452 1321 414 1275T376 1094V958Z" />
<glyph unicode="&#x268;" glyph-name="uni0268" horiz-adv-x="776" d="M215 1556H573V1264H215V1556ZM215 1120H573V632H774V438H573V0H215V438H1V632H215V1120Z" />
<glyph unicode="&#x269;" glyph-name="uni0269" horiz-adv-x="592" d="M25 1120H383V462Q383 327 421 281T561 235H585V0H446Q241 0 133 118T25 462V1120Z" />
<glyph unicode="&#x26a;" glyph-name="uni026A" horiz-adv-x="826" d="M807 235V0H34V235H249V885H34V1120H807V885H607V235H807Z" />
<glyph unicode="&#x26b;" glyph-name="uni026B" horiz-adv-x="804" d="M225 1556H583V792Q605 800 620 820Q643 852 643 909V917H802Q802 781 743 707Q686 635 583 633V0H225V762Q199 755 184 733Q162 702 162 643V635H2Q2 771 61 845Q120 918 225 919V1556Z" />
<glyph unicode="&#x26c;" glyph-name="uni026C" horiz-adv-x="1083" d="M516 1556H874V813H1076V600H874V0H516V600H311Q0 600 0 877Q0 1188 344 1188Q450 1188 516 1133V1556ZM462 918Q416 952 327 952Q206 952 206 886Q206 811 312 811H512Q492 895 462 918Z" />
<glyph unicode="&#x26d;" glyph-name="uni026D" horiz-adv-x="735" d="M31 1556H391V20Q391 -114 429 -161Q466 -207 569 -207H735V-442H454Q249 -442 141 -324Q31 -203 31 0V1556Z" />
<glyph unicode="&#x26e;" glyph-name="uni026E" horiz-adv-x="1479" d="M24 1556H382V1120H1357V870L939 436Q1101 427 1187 404Q1312 371 1398 258Q1477 156 1477 13Q1477 -209 1307 -324Q1137 -440 811 -440Q696 -440 580 -422Q465 -403 352 -366V-69Q460 -123
566 -150Q673 -178 776 -178Q929 -178 1010 -125Q1092 -72 1092 27Q1092 129 1008 182Q925 234 762 234H575V479L945 864H382V0H24V1556Z" />
<glyph unicode="&#x26f;" glyph-name="uni026F" horiz-adv-x="1867" d="M793 184Q725 80 631 26Q538 -29 426 -29Q233 -29 132 90T31 436V1118H391V534Q390 521 389 507Q389 493 389 467Q389 348 424 294Q459 241 537 241Q639 241 695 325Q750 409 752 568V1118H1112V534Q1112
348 1144 294Q1176 241 1258 241Q1361 241 1417 326Q1473 410 1473 567V1118H1833V-2H1473V162Q1407 67 1321 19Q1236 -29 1133 -29Q1017 -29 928 27T793 184Z" />
<glyph unicode="&#x270;" glyph-name="uni0270" horiz-adv-x="1841" d="M767 184Q699 80 605 26Q512 -29 400 -29Q207 -29 106 90T5 436V1118H365V534Q364 521 363 507Q363 493 363 467Q363 348 398 294Q433 241 511 241Q613 241 669 325Q724 409 726 568V1118H1086V534Q1086
348 1118 294Q1150 241 1232 241Q1335 241 1391 326Q1447 410 1447 567V1118H1807V-428H1447V162Q1381 67 1295 19Q1210 -29 1107 -29Q991 -29 902 27T767 184Z" />
<glyph unicode="&#x271;" glyph-name="uni0271" horiz-adv-x="1842" d="M1048 934Q1116 1038 1210 1092Q1303 1147 1415 1147Q1608 1147 1709 1028T1810 682L1812 20Q1812 -203 1702 -324Q1594 -442 1389 -442H1108V-207H1274Q1376 -207 1414 -161T1452 0V651Q1452
770 1417 824Q1382 877 1304 877Q1202 877 1146 793Q1091 709 1089 550V0H729V584Q729 770 697 824Q665 877 583 877Q480 877 424 792Q368 708 368 551V0H8V1120H368V956Q434 1051 520 1099Q605 1147 708 1147Q824 1147 913 1091T1048 934Z" />
<glyph unicode="&#x272;" glyph-name="uni0272" horiz-adv-x="1386" d="M1380 682V0H1020V111V522Q1020 667 1014 722T991 803Q970 838 934 857T852 877Q740 877 676 791T612 551V20Q612 -205 504 -323T191 -442H14V-207H76Q178 -207 216 -161T254 20V1120H612V956Q693
1054 784 1100T985 1147Q1179 1147 1279 1028T1380 682Z" />
<glyph unicode="&#x273;" glyph-name="uni0273" horiz-adv-x="1487" d="M769 722Q766 772 746 803Q725 837 689 858Q651 877 607 877Q504 877 431 790Q367 715 367 551V0H9V1120H367V956Q450 1056 539 1100Q629 1147 740 1147Q933 1147 1035 1028Q1135 908 1135
682V20Q1135 -114 1173 -161Q1210 -207 1313 -207H1479V-442H1198Q993 -442 885 -324Q769 -196 769 0V722Z" />
<glyph unicode="&#x274;" glyph-name="uni0274" horiz-adv-x="1171" d="M34 1120H464L772 469V1120H1137V0H707L399 651V0H34V1120Z" />
<glyph unicode="&#x275;" glyph-name="uni0275" horiz-adv-x="1269" d="M636 1147Q925 1147 1087 991T1250 559Q1250 283 1088 127T636 -29Q346 -29 183 127T19 559Q19 835 182 991T636 1147ZM633 891Q516 891 454 806Q418 756 403 680H866Q851 756 814 806Q752
891 633 891ZM873 486H396Q407 377 454 312Q516 227 633 227Q752 227 814 312Q862 377 873 486Z" />
<glyph unicode="&#x276;" glyph-name="uni0276" horiz-adv-x="1658" d="M831 902H720Q547 902 461 817T375 561Q375 389 461 304Q547 218 720 218H831V902ZM762 1120H1608V902H1191V693H1579V475H1191V218H1625V0H762Q752 0 735 -1Q717 -2 708 -2Q377 -2 199 144T21
561Q21 831 199 976T708 1121Q716 1121 734 1120Q752 1120 762 1120Z" />
<glyph unicode="&#x277;" glyph-name="uni0277" horiz-adv-x="1231" d="M725 596V488Q725 264 774 264Q774 264 775 264Q800 264 816 362T833 566Q833 919 616 920Q397 920 397 564Q397 404 413 334T453 264Q508 264 505 490V596H725ZM1163 828Q1208 725 1208
490T1123 128T888 0Q789 0 716 66T616 288Q589 137 518 69T343 0Q197 0 110 127Q22 256 22 485T69 828Q213 1176 612 1176T1163 828Z" />
<glyph unicode="&#x278;" glyph-name="uni0278" horiz-adv-x="1631" d="M867 867V266L929 312Q1015 377 1015 559Q1015 715 929 824Q895 867 867 867ZM867 -24V-426H511V-24Q298 7 173 128Q4 290 4 559Q4 816 141 991Q241 1116 511 1141V1556H867V1141Q1137 1116
1237 991Q1374 816 1374 559Q1374 290 1205 128Q1080 7 867 -24ZM511 266V867Q483 867 449 824Q363 715 363 559Q363 377 449 312L511 266Z" />
<glyph unicode="&#x279;" glyph-name="uni0279" horiz-adv-x="867" d="M1 305Q48 283 95 272Q141 262 188 262Q326 262 401 350Q475 439 475 604V1120H833V0H475V184Q406 74 317 24Q227 -27 102 -27Q84 -27 63 -26Q42 -24 2 -19L1 305Z" />
<glyph unicode="&#x27a;" glyph-name="uni027A" horiz-adv-x="866" d="M0 305Q47 283 94 272Q140 262 187 262Q325 262 400 350Q474 438 474 604V1557H832V0H474V184Q405 74 316 24Q226 -27 101 -27Q83 -27 62 -26Q41 -24 1 -19L0 305Z" />
<glyph unicode="&#x27b;" glyph-name="uni027B" horiz-adv-x="1186" d="M0 305Q47 283 94 272Q140 262 187 262Q325 262 400 350Q474 439 474 604V1120H832L833 20Q833 -115 871 -161T1011 -207H1177V-442H896Q691 -442 583 -324Q473 -203 473 20V182Q404 74 316
24Q226 -27 101 -27Q83 -27 62 -26Q41 -24 1 -19L0 305Z" />
<glyph unicode="&#x27c;" glyph-name="uni027C" horiz-adv-x="866" d="M866 815Q819 837 772 848Q726 858 679 858Q544 858 466 770Q392 684 392 516V-426H34V1120H392V936Q461 1046 550 1096Q640 1147 765 1147Q783 1147 804 1146Q825 1144 865 1139L866 815Z" />
<glyph unicode="&#x27d;" glyph-name="uni027D" horiz-adv-x="881" d="M864 815Q817 837 771 847T677 858Q539 858 465 770T390 516V20Q390 -115 428 -161T568 -207H734V-442H451Q246 -442 138 -324T30 20L32 1120H390V936Q459 1046 548 1096T763 1147Q781 1147
802 1146T863 1139L864 815Z" />
<glyph unicode="&#x27e;" glyph-name="uni027E" horiz-adv-x="938" d="M779 235V0H6V235H216L215 658Q215 881 325 1002Q433 1120 638 1120H919V885H753Q649 885 613 839Q575 790 575 658L576 235H779Z" />
<glyph unicode="&#x27f;" glyph-name="uni027F" horiz-adv-x="938" d="M159 235H362L363 658Q363 790 325 839Q289 885 185 885H19V1120H300Q505 1120 613 1002Q723 881 723 658L722 235H932V0H159V235Z" />
<glyph unicode="&#x280;" glyph-name="uni0280" horiz-adv-x="1148" d="M471 630Q562 630 601 662Q641 694 641 767Q641 839 601 871Q562 901 471 901H392V630H471ZM392 409V0H34V1120H529Q765 1120 875 1046Q985 971 985 811Q985 700 928 628Q871 557 756 524Q819
510 869 462Q919 415 970 318L1137 0H774L629 278Q592 349 549 378Q504 409 429 409H392Z" />
<glyph unicode="&#x281;" glyph-name="uni0281" horiz-adv-x="1148" d="M471 490H392V219H471Q562 219 601 249Q641 281 641 353Q641 426 601 458Q562 490 471 490ZM392 711H429Q504 711 549 742Q592 771 629 842L774 1120H1137L970 802Q919 705 869 658Q819 610
756 596Q871 563 928 492Q985 420 985 309Q985 149 875 74Q765 0 529 0H34V1120H392V711Z" />
<glyph unicode="&#x282;" glyph-name="uni0282" horiz-adv-x="1049" d="M964 1085V813Q849 861 742 885T540 909Q438 909 389 884Q339 858 339 805Q339 762 377 739Q414 716 511 705L574 696Q849 661 944 581T1039 330Q1039 151 907 61T513 -29Q458 -29 401 -25Q407
-123 438 -161Q476 -207 578 -207H744V-442H463Q258 -442 150 -324Q40 -203 40 20V41V240V313Q147 261 259 235Q372 209 488 209Q593 209 646 238T699 324Q699 372 663 396Q626 419 517 432L454 440Q215 470 119 551T23 797Q23 975 145 1061T519 1147Q618 1147
727 1132T964 1085Z" />
<glyph unicode="&#x283;" glyph-name="uni0283" horiz-adv-x="955" d="M603 20Q603 -205 495 -323T182 -442H5V-207H67Q169 -207 207 -161T245 20V1094Q245 1319 353 1437T666 1556H955V1321H781Q679 1321 641 1275T603 1094V20Z" />
<glyph unicode="&#x284;" glyph-name="uni0284" horiz-adv-x="942" d="M42 438V632H249V864H71V1120H249V1198Q249 1381 351 1468Q453 1556 667 1556H941V1321H743Q667 1321 637 1294Q607 1265 607 1198V632H814V438H607V0Q602 -210 499 -324Q391 -442 186 -442H9V-207H71Q173
-207 211 -161T249 20V438H42Z" />
<glyph unicode="&#x285;" glyph-name="uni0285" horiz-adv-x="939" d="M1 1147H275Q489 1147 591 1059Q693 972 693 789V20Q693 -115 731 -161T871 -207H933V-442H756Q551 -442 443 -324Q335 -205 335 0V789Q335 857 305 885Q275 912 199 912H1V1147Z" />
<glyph unicode="&#x286;" glyph-name="uni0286" horiz-adv-x="1218" d="M345 -444Q1 -444 1 -133Q1 144 312 144H521V1198Q521 1381 623 1468Q725 1556 939 1556H1213V1321H1015Q939 1321 909 1294Q879 1266 879 1198V144H1047V-68H876Q876 -224 771 -324Q645
-444 458 -444H345ZM516 -68Q516 -68 313 -68Q207 -68 207 -142Q207 -207 300 -207H343Q445 -207 483 -161Q507 -132 516 -68Z" />
<glyph unicode="&#x287;" glyph-name="uni0287" horiz-adv-x="918" d="M376 -318V0H7V256H376V731Q376 809 345 836Q314 864 222 864H38V1120H345Q557 1120 646 1032Q734 943 734 731V256H912V0H734V-318H376Z" />
<glyph unicode="&#x288;" glyph-name="uni0288" horiz-adv-x="911" d="M541 1438V1120H910V864H541V20Q541 -115 579 -161T719 -207H781V-442H604Q399 -442 291 -324T183 20V864H5V1120H183V1438H541Z" />
<glyph unicode="&#x289;" glyph-name="uni0289" horiz-adv-x="1566" d="M11 438V632H225V1120H585V632H993V1120H1351V632H1552V438H1351V0H993V162Q912 64 822 18T622 -29Q428 -29 327 91T225 438H11ZM979 438H588Q593 348 614 315Q636 280 671 261T753 242Q865
242 929 328Q963 374 979 438Z" />
<glyph unicode="&#x28a;" glyph-name="uni028A" horiz-adv-x="1303" d="M652 -29Q380 -29 208 117T36 492Q36 642 104 752T266 923H23V1120H571V837Q493 764 451 688T409 505Q409 381 475 304T652 227Q763 227 829 304T895 505Q895 612 853 688T733 837V1120H1281V923H1038Q1131
863 1199 753T1268 492Q1268 263 1096 117T652 -29Z" />
<glyph unicode="&#x28b;" glyph-name="uni028B" horiz-adv-x="1157" d="M928 1027Q1010 962 1080 835Q1139 727 1139 569Q1139 315 986 158Q832 0 589 0H452Q248 0 139 118Q29 238 29 462V1120H389V462Q389 314 415 262Q431 233 486 233H507Q625 233 707 330Q782
418 782 560Q782 668 725 782Q683 866 599 938V1120Q810 1120 928 1027Z" />
<glyph unicode="&#x28c;" glyph-name="uni028C" horiz-adv-x="1288" d="M1281 0H923L644 774L366 0H7L448 1120H841L1281 0Z" />
<glyph unicode="&#x28d;" glyph-name="uni028D" horiz-adv-x="1785" d="M1767 0H1419L1231 772L1042 0H743L555 764L366 0H18L313 1120H704L893 350L1081 1120H1472L1767 0Z" />
<glyph unicode="&#x28e;" glyph-name="uni028E" horiz-adv-x="1291" d="M1275 0H917L616 760L360 0H2L473 1226Q544 1413 639 1488Q733 1562 888 1562H1095V1327H983Q892 1327 851 1298Q809 1269 786 1194L776 1163L1275 0Z" />
<glyph unicode="&#x28f;" glyph-name="uni028F" horiz-adv-x="1225" d="M3 1120H375L612 775L847 1120H1222L767 472V0H459V472L3 1120Z" />
<glyph unicode="&#x290;" glyph-name="uni0290" horiz-adv-x="1362" d="M29 1120H1006V870L416 256H1007V20Q1007 -106 1022 -138Q1031 -156 1045 -161Q1055 -207 1185 -207H1351V-442H1070Q865 -442 757 -324Q652 -208 647 0H4V250L594 864H29V1120Z" />
<glyph unicode="&#x291;" glyph-name="uni0291" horiz-adv-x="1203" d="M41 1120H1018V870L428 256H590Q597 299 608 339Q732 534 899 532Q1185 529 1188 294Q1192 9 896 0H766V-141L566 -140L567 0H16V250L606 864H41V1120ZM895 255Q1041 255 1041 291Q1041 339
909 339Q814 339 779 259Q784 257 812 256L895 255Z" />
<glyph unicode="&#x292;" glyph-name="uni0292" horiz-adv-x="1171" d="M252 479L622 864H57V1120H1034V870L616 436Q778 427 864 404Q990 371 1076 258Q1154 156 1154 13Q1154 -209 984 -324Q814 -440 488 -440Q373 -440 258 -422Q142 -403 29 -366V-69Q137 -123
244 -150Q350 -178 453 -178Q606 -178 688 -125Q769 -72 769 27Q769 129 686 182Q602 234 439 234H252V479Z" />
<glyph unicode="&#x293;" glyph-name="uni0293" horiz-adv-x="1139" d="M656 -125Q612 -60 424 -51Q276 -45 274 -130Q273 -187 438 -183Q536 -181 589 -162Q628 -148 656 -125ZM734 66Q720 140 654 182Q570 234 407 234H220V479L590 864H25V1120H1002V870L584
436Q746 427 832 404Q957 371 1044 258Q1122 156 1122 13Q1122 -209 952 -324L939 -333Q943 -370 944 -410L774 -416V-404L768 -405Q635 -440 456 -440L458 -438H456Q45 -420 48 -116Q52 159 423 159Q606 159 734 66Z" />
<glyph unicode="&#x294;" glyph-name="uni0294" horiz-adv-x="1020" d="M213 736H306Q523 736 609 850Q666 926 666 997Q665 1093 608 1159Q509 1273 330 1273Q250 1273 171 1251Q93 1230 15 1187V1485Q91 1520 172 1537Q253 1555 434 1555Q674 1556 884 1345Q1016
1212 1016 997Q1016 766 861 621Q759 527 571 496V0H213V736Z" />
<glyph unicode="&#x295;" glyph-name="uni0295" horiz-adv-x="1020" d="M807 736V0H449V496Q261 527 159 621Q4 766 4 997Q4 1212 136 1345Q346 1556 586 1555Q767 1555 848 1537Q929 1520 1005 1485V1187Q927 1230 849 1251Q770 1273 690 1273Q511 1273 412 1159Q355
1093 354 997Q354 926 411 850Q497 736 714 736H807Z" />
<glyph unicode="&#x296;" glyph-name="uni0296" horiz-adv-x="1019" d="M212 819V1555H570V1059Q758 1028 860 934Q1015 789 1015 558Q1015 343 883 210Q673 -1 433 0Q252 0 171 18Q90 35 14 70V368Q92 325 170 304Q249 282 329 282Q508 282 607 396Q664 462 665
558Q665 629 608 705Q522 819 305 819H212Z" />
<glyph unicode="&#x297;" glyph-name="uni0297" horiz-adv-x="1055" d="M373 132Q374 36 431 -30Q530 -144 709 -144Q789 -144 868 -122Q946 -101 1024 -58V-356Q948 -391 867 -408Q786 -426 605 -426Q365 -427 155 -216Q23 -83 23 132V997Q23 1212 155 1345Q365
1556 605 1555Q786 1555 867 1537Q948 1520 1024 1485V1187Q946 1230 868 1251Q789 1273 709 1273Q530 1273 431 1159Q373 1092 373 997V132Z" />
<glyph unicode="&#x298;" glyph-name="uni0298" horiz-adv-x="1572" d="M655 745Q655 798 694 837Q732 876 786 876Q839 876 878 837Q916 798 916 745Q916 691 878 653T786 615T694 653Q655 691 655 745ZM786 1241Q610 1241 513 1111T416 745Q416 510 513 380T786
250Q963 250 1060 380T1157 745Q1157 981 1060 1111T786 1241ZM786 1520Q1146 1520 1350 1314T1554 745Q1554 383 1350 177T786 -29Q427 -29 223 177T18 745Q18 1108 222 1314T786 1520Z" />
<glyph unicode="&#x299;" glyph-name="uni0299" horiz-adv-x="1296" d="M561 698Q623 698 655 723T687 799Q687 849 655 874T561 899H392V698H561ZM573 224Q652 224 692 255T732 350Q732 412 692 443T573 474H392V224H573ZM34 1120H547Q796 1120 907 1050T1019
824Q1019 742 978 685T860 599Q959 572 1013 500T1068 321Q1068 159 951 80T596 0H34V1120Z" />
<glyph unicode="&#x29a;" glyph-name="uni029A" horiz-adv-x="1292" d="M596 201Q731 200 817 296Q901 389 901 559Q901 738 817 820Q719 920 583 919Q488 919 433 884Q377 848 377 806Q377 762 434 728Q484 698 601 698H725V474H607Q478 474 416 437Q349 398
349 338Q349 280 415 240Q480 201 596 201ZM556 -29Q295 -29 159 58T23 318Q23 430 86 502T270 604Q162 629 107 692Q51 756 51 853Q51 1004 167 1075Q283 1147 515 1147Q932 1147 1103 992Q1274 836 1274 559T1103 126Q932 -29 556 -29Z" />
<glyph unicode="&#x29b;" glyph-name="uni029B" horiz-adv-x="1346" d="M1032 101Q928 51 817 25Q705 0 586 0Q318 0 161 151Q4 301 4 559Q4 820 164 970Q324 1119 602 1119Q617 1119 633 1119Q639 1324 742 1438Q850 1556 1056 1556H1336V1321H1170Q1068 1321
1030 1275T992 1094L993 803Q903 852 814 876T635 900Q470 900 380 811Q291 723 291 559Q291 397 377 308T622 219Q666 219 703 225Q740 230 769 241L768 409H492V630H1032V101Z" />
<glyph unicode="&#x29c;" glyph-name="uni029C" horiz-adv-x="1415" d="M34 1120H392V694H747V1120H1105V0H747V473H392V0H34V1120Z" />
<glyph unicode="&#x29d;" glyph-name="uni029D" horiz-adv-x="1053" d="M520 1556H878V1264H520V1556ZM520 1120H878V144H1046V-67Q990 -68 875 -67Q875 -225 770 -324Q645 -442 457 -442H280Q0 -442 0 -132Q0 144 311 144H520V1120ZM515 -67Q515 -67 312 -67Q206
-67 206 -142Q206 -206 299 -206H342Q444 -206 482 -160Q506 -132 515 -67Z" />
<glyph unicode="&#x29e;" glyph-name="uni029E" horiz-adv-x="1263" d="M1229 -436H871V411L459 0H43L590 514L0 1120H434L871 653V1120H1229V-436Z" />
<glyph unicode="&#x29f;" glyph-name="uni029F" horiz-adv-x="884" d="M34 1120H396V291H883V0H34V1120Z" />
<glyph unicode="&#x2a0;" glyph-name="uni02A0" horiz-adv-x="1559" d="M842 162Q768 63 679 17T473 -29Q266 -29 133 136Q0 300 0 559T133 982Q266 1145 473 1145Q590 1145 679 1099T842 954V1120H844Q850 1324 954 1438Q1062 1556 1267 1556H1548V1321H1382Q1280
1321 1242 1275T1204 1094L1202 -426H842V162ZM606 887Q492 887 432 803Q371 719 371 559T432 315Q492 231 606 231Q721 231 782 315Q842 399 842 559T782 803Q721 887 606 887Z" />
<glyph unicode="&#x2a1;" glyph-name="uni02A1" horiz-adv-x="1031" d="M220 736H313Q530 736 616 850Q673 926 673 997Q672 1093 615 1159Q516 1273 337 1273Q257 1273 178 1251Q100 1230 22 1187V1485Q98 1520 179 1537Q260 1555 441 1555Q682 1555 891 1345Q1023
1212 1023 997Q1023 766 868 621Q766 527 578 496V342H836V148H578V0H220V148H63V342H220V736Z" />
<glyph unicode="&#x2a2;" glyph-name="uni02A2" horiz-adv-x="1031" d="M811 736V342H968V148H811V0H453V148H195V342H453V496Q265 527 163 621Q8 766 8 997Q8 1212 140 1345Q349 1555 590 1555Q771 1555 852 1537Q933 1520 1009 1485V1187Q931 1230 853 1251Q774
1273 694 1273Q515 1273 416 1159Q359 1093 358 997Q358 926 415 850Q501 736 718 736H811Z" />
<glyph unicode="&#x2a3;" glyph-name="uni02A3" horiz-adv-x="2197" d="M618 231Q733 231 794 315Q854 399 854 559T794 803Q733 887 618 887Q504 887 444 803Q383 719 383 559T444 315Q504 231 618 231ZM854 956V1556H1214V1120H2189V870L1599 256H2189V0H1214H1187H854V162Q780
63 691 17T485 -29Q278 -29 145 136Q12 300 12 559T145 982Q278 1147 485 1147Q601 1147 690 1100Q780 1054 854 956ZM1214 864V278L1777 864H1214Z" />
<glyph unicode="&#x2a4;" glyph-name="uni02A4" horiz-adv-x="2310" d="M610 231Q725 231 786 315Q846 399 846 559T786 803Q725 887 610 887Q496 887 436 803Q375 719 375 559T436 315Q496 231 610 231ZM846 956V1556H1206V1120H2181V870L1763 436Q1925 427 2011
404Q2136 371 2222 258Q2301 156 2301 13Q2301 -209 2131 -324Q1961 -440 1635 -440Q1520 -440 1404 -422Q1289 -403 1176 -366V-69Q1284 -123 1390 -150Q1497 -178 1600 -178Q1753 -178 1834 -125Q1916 -72 1916 27Q1916 129 1832 182Q1749 234 1586 234H1399V479L1769
864H1206V0H846V162Q772 63 683 17T477 -29Q270 -29 137 136Q4 300 4 559T137 982Q270 1147 477 1147Q593 1147 682 1100Q772 1054 846 956Z" />
<glyph unicode="&#x2a5;" glyph-name="uni02A5" horiz-adv-x="2197" d="M616 231Q731 231 792 315Q852 399 852 559T792 803Q731 887 616 887Q502 887 442 803Q381 719 381 559T442 315Q502 231 616 231ZM852 956V1556H1212V1120H2185V870L1595 256H1745Q1768
373 1803 428Q1910 599 1974 599Q2176 599 2180 323Q2184 0 1941 0H1909Q1912 -56 1912 -112L1709 -111Q1709 -56 1712 0H1212H1183H852V162Q778 63 689 17T483 -29Q276 -29 143 136Q10 300 10 559T143 982Q276 1147 483 1147Q599 1147 688 1100Q778 1054 852 956ZM1920
257H1959Q1996 257 2000 314Q2005 385 1973 389Q1926 395 1920 257ZM1212 864V280L1773 864H1212Z" />
<glyph unicode="&#x2a6;" glyph-name="uni02A6" horiz-adv-x="1891" d="M1811 1085V813Q1696 861 1589 885T1387 909Q1285 909 1236 884Q1186 858 1186 805Q1186 762 1224 739Q1261 716 1358 705L1421 696Q1702 656 1791 581Q1886 501 1886 330Q1886 151 1754
61T1360 -29Q1249 -29 1130 -12Q1014 6 891 40V0H584Q372 0 284 88Q195 177 195 389V864H17V1120H195V1438H553V1120H922V990Q950 1031 992 1061Q1114 1147 1366 1147Q1465 1147 1574 1132T1811 1085ZM887 256V313Q994 261 1106 235Q1219 209 1335 209Q1440 209
1493 238T1546 324Q1546 372 1510 396Q1475 418 1364 432L1301 440Q1062 470 966 551T870 797Q870 832 875 864H553V389Q553 311 584 284Q615 256 707 256H887Z" />
<glyph unicode="&#x2a7;" glyph-name="uni02A7" horiz-adv-x="1578" d="M541 1438V1120H878V1198Q878 1381 980 1468Q1082 1556 1296 1556H1570V1321H1372Q1296 1321 1266 1294Q1236 1266 1236 1198V0Q1236 -205 1128 -324Q1020 -442 815 -442H638V-207H700Q802
-207 840 -161Q875 -118 878 0H572Q360 0 272 88Q183 177 183 389V864H5V1120H183V1438H541ZM878 256V864H541V389Q541 311 572 284Q603 256 695 256H878Z" />
<glyph unicode="&#x2a8;" glyph-name="uni02A8" horiz-adv-x="1795" d="M548 1438V1120H917V933Q942 964 972 992Q1143 1147 1446 1147Q1534 1147 1619 1132Q1705 1116 1790 1085V793Q1717 843 1643 867Q1570 891 1491 891Q1341 891 1257 804Q1174 716 1174 559Q1174
460 1207 389Q1310 570 1479 570Q1790 570 1790 294Q1790 -29 1446 -29Q1342 -29 1334 -27Q1337 -84 1337 -141H1134Q1136 -47 1136 25Q1043 62 972 126Q922 172 886 229V0H579Q367 0 279 88Q190 177 190 389V864H12V1120H190V1438H548ZM1348 253Q1397 228 1464
228Q1610 228 1610 285Q1610 360 1478 360Q1395 360 1348 253ZM871 864H548V389Q548 311 579 284Q610 256 702 256H870Q801 383 801 559Q801 736 871 864Z" />
<glyph unicode="&#x2a9;" glyph-name="uni02A9" horiz-adv-x="1981" d="M874 1556V1321H676Q600 1321 570 1294Q540 1266 540 1198V1120H843H846H1201V956Q1282 1054 1373 1100Q1464 1147 1574 1147Q1768 1147 1869 1028Q1969 909 1969 682V20Q1969 -203 1859
-324Q1751 -442 1546 -442H1265V-207H1431Q1533 -207 1571 -161T1609 20V522Q1609 667 1603 722Q1596 777 1580 803Q1559 838 1523 858Q1487 877 1441 877Q1329 877 1265 790Q1201 704 1201 551V0H843V864H540V0H182V864H4V1120H182V1198Q182 1381 284 1468Q386
1556 600 1556H874Z" />
<glyph unicode="&#x2aa;" glyph-name="uni02AA" horiz-adv-x="1387" d="M1311 1085V813Q1196 861 1089 885T887 909Q776 909 736 884Q686 853 686 805Q686 762 724 739Q761 716 858 705L921 696Q1202 656 1291 581Q1386 501 1386 330Q1386 151 1254 61T860 -29Q749
-29 630 -12Q514 6 392 40V0H34V1556H392V932Q422 1012 492 1061Q614 1147 866 1147Q965 1147 1074 1132T1311 1085ZM392 658V311Q497 260 606 235Q719 209 835 209Q940 209 993 238T1046 324Q1046 372 1010 396Q975 418 864 432L801 440Q562 470 466 551Q416 593
392 658Z" />
<glyph unicode="&#x2ab;" glyph-name="uni02AB" horiz-adv-x="1363" d="M34 1556H392V1120H1361V870L771 256H1361V0H392H359H34V1556ZM392 864V284L949 864H392Z" />
<glyph unicode="&#x2ac;" glyph-name="uni02AC" horiz-adv-x="1161" d="M21 627H244L364 195L485 627H676L797 199L918 627H1140L952 0H701L580 431L460 0H210L21 627ZM21 1312H244L364 880L485 1312H676L797 884L918 1312H1140L952 685H701L580 1116L460 685H210L21
1312Z" />
<glyph unicode="&#x2ad;" glyph-name="uni02AD" horiz-adv-x="710" d="M177 177H34V627H695V177H552V474H177V177ZM177 862H34V1312H695V862H552V1159H177V862Z" />
<glyph unicode="&#x2ae;" glyph-name="uni02AE" horiz-adv-x="1483" d="M344 1094Q344 1229 306 1275T166 1321H0V1556H281Q486 1556 594 1438Q704 1317 704 1089V598Q704 451 710 396Q717 341 733 315Q754 280 790 260Q826 241 872 241Q984 241 1048 328Q1112
414 1112 567V1118H1470V-438H1112V162Q1031 64 940 18Q849 -29 739 -29Q545 -29 444 90Q344 209 344 436V1094Z" />
<glyph unicode="&#x2af;" glyph-name="uni02AF" horiz-adv-x="1816" d="M1113 160Q1043 71 941 18Q850 -29 740 -29Q546 -29 445 90Q345 209 345 436V1094Q345 1229 307 1275T167 1321H1V1556H282Q487 1556 595 1438Q705 1317 705 1089V598Q705 451 711 396Q718
341 734 315Q755 280 791 260Q827 241 873 241Q985 241 1049 328Q1113 414 1113 567V1118H1471V20Q1471 -115 1509 -161T1649 -207H1815V-442H1536Q1331 -442 1223 -324Q1113 -203 1113 20V160Z" />
<glyph unicode="&#x2b0;" glyph-name="uni02B0" horiz-adv-x="762" d="M755 1050V668H524V730V959Q524 1042 520 1072Q516 1103 506 1118Q492 1137 469 1148T417 1159Q345 1159 304 1111Q263 1062 263 977V668H34V1539H263V1203Q315 1258 373 1284Q432 1310 502
1310Q626 1310 690 1244Q755 1177 755 1050Z" />
<glyph unicode="&#x2b1;" glyph-name="uni02B1" horiz-adv-x="767" d="M752 1050V668H521V730V959Q521 1042 517 1072Q513 1103 503 1118Q489 1137 466 1148T414 1159Q342 1159 301 1111Q260 1062 260 977V668H31V1281Q31 1406 101 1473Q171 1539 302 1539H482V1408H375Q310
1408 286 1382Q261 1356 261 1281V1205Q313 1259 370 1284Q428 1310 499 1310Q623 1310 687 1244Q752 1177 752 1050Z" />
<glyph unicode="&#x2b2;" glyph-name="uni02B2" horiz-adv-x="413" d="M155 1295H384V679Q384 553 315 487Q246 420 115 420H1V552H41Q106 552 131 578Q155 604 155 679V1295ZM155 1539H384V1376H155V1539Z" />
<glyph unicode="&#x2b3;" glyph-name="uni02B3" horiz-adv-x="568" d="M567 1124Q536 1137 507 1143Q477 1148 447 1148Q359 1148 311 1099Q263 1049 263 957V668H34V1295H263V1192Q307 1254 365 1282Q422 1310 502 1310Q513 1310 527 1309Q540 1309 566 1306L567 1124Z" />
<glyph unicode="&#x2b4;" glyph-name="uni02B4" horiz-adv-x="568" d="M1 839Q31 826 61 821Q91 815 121 815Q209 815 257 864Q304 914 304 1006V1295H534V668H304V771Q260 709 203 681T66 653Q54 653 41 654Q27 655 2 657L1 839Z" />
<glyph unicode="&#x2b5;" glyph-name="uni02B5" horiz-adv-x="762" d="M0 839Q30 826 59 820Q89 815 119 815Q208 815 255 864Q303 914 303 1006V1295H532L533 679Q533 603 557 578Q581 552 647 552H753V420H573Q442 420 373 486Q302 554 302 679V770Q258 709
202 681Q144 653 64 653Q53 653 39 654Q26 654 0 657V839Z" />
<glyph unicode="&#x2b6;" glyph-name="uni02B6" horiz-adv-x="751" d="M313 942H263V791H313Q371 791 396 807Q422 825 422 866T396 924Q371 942 313 942ZM263 1066H286Q334 1066 363 1084Q391 1100 414 1140L507 1295H739L633 1117Q600 1063 568 1036Q536 1010
496 1002Q569 983 606 944Q642 903 642 841Q642 751 572 709Q501 668 350 668H34V1295H263V1066Z" />
<glyph unicode="&#x2b7;" glyph-name="uni02B7" horiz-adv-x="1155" d="M18 1295H241L361 863L482 1295H673L794 867L915 1295H1137L949 668H698L577 1099L457 668H207L18 1295Z" />
<glyph unicode="&#x2b8;" glyph-name="uni02B8" horiz-adv-x="832" d="M16 1295H245L438 870L602 1295H831L529 609Q484 504 423 462Q363 420 264 420H131V552H203Q261 552 288 568Q314 585 329 627L335 644L16 1295Z" />
<glyph unicode="&#x2b9;" glyph-name="uni02B9" horiz-adv-x="618" d="M15 1140L80 1638H301L191 1140H15Z" />
<glyph unicode="&#x2ba;" glyph-name="uni02BA" horiz-adv-x="1067" d="M15 1140L80 1638H301L191 1140H15ZM464 1140L529 1638H750L640 1140H464Z" />
<glyph unicode="&#x2bb;" glyph-name="uni02BB" horiz-adv-x="778" d="M350 856H10V1141L237 1493H450L350 1141V856Z" />
<glyph unicode="&#x2bc;" glyph-name="uni02BC" horiz-adv-x="778" d="M112 1493H452V1208L225 856H12L112 1208V1493Z" />
<glyph unicode="&#x2bd;" glyph-name="uni02BD" horiz-adv-x="374" d="M280 1754V1582L362 1262H173L9 1582V1754H280Z" />
<glyph unicode="&#x2be;" glyph-name="uni02BE" horiz-adv-x="324" d="M34 1140Q89 1140 127 1179Q165 1217 165 1271T126 1363Q88 1402 34 1402V1556Q152 1556 236 1473Q319 1389 319 1271T236 1069Q152 986 34 986V1140Z" />
<glyph unicode="&#x2bf;" glyph-name="uni02BF" horiz-adv-x="308" d="M290 1140Q290 1140 290 986Q172 986 88 1069Q5 1153 5 1271T88 1473Q172 1556 290 1556V1402Q236 1402 198 1363Q159 1325 159 1271T197 1179Q235 1140 290 1140Z" />
<glyph unicode="&#x2c0;" glyph-name="uni02C0" horiz-adv-x="660" d="M142 1080H202Q340 1080 396 1144Q432 1187 432 1226Q432 1280 395 1317Q332 1381 217 1381Q166 1381 115 1369Q65 1357 15 1333V1500Q64 1519 116 1529T284 1539Q437 1539 572 1421Q656 1347
656 1226Q656 1097 557 1016Q492 963 371 946V668H142V1080Z" />
<glyph unicode="&#x2c1;" glyph-name="uni02C1" horiz-adv-x="660" d="M518 1080V668H289V946Q169 963 104 1016Q4 1097 4 1226Q4 1347 89 1421Q223 1539 377 1539Q493 1539 545 1529Q596 1519 645 1500V1333Q595 1357 545 1369T443 1381Q329 1381 265 1317Q229
1280 228 1226Q228 1187 265 1144Q320 1080 459 1080H518Z" />
<glyph unicode="&#x2c2;" glyph-name="uni02C2" horiz-adv-x="509" d="M0 1482L490 1727V1558L165 1394L490 1229V1058L0 1303V1482Z" />
<glyph unicode="&#x2c3;" glyph-name="uni02C3" horiz-adv-x="524" d="M524 1482V1303L34 1058V1229L359 1394L34 1558V1727L524 1482Z" />
<glyph unicode="&#x2c4;" glyph-name="uni02C4" horiz-adv-x="680" d="M430 1638L674 1148H506L342 1472L176 1148H6L250 1638H430Z" />
<glyph unicode="&#x2c5;" glyph-name="uni02C5" horiz-adv-x="680" d="M250 1148L6 1638H174L338 1312L504 1638H674L430 1148H250Z" />
<glyph unicode="&#x2c6;" glyph-name="circumflex" horiz-adv-x="770" d="M264 1638H506L762 1262H584L385 1487L186 1262H8L264 1638Z" />
<glyph unicode="&#x2c7;" glyph-name="caron" horiz-adv-x="768" d="M263 1262L7 1638H185L384 1411L583 1638H761L505 1262H263Z" />
<glyph unicode="&#x2c8;" glyph-name="uni02C8" horiz-adv-x="259" d="M223 1554V999H34V1554H223Z" />
<glyph unicode="&#x2c9;" glyph-name="uni02C9" horiz-adv-x="1024" d="M34 1556H664V1368H34V1556Z" />
<glyph unicode="&#x2ca;" glyph-name="uni02CA" horiz-adv-x="567" d="M284 1638H567L198 1262H2L284 1638Z" />
<glyph unicode="&#x2cb;" glyph-name="uni02CB" horiz-adv-x="567" d="M283 1638L565 1262H369L0 1638H283Z" />
<glyph unicode="&#x2cc;" glyph-name="uni02CC" horiz-adv-x="259" d="M223 390V-165H34V390H223Z" />
<glyph unicode="&#x2cd;" glyph-name="uni02CD" horiz-adv-x="1024" d="M34 -188H664V-376H34V-188Z" />
<glyph unicode="&#x2ce;" glyph-name="uni02CE" horiz-adv-x="567" d="M283 -107L565 -483H369L0 -107H283Z" />
<glyph unicode="&#x2cf;" glyph-name="uni02CF" horiz-adv-x="567" d="M284 -107H567L198 -483H2L284 -107Z" />
<glyph unicode="&#x2d0;" glyph-name="uni02D0" horiz-adv-x="438" d="M219 740L14 1120H424L219 740ZM219 380L424 0H14L219 380Z" />
<glyph unicode="&#x2d1;" glyph-name="uni02D1" horiz-adv-x="412" d="M206 740L1 1120H411L206 740Z" />
<glyph unicode="&#x2d2;" glyph-name="uni02D2" horiz-adv-x="750" d="M34 705Q89 705 127 744Q165 782 165 836T126 928Q88 967 34 967V1121Q152 1121 236 1038Q319 954 319 836T236 634Q152 551 34 551V705Z" />
<glyph unicode="&#x2d3;" glyph-name="uni02D3" horiz-adv-x="750" d="M290 705Q290 705 290 551Q172 551 88 634Q5 718 5 836T88 1038Q172 1121 290 1121V967Q236 967 198 928Q159 890 159 836T197 744Q235 705 290 705Z" />
<glyph unicode="&#x2d4;" glyph-name="uni02D4" horiz-adv-x="474" d="M462 668V488H12V668H147V938H327V668H462Z" />
<glyph unicode="&#x2d5;" glyph-name="uni02D5" horiz-adv-x="473" d="M12 758V938H462V758H327V488H147V758H12Z" />
<glyph unicode="&#x2d6;" glyph-name="uni02D6" horiz-adv-x="632" d="M226 649V874H406V649H631V469H406V244H226V469H1V649H226Z" />
<glyph unicode="&#x2d7;" glyph-name="uni02D7" horiz-adv-x="519" d="M484 469H34V649H484V469Z" />
<glyph unicode="&#x2d8;" glyph-name="breve" horiz-adv-x="706" d="M17 1606H160Q171 1536 220 1499T353 1462Q436 1462 485 1499T546 1606H689Q683 1462 596 1386T353 1309Q197 1309 110 1385T17 1606Z" />
<glyph unicode="&#x2d9;" glyph-name="dotaccent" horiz-adv-x="344" d="M34 1585H308V1339H34V1585Z" />
<glyph unicode="&#x2da;" glyph-name="ring" horiz-adv-x="602" d="M170 1534Q170 1479 208 1441T301 1403Q356 1403 394 1441T432 1534Q432 1588 394 1626T301 1665Q246 1665 208 1627T170 1534ZM16 1534Q16 1652 99 1735T301 1819Q419 1819 502 1736T586 1534Q586
1416 503 1333T301 1249Q183 1249 100 1332T16 1534Z" />
<glyph unicode="&#x2db;" glyph-name="ogonek" horiz-adv-x="451" d="M129 0H270Q220 -67 201 -103T182 -166Q182 -205 211 -229T290 -254Q329 -254 367 -247T446 -223V-379Q391 -390 344 -395T256 -401Q141 -401 80 -355T18 -223Q18 -170 45 -116T129 0Z" />
<glyph unicode="&#x2dc;" glyph-name="tilde" horiz-adv-x="745" d="M375 1364L320 1401Q316 1403 310 1407Q263 1438 238 1438Q202 1438 183 1407T164 1317V1309H25Q25 1445 76 1519T221 1593Q257 1593 293 1580T371 1536L432 1493Q454 1478 472 1470T506 1462Q542
1462 562 1494T582 1583V1591H721Q721 1455 670 1381T525 1307Q489 1307 456 1319T375 1364Z" />
<glyph unicode="&#x2dd;" glyph-name="hungarumlaut" horiz-adv-x="808" d="M207 1638H424L176 1262H13L207 1638ZM570 1638H801L529 1262H355L570 1638Z" />
<glyph unicode="&#x2de;" glyph-name="uni02DE" horiz-adv-x="750" d="M3 883L317 1072L516 1074V903Q516 727 554 671Q592 616 697 616H740V436H644Q460 436 382 547Q316 638 317 804L3 626V883Z" />
<glyph unicode="&#x2df;" glyph-name="uni02DF" horiz-adv-x="613" d="M389 1262L307 1349L224 1262H24L205 1449L24 1638H224L307 1552L389 1638H589L407 1449L589 1262H389Z" />
<glyph unicode="&#x2e0;" glyph-name="uni02E0" horiz-adv-x="785" d="M393 1031L537 1295H776L521 867Q641 697 641 610Q641 426 393 426T145 610Q145 697 265 867L10 1295H249L393 1031ZM393 569Q425 569 425 618Q425 657 393 698Q360 656 360 618Q360 569 393 569Z" />
<glyph unicode="&#x2e1;" glyph-name="uni02E1" horiz-adv-x="299" d="M34 1539H263V668H34V1539Z" />
<glyph unicode="&#x2e2;" glyph-name="uni02E2" horiz-adv-x="694" d="M626 1276V1123Q552 1150 484 1164Q416 1177 355 1177Q289 1177 258 1163Q226 1148 226 1119Q226 1095 250 1082T336 1063L376 1058Q552 1038 613 993Q674 949 674 853Q674 753 590 702Q505
652 337 652Q266 652 191 662Q115 671 35 691V843Q103 814 175 800Q247 785 321 785Q389 785 423 801Q456 818 456 849Q456 876 433 889Q410 903 340 910L300 914Q147 931 85 977Q24 1022 24 1114Q24 1214 102 1262T341 1310Q405 1310 474 1302Q544 1294 626 1276Z"
/>
<glyph unicode="&#x2e3;" glyph-name="uni02E3" horiz-adv-x="851" d="M294 989L36 1295H278L425 1109L573 1295H816L557 990L829 668H586L425 866L265 668H23L294 989Z" />
<glyph unicode="&#x2e4;" glyph-name="uni02E4" horiz-adv-x="660" d="M518 1080V668H289V946Q169 963 104 1016Q4 1097 4 1226Q4 1347 89 1421Q223 1539 377 1539Q493 1539 545 1529Q596 1519 645 1500V1333Q595 1357 545 1369T443 1381Q329 1381 265 1317Q229
1280 228 1226Q228 1187 265 1144Q320 1080 459 1080H518Z" />
<glyph unicode="&#x2e5;" glyph-name="uni02E5" horiz-adv-x="665" d="M442 0V1232H0V1420H630V0H442Z" />
<glyph unicode="&#x2e6;" glyph-name="uni02E6" horiz-adv-x="665" d="M442 0V924H0V1112H442V1420H630V0H442Z" />
<glyph unicode="&#x2e7;" glyph-name="uni02E7" horiz-adv-x="665" d="M442 0V616H0V804H442V1420H630V0H442Z" />
<glyph unicode="&#x2e8;" glyph-name="uni02E8" horiz-adv-x="665" d="M442 0V308H0V496H442V1420H630V0H442Z" />
<glyph unicode="&#x2e9;" glyph-name="uni02E9" horiz-adv-x="665" d="M442 188V1420H630V0H0V188H442Z" />
<glyph unicode="&#x2ec;" glyph-name="uni02EC" horiz-adv-x="1024" d="M252 -531L8 -41H176L340 -367L506 -41H676L432 -531H252Z" />
<glyph unicode="&#x2ed;" glyph-name="uni02ED" horiz-adv-x="1024" d="M34 1685H664V1497H34V1685ZM34 1684H664V1496H34V1684Z" />
<glyph unicode="&#x2ee;" glyph-name="uni02EE" horiz-adv-x="1346" d="M123 1493H463V1208L235 856H22L123 1208V1493ZM629 1493H969V1206L741 856H528L629 1206V1493Z" />
</font>
</defs>
</svg>
