<?xml version="1.0" standalone="no"?> <!DOCTYPE svg PUBLIC "-//W3C//DTD SVG 1.0//EN" "http://www.w3.org/TR/2001/REC-SVG-20010904/DTD/svg10.dtd" > <svg xmlns="http://www.w3.org/2000/svg" width="100%" height="100%">
<defs >
<font horiz-adv-x="614" ><font-face
    font-family="Asana Math"
    units-per-em="1000"
    panose-1="2 0 6 3 0 0 0 0 0 0"
    ascent="726"
    descent="-283"
    alphabetic="0" />
<missing-glyph horiz-adv-x="470" d="M178 256Q178 281 196 304T235 351T275 400T293 454Q293 490 268 513T201 536Q148 536 136 505L121 469L99 475L127 559Q157 574 179 580T227 586Q256 586 281 577T324 553T352 516T363 470Q363 454 359 440T346 411T321 379T281
340Q258 319 244 306T223 282T213 264T210 247Q210 231 227 211L211 201Q178 222 178 256ZM215 148Q232 148 245 135T259 105Q259 88 246 75T215 61Q198 61 186 74T173 105Q173 122 185 135T215 148ZM60 619V43H410V619H60ZM453 35Q453 12 447 6T418 0H52Q29 0
23 6T17 35V627Q17 650 23 656T52 662H418Q441 662 447 656T453 627V35Z" />
<glyph unicode=" " glyph-name="space" horiz-adv-x="249" />
<glyph unicode="!" glyph-name="exclam" horiz-adv-x="134" d="M64 111Q87 111 105 94T123 53Q123 30 105 13T63 -5Q41 -5 24 12T7 53Q7 76 24 93T64 111ZM120 694V669Q120 627 115 590T108 526L84 248V223L56 200L46 205V222L18 550Q16 572 15 594T11 656L86 694H120Z" />
<glyph unicode="&quot;" glyph-name="quotedbl" horiz-adv-x="291" d="M45 469L12 665V670Q12 684 25 696T55 709Q71 709 84 697T98 671Q98 667 97 665L65 469H45ZM226 469L193 665V670Q193 685 206 697T236 709Q252 709 265 697T279 670Q279 667 278 665L246 469H226Z" />
<glyph unicode="#" glyph-name="numbersign" horiz-adv-x="495" d="M468 224H359L328 0H270L301 224H167L134 0H76L109 224H2V280H118L139 419H29V475H147L178 684H236L205 475H338L368 684H426L396 475H493V419H388L368 280H468V224ZM197 419L176 280H310L330 419H197Z" />
<glyph unicode="$" glyph-name="dollar" horiz-adv-x="447" d="M234 373Q277 368 315 361T382 336T428 288T445 207Q445 150 421 104T348 27Q336 19 324 13T299 1T271 -8T234 -16L238 -116H193Q194 -108 194 -101T195 -84T195 -58T197 -18Q150 -17 102 -7T4 24Q6
39 8 52T11 83T14 121T16 172H48V108Q48 90 50 83T62 67Q102 28 197 18V297Q157 301 122 308T61 333T19 379T4 458Q4 514 26 557T92 629Q114 644 136 651T197 666L193 731H238Q236 717 236 705T234 669Q264 667 287 664T329 655T365 643T400 626Q393 601 390 571T387
500H355V542Q355 570 351 582T332 604Q313 616 291 623T234 633V373ZM234 18Q294 29 330 70T366 173Q366 200 359 220T337 254T296 277T234 292V18ZM197 630Q170 627 155 622T125 604Q79 567 79 494Q79 439 105 413T197 379V630Z" />
<glyph unicode="%" glyph-name="percent" horiz-adv-x="771" d="M168 689Q201 689 228 678T276 645T308 596T320 535Q320 499 308 469T274 416T223 381T158 368Q125 368 97 379T48 411T16 460T4 522Q4 558 16 589T50 642T102 676T168 689ZM165 666Q123 666 100
629T76 526Q76 461 97 426T159 391Q200 391 224 429T248 533Q248 595 226 630T165 666ZM615 321Q648 321 675 310T723 277T755 228T767 167Q767 131 755 101T721 48T670 13T605 0Q572 0 544 11T495 43T463 92T451 154Q451 190 463 221T497 274T549 308T615 321ZM612
298Q570 298 547 261T523 158Q523 93 544 58T606 23Q647 23 671 61T695 165Q695 227 673 262T612 298ZM175 -20L541 709H581L215 -20H175Z" />
<glyph unicode="&amp;" glyph-name="ampersand" horiz-adv-x="717" d="M387 599Q387 565 374 537T341 484T295 438T243 397Q285 329 332 269T447 141Q474 177 484 202T495 254Q495 285 487 308T468 334Q459 336 442 338T381 344L414 389Q452 387 471 387T511 387L705
394Q698 372 696 357T693 322Q678 324 665 326T635 329T600 332T553 334Q556 323 557 315T558 295Q558 248 540 208T477 118Q509 100 533 88T576 68T613 58T649 55Q662 55 674 59T710 74L716 49L629 -14Q620 -20 595 -20Q577 -20 555 -15T508 1T460 26T414 57Q361
16 314 -2T212 -20Q167 -20 130 -6T65 33T22 94T6 172Q6 220 24 256T68 319T120 361T161 387Q145 427 138 458T131 520Q131 551 137 573T155 606Q172 630 189 643T223 666Q249 689 289 689Q336 689 361 666T387 599ZM176 352Q130 316 112 284T93 209Q93 174 106
143T142 88T195 50T259 36Q289 36 318 47T383 82Q341 129 310 166T254 234T212 293T176 352ZM227 431Q246 446 262 463T292 499T312 536T320 569Q320 598 304 617T262 636Q201 636 201 557Q201 531 207 502T227 431Z" />
<glyph unicode="&apos;" glyph-name="quotesingle" horiz-adv-x="188" d="M15 446L0 456Q36 514 54 566T78 679Q97 685 109 688T132 695T151 701T175 709L188 696Q162 631 132 578T59 470L15 446Z" />
<glyph unicode="(" glyph-name="parenleft" horiz-adv-x="245" d="M86 266Q86 161 103 84T146 -48T197 -138T241 -194L222 -215Q191 -186 169 -164T130 -120T100 -78T73 -32Q0 105 0 266Q0 369 26 447T89 580T163 671T222 726L241 700Q219 674 192 640T142 555T102
434T86 266Z" />
<glyph unicode=")" glyph-name="parenright" horiz-adv-x="245" d="M23 726Q44 707 81 672T155 581T218 447T245 265Q245 157 218 76T154 -64T80 -159T23 -215L4 -194Q23 -170 49 -134T100 -44T142 86T159 266Q159 363 143 434T102 556T52 641T4 700L23 726V726Z" />
<glyph unicode="*" glyph-name="asterisk" horiz-adv-x="330" d="M6 331L3 341L47 393H57L152 295L178 438L187 442L249 423L252 408L183 283L322 307L328 303V241L319 233L181 253L249 131V121L181 95L171 99L153 241L47 153H37L1 204L6 213L137 267L6 331Z" />
<glyph unicode="+" glyph-name="plus" horiz-adv-x="539" d="M299 241V0H240V241H0V300H240V538H299V300H539V241H299Z" />
<glyph unicode="," glyph-name="comma" horiz-adv-x="202" d="M202 109Q191 80 179 53T149 -3T108 -64T55 -136L14 -155L0 -144Q43 -72 64 -18T90 93Q110 99 124 103T149 110T169 117T188 123L202 109Z" />
<glyph unicode="-" glyph-name="hyphen" horiz-adv-x="321" d="M19 215L13 220L41 287H303L309 282L279 215H19Z" />
<glyph unicode="." glyph-name="period" horiz-adv-x="132" d="M65 111Q88 111 106 94T124 53Q124 30 106 13T64 -5Q42 -5 25 12T8 53Q8 76 25 93T65 111Z" />
<glyph unicode="/" glyph-name="slash" horiz-adv-x="334" d="M55 -169H0L279 714H334L55 -169Z" />
<glyph unicode="0" glyph-name="zero" horiz-adv-x="456" d="M244 689Q347 689 396 610T446 366Q446 -20 219 -20Q172 -20 132 0T66 57Q40 94 25 165T10 324Q10 689 244 689ZM226 654Q190 654 165 638T125 586T102 495T94 360Q94 268 102 203T126 96T169 35T232
15Q266 15 291 32T331 85T354 179T362 316Q362 406 355 470T331 575T288 635T226 654Z" />
<glyph unicode="1" glyph-name="one" horiz-adv-x="358" d="M358 -3Q352 -3 331 -3T285 -2T237 -1T201 0Q197 0 193 0T173 0T126 -1T36 -3V27L92 30Q112 31 125 34T145 44T154 64T157 96V614L7 548L0 598L241 700V96Q241 76 243 64T253 45T272 34T306 30L358 27V-3V-3Z" />
<glyph unicode="2" glyph-name="two" horiz-adv-x="465" d="M178 204Q220 249 249 286T297 355T324 416T333 473Q333 537 295 574T192 612Q141 612 113 593T73 529L60 483H31L48 619Q85 657 124 673T218 689Q314 689 368 640T423 503Q423 475 417 450T396 397T357
340T296 270L114 77Q183 78 229 78T313 79T383 79T460 82V-3Q388 -3 348 -3T287 -2T255 -1T231 0Q217 0 207 0T176 -1T117 -2T8 -3V23L178 204Z" />
<glyph unicode="3" glyph-name="three" horiz-adv-x="460" d="M454 224Q454 173 428 129T362 51T272 -1T176 -20Q119 -20 42 6Q40 25 37 41T30 75T21 111T7 153L34 163Q48 122 60 102T90 64Q136 21 207 21Q277 21 319 67T361 190Q361 259 327 296T230 334Q210
334 193 330T146 312L139 318L151 371L166 370Q176 369 184 369T198 368Q225 368 248 379T289 409T317 453T328 506Q328 530 319 551T293 587T256 612T210 622Q190 622 170 616T132 601T101 579T84 554L66 498H35L64 622Q100 658 137 673T225 689Q267 689 301 679T359
649T396 602T410 541Q410 497 385 459T300 374Q318 371 344 364T394 341T436 297T454 224Z" />
<glyph unicode="4" glyph-name="four" horiz-adv-x="474" d="M0 181V204L283 667L363 697L362 245L470 248V177Q459 178 450 179T428 180T400 181T362 181V106Q362 83 364 69T373 47T392 35T422 30L470 27V-3Q420 -2 393 -2T351 -1T329 0T313 0Q304 0 297 0T276
0T234 -1T156 -3V27L218 30Q236 31 248 34T266 46T275 69T278 106V181H0ZM278 597L63 245H278V597Z" />
<glyph unicode="5" glyph-name="five" horiz-adv-x="459" d="M453 253Q453 191 427 141T358 55T266 0T167 -20Q135 -20 106 -14T56 4Q45 37 35 65T7 137L31 151L77 69Q88 49 121 37T195 25Q277 25 322 71T368 201Q368 282 326 329T212 377Q194 377 179 374T150
364T122 346T89 316L69 322V690L426 689V604L121 605V396Q141 414 158 424T191 439T224 445T258 446Q301 446 336 432T398 392T438 331T453 253Z" />
<glyph unicode="6" glyph-name="six" horiz-adv-x="445" d="M104 331Q124 346 141 360T176 385T215 402T266 409Q306 409 338 396T393 357T428 297T441 219Q441 168 424 125T377 49T305 -2T214 -20Q166 -20 127 -2T61 51T20 135T5 247Q5 350 45 438T164 593Q183
609 201 622T241 645T289 666T352 689L394 665Q326 645 276 616T190 546T133 452T104 331ZM228 349Q192 349 160 333T111 291Q103 278 100 262T96 220Q96 119 129 66T227 13Q285 13 320 59T355 184Q355 221 346 251T320 303T280 337T228 349Z" />
<glyph unicode="7" glyph-name="seven" horiz-adv-x="467" d="M112 603Q95 603 85 601T68 592T58 570T51 533L44 477H14V689H467V659L127 -1H17L379 603H112Z" />
<glyph unicode="8" glyph-name="eight" horiz-adv-x="449" d="M146 345Q113 366 91 385T56 422T37 461T31 508Q31 547 46 580T89 638T154 675T237 689Q317 689 365 650T414 545Q414 522 408 503T387 464T349 424T291 381Q334 361 363 343T409 304T434 260T442
206Q442 159 423 118T372 47T296 -2T204 -20Q162 -20 126 -7T64 31T23 87T8 159Q8 236 66 294Q82 310 98 320T146 345ZM182 331Q126 297 103 260T79 167Q79 97 117 56T219 14Q249 14 275 25T321 57T352 105T363 164Q363 205 337 239T262 295L182 331ZM256 396Q305
428 325 459T346 534Q346 589 313 622T225 655Q171 655 139 625T106 544Q106 470 201 423L256 396Z" />
<glyph unicode="9" glyph-name="nine" horiz-adv-x="446" d="M46 -3V5Q183 38 260 125T344 340L274 282Q260 271 235 264T183 256Q144 256 111 271T55 312T18 375T4 455Q4 505 21 548T68 622T139 671T228 689Q277 689 316 671T384 617T426 531T441 417Q441 316
404 232T293 85Q273 68 253 55T208 29T153 5T80 -20L46 -3ZM224 656Q162 656 126 612T90 492Q90 453 99 421T127 366T169 330T224 317Q282 317 318 359T354 471Q354 505 346 539T324 597Q292 656 224 656Z" />
<glyph unicode=":" glyph-name="colon" horiz-adv-x="138" d="M68 111Q91 111 109 94T127 53Q127 30 109 13T67 -5Q45 -5 28 12T11 53Q11 76 28 93T68 111ZM68 456Q91 456 109 438T127 397Q127 374 109 357T67 340Q45 340 28 357T11 398Q11 421 28 438T68 456Z" />
<glyph unicode=";" glyph-name="semicolon" horiz-adv-x="202" d="M202 111Q191 82 179 55T149 -1T108 -62T55 -134L14 -153L0 -142Q43 -70 64 -16T90 95Q110 101 124 105T149 112T169 119T188 125L202 111ZM134 456Q157 456 175 438T193 397Q193 374 175 357T133
340Q111 340 94 357T77 398Q77 421 94 438T134 456Z" />
<glyph unicode="&lt;" glyph-name="less" horiz-adv-x="555" d="M0 252V273L539 528V469L101 264L539 59V0L0 252Z" />
<glyph unicode="=" glyph-name="equal" horiz-adv-x="556" d="M17 347V406H556V347H17ZM17 134V193H556V134H17Z" />
<glyph unicode="&gt;" glyph-name="greater" horiz-adv-x="555" d="M16 59L454 264L16 469V528L555 273V252L16 0V59Z" />
<glyph unicode="?" glyph-name="question" horiz-adv-x="355" d="M107 254Q107 288 131 319T184 381T237 446T261 519Q261 567 227 597T138 628Q68 628 51 586L31 538L2 546L40 659Q80 679 109 686T172 694Q211 694 244 682T301 650T340 601T354 540Q354 519 349
500T331 461T297 418T244 366Q214 339 196 321T167 290T154 266T150 243Q150 231 155 220T172 195L151 181Q107 209 107 254ZM157 111Q180 111 198 94T216 53Q216 30 198 13T156 -5Q134 -5 117 12T100 53Q100 76 117 93T157 111Z" />
<glyph unicode="@" glyph-name="at" horiz-adv-x="717" d="M385 30Q445 30 489 47T565 88T614 135T642 171H703Q691 152 682 138T664 113T646 92T624 72Q520 -20 378 -20Q300 -20 233 7T115 81T37 193T8 331Q8 407 36 473T114 589T231 666T377 694Q447 694 507
672T612 612T682 521T708 409Q708 358 688 309T635 220T560 158T475 134Q442 134 423 155T399 218Q380 194 365 179T336 155T308 143T276 139Q248 139 224 150T182 180T154 224T143 280Q143 325 161 366T209 439T278 490T360 509Q431 509 448 429L466 499H554L477
220Q473 207 473 192Q473 179 480 171T498 163Q526 163 554 184T604 240T641 318T655 405Q655 456 635 500T577 576T490 626T381 644Q313 644 255 621T154 557T87 459T63 337Q63 271 87 215T155 118T257 53T385 30ZM292 166Q325 166 350 193T393 260T420 340T429
410Q429 441 415 460T377 482H372Q343 482 318 457T273 397T243 322T232 254Q232 214 248 190T292 166Z" />
<glyph unicode="A" glyph-name="A" horiz-adv-x="742" d="M635 132Q648 102 657 83T674 52T689 36T707 30L741 27V-3Q700 -2 678 -2T644 -1T627 0T614 0Q608 0 603 0T585 0T547 -1T475 -3V27L522 30Q541 32 552 37T563 50Q563 57 559 69T542 114L496 229H208L145
56Q145 44 156 38T193 30L230 27V-3Q189 -2 167 -2T134 -1T119 0T109 0Q103 0 99 0T84 0T54 -1T0 -3V27L37 30Q72 33 91 79L361 700H393L635 132ZM478 269L352 567L225 269H478Z" />
<glyph unicode="B" glyph-name="B" horiz-adv-x="566" d="M279 -3Q265 -3 248 -3T213 -2T180 -1T155 0Q148 0 140 0T119 0T90 -1T46 -3V20L72 30Q94 39 94 95V569Q94 599 93 616T86 642T71 654T43 659L7 662V692Q59 691 87 691T131 690T152 689T165 689Q171 689
176 689T195 689T238 690T319 692H344Q432 692 477 657T523 556Q523 478 450 428Q429 414 408 406T350 390Q379 388 400 385T439 377T470 365T499 347Q557 306 557 228Q557 193 543 153T497 78T411 20T279 -3ZM189 47Q208 42 226 41T266 39Q356 39 405 83T454 208Q454
289 406 326T256 364Q242 364 230 364T189 362V47ZM189 401Q212 399 224 399T250 399Q336 399 380 433T424 533Q424 596 388 624T270 652Q246 652 228 651T189 644V401Z" />
<glyph unicode="C" glyph-name="C" horiz-adv-x="666" d="M7 342Q7 432 41 500T132 615T263 685T418 709Q473 709 529 699T649 668Q644 643 641 624T635 586T631 552T630 516H599V588Q599 603 582 617T536 642T473 660T400 667Q335 667 283 645T193 583T135 487T114
361Q114 287 137 227T203 124T306 58T439 34Q553 34 646 94L655 84L627 34Q523 -20 400 -20Q312 -20 240 6T116 80T36 194T7 342Z" />
<glyph unicode="D" glyph-name="D" horiz-adv-x="747" d="M328 -3Q296 -3 262 -2T183 0Q174 0 168 0T148 0T111 -1T44 -3V20L75 36Q87 42 93 57T100 95V569Q100 598 99 615T92 642T76 654T49 659L9 662V692Q52 691 84 691T140 690T183 689T215 689Q241 689 269
689T321 690T364 691T389 692Q468 692 532 670T642 608T713 512T738 385Q738 304 707 229T622 99Q519 -3 328 -3ZM631 368Q631 451 599 504T515 589T397 633T261 646Q244 646 228 646T195 644V49Q237 49 286 51T383 59T469 77T531 107Q631 189 631 359V368Z" />
<glyph unicode="E" glyph-name="E" horiz-adv-x="571" d="M541 0Q490 -1 462 -1T418 -2T394 -3T374 -3Q348 -3 315 -3T249 -2T188 -1T142 0Q121 0 95 -1T19 -3V27L55 30Q73 31 83 34T98 47T104 73T106 120V569Q106 599 105 616T98 642T82 655T55 659L7 662V692Q44
691 71 691T120 690T156 689T185 689Q202 689 227 689T283 690T348 691T417 692Q450 692 477 692T541 689Q525 625 525 537H490V602Q490 619 486 625T463 636Q439 643 400 646T318 650Q292 650 275 650T246 649T223 647T201 642V375Q227 373 253 373T311 372Q361
372 385 374T423 383Q430 396 431 409L436 461H466Q465 423 465 403T464 372T463 356T463 345Q463 338 463 333T463 318T464 288T466 234H436L431 293L423 318Q416 321 407 323T385 327T352 329T304 330Q270 330 246 330T201 327V47Q212 45 221 44T242 41T266 40T300
39Q368 39 418 42T484 51Q494 55 501 71T513 107T520 144T522 164H557Q549 125 545 85T541 0Z" />
<glyph unicode="F" glyph-name="F" horiz-adv-x="522" d="M201 120Q201 90 202 73T209 47T224 34T252 30L300 27V-3Q256 -2 224 -1T153 0Q114 0 83 -1T7 -3V27L55 30Q72 31 82 34T97 46T104 73T106 120V569Q106 599 105 616T98 642T82 655T55 659L7 662V692Q62
691 92 691T139 690T164 689T183 689Q202 689 228 689T292 691L399 692Q431 692 457 692T521 689Q505 625 505 537H470V602Q470 619 466 625T443 636Q420 642 382 646T308 650Q286 650 271 650T244 649T222 647T201 642V375Q227 373 253 373T311 372Q361 372 385
374T423 383Q430 396 431 409L436 461H466Q465 423 465 403T464 372T463 356T463 345Q463 338 463 333T463 318T464 288T466 234H436L431 293L423 318Q416 321 407 323T385 327T352 329T304 330Q270 330 246 330T201 327V120Z" />
<glyph unicode="G" glyph-name="G" horiz-adv-x="723" d="M398 -20Q320 -20 250 2T126 70T40 183T8 341Q8 424 38 492T125 608T260 682T436 709Q466 709 492 707T545 701T604 688T678 668Q667 627 663 591T658 516H627V569Q627 598 606 617T552 647T481 662T410
667Q269 667 192 588T115 362Q115 284 138 221T203 114T305 46T439 22Q464 22 487 24T528 31T559 42T576 55Q579 60 580 70T582 98V199Q582 217 575 224T548 234L465 241V271Q498 270 517 270T548 269T568 269T587 269Q599 269 607 269T627 269T658 269T710 271L714
246L685 236Q677 233 676 228T674 199V31Q623 17 584 7T512 -9T452 -17T398 -20Z" />
<glyph unicode="H" glyph-name="H" horiz-adv-x="808" d="M604 343H204V120Q204 90 205 73T212 47T227 34T255 30L303 27V-3Q259 -2 227 -1T156 0Q117 0 86 -1T10 -3V27L58 30Q75 31 85 34T100 46T107 73T109 120V569Q109 599 108 616T101 642T85 655T58 659L10
662V692Q37 691 56 691T91 690T122 689T156 689Q175 689 190 689T221 689T256 690T303 692V662L255 659Q238 658 228 655T212 643T206 616T204 569V391Q219 390 237 390T287 389H521Q552 389 570 389T604 391V569Q604 599 603 616T596 642T580 655T553 659L505
662V692Q532 691 551 691T586 690T617 689T651 689Q670 689 685 689T716 689T751 690T798 692V662L750 659Q733 658 723 655T707 643T701 616T699 569V120Q699 90 700 73T707 47T722 34T750 30L798 27V-3Q754 -2 722 -1T651 0Q612 0 581 -1T505 -3V27L553 30Q570
31 580 34T595 46T602 73T604 120V343Z" />
<glyph unicode="I" glyph-name="I" horiz-adv-x="297" d="M196 120Q196 90 197 73T204 47T219 34T247 30L295 27V-3Q251 -2 219 -1T148 0Q109 0 78 -1T2 -3V27L50 30Q67 31 77 34T92 46T99 73T101 120V569Q101 599 100 616T93 642T77 655T50 659L2 662V692Q29
691 48 691T83 690T114 689T148 689Q167 689 182 689T213 689T248 690T295 692V662L247 659Q230 658 220 655T204 643T198 616T196 569V120Z" />
<glyph unicode="J" glyph-name="J" horiz-adv-x="327" d="M1 -116L12 -110Q45 -130 79 -130Q109 -130 121 -105T133 -17V569Q133 599 132 616T125 642T109 655T82 659L34 662V692Q61 691 80 691T115 690T146 689T180 689Q199 689 214 689T245 689T280 690T327
692V662L279 659Q262 658 252 655T236 643T230 616T228 569V117Q228 72 225 39T215 -21T196 -70T166 -114Q155 -128 140 -142T107 -168T72 -187T35 -195Q27 -195 23 -194L6 -192L1 -116Z" />
<glyph unicode="K" glyph-name="K" horiz-adv-x="713" d="M203 120Q203 90 204 73T211 47T226 34T254 30L302 27V-3Q258 -2 226 -1T155 0Q116 0 85 -1T9 -3V27L57 30Q74 31 84 34T99 46T106 73T108 120V569Q108 599 107 616T100 642T84 655T57 659L9 662V692Q36
691 55 691T90 690T121 689T155 689Q174 689 189 689T220 689T255 690T302 692V662L254 659Q237 658 227 655T211 643T205 616T203 569V355L510 665V692Q532 691 546 691T571 690T587 689T599 689Q605 689 609 689T621 689T642 690T679 692V662L637 660Q600 659
559 622L293 382L623 70Q646 48 660 39T685 29L706 27V-3Q687 -2 677 -2T660 -1T650 0T641 0Q637 0 634 0T624 0T602 -1T561 -3L213 332L203 325V120Z" />
<glyph unicode="L" glyph-name="L" horiz-adv-x="570" d="M549 0Q498 -1 470 -1T426 -2T402 -3T381 -3Q346 -3 309 -3T238 -2T181 -1T148 0Q138 0 131 0T114 0T89 -1T49 -3V20L80 36Q92 42 98 57T105 95V569Q105 599 104 616T97 642T81 655T54 659L6 662V692Q33
691 52 691T87 690T118 689T152 689Q171 689 186 689T217 689T252 690T299 692V662L251 659Q234 658 224 655T208 643T202 616T200 569V47Q254 44 315 44Q350 44 382 45T441 47T484 51T504 57Q506 59 511 73T521 105T531 142T538 172H570Q566 136 564 111T559 66T554
32T549 0Z" />
<glyph unicode="M" glyph-name="M" horiz-adv-x="929" d="M726 578L450 -13H430L151 578V120Q151 91 152 74T159 47T174 35T202 30L246 27V-3Q207 -2 185 -2T152 -1T137 0T126 0Q120 0 115 0T99 0T68 -1T10 -3V27L54 30Q71 31 81 34T96 47T103 73T105 120V569Q105
598 104 615T97 642T81 654T54 659L10 662V692Q40 691 56 691T82 690T95 689T105 689Q111 689 115 689T128 689T153 690T200 692L464 136L726 692Q756 691 772 691T798 690T811 689T821 689Q827 689 832 689T845 689T869 690T914 692V662L872 659Q855 658 845 655T829
642T823 616T821 569V120Q821 90 822 73T829 47T844 34T872 30L920 27V-3Q876 -2 844 -1T769 0Q730 0 703 -1T641 -3V27L675 30Q693 31 703 34T718 47T724 73T726 120V578Z" />
<glyph unicode="N" glyph-name="N" horiz-adv-x="813" d="M183 692L664 98V569Q664 598 663 615T656 642T640 654T613 659L569 662V692Q606 691 626 691T658 690T674 689T685 689Q691 689 695 689T711 689T744 690T805 692V662L761 659Q744 658 734 655T718 642T712
616T710 569V-6L623 -4L150 583V120Q150 91 151 74T158 47T173 35T201 30L245 27V-3Q206 -2 184 -2T151 -1T136 0T125 0Q119 0 114 0T98 0T67 -1T9 -3V27L53 30Q70 31 80 34T95 47T102 73T104 120V569Q104 598 103 615T96 642T80 654T53 659L9 662V692Q30 691 43
691T69 690T94 690T129 689L183 692Z" />
<glyph unicode="O" glyph-name="O" horiz-adv-x="759" d="M389 709Q472 709 539 685T653 617T725 509T751 367Q751 284 721 214T638 91T513 10T357 -20Q281 -20 218 7T108 82T35 196T9 341Q9 423 36 491T113 607T233 682T389 709ZM372 667Q248 667 182 593T116
378Q116 298 136 232T193 120T282 48T397 22Q514 22 579 105T644 337Q644 415 626 476T572 580T487 644T372 667Z" />
<glyph unicode="P" glyph-name="P" horiz-adv-x="565" d="M8 692Q68 691 101 691T151 690T175 689T190 689Q267 689 307 690T360 692Q456 692 510 651T565 537Q565 492 547 453T496 386T419 341T323 324Q308 324 296 325T265 330L255 366Q275 360 288 358T317
356Q350 356 377 367T423 398T454 447T465 509Q465 581 423 617T299 654Q273 654 250 651T201 642V120Q201 90 202 73T209 47T224 34T252 30L300 27V-3Q256 -2 224 -1T153 0Q114 0 83 -1T7 -3V27L55 30Q72 31 82 34T97 46T104 73T106 120V569Q106 597 104 614T97
640T81 654T53 659L8 662V692V692Z" />
<glyph unicode="Q" glyph-name="Q" horiz-adv-x="756" d="M384 -19Q424 -24 460 -38T532 -67T607 -93T688 -105Q695 -105 706 -104T747 -99V-120L663 -176L409 -104Q362 -89 331 -89Q327 -89 315 -94T288 -107T261 -120T244 -129L246 -97Q329 -33 355 -25L371
-19H360Q279 -19 214 7T102 80T30 194T5 343Q5 425 32 492T108 608T227 682T381 709Q465 709 532 686T648 618T721 512T747 371Q747 262 695 172T552 28Q532 17 515 10T478 -3T437 -12T384 -19ZM112 375Q112 327 124 266T169 151T255 60T395 23Q513 23 576 103T640
335Q640 493 569 580T368 667Q243 667 178 592T112 375Z" />
<glyph unicode="R" glyph-name="R" horiz-adv-x="660" d="M202 120Q202 90 203 73T210 47T225 34T253 30L301 27V-3Q257 -2 225 -1T154 0Q115 0 84 -1T8 -3V27L56 30Q73 31 83 34T98 46T105 73T107 120V569Q107 598 106 615T99 642T83 654T56 659L15 662V692Q67
691 96 691T141 690T167 689T188 689Q201 689 212 689T242 690T289 691T368 692Q462 692 512 653T562 542Q562 454 482 397Q457 380 433 370T367 349L594 53Q604 40 617 35T655 27V-3Q631 -2 618 -2T599 -1T589 0T583 0Q575 0 563 0T515 -3L238 360L244 372Q254
371 261 371T273 371Q361 371 411 411T462 521Q462 585 420 619T300 654Q274 654 251 651T202 642V120Z" />
<glyph unicode="S" glyph-name="S" horiz-adv-x="496" d="M405 179Q405 220 388 244T344 282T281 302T208 315T135 330T72 356T27 404T10 484Q10 533 29 574T82 646T164 692T267 709Q288 709 307 707T348 700T393 687T447 667Q443 647 441 630T437 597T434 563T433
526H401L395 583Q393 605 383 618T348 644Q328 655 301 661T245 667Q212 667 185 657T137 627T105 581T94 523Q94 479 113 455T162 419T231 401T309 390T385 372T448 336Q489 298 489 230Q489 176 467 130T404 51T309 -1T189 -20Q103 -20 16 18Q18 35 19 48T22
74T23 100T24 131Q24 136 24 146T23 171H55L63 104Q65 89 79 75T116 49T167 31T226 24Q265 24 298 35T354 67T391 116T405 179Z" />
<glyph unicode="T" glyph-name="T" horiz-adv-x="583" d="M364 689Q380 689 388 689T415 689T470 690T580 692Q578 671 577 652T575 615T574 576T573 531H542L538 610Q537 628 528 635T498 643H343L339 120Q339 90 340 73T347 47T362 34T390 30L438 27V-3Q394
-2 362 -1T291 0Q252 0 221 -1T145 -3V27L193 30Q210 31 220 34T235 46T242 73T244 120L240 643H85Q64 643 55 636T45 610L41 531H10Q10 555 10 575T9 614T7 652T3 692L71 691Q125 690 161 690T206 689H364V689Z" />
<glyph unicode="U" glyph-name="U" horiz-adv-x="757" d="M371 -20Q305 -20 255 -8T172 32T121 104T104 214V569Q104 599 103 616T96 642T80 655T53 659L5 662V692Q32 691 51 691T86 690T117 689T151 689Q170 689 185 689T216 689T251 690T298 692V662L250 659Q233
658 223 655T207 643T201 616T199 569V225Q199 128 246 85T398 42Q507 42 559 92T611 249V569Q611 598 610 615T603 642T587 654T560 659L516 662V692Q553 691 573 691T605 690T621 689T632 689Q638 689 642 689T658 689T691 690T752 692V662L708 659Q691 658 681
655T665 642T659 616T657 569V280Q657 201 642 144T592 51T504 -3T371 -20Z" />
<glyph unicode="V" glyph-name="V" horiz-adv-x="699" d="M210 659Q178 657 178 639Q178 638 186 616T209 557T241 475T277 380T313 286T345 203T368 145T377 121Q378 124 387 147T409 206T440 287T475 379T510 470T540 550T561 608T569 633Q569 657 534 659L482
662V692Q494 691 505 691T520 691Q542 690 559 690T590 689L698 692V662L668 659Q653 657 642 643T614 587L440 166Q428 136 419 114T403 72T390 33T376 -9H326Q320 11 315 28T303 65T288 105T268 156L80 618Q70 641 61 649T36 659L0 662V692Q41 691 64 691T99
690T118 689T133 689Q142 689 148 689T166 689T202 690T266 692V662L210 659Z" />
<glyph unicode="W" glyph-name="W" horiz-adv-x="985" d="M681 -9L485 536L275 -9H225L83 609Q76 636 66 646T33 659L5 662V692Q120 689 131 689L257 692V662L215 659Q195 657 187 650T178 626Q178 624 182 603T194 549T210 473T228 386T247 300T264 223T276 168T282
144L496 700H528L725 137L858 635Q857 647 847 652T811 659L771 662V692Q807 691 826 691T855 690T868 689T876 689L981 692V662L949 659Q932 657 924 651T911 630L731 -9H681Z" />
<glyph unicode="X" glyph-name="X" horiz-adv-x="649" d="M642 -3Q577 0 571 0Q566 0 563 0T553 0T533 -1T497 -3L313 303L111 -3Q95 -2 86 -2T73 -1T66 0T60 0Q57 0 55 0T48 0T34 -1T8 -3V27L34 30Q51 32 62 42T93 78L288 341L160 554Q135 596 111 619T68 644L23
647L21 673L162 700Q176 692 189 678T219 635L347 419L532 689H633V659L592 656Q586 655 581 652T568 642T550 621T524 588L370 380L546 100Q559 80 568 67T585 46T598 35T612 30L642 27V-3Z" />
<glyph unicode="Y" glyph-name="Y" horiz-adv-x="648" d="M121 705Q128 705 138 697T161 675T187 642T212 602L355 341L458 504Q473 527 486 549T512 594T538 641T566 694H646V679Q616 643 593 615T550 558T508 499T458 426Q436 393 422 369T400 325T389 288T386
249V120Q386 90 387 73T394 47T409 34T437 30L485 27V-3Q441 -2 409 -1T338 0Q299 0 268 -1T192 -3V27L240 30Q257 31 267 34T282 46T289 73T291 120V262Q291 287 282 302L158 518Q126 573 91 608T30 648L1 651V680L121 705Z" />
<glyph unicode="Z" glyph-name="Z" horiz-adv-x="648" d="M146 44H419Q476 44 509 46T560 55T584 77T593 116L599 173H633Q631 152 630 134T628 97T627 53T627 -3L322 0L10 -3V25L495 648H267Q221 648 192 646T147 639T123 625T115 601L109 530H75Q77 558 77 574T78
611Q78 631 78 647T75 692L240 691L472 689L628 692L632 663L146 44Z" />
<glyph unicode="[" glyph-name="bracketleft" horiz-adv-x="223" d="M14 -171Q19 -148 20 -122T22 -44V578Q22 616 20 643T18 691Q18 715 23 726L123 723L217 726L223 720V694L219 689H181Q139 689 120 673Q113 666 111 654T108 616V-75Q108 -100 110 -112T120
-131Q139 -147 181 -147H219L223 -152V-178L217 -184L117 -183L23 -184L14 -171Z" />
<glyph unicode="\" glyph-name="backslash" horiz-adv-x="333" d="M278 -169L0 714H54L333 -169H278Z" />
<glyph unicode="]" glyph-name="bracketright" horiz-adv-x="223" d="M6 -184L0 -178V-152L4 -147H42Q84 -147 103 -131Q110 -124 112 -112T115 -75V616Q115 641 113 653T103 673Q84 689 42 689H4L0 694V720L6 726H200Q205 715 205 691Q205 671 203 644T201 578V-44Q201
-95 202 -121T209 -171L200 -184H6Z" />
<glyph unicode="^" glyph-name="asciicircum" horiz-adv-x="507" d="M2 283L221 689H287L505 283H437L254 621L70 283H2Z" />
<glyph unicode="_" glyph-name="underscore" horiz-adv-x="534" d="M17 -125V-75H517V-125H17Z" />
<glyph unicode="`" glyph-name="grave" horiz-adv-x="188" d="M173 709L188 699Q152 642 134 589T110 476Q91 470 79 467T56 460T36 454T13 446L0 459Q26 524 56 577T129 685L173 709Z" />
<glyph unicode="a" glyph-name="a" horiz-adv-x="452" d="M177 -4Q172 -8 161 -10T135 -12Q75 -12 42 20T9 111Q9 176 54 213T202 270L301 288Q299 357 268 386T165 416Q148 416 137 414T117 407T103 391T88 362L75 331L49 338V403L102 435Q158 469 223 469Q266
469 296 459T345 425T372 363T381 270V87Q381 50 386 40T409 29L448 27V-3Q382 0 374 0Q369 0 366 0T355 0T334 -1T296 -3L301 82L177 -4ZM301 256Q244 248 204 238T145 216Q122 202 109 178T95 125Q95 109 101 95T117 69T141 52T170 45Q185 45 203 51T239 69T273
94T301 124V256Z" />
<glyph unicode="b" glyph-name="b" horiz-adv-x="529" d="M170 369Q194 427 239 456T335 485Q368 485 400 472T460 432T505 365T528 270V262Q528 212 514 161T471 67T400 -1T300 -28Q264 -28 223 -16T134 24L94 -12L78 -6Q81 20 82 39T84 76T85 112T86 153V620Q86
643 81 652T61 661H5V689Q35 693 56 697T96 705T129 715T161 726L170 718V369ZM304 404Q275 404 251 394T208 369T180 338T170 308V93Q170 85 182 76T213 58T254 45T296 39Q328 39 354 53T400 92T430 152T441 229Q441 310 404 357T304 404Z" />
<glyph unicode="c" glyph-name="c" horiz-adv-x="405" d="M352 311L345 372Q331 391 300 404T235 417Q167 417 131 374T95 250Q95 200 108 160T145 92T203 48T279 32Q306 32 331 39T384 61L394 46L373 14Q369 8 355 2T320 -9T278 -17T236 -20Q186 -20 144 -3T72
44T24 117T7 210Q7 214 7 217T6 224Q6 275 30 324T93 412T179 473T274 497Q308 497 339 482T394 434Q380 378 380 311H352Z" />
<glyph unicode="d" glyph-name="d" horiz-adv-x="551" d="M546 -3Q543 -3 531 -3T504 -2T476 -1T455 0Q446 0 431 0T378 -3L383 89L272 -4Q268 -7 254 -9T224 -12Q127 -12 78 30Q41 60 21 114T1 229Q1 275 26 320T90 403T178 463T273 486Q303 486 330 475T379
437V620Q379 643 374 652T354 661H298V689Q328 693 349 697T389 705T422 715T454 726L463 718V102Q463 78 464 65T468 44T479 34T500 30L546 27V-3ZM379 350Q379 356 368 368T336 392T290 413T233 422Q165 422 127 377T89 249Q89 204 100 167T131 102T179 60T240
45Q275 45 309 66T364 123Q369 132 372 139T376 156T378 181T379 221V350Z" />
<glyph unicode="e" glyph-name="e" horiz-adv-x="439" d="M233 -20Q200 -20 161 -10T88 26T32 99T9 219Q9 297 35 350T123 440Q153 458 185 463T245 469Q287 469 321 456T380 417T417 357T431 279Q431 270 431 263T429 244Q411 240 384 237T323 232T255 228T187
226Q161 226 140 227T102 230Q103 186 109 161T130 111Q151 74 189 54T277 33Q293 33 306 35T334 42T365 56T407 80L420 70L400 36Q395 29 378 20T336 1T285 -14T233 -20ZM342 267Q341 292 339 310T333 344T324 371T310 396Q283 436 233 436Q197 436 167 417T121
365Q111 345 108 325T104 270Q124 265 154 263T216 261Q254 261 289 263T342 267Z" />
<glyph unicode="f" glyph-name="f" horiz-adv-x="320" d="M318 640L306 634Q288 650 273 656T237 662Q216 662 202 656T181 634T170 590T167 519V434L298 438L291 385H167V102Q167 78 168 65T172 44T183 34T204 30L250 27V-3Q212 -2 192 -2T160 -1T141 0T125 0Q116
0 109 0T91 0T58 -1T0 -3V27L46 30Q59 31 66 33T77 43T82 64T83 102V385L14 381V403L83 434V476V478Q83 507 93 551T125 636T177 707T251 737Q284 737 318 717V640Z" />
<glyph unicode="g" glyph-name="g" horiz-adv-x="526" d="M32 289Q32 340 56 374T114 430T187 460T253 469Q290 469 318 460T375 427L517 431L521 419L496 378H404Q410 362 412 351T415 324Q415 276 392 243T336 190T269 160T211 150Q205 150 200 150T187 152Q174
139 158 126T141 95Q141 56 217 56H377Q430 56 462 22T495 -66Q495 -112 474 -151T417 -220T331 -266T225 -283Q177 -283 138 -272T70 -240T25 -192T9 -129Q9 -106 17 -83T37 -53L124 -6Q88 5 73 18T58 52Q58 72 73 95L152 156Q96 162 64 197T32 289ZM217 435Q169
435 143 403T116 313Q116 255 146 220T228 184Q274 184 302 214T331 294Q331 358 300 396T217 435ZM264 -14Q212 -14 188 -16T151 -24Q121 -37 103 -65T85 -127Q85 -183 125 -217T232 -252Q271 -252 305 -241T363 -209T402 -162T416 -102Q416 -53 383 -34T264 -14Z"
/>
<glyph unicode="h" glyph-name="h" horiz-adv-x="574" d="M9 689Q39 693 60 697T100 705T133 715T165 726L174 718V378Q195 424 236 447T325 470Q357 470 387 459T442 427T481 372T496 295V102Q496 78 497 64T501 43T512 33T533 30L574 27V-3Q548 -2 534 -2T512
-1T500 0T491 0Q485 0 480 0T468 0T448 -1T412 -3V281Q412 339 382 373T301 408Q278 408 256 400T215 378T186 348T174 314V102Q174 78 175 65T179 44T190 34T211 30L256 27V-3Q230 -2 212 -2T180 -1T154 0T132 0Q121 0 110 0T85 0T52 -1T8 -3V27L53 30Q66 31 73
33T84 43T89 64T90 102V620Q90 643 85 652T65 661H9V689Z" />
<glyph unicode="i" glyph-name="i" horiz-adv-x="251" d="M168 102Q168 78 169 65T173 44T184 34T205 30L251 27V-3Q213 -2 193 -2T161 -1T142 0T126 0Q117 0 110 0T92 0T59 -1T1 -3V27L47 30Q60 31 67 33T78 43T83 64T84 102V327Q84 352 83 366T77 388T64 398T40
400H3V428Q81 437 159 469L168 465V102ZM122 687Q143 687 160 670T177 631Q177 609 160 593T121 576Q99 576 83 592T66 631Q66 654 82 670T122 687Z" />
<glyph unicode="j" glyph-name="j" horiz-adv-x="214" d="M30 -248Q55 -248 71 -230T98 -179T111 -102T115 -7V327Q115 352 114 366T108 388T95 398T71 400H34V428Q112 437 190 469L199 465V-19Q199 -138 146 -208Q117 -246 87 -263T12 -283L0 -245Q6 -246 15
-247T30 -248ZM152 688Q174 688 190 672T207 633Q207 610 191 594T151 577Q130 577 113 594T96 633Q96 654 113 671T152 688Z" />
<glyph unicode="k" glyph-name="k" horiz-adv-x="534" d="M8 689Q38 693 59 697T99 705T132 715T164 726L173 718V261L396 459H496V429H492Q468 429 445 419T388 382L259 281L449 88Q499 40 534 40V17L438 -12L173 240V102Q173 78 174 65T178 44T189 34T210 30L254
27V-3Q221 -2 202 -2T170 -1T150 0T132 0Q122 0 116 0T97 0T64 -1T6 -3V27L52 30Q65 31 72 33T83 43T88 64T89 102V620Q89 643 84 652T64 661H8V689Z" />
<glyph unicode="l" glyph-name="l" horiz-adv-x="251" d="M3 689Q33 693 54 697T94 705T127 715T159 726L168 718V102Q168 78 169 65T173 44T184 34T205 30L251 27V-3Q213 -2 193 -2T161 -1T142 0T126 0Q117 0 110 0T92 0T59 -1T1 -3V27L47 30Q60 31 67 33T78
43T83 64T84 102V620Q84 643 79 652T59 661H3V689Z" />
<glyph unicode="m" glyph-name="m" horiz-adv-x="873" d="M14 428Q92 437 170 469L179 465V380L248 444Q276 469 331 469Q383 469 416 448T473 376L549 444Q577 469 631 469Q700 469 740 426T781 308V102Q781 78 782 65T786 44T797 34T818 30L865 27V-3Q836 -2
821 -2T797 -1T785 0T776 0Q770 0 765 0T753 0T733 -1T697 -3V281Q697 338 672 373T606 408Q583 408 561 400T520 378T491 348T480 314V102Q480 78 481 65T485 44T496 34T517 30L563 27V-3Q525 -2 505 -2T473 -1T454 0T438 0Q429 0 422 0T404 0T371 -1T313 -3V27L359
30Q372 31 379 33T390 43T395 64T396 102V281Q396 338 371 373T305 408Q282 408 260 400T219 378T190 348T179 314V102Q179 78 180 65T184 44T195 34T216 30L258 27V-3Q234 -2 216 -2T185 -1T160 0T139 0Q128 0 121 0T101 0T69 -1T12 -3V27L58 30Q71 31 78 33T89
43T94 64T95 102V327Q95 352 94 366T88 388T75 398T51 400H14V428Z" />
<glyph unicode="n" glyph-name="n" horiz-adv-x="581" d="M414 281Q414 339 384 373T303 408Q280 408 258 400T217 378T188 348T176 314V102Q176 78 177 65T181 44T192 34T213 30L258 27V-3Q232 -2 214 -2T182 -1T156 0T134 0Q123 0 112 0T87 0T54 -1T10 -3V27L55
30Q68 31 75 33T86 43T91 64T92 102V327Q92 352 91 366T85 388T72 398T48 400H11V428Q89 437 167 469L176 465V378L252 444Q268 458 285 463T331 469Q498 469 498 295V102Q498 78 499 64T503 43T514 33T535 30L576 27V-3Q550 -2 536 -2T514 -1T502 0T493 0Q487
0 482 0T470 0T450 -1T414 -3V281Z" />
<glyph unicode="o" glyph-name="o" horiz-adv-x="499" d="M256 469Q307 469 350 452T425 404T473 331T491 237Q491 181 472 134T417 52T334 -1T227 -20Q179 -20 139 -3T70 45T25 120T9 217Q9 273 27 319T77 399T155 450T256 469ZM238 436Q172 436 137 389T102
251Q102 198 114 154T147 79T199 30T266 13Q327 13 362 63T398 200Q398 251 386 294T353 368T302 418T238 436Z" />
<glyph unicode="p" glyph-name="p" horiz-adv-x="556" d="M9 428Q87 437 165 469L174 465V369Q207 425 254 451T353 477Q391 477 426 463T490 423T535 358T553 271Q554 263 554 257T555 242Q555 197 538 150T488 65T410 3T307 -21Q245 -21 174 13V-176Q174 -200
175 -213T179 -234T190 -244T211 -248L257 -251V-281Q219 -280 199 -280T167 -279T148 -278T132 -278Q123 -278 116 -278T98 -278T65 -279T7 -281V-251L53 -248Q66 -247 73 -245T84 -235T89 -214T90 -176V327Q90 352 89 366T83 388T70 398T46 400H9V428ZM312 404Q278
404 252 393T209 367T183 335T174 306V98Q203 67 235 53T309 39Q343 39 371 53T421 94T454 156T466 234Q466 312 425 358T312 404Z" />
<glyph unicode="q" glyph-name="q" horiz-adv-x="556" d="M547 400H510Q495 400 486 398T473 389T467 367T466 327V-176Q466 -200 467 -213T471 -234T482 -244T503 -248L549 -251V-281Q511 -280 491 -280T459 -279T440 -278T424 -278Q415 -278 408 -278T390 -278T357
-279T299 -281V-251L345 -248Q358 -247 365 -245T376 -235T381 -214T382 -176V13Q311 -21 249 -21Q192 -21 147 3T69 65T19 150T1 242Q1 250 1 256T3 271Q4 320 21 358T66 422T129 463T203 477Q254 477 301 451T382 369V465L391 469Q469 437 547 428V400ZM244 404Q173
404 132 358T90 234Q90 192 102 157T135 95T184 54T247 39Q289 39 321 53T382 98V306Q382 318 373 334T347 366T304 393T244 404Z" />
<glyph unicode="r" glyph-name="r" horiz-adv-x="362" d="M8 428Q86 437 164 469L173 465V362L229 428Q245 447 267 458T312 469Q326 469 338 466T359 458L350 338H329Q306 384 262 384Q244 384 228 375T199 351T180 316T173 274V102Q173 77 174 63T179 42T193
33T220 30L272 27V-3Q226 -2 201 -2T162 -1T142 0T129 0Q120 0 110 0T85 0T52 -1T6 -3V27L52 30Q65 31 72 33T83 43T88 64T89 102V327Q89 352 88 366T82 388T69 398T45 400H8V428Z" />
<glyph unicode="s" glyph-name="s" horiz-adv-x="379" d="M52 143V102Q52 64 87 41T177 17Q231 17 264 42T298 109Q298 141 282 155T237 178T169 193T86 221Q18 252 18 324Q18 392 67 430T205 469Q236 469 265 464T335 444Q333 421 332 398T330 331H302V354Q302
372 293 387T268 413T231 430T184 436Q138 436 113 416T88 358Q88 326 109 310T161 284T230 269T298 251T351 215T372 148Q372 111 356 81T309 28T238 -7T148 -20Q113 -20 82 -15T11 4Q14 19 16 33T19 62T21 97T22 143H52Z" />
<glyph unicode="t" glyph-name="t" horiz-adv-x="297" d="M0 378V399L78 434V504Q78 527 77 543T74 583Q97 591 119 600T159 621L171 610Q165 562 163 531T160 468V430L297 436L288 382H160V120Q160 83 173 67T215 51Q229 51 242 55T274 70L287 53L239 0Q234 -5
219 -8T186 -12Q128 -12 102 13T76 94V382L0 378Z" />
<glyph unicode="u" glyph-name="u" horiz-adv-x="575" d="M270 49Q303 49 328 61T370 92T397 130T406 164V327Q406 352 405 366T399 388T386 398T362 400H325V428Q403 437 481 469L490 465V102Q490 78 491 64T495 43T506 33T527 30L568 27V-3Q542 -2 528 -2T506
-1T494 0T485 0Q479 0 475 0T463 0T441 -1T402 -3Q403 15 404 27T405 50T406 69T406 89L339 27Q297 -12 227 -12Q176 -12 148 2T106 40T89 95T86 159V327Q86 352 85 366T79 388T66 398T42 400H5V428Q83 437 161 469L170 465V170Q170 113 190 81T270 49Z" />
<glyph unicode="v" glyph-name="v" horiz-adv-x="535" d="M503 429Q488 427 476 412T447 362L288 -7H238L66 396Q58 415 52 421T35 429L1 431V459Q38 457 70 457T117 456Q124 456 129 456T146 456T177 457T234 459V431L185 429Q160 427 160 410Q160 393 169 372L288
84Q302 115 318 153T350 227T376 291T392 330Q411 377 411 403Q411 427 387 429L346 431V459Q391 457 409 457T440 456Q452 456 470 456T534 459V431L503 429Z" />
<glyph unicode="w" glyph-name="w" horiz-adv-x="810" d="M434 469Q440 449 446 432T463 388L578 98L683 398Q683 427 644 429L610 431V459Q641 458 658 458T684 457T697 456T708 456Q714 456 718 456T732 456T758 457T806 459V431L780 429Q772 428 765 424T751
410T736 384T716 342L579 -7H533L397 335L247 -7H200L98 329Q89 358 82 377T67 407T51 423T32 429L4 431V459Q41 458 61 458T93 457T109 456T123 456Q130 456 136 456T153 456T184 457T242 459V431L202 429Q164 427 164 405Q164 403 170 381T186 326T207 255T228
184T244 129T252 104L411 469H434Z" />
<glyph unicode="x" glyph-name="x" horiz-adv-x="494" d="M426 54Q442 32 461 30L486 27V-3Q466 -2 456 -2T439 -1T431 0T424 0Q421 0 418 0T410 0T393 -1T363 -3L230 192L96 0H10V27H27Q35 27 43 31T57 42L206 218L86 392Q78 403 64 411T36 421L15 423L10 449L126
469Q139 456 147 447T163 430T175 415T186 400L262 284L386 459H468V431H454Q429 431 420 420L278 254L426 54Z" />
<glyph unicode="y" glyph-name="y" horiz-adv-x="540" d="M412 378Q418 393 418 404Q418 426 376 429L350 431V459Q380 458 396 458T421 457T434 456T445 456Q451 456 455 456T469 456T494 457T540 459V431L512 429Q503 428 494 422T476 402T455 365T428 308L225
-160Q196 -226 162 -254T77 -283Q51 -283 23 -268L47 -193H60Q86 -216 111 -216Q140 -216 168 -182T220 -85L243 -24Q236 -5 231 10T219 40T205 74T187 118L78 380Q67 406 56 416T26 429L8 431V459Q44 458 64 458T95 457T111 456T124 456Q131 456 136 456T153 456T184
457T240 459V431L202 429Q168 428 168 406Q168 392 178 364L242 196Q249 178 254 164T266 137T278 112T293 86L412 378Z" />
<glyph unicode="z" glyph-name="z" horiz-adv-x="473" d="M135 35H270Q342 35 375 40T412 60L430 139H460L454 92Q449 56 447 35T445 -3L169 0Q153 0 142 0T115 0T78 -1T16 -3L10 17L100 122L270 334Q290 360 304 379T335 424H192Q164 424 146 423T118 419T102
411T96 398L84 330H54Q56 356 57 372T60 402T61 429T63 462L311 459Q325 459 338 459T368 459T403 460T449 462V432L135 35Z" />
<glyph unicode="{" glyph-name="braceleft" horiz-adv-x="231" d="M231 -175Q189 -175 160 -169T112 -146T85 -98T76 -17V151Q76 178 74 198T63 232T40 256T0 273Q46 287 61 315T76 392V578Q76 625 86 654T116 699T164 720T231 726Q182 712 165 681T148 595V409Q148
381 145 359T134 321T109 293T67 274V272Q94 265 110 253T134 223T145 182T148 128V-45Q148 -99 165 -131T231 -175Z" />
<glyph unicode="|" glyph-name="bar" horiz-adv-x="97" d="M17 -172V713H76V-172H17Z" />
<glyph unicode="}" glyph-name="braceright" horiz-adv-x="231" d="M231 273Q206 266 191 256T168 232T158 198T155 151V-17Q155 -67 147 -97T120 -145T72 -169T0 -175Q48 -164 65 -132T83 -45V128Q83 158 85 181T96 222T121 252T164 272V274Q138 281 122 292T98
320T86 359T83 409V595Q83 649 66 680T0 726Q37 726 66 721T115 699T145 654T155 578V392Q155 368 158 349T169 316T193 291T231 273Z" />
<glyph unicode="~" glyph-name="asciitilde" horiz-adv-x="517" d="M147 329Q174 329 205 318T268 293T326 268T373 257Q431 257 478 341L512 314Q480 255 446 228T374 201Q349 201 319 212T258 236T199 261T148 272Q118 272 95 253T42 182L8 209Q45 274 77 301T147 329Z" />
<glyph unicode="&#xa0;" glyph-name="space" horiz-adv-x="249" />
<glyph unicode="&#xa1;" glyph-name="exclamdown" horiz-adv-x="136" d="M13 -225V-200Q13 -168 17 -134T25 -57L49 221V246L77 269L87 264Q87 254 87 249T89 224L115 -81Q117 -102 118 -125T122 -187L47 -225H13ZM70 469Q93 469 111 451T129 410Q129 387 111
370T69 353Q47 353 30 370T13 411Q13 434 30 451T70 469Z" />
<glyph unicode="&#xa2;" glyph-name="cent" horiz-adv-x="388" d="M181 58Q204 46 223 41T266 36Q292 36 317 42T379 64L388 53L368 20Q330 2 297 -6T223 -14Q206 -14 193 -13T161 -9L133 -101H92L124 3Q92 19 74 34T40 74Q21 102 11 139T1 222Q1 365 103 416L183
456Q197 463 216 466T265 470L292 562H332L305 470Q344 469 385 444Q379 407 377 378T374 314H346L337 380Q327 391 317 397T287 411L181 58ZM249 419Q230 422 223 423T210 424Q153 424 122 379T90 251Q90 206 98 175T117 125T137 96T148 84L249 419Z" />
<glyph unicode="&#xa3;" glyph-name="sterling" horiz-adv-x="482" d="M328 647Q284 647 256 630T212 583T189 518T182 443V354L364 360L360 312Q324 313 301 314T259 315T222 316T179 317Q175 252 153 194T85 69Q113 73 144 74T218 76Q228 76 255 75T311 73T366
70T398 69Q412 69 418 76T427 106L434 158H460V10Q444 -3 435 -6T410 -10Q371 -10 342 -8T289 -2T242 7T195 16T140 25T69 32L24 -13H2V36Q14 48 23 53T40 62T53 70T64 86Q71 101 77 123T88 171T95 227T98 286V316L2 313L10 358Q26 358 36 358T55 357T73 357T98
355V461Q98 557 197 629Q245 663 286 678T370 694Q401 694 421 689T468 668Q463 642 461 616T458 566Q458 560 458 552T459 532H426Q426 555 424 576T411 612T382 637T328 647Z" />
<glyph unicode="&#xa4;" glyph-name="currency" horiz-adv-x="468" d="M109 483Q163 524 234 524Q270 524 300 514T359 483L407 531L454 484L405 435Q428 409 437 381T447 313Q447 275 438 247T405 190L454 141L409 96L361 144Q333 121 304 112T234 102Q194 102
165 111T107 144L59 96L14 141L63 190Q40 219 31 247T21 313Q21 352 30 380T63 435L14 484L61 531L109 483ZM237 465Q204 465 176 453T126 421T93 373T80 314Q80 282 92 254T125 206T174 173T234 161Q266 161 294 173T343 205T376 253T388 313Q388 344 376 371T343
420T295 453T237 465Z" />
<glyph unicode="&#xa5;" glyph-name="yen" horiz-adv-x="496" d="M493 679Q460 633 426 572T363 450L331 382H453V343H314Q308 329 303 313T297 278V246H453V207H297V120Q297 90 298 73T304 46T317 34T341 30L382 27V-3Q348 -1 318 -1T257 0Q190 0 139 -3V27L180
30Q195 31 204 34T217 47T223 73T224 120V207H68V246H224V262Q224 268 223 277T218 293L197 343H68V382H179L104 542Q96 558 88 577T68 612T42 640T10 651Q8 651 6 651T2 650V679L94 700Q98 701 104 701Q119 701 129 691T147 667T160 635T172 602L276 341L346 504Q367
552 386 599T423 694H493V679V679Z" />
<glyph unicode="&#xa6;" glyph-name="brokenbar" horiz-adv-x="87" d="M17 344V713H76V344H17ZM17 -172V197H76V-172H17Z" />
<glyph unicode="&#xa7;" glyph-name="section" horiz-adv-x="454" d="M91 534Q91 498 117 476T183 439T269 410T354 378T420 330T447 253Q447 208 425 173T369 111Q402 95 415 67T429 4Q429 -36 409 -76T354 -147T276 -199T186 -219Q144 -219 101 -207T26 -175Q31
-133 33 -95T38 -18H70L75 -108Q103 -140 136 -153T220 -167Q248 -167 274 -160T321 -137T353 -100T366 -46Q366 -5 340 19T273 59T187 89T101 122T35 169T8 245Q8 285 32 322T91 382Q65 399 49 426T33 485Q33 528 51 568T100 640T172 690T260 709Q295 709 329
702T398 673Q393 643 390 602T385 521H354L349 608Q321 634 292 645T226 657Q199 657 175 649T132 625T102 587T91 534ZM381 212Q381 251 355 274T290 313T204 340T117 369Q95 350 85 329T74 279Q74 256 89 238T128 206T182 181T243 159T300 141T347 123Q362 146
371 168T381 212Z" />
<glyph unicode="&#xa8;" glyph-name="dieresis" horiz-adv-x="327" d="M65 637Q87 637 100 623T114 587Q114 564 101 551T64 537Q41 537 28 550T14 587Q14 610 28 623T65 637ZM264 637Q286 637 299 623T313 587Q313 564 300 551T263 537Q240 537 227 550T213 587Q213
610 227 623T264 637Z" />
<glyph unicode="&#xa9;" glyph-name="copyright" horiz-adv-x="887" d="M879 271Q879 181 845 102T751 -36T612 -129T443 -164Q353 -164 274 -130T136 -36T43 102T8 271Q8 360 42 439T136 577T274 670T443 705Q533 705 612 671T750 577T844 439T879 271ZM831 271Q831
350 800 420T716 543T593 626T443 657Q363 657 293 627T170 544T87 421T56 271Q56 191 86 121T170 -2T293 -85T443 -116Q522 -116 592 -86T716 -3T800 120T831 271ZM644 105L633 71Q616 57 595 47T551 31T503 22T458 19Q403 19 356 36T273 86T218 165T198 268Q198
328 219 373T277 447T363 492T469 507Q557 507 637 476L639 472Q633 443 631 413T628 353L625 350H605L602 352Q601 423 566 450T460 478Q416 478 383 464T328 424T296 363T285 286Q285 238 296 196T332 123T394 74T484 56Q526 56 565 69T633 116L644 105Z" />
<glyph unicode="&#xaa;" glyph-name="ordfeminine" horiz-adv-x="299" d="M295 426Q293 426 287 426T273 427T258 428T246 429L219 428Q212 427 208 427T202 427L196 426L199 477L118 425Q107 423 101 423T86 422Q51 422 30 441T9 493Q9 533 39 556T135 590L199
600Q198 641 178 659T111 677Q98 677 91 676T79 672T71 662T61 645L52 626L35 630V669L70 689Q105 709 146 709Q183 709 204 699T235 674T248 642T251 608V590V488Q251 459 255 452T275 444H295V426ZM199 581Q125 572 95 555T65 503Q65 483 79 470T115 456Q129
456 148 464T178 482L199 502V581Z" />
<glyph unicode="&#xab;" glyph-name="guillemotleft" horiz-adv-x="416" d="M201 86L178 71L2 242V254L178 428L201 415L82 248L201 86ZM402 86L379 71L203 242V254L379 428L402 415L283 248L402 86Z" />
<glyph unicode="&#xac;" glyph-name="logicalnot" horiz-adv-x="560" d="M486 88V299H0V360H543V88H486Z" />
<glyph unicode="&#xae;" glyph-name="registered" horiz-adv-x="887" d="M879 271Q879 181 845 102T751 -36T612 -129T443 -164Q353 -164 274 -130T136 -36T43 102T8 271Q8 360 42 439T136 577T274 670T443 705Q533 705 612 671T750 577T844 439T879 271ZM831
271Q831 350 800 420T716 543T593 626T443 657Q363 657 293 627T170 544T87 421T56 271Q56 191 86 121T170 -2T293 -85T443 -116Q522 -116 592 -86T716 -3T800 120T831 271ZM697 36Q683 38 670 39T642 40Q627 40 612 39T582 36L384 273L391 282Q416 282 441 284T486
297T518 325T531 376Q531 421 504 441T435 462Q402 462 367 454V216Q367 208 367 194T366 163Q366 148 367 133T370 105T376 83T388 70Q394 68 409 67T431 64L435 61V40L431 36Q405 38 379 39T326 40Q300 40 274 39T221 36L217 40V61L221 64Q245 67 258 69T277
84T284 122T285 198V328Q285 336 285 349T286 378Q286 391 285 404T282 430T276 450T265 462Q258 464 244 465T221 468L217 472V492L221 496Q247 494 273 493T326 492Q367 492 407 494T488 496Q512 496 536 491T579 474T609 443T621 394Q621 367 611 346T583 310T543
285T497 269L638 101Q652 84 663 75T697 64L701 61V40L697 36Z" />
<glyph unicode="&#xb0;" glyph-name="degree" horiz-adv-x="316" d="M157 689Q188 689 216 677T264 645T296 596T308 537Q308 507 296 480T264 433T216 401T158 389Q127 389 100 401T52 433T20 480T8 539Q8 570 19 597T51 645T99 677T157 689ZM157 649Q134 649
115 641T80 617T57 582T48 539Q48 516 56 496T80 461T115 438T158 429Q180 429 200 437T235 461T259 495T268 537Q268 560 259 580T235 616T200 640T157 649Z" />
<glyph unicode="&#xb1;" glyph-name="plusminus" horiz-adv-x="539" d="M299 279V87H240V279H0V338H240V541H299V338H539V279H299ZM0 0V55H539V0H0Z" />
<glyph unicode="&#xb2;" glyph-name="uni00B2" horiz-adv-x="295" d="M285 301Q285 285 285 281T287 271Q229 272 197 272T146 273Q138 273 131 273T109 273T72 273T9 271V291L112 399Q162 451 183 487T204 556Q204 592 183 613T123 634Q94 634 78 623T55 588L46
558H22L33 643Q56 666 80 676T139 686Q198 686 231 656T265 573Q265 556 262 541T249 510T225 475T188 433L84 325Q126 326 151 326T196 328T236 329T287 331Q286 326 286 321T285 301Z" />
<glyph unicode="&#xb3;" glyph-name="uni00B3" horiz-adv-x="289" d="M29 377Q31 372 35 358T51 330T82 304T132 292Q173 292 197 318T221 388Q221 427 201 448T145 470Q133 470 122 468T94 457L87 463L95 499Q107 498 114 498T126 497Q156 497 178 520T200 575Q200
601 181 620T133 640Q110 640 88 628T61 602L49 567H24L42 645Q66 668 88 677T142 686Q193 686 224 661T256 596Q256 570 242 548T195 499Q283 481 283 408Q283 380 269 354T230 307T176 274T113 261Q96 261 77 264T29 277Q27 300 22 320T7 369L29 377V377Z" />
<glyph unicode="&#xb5;" glyph-name="uni00B5" horiz-adv-x="492" d="M383 196Q383 176 383 151T384 105T392 69T411 54Q431 54 447 67T478 92Q487 89 492 81V74Q481 62 465 47T430 18T391 -5T353 -15Q329 -15 322 3T314 44Q314 61 316 76T319 101L309 104Q297
85 281 65T246 27T204 -1T156 -12Q129 -12 105 -1T66 36Q64 15 64 -4T64 -43Q64 -111 75 -164T119 -261L112 -273Q82 -284 45 -286Q27 -254 21 -220T14 -146Q14 -94 17 -43T25 60T33 169T37 290Q37 338 34 380T23 453Q42 456 61 459T100 467Q103 448 104 430T105
393Q105 347 101 302T97 211Q97 181 100 151T112 97T140 58T188 42Q234 42 261 65T302 125T320 212T324 314Q324 353 323 388T318 445L326 456Q343 458 359 462T391 473L400 463Q396 446 393 416T388 349T384 273T383 196Z" />
<glyph unicode="&#xb6;" glyph-name="paragraph" horiz-adv-x="559" d="M552 -150Q516 -149 466 -148T350 -147Q282 -147 232 -148T148 -150V-120L190 -117Q205 -116 215 -113T232 -101T240 -75T243 -27V345Q207 345 165 357T86 394T26 456T2 542Q2 572 13 599T47
648T104 681T186 694H204Q248 692 291 691T379 689Q424 689 467 690T552 694V664L520 661Q502 659 490 656T471 643T460 618T457 574V-27Q457 -57 459 -74T468 -101T485 -113T510 -117L552 -120V-150ZM243 655Q239 656 229 656Q211 656 191 649T153 626T124 585T113
522Q113 494 123 471T152 429T193 399T243 382V655ZM384 655H316V-120H384V655Z" />
<glyph unicode="&#xb7;" glyph-name="periodcentered" horiz-adv-x="132" d="M65 319Q88 319 106 301T124 260Q124 237 106 220T64 203Q42 203 25 220T8 261Q8 284 25 301T65 319Z" />
<glyph unicode="&#xb8;" glyph-name="cedilla" horiz-adv-x="213" d="M89 -10H123L98 -75Q111 -71 125 -71Q164 -71 187 -90T210 -141Q210 -180 177 -202T86 -225Q66 -225 50 -222T2 -209L16 -178Q41 -185 54 -187T81 -189Q135 -189 135 -146Q135 -129 124 -118T95
-107Q85 -107 77 -108T54 -114L47 -108L89 -10Z" />
<glyph unicode="&#xb9;" glyph-name="uni00B9" horiz-adv-x="224" d="M1 631Q46 647 77 660T141 689L153 685V333Q153 311 159 305T189 297L223 295V271Q208 271 199 271T184 272T175 272T167 272Q150 273 140 273T125 273Q120 273 90 273T23 271V295L60 297Q83
298 89 304T96 333V619Q96 631 94 635L16 600H6L1 631Z" />
<glyph unicode="&#xba;" glyph-name="ordmasculine" horiz-adv-x="330" d="M172 709Q205 709 232 699T280 669T311 624T322 567Q322 535 309 508T274 460T221 428T156 416Q90 416 50 455T9 558Q9 591 21 619T54 667T106 698T172 709ZM158 689Q115 689 92 661T69
579Q69 516 97 476T172 436Q213 436 237 467T262 551Q262 580 254 605T232 649T199 678T158 689Z" />
<glyph unicode="&#xbb;" glyph-name="guillemotright" horiz-adv-x="416" d="M334 248L215 415L238 428L414 254V242L238 71L215 86L334 248ZM133 248L14 415L37 428L213 254V242L37 71L14 86L133 248Z" />
<glyph unicode="&#xbc;" glyph-name="onequarter" horiz-adv-x="709" d="M396 107L391 122Q394 129 396 134T402 144T408 155T418 172L576 400L625 416L634 413Q632 386 632 364T630 320T629 278T629 230V153H648Q650 153 653 153T660 152Q671 152 701 155V104Q694
105 688 105T674 106T656 107T631 107V71Q631 22 675 22H696V-3Q663 -1 642 -1T596 0Q576 0 553 0T489 -3V22H510Q543 22 556 32T569 71V107H396ZM569 345L440 153H569V345ZM130 0L581 689H633L182 0H130ZM242 273Q234 273 217 273T182 274T149 275T130 276Q126
276 112 276T81 275T48 274T24 273V299H60Q73 299 81 302T95 314T101 338T103 379V617Q103 628 102 631T98 636H95L15 602H8L4 634L165 692L175 689Q173 655 172 628T169 578T168 532T167 485V379Q167 353 168 338T174 314T187 302T209 299H242V273Z" />
<glyph unicode="&#xbd;" glyph-name="onehalf" horiz-adv-x="731" d="M112 0L563 689H615L164 0H112ZM243 273Q235 273 218 273T183 274T150 275T131 276Q127 276 113 276T82 275T49 274T25 273V299H61Q74 299 82 302T96 314T102 338T104 379V617Q104 628 103
631T99 636H96L16 602H9L5 634L166 692L176 689Q174 655 173 628T170 578T169 532T168 485V379Q168 353 169 338T175 314T188 302T210 299H243V273ZM451 371Q475 394 500 403T562 413Q625 413 662 383T700 301Q700 266 682 233T624 162L509 53H631Q659 53 679 54T725
58Q723 46 723 39T723 25Q723 17 723 12T725 -3Q654 -2 619 -1T568 0Q559 0 553 0T533 0T494 -1T424 -3V17L532 121Q587 174 609 210T632 281Q632 321 610 342T547 364Q494 364 476 317L463 282H439L451 371Z" />
<glyph unicode="&#xbe;" glyph-name="threequarters" horiz-adv-x="733" d="M50 649Q73 671 97 680T154 689Q209 689 242 665T275 600Q275 574 259 552T203 501Q256 493 279 472T303 410Q303 381 289 355T251 309T195 278T127 266Q105 266 84 269T31 282Q29 304
21 328T5 376L36 384Q52 337 76 318T142 298Q185 298 211 323T237 391Q237 471 152 471Q137 471 126 468T103 458L93 462L103 505Q109 505 114 505T121 504H135Q151 504 165 510T191 526T208 551T215 580Q215 606 194 624T141 643Q109 643 87 626T56 578H31L50
649ZM155 0L606 689H658L207 0H155ZM420 107L415 122Q418 129 420 134T426 144T432 155T442 172L600 400L649 416L658 413Q656 386 656 364T654 320T653 278T653 230V153H672Q679 152 690 152T725 155V104Q718 105 712 105T698 106T680 107T655 107V71Q655 22 699
22H720V-3Q687 -1 666 -1T620 0Q600 0 577 0T513 -3V22H534Q567 22 580 32T593 71V107H420ZM593 345L464 153H593V345Z" />
<glyph unicode="&#xbf;" glyph-name="questiondown" horiz-adv-x="355" d="M248 209Q248 175 224 144T171 81T118 16T94 -56Q94 -104 128 -134T217 -165Q250 -165 273 -154T304 -123L324 -75L353 -83L315 -196Q275 -216 246 -223T182 -231Q143 -231 110 -219T53
-187T15 -138T1 -77Q1 -56 6 -37T23 1T57 44T111 96Q141 123 159 141T188 173T201 197T205 220Q205 232 200 242T183 268L204 282Q248 254 248 209ZM199 469Q222 469 240 451T258 410Q258 387 240 370T198 353Q176 353 159 370T142 411Q142 434 159 451T199 469Z"
/>
<glyph unicode="&#xc0;" glyph-name="Agrave" horiz-adv-x="742" d="M636 132Q649 102 658 83T675 52T690 36T708 30L742 27V-3Q701 -2 679 -2T645 -1T628 0T615 0Q609 0 604 0T586 0T548 -1T476 -3V27L523 30Q542 32 553 37T564 50Q564 57 560 69T543 114L497
229H209L181 162Q165 124 156 95T146 56Q146 44 157 38T194 30L231 27V-3Q190 -2 168 -2T135 -1T120 0T110 0Q104 0 100 0T85 0T55 -1T1 -3V27L38 30Q73 33 92 79L323 605L362 700H394L636 132ZM479 269L353 567L226 269H479ZM272 827Q247 843 240 851T232 874Q232
888 241 898T263 908Q285 908 318 875L456 737H416L272 827Z" />
<glyph unicode="&#xc1;" glyph-name="Aacute" horiz-adv-x="742" d="M635 132Q648 102 657 83T674 52T689 36T707 30L741 27V-3Q700 -2 678 -2T644 -1T627 0T614 0Q608 0 603 0T585 0T547 -1T475 -3V27L522 30Q541 32 552 37T563 50Q563 57 559 69T542 114L496
229H208L180 162Q164 124 155 95T145 56Q145 44 156 38T193 30L230 27V-3Q189 -2 167 -2T134 -1T119 0T109 0Q103 0 99 0T84 0T54 -1T0 -3V27L37 30Q72 33 91 79L322 605L361 700H393L635 132ZM478 269L352 567L225 269H478ZM430 875Q463 908 485 908Q498 908 507
898T516 874Q516 860 509 852T476 827L332 737H292L430 875Z" />
<glyph unicode="&#xc2;" glyph-name="Acircumflex" horiz-adv-x="743" d="M636 132Q649 102 658 83T675 52T690 36T708 30L742 27V-3Q701 -2 679 -2T645 -1T628 0T615 0Q609 0 604 0T586 0T548 -1T476 -3V27L523 30Q542 32 553 37T564 50Q564 57 560 69T543 114L497
229H209L181 162Q165 124 156 95T146 56Q146 44 157 38T194 30L231 27V-3Q190 -2 168 -2T135 -1T120 0T110 0Q104 0 100 0T85 0T55 -1T1 -3V27L38 30Q73 33 92 79L323 605L362 700H394L636 132ZM479 269L353 567L226 269H479ZM407 908L532 741H497L376 844L255
741H220L345 908H407Z" />
<glyph unicode="&#xc3;" glyph-name="Atilde" horiz-adv-x="741" d="M635 132Q648 102 657 83T674 52T689 36T707 30L741 27V-3Q700 -2 678 -2T644 -1T627 0T614 0Q608 0 603 0T585 0T547 -1T475 -3V27L522 30Q541 32 552 37T563 50Q563 57 559 69T542 114L496
229H208L180 162Q164 124 155 95T145 56Q145 44 156 38T193 30L230 27V-3Q189 -2 167 -2T134 -1T119 0T109 0Q103 0 99 0T84 0T54 -1T0 -3V27L37 30Q72 33 91 79L322 605L361 700H393L635 132ZM478 269L352 567L225 269H478ZM316 866Q336 866 354 859T390 844T422
828T452 821Q473 821 486 832T511 871H540Q538 849 529 830T506 797T472 774T431 766Q411 766 392 773T356 788T322 804T292 811Q258 811 239 766H210Q232 866 316 866Z" />
<glyph unicode="&#xc4;" glyph-name="Adieresis" horiz-adv-x="741" d="M635 132Q648 102 657 83T674 52T689 36T707 30L741 27V-3Q700 -2 678 -2T644 -1T627 0T614 0Q608 0 603 0T585 0T547 -1T475 -3V27L522 30Q541 32 552 37T563 50Q563 57 559 69T542 114L496
229H208L180 162Q164 124 155 95T145 56Q145 44 156 38T193 30L230 27V-3Q189 -2 167 -2T134 -1T119 0T109 0Q103 0 99 0T84 0T54 -1T0 -3V27L37 30Q72 33 91 79L322 605L361 700H393L635 132ZM478 269L352 567L225 269H478ZM276 868Q298 868 311 854T325 818Q325
795 312 782T275 768Q252 768 239 781T225 818Q225 841 239 854T276 868ZM475 868Q497 868 510 854T524 818Q524 795 511 782T474 768Q451 768 438 781T424 818Q424 841 438 854T475 868Z" />
<glyph unicode="&#xc5;" glyph-name="Aring" horiz-adv-x="743" d="M636 132Q649 102 658 83T675 52T690 36T708 30L742 27V-3Q701 -2 679 -2T645 -1T628 0T615 0Q609 0 604 0T586 0T548 -1T476 -3V27L523 30Q542 32 553 37T564 50Q564 57 560 69T543 114L497
229H209L181 162Q165 124 156 95T146 56Q146 44 157 38T194 30L231 27V-3Q190 -2 168 -2T135 -1T120 0T110 0Q104 0 100 0T85 0T55 -1T1 -3V27L38 30Q73 33 92 79L323 605L362 700H394L636 132ZM479 269L353 567L226 269H479ZM378 943Q398 943 415 935T446 914T468
882T476 843Q476 822 468 804T447 772T415 751T376 743Q355 743 337 751T305 772T284 804T276 844Q276 865 284 883T305 914T338 935T378 943ZM377 907Q348 907 331 890T314 844Q314 814 330 797T376 779Q404 779 421 796T438 843Q438 872 421 889T377 907Z" />
<glyph unicode="&#xc6;" glyph-name="AE" horiz-adv-x="935" d="M36 32Q57 35 88 87L377 599Q396 632 396 646Q396 651 385 654T342 659L298 662V692L555 689Q561 689 569 689T597 689T650 690T741 692H781Q798 692 812 692T840 692T870 691T904 689Q888 625 888
537H853V602Q853 619 849 625T826 636Q802 643 763 646T681 650Q655 650 638 650T609 649T586 647T564 642V375Q590 373 616 373T674 372Q724 372 748 374T786 383Q793 396 794 409L799 461H829Q828 423 828 403T827 372T826 356T826 345Q826 338 826 333T826 318T827
288T829 234H799L794 293L786 318Q779 321 770 323T748 327T715 329T667 330Q633 330 609 330T564 327V47Q575 45 584 44T605 41T629 40T663 39Q731 39 781 42T847 51Q857 55 864 71T876 107T883 144T885 164H920Q912 125 908 85T904 0Q853 -1 825 -1T780 -2T756
-3T736 -3Q725 -3 696 -3T624 -1L489 0L420 -3V20L448 36Q462 44 468 62T474 120V242Q444 243 424 243T389 244T366 245T351 245Q345 245 340 245T324 245T291 244T230 242L166 128Q157 112 152 102T143 84T139 71T138 59Q138 35 191 30L227 27V-3Q198 -2 182 -2T157
-1T142 0T129 0Q124 0 120 0T103 0T68 -1T2 -3V27L36 32ZM254 283H474V655H462L254 283Z" />
<glyph unicode="&#xc7;" glyph-name="Ccedilla" horiz-adv-x="654" d="M2 342Q2 431 35 499T125 614T256 685T413 709Q468 709 524 699T644 668Q639 643 636 624T630 586T626 552T625 516H594V588Q594 603 577 617T531 642T468 660T395 667Q330 667 278 645T188
583T130 487T109 361Q109 287 132 227T198 124T301 58T434 34Q548 34 641 94L650 84L622 34Q518 -20 396 -20H381L360 -75Q373 -71 387 -71Q426 -71 449 -90T472 -141Q472 -180 439 -202T348 -225Q328 -225 312 -222T264 -209L278 -178Q303 -185 316 -187T343 -189Q397
-189 397 -146Q397 -129 386 -118T357 -107Q347 -107 339 -108T316 -114L309 -108L348 -18Q266 -9 202 20T94 95T26 204T2 342Z" />
<glyph unicode="&#xc8;" glyph-name="Egrave" horiz-adv-x="554" d="M369 -3Q343 -3 310 -3T244 -2T183 -1T137 0Q116 0 90 -1T14 -3V27L50 30Q68 31 78 34T93 47T99 73T101 120V569Q101 599 100 616T93 642T77 655T50 659L2 662V692Q39 691 66 691T115 690T151
689T180 689Q197 689 222 689T278 690T343 691T412 692Q445 692 472 692T536 689Q520 625 520 537H485V602Q485 619 481 625T458 636Q434 643 395 646T313 650Q287 650 270 650T241 649T218 647T196 642V375Q222 373 248 373T306 372Q356 372 380 374T418 383Q425
396 426 409L431 461H461Q460 423 460 403T459 372T458 356T458 345Q458 338 458 333T458 318T459 288T461 234H431L426 293L418 318Q411 321 402 323T380 327T347 329T299 330Q265 330 241 330T196 327V47Q207 45 216 44T237 41T261 40T295 39Q363 39 413 42T479
51Q489 55 496 71T508 107T515 144T517 164H552Q544 125 540 85T536 0Q485 -1 457 -1T413 -2T389 -3T369 -3ZM182 827Q157 843 150 851T142 874Q142 888 151 898T173 908Q195 908 228 875L366 737H326L182 827Z" />
<glyph unicode="&#xc9;" glyph-name="Eacute" horiz-adv-x="557" d="M368 -3Q342 -3 309 -3T243 -2T182 -1T136 0Q115 0 89 -1T13 -3V27L49 30Q67 31 77 34T92 47T98 73T100 120V569Q100 599 99 616T92 642T76 655T49 659L1 662V692Q38 691 65 691T114 690T150
689T179 689Q196 689 221 689T277 690T342 691T411 692Q444 692 471 692T535 689Q519 625 519 537H484V602Q484 619 480 625T457 636Q433 643 394 646T312 650Q286 650 269 650T240 649T217 647T195 642V375Q221 373 247 373T305 372Q355 372 379 374T417 383Q424
396 425 409L430 461H460Q459 423 459 403T458 372T457 356T457 345Q457 338 457 333T457 318T458 288T460 234H430L425 293L417 318Q410 321 401 323T379 327T346 329T298 330Q264 330 240 330T195 327V47Q206 45 215 44T236 41T260 40T294 39Q362 39 412 42T478
51Q488 55 495 71T507 107T514 144T516 164H551Q543 125 539 85T535 0Q484 -1 456 -1T412 -2T388 -3T368 -3ZM341 875Q374 908 396 908Q409 908 418 898T427 874Q427 860 420 852T387 827L243 737H203L341 875Z" />
<glyph unicode="&#xca;" glyph-name="Ecircumflex" horiz-adv-x="557" d="M369 -3Q343 -3 310 -3T244 -2T183 -1T137 0Q116 0 90 -1T14 -3V27L50 30Q68 31 78 34T93 47T99 73T101 120V569Q101 599 100 616T93 642T77 655T50 659L2 662V692Q39 691 66 691T115 690T151
689T180 689Q197 689 222 689T278 690T343 691T412 692Q445 692 472 692T536 689Q520 625 520 537H485V602Q485 619 481 625T458 636Q434 643 395 646T313 650Q287 650 270 650T241 649T218 647T196 642V375Q222 373 248 373T306 372Q356 372 380 374T418 383Q425
396 426 409L431 461H461Q460 423 460 403T459 372T458 356T458 345Q458 338 458 333T458 318T459 288T461 234H431L426 293L418 318Q411 321 402 323T380 327T347 329T299 330Q265 330 241 330T196 327V47Q207 45 216 44T237 41T261 40T295 39Q363 39 413 42T479
51Q489 55 496 71T508 107T515 144T517 164H552Q544 125 540 85T536 0Q485 -1 457 -1T413 -2T389 -3T369 -3ZM318 908L443 741H408L287 844L166 741H131L256 908H318Z" />
<glyph unicode="&#xcb;" glyph-name="Edieresis" horiz-adv-x="556" d="M369 -3Q343 -3 310 -3T244 -2T183 -1T137 0Q116 0 90 -1T14 -3V27L50 30Q68 31 78 34T93 47T99 73T101 120V569Q101 599 100 616T93 642T77 655T50 659L2 662V692Q39 691 66 691T115 690T151
689T180 689Q197 689 222 689T278 690T343 691T412 692Q445 692 472 692T536 689Q520 625 520 537H485V602Q485 619 481 625T458 636Q434 643 395 646T313 650Q287 650 270 650T241 649T218 647T196 642V375Q222 373 248 373T306 372Q356 372 380 374T418 383Q425
396 426 409L431 461H461Q460 423 460 403T459 372T458 356T458 345Q458 338 458 333T458 318T459 288T461 234H431L426 293L418 318Q411 321 402 323T380 327T347 329T299 330Q265 330 241 330T196 327V47Q207 45 216 44T237 41T261 40T295 39Q363 39 413 42T479
51Q489 55 496 71T508 107T515 144T517 164H552Q544 125 540 85T536 0Q485 -1 457 -1T413 -2T389 -3T369 -3ZM187 868Q209 868 222 854T236 818Q236 795 223 782T186 768Q163 768 150 781T136 818Q136 841 150 854T187 868ZM386 868Q408 868 421 854T435 818Q435
795 422 782T385 768Q362 768 349 781T335 818Q335 841 349 854T386 868Z" />
<glyph unicode="&#xcc;" glyph-name="Igrave" horiz-adv-x="296" d="M197 120Q197 90 198 73T205 47T220 34T248 30L296 27V-3Q252 -2 220 -1T149 0Q110 0 79 -1T3 -3V27L51 30Q68 31 78 34T93 46T100 73T102 120V569Q102 599 101 616T94 642T78 655T51 659L3
662V692Q30 691 49 691T84 690T115 689T149 689Q168 689 183 689T214 689T249 690T296 692V662L248 659Q231 658 221 655T205 643T199 616T197 569V120ZM46 827Q21 843 14 851T6 874Q6 888 15 898T37 908Q59 908 92 875L230 737H190L46 827Z" />
<glyph unicode="&#xcd;" glyph-name="Iacute" horiz-adv-x="295" d="M194 120Q194 90 195 73T202 47T217 34T245 30L293 27V-3Q249 -2 217 -1T146 0Q107 0 76 -1T0 -3V27L48 30Q65 31 75 34T90 46T97 73T99 120V569Q99 599 98 616T91 642T75 655T48 659L0 662V692Q27
691 46 691T81 690T112 689T146 689Q165 689 180 689T211 689T246 690T293 692V662L245 659Q228 658 218 655T202 643T196 616T194 569V120ZM196 875Q229 908 251 908Q264 908 273 898T282 874Q282 860 275 852T242 827L98 737H58L196 875Z" />
<glyph unicode="&#xce;" glyph-name="Icircumflex" horiz-adv-x="315" d="M205 120Q205 90 206 73T213 47T228 34T256 30L304 27V-3Q260 -2 228 -1T157 0Q118 0 87 -1T11 -3V27L59 30Q76 31 86 34T101 46T108 73T110 120V569Q110 599 109 616T102 642T86 655T59
659L11 662V692Q38 691 57 691T92 690T123 689T157 689Q176 689 191 689T222 689T257 690T304 692V662L256 659Q239 658 229 655T213 643T207 616T205 569V120ZM189 908L314 741H279L158 844L37 741H2L127 908H189Z" />
<glyph unicode="&#xcf;" glyph-name="Idieresis" horiz-adv-x="301" d="M198 120Q198 90 199 73T206 47T221 34T249 30L297 27V-3Q253 -2 221 -1T150 0Q111 0 80 -1T4 -3V27L52 30Q69 31 79 34T94 46T101 73T103 120V569Q103 599 102 616T95 642T79 655T52 659L4
662V692Q31 691 50 691T85 690T116 689T150 689Q169 689 184 689T215 689T250 690T297 692V662L249 659Q232 658 222 655T206 643T200 616T198 569V120ZM52 868Q74 868 87 854T101 818Q101 795 88 782T51 768Q28 768 15 781T1 818Q1 841 15 854T52 868ZM251 868Q273
868 286 854T300 818Q300 795 287 782T250 768Q227 768 214 781T200 818Q200 841 214 854T251 868Z" />
<glyph unicode="&#xd0;" glyph-name="Eth" horiz-adv-x="755" d="M345 -3Q333 -3 312 -3T267 -2T222 -1T188 0Q180 0 175 0T156 0T119 -1T52 -3V20L83 36Q95 42 101 57T108 95V346H9V382H108V569Q108 598 107 615T100 642T84 654T57 659L17 662V692Q80 691 115
691T169 690T197 689T219 689Q249 689 293 689T386 692H399Q477 692 541 670T650 608T721 512T746 388Q746 340 735 293T704 203T655 125T591 65Q493 -3 345 -3ZM203 382H387V346H203V49Q223 44 247 43T305 41Q349 41 382 44T443 55T492 75T538 107Q639 193 639
362Q639 529 544 600Q509 625 450 638T314 652Q276 652 250 650T203 644V382Z" />
<glyph unicode="&#xd1;" glyph-name="Ntilde" horiz-adv-x="803" d="M178 692L659 98V569Q659 598 658 615T651 642T635 654T608 659L564 662V692Q601 691 621 691T653 690T669 689T680 689Q686 689 690 689T706 689T739 690T800 692V662L756 659Q739 658 729
655T713 642T707 616T705 569V17Q705 9 706 -3T708 -20L618 -4L145 583V120Q145 91 146 74T153 47T168 35T196 30L240 27V-3Q201 -2 179 -2T146 -1T131 0T120 0Q114 0 109 0T93 0T62 -1T4 -3V27L48 30Q65 31 75 34T90 47T97 73T99 120V569Q99 598 98 615T91 642T75
654T48 659L4 662V692Q25 691 38 691T64 690T89 690T124 689L178 692ZM345 866Q365 866 383 859T419 844T451 828T481 821Q502 821 515 832T540 871H569Q567 849 558 830T535 797T501 774T460 766Q440 766 421 773T385 788T351 804T321 811Q287 811 268 766H239Q261
866 345 866Z" />
<glyph unicode="&#xd2;" glyph-name="Ograve" horiz-adv-x="750" d="M385 709Q468 709 535 685T649 617T721 509T747 367Q747 284 717 214T634 91T509 10T353 -20Q277 -20 214 7T104 82T31 196T5 341Q5 423 32 491T109 607T229 682T385 709ZM368 667Q244 667 178
593T112 378Q112 298 132 232T189 120T278 48T393 22Q510 22 575 105T640 337Q640 415 622 476T568 580T483 644T368 667ZM273 827Q248 843 241 851T233 874Q233 888 242 898T264 908Q286 908 319 875L457 737H417L273 827Z" />
<glyph unicode="&#xd3;" glyph-name="Oacute" horiz-adv-x="750" d="M383 709Q466 709 533 685T647 617T719 509T745 367Q745 284 715 214T632 91T507 10T351 -20Q275 -20 212 7T102 82T29 196T3 341Q3 423 30 491T107 607T227 682T383 709ZM366 667Q242 667 176
593T110 378Q110 298 130 232T187 120T276 48T391 22Q508 22 573 105T638 337Q638 415 620 476T566 580T481 644T366 667ZM430 875Q463 908 485 908Q498 908 507 898T516 874Q516 860 509 852T476 827L332 737H292L430 875Z" />
<glyph unicode="&#xd4;" glyph-name="Ocircumflex" horiz-adv-x="751" d="M385 709Q468 709 535 685T649 617T721 509T747 367Q747 284 717 214T634 91T509 10T353 -20Q277 -20 214 7T104 82T31 196T5 341Q5 423 32 491T109 607T229 682T385 709ZM368 667Q244
667 178 593T112 378Q112 298 132 232T189 120T278 48T393 22Q510 22 575 105T640 337Q640 415 622 476T568 580T483 644T368 667ZM408 908L533 741H498L377 844L256 741H221L346 908H408Z" />
<glyph unicode="&#xd5;" glyph-name="Otilde" horiz-adv-x="752" d="M385 709Q468 709 535 685T649 617T721 509T747 367Q747 284 717 214T634 91T509 10T353 -20Q277 -20 214 7T104 82T31 196T5 341Q5 423 32 491T109 607T229 682T385 709ZM368 667Q244 667 178
593T112 378Q112 298 132 232T189 120T278 48T393 22Q510 22 575 105T640 337Q640 415 622 476T568 580T483 644T368 667ZM318 866Q338 866 356 859T392 844T424 828T454 821Q475 821 488 832T513 871H542Q540 849 531 830T508 797T474 774T433 766Q413 766 394
773T358 788T324 804T294 811Q260 811 241 766H212Q234 866 318 866Z" />
<glyph unicode="&#xd6;" glyph-name="Odieresis" horiz-adv-x="752" d="M385 709Q468 709 535 685T649 617T721 509T747 367Q747 284 717 214T634 91T509 10T353 -20Q277 -20 214 7T104 82T31 196T5 341Q5 423 32 491T109 607T229 682T385 709ZM368 667Q244 667
178 593T112 378Q112 298 132 232T189 120T278 48T393 22Q510 22 575 105T640 337Q640 415 622 476T568 580T483 644T368 667ZM278 868Q300 868 313 854T327 818Q327 795 314 782T277 768Q254 768 241 781T227 818Q227 841 241 854T278 868ZM477 868Q499 868 512
854T526 818Q526 795 513 782T476 768Q453 768 440 781T426 818Q426 841 440 854T477 868Z" />
<glyph unicode="&#xd7;" glyph-name="multiply" horiz-adv-x="578" d="M522 -5L289 229L55 -5L13 37L247 271L13 505L55 547L289 313L522 547L565 505L330 271L565 37L522 -5Z" />
<glyph unicode="&#xd8;" glyph-name="Oslash" horiz-adv-x="786" d="M375 -20Q321 -20 280 -9T209 16T162 44T134 67L43 -18L10 11L104 99Q97 108 84 127T57 175T35 246T25 342Q25 425 52 492T129 608T248 682T404 709Q461 709 504 699T579 675T629 647T659 626L745
709L777 679L689 596Q730 543 748 491T767 370Q767 287 737 216T655 92T531 10T375 -20ZM199 131Q244 73 293 48T411 22Q530 22 595 105T660 340Q660 370 658 395T652 442T640 486T621 531L199 131ZM596 570Q592 574 578 590T538 623T474 653T383 667Q262 667 197
591T132 375Q132 313 142 265T176 167L596 570Z" />
<glyph unicode="&#xd9;" glyph-name="Ugrave" horiz-adv-x="751" d="M368 -20Q302 -20 252 -8T169 32T118 104T101 214V569Q101 599 100 616T93 642T77 655T50 659L2 662V692Q29 691 48 691T83 690T114 689T148 689Q167 689 182 689T213 689T248 690T295 692V662L247
659Q230 658 220 655T204 643T198 616T196 569V225Q196 128 243 85T395 42Q504 42 556 92T608 249V569Q608 598 607 615T600 642T584 654T557 659L513 662V692Q550 691 570 691T602 690T618 689T629 689Q635 689 639 689T655 689T688 690T749 692V662L705 659Q688
658 678 655T662 642T656 616T654 569V280Q654 192 636 135T581 43T492 -6T368 -20ZM300 827Q275 843 268 851T260 874Q260 888 269 898T291 908Q313 908 346 875L484 737H444L300 827Z" />
<glyph unicode="&#xda;" glyph-name="Uacute" horiz-adv-x="751" d="M367 -20Q301 -20 251 -8T168 32T117 104T100 214V569Q100 599 99 616T92 642T76 655T49 659L1 662V692Q28 691 47 691T82 690T113 689T147 689Q166 689 181 689T212 689T247 690T294 692V662L246
659Q229 658 219 655T203 643T197 616T195 569V225Q195 128 242 85T394 42Q503 42 555 92T607 249V569Q607 598 606 615T599 642T583 654T556 659L512 662V692Q549 691 569 691T601 690T617 689T628 689Q634 689 638 689T654 689T687 690T748 692V662L704 659Q687
658 677 655T661 642T655 616T653 569V280Q653 192 635 135T580 43T491 -6T367 -20ZM455 875Q488 908 510 908Q523 908 532 898T541 874Q541 860 534 852T501 827L357 737H317L455 875Z" />
<glyph unicode="&#xdb;" glyph-name="Ucircumflex" horiz-adv-x="752" d="M368 -20Q302 -20 252 -8T169 32T118 104T101 214V569Q101 599 100 616T93 642T77 655T50 659L2 662V692Q29 691 48 691T83 690T114 689T148 689Q167 689 182 689T213 689T248 690T295
692V662L247 659Q230 658 220 655T204 643T198 616T196 569V225Q196 128 243 85T395 42Q504 42 556 92T608 249V569Q608 598 607 615T600 642T584 654T557 659L513 662V692Q550 691 570 691T602 690T618 689T629 689Q635 689 639 689T655 689T688 690T749 692V662L705
659Q688 658 678 655T662 642T656 616T654 569V280Q654 192 636 135T581 43T492 -6T368 -20ZM436 908L561 741H526L405 844L284 741H249L374 908H436Z" />
<glyph unicode="&#xdc;" glyph-name="Udieresis" horiz-adv-x="752" d="M368 -20Q302 -20 252 -8T169 32T118 104T101 214V569Q101 599 100 616T93 642T77 655T50 659L2 662V692Q29 691 48 691T83 690T114 689T148 689Q167 689 182 689T213 689T248 690T295 692V662L247
659Q230 658 220 655T204 643T198 616T196 569V225Q196 128 243 85T395 42Q504 42 556 92T608 249V569Q608 598 607 615T600 642T584 654T557 659L513 662V692Q550 691 570 691T602 690T618 689T629 689Q635 689 639 689T655 689T688 690T749 692V662L705 659Q688
658 678 655T662 642T656 616T654 569V280Q654 192 636 135T581 43T492 -6T368 -20ZM295 868Q317 868 330 854T344 818Q344 795 331 782T294 768Q271 768 258 781T244 818Q244 841 258 854T295 868ZM494 868Q516 868 529 854T543 818Q543 795 530 782T493 768Q470
768 457 781T443 818Q443 841 457 854T494 868Z" />
<glyph unicode="&#xdd;" glyph-name="Yacute" horiz-adv-x="645" d="M115 704Q116 704 117 704T119 705H120H121Q135 705 161 675T211 602L354 341L457 504Q472 527 485 549T511 594T537 641T565 694H645V679Q615 643 592 615T549 558T507 499T457 426Q435 393
421 369T399 325T388 288T385 249V120Q385 90 386 73T393 47T408 34T436 30L484 27V-3Q440 -2 408 -1T337 0Q298 0 267 -1T191 -3V27L239 30Q256 31 266 34T281 46T288 73T290 120V262Q290 287 281 302L157 518Q125 573 90 608T29 648L0 651V680L115 704ZM405 875Q438
908 460 908Q473 908 482 898T491 874Q491 860 484 852T451 827L307 737H267L405 875Z" />
<glyph unicode="&#xde;" glyph-name="Thorn" horiz-adv-x="549" d="M201 120Q201 90 202 73T209 47T224 34T252 30L300 27V-3Q256 -2 224 -1T153 0Q114 0 83 -1T7 -3V27L55 30Q72 31 82 34T97 46T104 73T106 120V569Q106 599 105 616T98 642T82 655T55 659L7 662V692Q34
691 53 691T88 690T119 689T153 689Q172 689 187 689T218 689T253 690T300 692V662L252 659Q235 658 225 655T209 643T203 616T201 569V542Q214 540 222 540T247 540Q264 540 286 540T328 541H346Q440 541 494 500T549 387Q549 343 532 305T485 238T415 193T329
176Q313 176 298 177T271 182L260 219Q293 210 322 210Q349 210 372 221T412 253T439 299T449 357Q449 500 279 500Q256 500 239 498T201 491V120Z" />
<glyph unicode="&#xdf;" glyph-name="germandbls" horiz-adv-x="509" d="M308 371Q308 351 322 337T357 310T403 285T449 256T485 217T499 163Q499 132 489 103T462 62L404 18Q369 -9 325 -9Q278 -9 232 11V-3Q196 -2 175 -2T143 -1T126 0T117 0L3 -3V27L39 30Q52
31 59 33T70 43T75 64T76 102V385H7V399L76 434V500Q76 540 97 581T154 655T234 710T325 731Q358 731 386 721T434 691T465 646T476 587Q476 544 466 498T432 391Q409 404 394 409T361 414Q337 414 323 403T308 371ZM409 461Q412 473 416 498T420 543Q420 609 385
647T289 686Q254 686 230 674T190 636T167 568T160 466V107Q160 62 170 45T206 27H234L255 112H282V66Q302 48 317 41T353 34Q388 34 411 55T434 110Q434 145 413 170T341 222Q313 237 295 248T267 272T252 297T248 327Q248 363 267 383L306 426Q338 461 409 461Z"
/>
<glyph unicode="&#xe0;" glyph-name="agrave" horiz-adv-x="446" d="M174 -4Q169 -8 158 -10T132 -12Q72 -12 39 20T6 111Q6 176 51 213T199 270L298 288Q296 357 265 386T162 416Q145 416 134 414T114 407T100 391T85 362L72 331L46 338V403L99 435Q155 469 220
469Q263 469 293 459T342 425T369 363T378 270V87Q378 50 383 40T406 29L445 27V-3Q379 0 371 0Q366 0 363 0T352 0T331 -1T293 -3L298 82L174 -4ZM298 256Q241 248 201 238T142 216Q119 202 106 178T92 125Q92 109 98 95T114 69T138 52T167 45Q182 45 200 51T236
69T270 94T298 124V256ZM128 596Q103 612 96 620T88 643Q88 657 97 667T119 677Q141 677 174 644L312 506H272L128 596Z" />
<glyph unicode="&#xe1;" glyph-name="aacute" horiz-adv-x="443" d="M169 -4Q164 -8 153 -10T127 -12Q67 -12 34 20T1 111Q1 176 46 213T194 270L293 288Q291 357 260 386T157 416Q140 416 129 414T109 407T95 391T80 362L67 331L41 338V403L94 435Q150 469 215
469Q258 469 288 459T337 425T364 363T373 270V87Q373 50 378 40T401 29L440 27V-3Q374 0 366 0Q361 0 358 0T347 0T326 -1T288 -3L293 82L169 -4ZM293 256Q236 248 196 238T137 216Q114 202 101 178T87 125Q87 109 93 95T109 69T133 52T162 45Q177 45 195 51T231
69T265 94T293 124V256ZM269 644Q302 677 324 677Q337 677 346 667T355 643Q355 629 348 621T315 596L171 506H131L269 644Z" />
<glyph unicode="&#xe2;" glyph-name="acircumflex" horiz-adv-x="446" d="M173 -4Q168 -8 157 -10T131 -12Q71 -12 38 20T5 111Q5 176 50 213T198 270L297 288Q295 357 264 386T161 416Q144 416 133 414T113 407T99 391T84 362L71 331L45 338V403L98 435Q154 469
219 469Q262 469 292 459T341 425T368 363T377 270V87Q377 50 382 40T405 29L444 27V-3Q378 0 370 0Q365 0 362 0T351 0T330 -1T292 -3L297 82L173 -4ZM297 256Q240 248 200 238T141 216Q118 202 105 178T91 125Q91 109 97 95T113 69T137 52T166 45Q181 45 199
51T235 69T269 94T297 124V256ZM242 677L367 510H332L211 613L90 510H55L180 677H242Z" />
<glyph unicode="&#xe3;" glyph-name="atilde" horiz-adv-x="451" d="M176 -4Q171 -8 160 -10T134 -12Q74 -12 41 20T8 111Q8 176 53 213T201 270L300 288Q298 357 267 386T164 416Q147 416 136 414T116 407T102 391T87 362L74 331L48 338V403L101 435Q157 469
222 469Q265 469 295 459T344 425T371 363T380 270V87Q380 50 385 40T408 29L447 27V-3Q381 0 373 0Q368 0 365 0T354 0T333 -1T295 -3L300 82L176 -4ZM300 256Q243 248 203 238T144 216Q121 202 108 178T94 125Q94 109 100 95T116 69T140 52T169 45Q184 45 202
51T238 69T272 94T300 124V256ZM161 635Q181 635 199 628T235 613T267 597T297 590Q318 590 331 601T356 640H385Q383 618 374 599T351 566T317 543T276 535Q256 535 237 542T201 557T167 573T137 580Q103 580 84 535H55Q77 635 161 635Z" />
<glyph unicode="&#xe4;" glyph-name="adieresis" horiz-adv-x="450" d="M176 -4Q171 -8 160 -10T134 -12Q74 -12 41 20T8 111Q8 176 53 213T201 270L300 288Q298 357 267 386T164 416Q147 416 136 414T116 407T102 391T87 362L74 331L48 338V403L101 435Q157 469
222 469Q265 469 295 459T344 425T371 363T380 270V87Q380 50 385 40T408 29L447 27V-3Q381 0 373 0Q368 0 365 0T354 0T333 -1T295 -3L300 82L176 -4ZM300 256Q243 248 203 238T144 216Q121 202 108 178T94 125Q94 109 100 95T116 69T140 52T169 45Q184 45 202
51T238 69T272 94T300 124V256ZM119 637Q141 637 154 623T168 587Q168 564 155 551T118 537Q95 537 82 550T68 587Q68 610 82 623T119 637ZM318 637Q340 637 353 623T367 587Q367 564 354 551T317 537Q294 537 281 550T267 587Q267 610 281 623T318 637Z" />
<glyph unicode="&#xe5;" glyph-name="aring" horiz-adv-x="445" d="M172 -4Q167 -8 156 -10T130 -12Q70 -12 37 20T4 111Q4 176 49 213T197 270L296 288Q294 357 263 386T160 416Q143 416 132 414T112 407T98 391T83 362L70 331L44 338V403L97 435Q153 469 218
469Q261 469 291 459T340 425T367 363T376 270V87Q376 50 381 40T404 29L443 27V-3Q377 0 369 0Q364 0 361 0T350 0T329 -1T291 -3L296 82L172 -4ZM296 256Q239 248 199 238T140 216Q117 202 104 178T90 125Q90 109 96 95T112 69T136 52T165 45Q180 45 198 51T234
69T268 94T296 124V256ZM224 712Q244 712 261 704T292 683T314 651T322 612Q322 591 314 573T293 541T261 520T222 512Q201 512 183 520T151 541T130 573T122 613Q122 634 130 652T151 683T184 704T224 712ZM223 676Q194 676 177 659T160 613Q160 583 176 566T222
548Q250 548 267 565T284 612Q284 641 267 658T223 676Z" />
<glyph unicode="&#xe6;" glyph-name="ae" horiz-adv-x="724" d="M526 469Q552 469 584 461T645 431T693 372T713 278Q713 269 713 262T711 244Q685 240 663 237T620 233T578 231T530 230H384Q385 208 386 192T391 161T399 135T411 111Q433 73 471 53T560 33Q576
33 590 35T619 42T651 57T691 80L705 70L685 36Q682 31 666 22T626 3T574 -13T517 -20Q475 -20 436 -7T369 33Q356 44 347 55T325 89L202 -7Q194 -13 180 -16T147 -20Q84 -20 48 14T11 107Q11 173 52 205Q63 213 83 221T130 237T186 250T249 259L305 265Q303 308
297 331T278 374Q264 394 241 405T192 416Q179 416 165 414T138 408T115 399T101 389Q96 383 89 367T76 331L50 337V399L148 452Q179 469 219 469Q268 469 302 453T365 398Q389 418 409 431T448 453T486 465T526 469ZM305 233Q276 230 246 226T190 215T144 201T115
181Q97 155 97 122Q97 86 119 66T181 45Q216 45 244 61T305 117V233ZM630 267Q630 306 625 329T607 377Q575 436 520 436Q489 436 461 422T416 385Q401 364 395 339T386 270Q406 268 422 267T452 265T480 264T513 264Q540 264 564 264T630 267Z" />
<glyph unicode="&#xe7;" glyph-name="ccedilla" horiz-adv-x="396" d="M223 -75Q236 -71 250 -71Q289 -71 312 -90T335 -141Q335 -180 302 -202T211 -225Q191 -225 175 -222T127 -209L141 -178Q166 -185 179 -187T206 -189Q260 -189 260 -146Q260 -129 249 -118T220
-107Q210 -107 202 -108T179 -114L172 -108L210 -19Q163 -15 125 3T59 51T16 121T1 210Q1 276 28 327T108 412Q198 469 272 469Q303 469 330 461T388 434Q374 378 374 311H346L339 372Q325 391 294 404T229 417Q161 417 125 374T89 250Q89 200 102 160T139 92T197
48T273 32Q300 32 325 39T378 61L388 46L367 14Q362 9 349 3T318 -8T280 -16T244 -20L223 -75Z" />
<glyph unicode="&#xe8;" glyph-name="egrave" horiz-adv-x="429" d="M230 -20Q197 -20 158 -10T85 26T29 99T6 219Q6 297 32 347T121 432Q184 469 242 469Q284 469 318 456T377 417T414 357T428 279Q428 270 428 263T426 244Q400 240 378 237T335 233T293 231T245
230H99Q100 186 106 161T127 111Q148 74 186 54T274 33Q290 33 303 35T331 42T362 56T404 80L417 70L397 36Q394 31 379 22T340 4T288 -13T230 -20ZM339 267Q338 292 336 310T330 344T321 371T307 396Q280 436 230 436Q194 436 164 417T118 365Q108 345 105 325T101
270Q121 268 137 267T167 265T195 264T227 264Q254 264 277 264T339 267ZM124 596Q99 612 92 620T84 643Q84 657 93 667T115 677Q137 677 170 644L308 506H268L124 596Z" />
<glyph unicode="&#xe9;" glyph-name="eacute" horiz-adv-x="428" d="M226 -20Q193 -20 154 -10T81 26T25 99T2 219Q2 297 28 347T117 432Q180 469 238 469Q280 469 314 456T373 417T410 357T424 279Q424 270 424 263T422 244Q396 240 374 237T331 233T289 231T241
230H95Q96 186 102 161T123 111Q144 74 182 54T270 33Q286 33 299 35T327 42T358 56T400 80L413 70L393 36Q390 31 375 22T336 4T284 -13T226 -20ZM335 267Q334 292 332 310T326 344T317 371T303 396Q276 436 226 436Q190 436 160 417T114 365Q104 345 101 325T97
270Q117 268 133 267T163 265T191 264T223 264Q250 264 273 264T335 267ZM265 644Q298 677 320 677Q333 677 342 667T351 643Q351 629 344 621T311 596L167 506H127L265 644Z" />
<glyph unicode="&#xea;" glyph-name="ecircumflex" horiz-adv-x="431" d="M229 -20Q196 -20 157 -10T84 26T28 99T5 219Q5 297 31 347T120 432Q183 469 241 469Q283 469 317 456T376 417T413 357T427 279Q427 270 427 263T425 244Q399 240 377 237T334 233T292
231T244 230H98Q99 186 105 161T126 111Q147 74 185 54T273 33Q289 33 302 35T330 42T361 56T403 80L416 70L396 36Q393 31 378 22T339 4T287 -13T229 -20ZM338 267Q337 292 335 310T329 344T320 371T306 396Q279 436 229 436Q193 436 163 417T117 365Q107 345
104 325T100 270Q120 268 136 267T166 265T194 264T226 264Q253 264 276 264T338 267ZM250 677L375 510H340L219 613L98 510H63L188 677H250Z" />
<glyph unicode="&#xeb;" glyph-name="edieresis" horiz-adv-x="435" d="M231 -20Q198 -20 159 -10T86 26T30 99T7 219Q7 297 33 347T122 432Q185 469 243 469Q285 469 319 456T378 417T415 357T429 279Q429 270 429 263T427 244Q401 240 379 237T336 233T294 231T246
230H100Q101 186 107 161T128 111Q149 74 187 54T275 33Q291 33 304 35T332 42T363 56T405 80L418 70L398 36Q395 31 380 22T341 4T289 -13T231 -20ZM340 267Q339 292 337 310T331 344T322 371T308 396Q281 436 231 436Q195 436 165 417T119 365Q109 345 106 325T102
270Q122 268 138 267T168 265T196 264T228 264Q255 264 278 264T340 267ZM122 637Q144 637 157 623T171 587Q171 564 158 551T121 537Q98 537 85 550T71 587Q71 610 85 623T122 637ZM321 637Q343 637 356 623T370 587Q370 564 357 551T320 537Q297 537 284 550T270
587Q270 610 284 623T321 637Z" />
<glyph unicode="&#xec;" glyph-name="igrave" horiz-adv-x="267" d="M184 102Q184 78 185 65T189 44T200 34T221 30L267 27V-3Q229 -2 209 -2T177 -1T158 0T142 0Q133 0 126 0T108 0T75 -1T17 -3V27L63 30Q76 31 83 33T94 43T99 64T100 102V327Q100 352 99 366T93
388T80 398T56 400H19V428Q97 437 175 469L184 465V102ZM44 596Q19 612 12 620T4 643Q4 657 13 667T35 677Q57 677 90 644L228 506H188L44 596Z" />
<glyph unicode="&#xed;" glyph-name="iacute" horiz-adv-x="262" d="M167 102Q167 78 168 65T172 44T183 34T204 30L250 27V-3Q212 -2 192 -2T160 -1T141 0T125 0Q116 0 109 0T91 0T58 -1T0 -3V27L46 30Q59 31 66 33T77 43T82 64T83 102V327Q83 352 82 366T76
388T63 398T39 400H2V428Q80 437 158 469L167 465V102ZM172 644Q205 677 227 677Q240 677 249 667T258 643Q258 629 251 621T218 596L74 506H34L172 644Z" />
<glyph unicode="&#xee;" glyph-name="icircumflex" horiz-adv-x="314" d="M201 102Q201 78 202 65T206 44T217 34T238 30L284 27V-3Q246 -2 226 -2T194 -1T175 0T159 0Q150 0 143 0T125 0T92 -1T34 -3V27L80 30Q93 31 100 33T111 43T116 64T117 102V327Q117 352
116 366T110 388T97 398T73 400H36V428Q114 437 192 469L201 465V102ZM188 677L313 510H278L157 613L36 510H1L126 677H188Z" />
<glyph unicode="&#xef;" glyph-name="idieresis" horiz-adv-x="307" d="M198 102Q198 78 199 65T203 44T214 34T235 30L281 27V-3Q243 -2 223 -2T191 -1T172 0T156 0Q147 0 140 0T122 0T89 -1T31 -3V27L77 30Q90 31 97 33T108 43T113 64T114 102V327Q114 352 113
366T107 388T94 398T70 400H33V428Q111 437 189 469L198 465V102ZM55 657Q77 657 90 643T104 607Q104 584 91 571T54 557Q31 557 18 570T4 607Q4 630 18 643T55 657ZM254 657Q276 657 289 643T303 607Q303 584 290 571T253 557Q230 557 217 570T203 607Q203 630
217 643T254 657Z" />
<glyph unicode="&#xf0;" glyph-name="eth" horiz-adv-x="483" d="M307 614Q341 580 371 543T425 462T462 370T476 262Q476 199 458 147T406 58T327 1T226 -20Q176 -20 135 -3T65 45T20 120T4 217Q4 272 21 318T71 398T146 450T243 469Q301 469 350 444L352 446Q331
493 307 527T254 588L114 520L96 550L232 616Q209 638 181 656T110 696L144 728Q171 711 190 699T225 677T252 658T277 638L420 708L438 678L307 614ZM388 240Q388 304 371 342T330 402T279 429T233 436Q167 436 132 389T97 252Q97 199 108 156T138 80T185 31T244
13Q285 13 312 35T357 91T381 165T388 240Z" />
<glyph unicode="&#xf1;" glyph-name="ntilde" horiz-adv-x="574" d="M408 281Q408 339 378 373T297 408Q274 408 252 400T211 378T182 348T170 314V102Q170 78 171 65T175 44T186 34T207 30L252 27V-3Q226 -2 208 -2T176 -1T150 0T128 0Q117 0 106 0T81 0T48 -1T4
-3V27L49 30Q62 31 69 33T80 43T85 64T86 102V327Q86 352 85 366T79 388T66 398T42 400H5V428Q83 437 161 469L170 465V378L246 444Q262 458 279 463T325 469Q492 469 492 295V102Q492 78 493 64T497 43T508 33T529 30L570 27V-3Q544 -2 530 -2T508 -1T496 0T487
0Q481 0 476 0T464 0T444 -1T408 -3V281ZM225 635Q245 635 263 628T299 613T331 597T361 590Q382 590 395 601T420 640H449Q447 618 438 599T415 566T381 543T340 535Q320 535 301 542T265 557T231 573T201 580Q167 580 148 535H119Q141 635 225 635Z" />
<glyph unicode="&#xf2;" glyph-name="ograve" horiz-adv-x="490" d="M253 469Q304 469 347 452T422 404T470 331T488 237Q488 181 469 134T414 52T331 -1T224 -20Q176 -20 136 -3T67 45T22 120T6 217Q6 273 24 319T74 399T152 450T253 469ZM235 436Q169 436 134
389T99 251Q99 198 111 154T144 79T196 30T263 13Q324 13 359 63T395 200Q395 251 383 294T350 368T299 418T235 436ZM151 596Q126 612 119 620T111 643Q111 657 120 667T142 677Q164 677 197 644L335 506H295L151 596Z" />
<glyph unicode="&#xf3;" glyph-name="oacute" horiz-adv-x="489" d="M249 469Q300 469 343 452T418 404T466 331T484 237Q484 181 465 134T410 52T327 -1T220 -20Q172 -20 132 -3T63 45T18 120T2 217Q2 273 20 319T70 399T148 450T249 469ZM231 436Q165 436 130
389T95 251Q95 198 107 154T140 79T192 30T259 13Q320 13 355 63T391 200Q391 251 379 294T346 368T295 418T231 436ZM287 644Q320 677 342 677Q355 677 364 667T373 643Q373 629 366 621T333 596L189 506H149L287 644Z" />
<glyph unicode="&#xf4;" glyph-name="ocircumflex" horiz-adv-x="491" d="M252 469Q303 469 346 452T421 404T469 331T487 237Q487 181 468 134T413 52T330 -1T223 -20Q175 -20 135 -3T66 45T21 120T5 217Q5 273 23 319T73 399T151 450T252 469ZM234 436Q168 436
133 389T98 251Q98 198 110 154T143 79T195 30T262 13Q323 13 358 63T394 200Q394 251 382 294T349 368T298 418T234 436ZM271 677L396 510H361L240 613L119 510H84L209 677H271Z" />
<glyph unicode="&#xf5;" glyph-name="otilde" horiz-adv-x="495" d="M254 469Q305 469 348 452T423 404T471 331T489 237Q489 181 470 134T415 52T332 -1T225 -20Q177 -20 137 -3T68 45T23 120T7 217Q7 273 25 319T75 399T153 450T254 469ZM236 436Q170 436 135
389T100 251Q100 198 112 154T145 79T197 30T264 13Q325 13 360 63T396 200Q396 251 384 294T351 368T300 418T236 436ZM184 635Q204 635 222 628T258 613T290 597T320 590Q341 590 354 601T379 640H408Q406 618 397 599T374 566T340 543T299 535Q279 535 260 542T224
557T190 573T160 580Q126 580 107 535H78Q100 635 184 635Z" />
<glyph unicode="&#xf6;" glyph-name="odieresis" horiz-adv-x="495" d="M254 469Q305 469 348 452T423 404T471 331T489 237Q489 181 470 134T415 52T332 -1T225 -20Q177 -20 137 -3T68 45T23 120T7 217Q7 273 25 319T75 399T153 450T254 469ZM236 436Q170 436
135 389T100 251Q100 198 112 154T145 79T197 30T264 13Q325 13 360 63T396 200Q396 251 384 294T351 368T300 418T236 436ZM142 637Q164 637 177 623T191 587Q191 564 178 551T141 537Q118 537 105 550T91 587Q91 610 105 623T142 637ZM341 637Q363 637 376 623T390
587Q390 564 377 551T340 537Q317 537 304 550T290 587Q290 610 304 623T341 637Z" />
<glyph unicode="&#xf7;" glyph-name="divide" horiz-adv-x="504" d="M0 289H504V233H0V289ZM253 512Q276 512 293 494T311 453Q311 430 294 413T252 396Q229 396 212 413T195 454Q195 477 212 494T253 512ZM253 126Q276 126 293 108T311 67Q311 44 294 27T252
10Q229 10 212 27T195 68Q195 91 212 108T253 126Z" />
<glyph unicode="&#xf8;" glyph-name="oslash" horiz-adv-x="531" d="M75 64Q50 102 40 137T29 216Q29 271 47 317T99 398T179 450T280 469Q326 469 360 457T433 414L495 474L522 449L459 388Q488 350 499 316T511 238Q511 182 492 135T437 54T355 0T250 -20Q203
-20 169 -8T98 37L36 -23L8 0L75 64ZM158 95Q184 52 214 33T285 13Q315 13 339 26T381 63T408 121T418 197Q418 229 413 260T396 327L158 95ZM380 362Q331 436 257 436Q192 436 157 389T122 256Q122 222 126 193T142 130L380 362Z" />
<glyph unicode="&#xf9;" glyph-name="ugrave" horiz-adv-x="567" d="M268 49Q301 49 326 61T368 92T395 130T404 164V327Q404 352 403 366T397 388T384 398T360 400H323V428Q401 437 479 469L488 465V102Q488 78 489 64T493 43T504 33T525 30L566 27V-3Q540 -2
526 -2T504 -1T492 0T483 0Q477 0 473 0T461 0T439 -1T400 -3Q401 15 402 27T403 50T404 69T404 89L337 27Q295 -12 225 -12Q174 -12 146 2T104 40T87 95T84 159V327Q84 352 83 366T77 388T64 398T40 400H3V428Q81 437 159 469L168 465V170Q168 145 171 123T185
85T215 59T268 49ZM191 596Q166 612 159 620T151 643Q151 657 160 667T182 677Q204 677 237 644L375 506H335L191 596Z" />
<glyph unicode="&#xfa;" glyph-name="uacute" horiz-adv-x="567" d="M266 49Q299 49 324 61T366 92T393 130T402 164V327Q402 352 401 366T395 388T382 398T358 400H321V428Q399 437 477 469L486 465V102Q486 78 487 64T491 43T502 33T523 30L564 27V-3Q538 -2
524 -2T502 -1T490 0T481 0Q475 0 471 0T459 0T437 -1T398 -3Q399 15 400 27T401 50T402 69T402 89L335 27Q293 -12 223 -12Q172 -12 144 2T102 40T85 95T82 159V327Q82 352 81 366T75 388T62 398T38 400H1V428Q79 437 157 469L166 465V170Q166 145 169 123T183
85T213 59T266 49ZM334 644Q367 677 389 677Q402 677 411 667T420 643Q420 629 413 621T380 596L236 506H196L334 644Z" />
<glyph unicode="&#xfb;" glyph-name="ucircumflex" horiz-adv-x="568" d="M267 49Q300 49 325 61T367 92T394 130T403 164V327Q403 352 402 366T396 388T383 398T359 400H322V428Q400 437 478 469L487 465V102Q487 78 488 64T492 43T503 33T524 30L565 27V-3Q539
-2 525 -2T503 -1T491 0T482 0Q476 0 472 0T460 0T438 -1T399 -3Q400 15 401 27T402 50T403 69T403 89L336 27Q294 -12 224 -12Q173 -12 145 2T103 40T86 95T83 159V327Q83 352 82 366T76 388T63 398T39 400H2V428Q80 437 158 469L167 465V170Q167 145 170 123T184
85T214 59T267 49ZM317 677L442 510H407L286 613L165 510H130L255 677H317Z" />
<glyph unicode="&#xfc;" glyph-name="udieresis" horiz-adv-x="570" d="M268 49Q301 49 326 61T368 92T395 130T404 164V327Q404 352 403 366T397 388T384 398T360 400H323V428Q401 437 479 469L488 465V102Q488 78 489 64T493 43T504 33T525 30L566 27V-3Q540
-2 526 -2T504 -1T492 0T483 0Q477 0 473 0T461 0T439 -1T400 -3Q401 15 402 27T403 50T404 69T404 89L337 27Q295 -12 225 -12Q174 -12 146 2T104 40T87 95T84 159V327Q84 352 83 366T77 388T64 398T40 400H3V428Q81 437 159 469L168 465V170Q168 145 171 123T185
85T215 59T268 49ZM188 637Q210 637 223 623T237 587Q237 564 224 551T187 537Q164 537 151 550T137 587Q137 610 151 623T188 637ZM387 637Q409 637 422 623T436 587Q436 564 423 551T386 537Q363 537 350 550T336 587Q336 610 350 623T387 637Z" />
<glyph unicode="&#xfd;" glyph-name="yacute" horiz-adv-x="532" d="M383 649Q416 682 438 682Q451 682 460 672T469 648Q469 634 462 626T429 601L285 511H245L383 649ZM404 378Q410 393 410 404Q410 426 368 429L342 431V459Q372 458 388 458T413 457T426 456T437
456Q443 456 447 456T461 456T486 457T532 459V431L504 429Q495 428 486 422T468 402T447 365T420 308L217 -160Q188 -226 154 -254T69 -283Q43 -283 15 -268L39 -193H52Q78 -216 103 -216Q132 -216 160 -182T212 -85L235 -24Q228 -5 223 10T211 40T197 74T179
118L70 380Q59 406 48 416T18 429L0 431V459Q36 458 56 458T87 457T103 456T116 456Q123 456 128 456T145 456T176 457T232 459V431L194 429Q160 428 160 406Q160 392 170 364L285 86L404 378Z" />
<glyph unicode="&#xfe;" glyph-name="thorn" horiz-adv-x="553" d="M9 689Q39 693 60 697T100 705T133 715T165 726L174 718V369L229 425Q249 445 282 457T351 469Q393 469 430 453T494 410T537 346T553 267Q553 241 547 213T530 160T505 115T474 82L374 10Q343
-12 292 -12Q260 -12 234 -7T174 13V-176Q174 -200 175 -213T179 -234T190 -244T211 -248L257 -251V-281Q219 -280 199 -280T167 -279T148 -278T132 -278Q123 -278 116 -278T98 -278T65 -279T7 -281V-251L53 -248Q66 -247 73 -245T84 -235T89 -214T90 -176V620Q90
643 85 652T65 661H9V689ZM312 404Q278 404 252 393T209 367T183 335T174 306V98Q204 66 235 53T309 39Q382 39 424 90T466 230Q466 311 425 357T312 404Z" />
<glyph unicode="&#xff;" glyph-name="ydieresis" horiz-adv-x="533" d="M405 378Q411 393 411 404Q411 426 369 429L343 431V459Q373 458 389 458T414 457T427 456T438 456Q444 456 448 456T462 456T487 457T533 459V431L505 429Q496 428 487 422T469 402T448
365T421 308L218 -160Q189 -226 155 -254T70 -283Q44 -283 16 -268L40 -193H53Q79 -216 104 -216Q133 -216 161 -182T213 -85L236 -24Q229 -5 224 10T212 40T198 74T180 118L71 380Q60 406 49 416T19 429L1 431V459Q37 458 57 458T88 457T104 456T117 456Q124 456
129 456T146 456T177 457T233 459V431L195 429Q161 428 161 406Q161 392 171 364L235 196Q242 178 247 164T259 137T271 112T286 86L405 378ZM175 637Q197 637 210 623T224 587Q224 564 211 551T174 537Q151 537 138 550T124 587Q124 610 138 623T175 637ZM374
637Q396 637 409 623T423 587Q423 564 410 551T373 537Q350 537 337 550T323 587Q323 610 337 623T374 637Z" />
<glyph unicode="&#x131;" glyph-name="dotlessi" horiz-adv-x="254" d="M170 102Q170 78 171 65T175 44T186 34T207 30L253 27V-3Q215 -2 195 -2T163 -1T144 0T128 0Q119 0 112 0T94 0T61 -1T3 -3V27L49 30Q62 31 69 33T80 43T85 64T86 102V327Q86 352 85 366T79
388T66 398T42 400H5V428Q83 437 161 469L170 465V102Z" />
<glyph unicode="&#x2c6;" glyph-name="circumflex" horiz-adv-x="318" d="M190 677L315 510H280L159 613L38 510H3L128 677H190Z" />
<glyph unicode="&#x2c7;" glyph-name="caron" horiz-adv-x="316" d="M280 677H314L189 510H127L2 677H37L158 574L280 677Z" />
<glyph unicode="&#x2c9;" glyph-name="uni02C9" horiz-adv-x="347" d="M17 538V591H329V538H17Z" />
<glyph unicode="&#x2d8;" glyph-name="breve" horiz-adv-x="293" d="M147 596Q170 596 188 604T220 627T243 659T255 699H281L285 695Q283 661 274 632T248 581T206 547T147 534Q82 534 46 579T8 695L12 699H38Q45 657 72 627T147 596Z" />
<glyph unicode="&#x2d9;" glyph-name="dotaccent" horiz-adv-x="126" d="M117 622Q117 599 102 584T63 568Q40 568 25 583T9 622Q9 644 25 660T63 676Q86 676 101 661T117 622Z" />
<glyph unicode="&#x2da;" glyph-name="ring" horiz-adv-x="212" d="M106 717Q125 717 143 710T174 691T195 662T203 626Q203 606 195 590T174 561T143 542T106 535Q65 535 37 560T8 626Q8 645 16 661T37 690T68 710T106 717ZM106 557Q132 557 147 577T162 626Q162
653 147 674T106 695Q80 695 65 675T49 626Q49 598 64 578T106 557Z" />
<glyph unicode="&#x2db;" glyph-name="ogonek" horiz-adv-x="213" d="M87 -188Q53 -188 30 -165T7 -106Q7 -60 90 0H124Q63 -54 63 -92Q63 -139 113 -139Q150 -139 195 -102L213 -125Q142 -188 87 -188Z" />
<glyph unicode="&#x2dc;" glyph-name="tilde" horiz-adv-x="357" d="M9 575Q13 593 22 612T44 646T75 670T114 680Q144 680 194 655Q220 643 237 637T264 630Q300 630 320 682H345L348 679Q344 659 335 640T313 606T281 581T242 571Q216 571 163 596Q113 621 94
621Q55 621 36 572H12L9 575V575Z" />
<glyph unicode="&#x300;" glyph-name="gravecomb" horiz-adv-x="224" d="M40 596Q15 612 8 620T0 643Q0 657 9 667T31 677Q53 677 86 644L224 506H184L40 596Z" />
<glyph unicode="&#x301;" glyph-name="acutecomb" horiz-adv-x="224" d="M138 644Q171 677 193 677Q206 677 215 667T224 643Q224 629 217 621T184 596L40 506H0L138 644Z" />
<glyph unicode="&#x302;" glyph-name="uni0302" horiz-adv-x="318" d="M190 677L315 510H280L159 613L38 510H3L128 677H190Z" />
<glyph unicode="&#x303;" glyph-name="tildecomb" horiz-adv-x="349" d="M115 635Q135 635 153 628T189 613T221 597T251 590Q272 590 285 601T310 640H339Q337 618 328 599T305 566T271 543T230 535Q210 535 191 542T155 557T121 573T91 580Q57 580 38 535H9Q31
635 115 635Z" />
<glyph unicode="&#x304;" glyph-name="uni0304" horiz-adv-x="347" d="M17 538V591H329V538H17Z" />
<glyph unicode="&#x305;" glyph-name="uni0305" horiz-adv-x="468" d="M17 542V587H450V542H17Z" />
<glyph unicode="&#x306;" glyph-name="uni0306" horiz-adv-x="298" d="M290 664Q288 613 273 582T236 534T192 512T149 506Q129 506 106 512T61 535T25 583T8 664H38Q40 621 71 594T149 566Q196 566 227 593T260 664H290V664Z" />
<glyph unicode="&#x307;" glyph-name="uni0307" horiz-adv-x="119" d="M60 637Q82 637 95 623T109 587Q109 564 96 551T59 537Q36 537 23 550T9 587Q9 610 23 623T60 637Z" />
<glyph unicode="&#x308;" glyph-name="uni0308" horiz-adv-x="329" d="M65 637Q87 637 100 623T114 587Q114 564 101 551T64 537Q41 537 28 550T14 587Q14 610 28 623T65 637ZM266 637Q288 637 301 623T315 587Q315 564 302 551T265 537Q242 537 229 550T215 587Q215
610 229 623T266 637Z" />
<glyph unicode="&#x30a;" glyph-name="uni030A" horiz-adv-x="216" d="M208 618Q208 576 179 547T108 518Q66 518 37 547T8 618Q8 660 37 689T108 718Q150 718 179 689T208 618ZM170 618Q170 647 153 664T108 682Q80 682 63 665T46 618Q46 589 63 572T108 554Q136
554 153 571T170 618Z" />
<glyph unicode="&#x30c;" glyph-name="uni030C" horiz-adv-x="316" d="M280 677H314L189 510H127L2 677H37L158 574L280 677Z" />
<glyph unicode="&#x332;" glyph-name="uni0332" horiz-adv-x="468" d="M17 -175V-130H450V-175H17Z" />
<glyph unicode="&#x333;" glyph-name="uni0333" horiz-adv-x="452" d="M17 -283V-238H450V-283H17ZM17 -175V-130H450V-175H17Z" />
<glyph unicode="&#x338;" glyph-name="uni0338" horiz-adv-x="408" d="M56 -169H0L351 714H408L56 -169Z" />
<glyph unicode="&#x33f;" glyph-name="uni033F" horiz-adv-x="452" d="M17 650V695H450V650H17ZM17 542V587H450V542H17Z" />
<glyph unicode="&#x342;" glyph-name="uni0342" horiz-adv-x="305" d="M8 668Q65 727 115 727Q137 727 176 712Q215 698 234 698Q258 698 292 729L301 717Q245 660 205 660Q184 660 150 675Q115 690 94 690Q59 690 19 653L8 668Z" />
<glyph unicode="&#x37e;" glyph-name="uni037E" horiz-adv-x="202" d="M202 111Q191 82 179 55T149 -1T108 -62T55 -134L14 -153L0 -142Q43 -70 64 -16T90 95Q110 101 124 105T149 112T169 119T188 125L202 111ZM134 456Q157 456 175 438T193 397Q193 374 175
357T133 340Q111 340 94 357T77 398Q77 421 94 438T134 456Z" />
<glyph unicode="&#x382;" glyph-name="uni0382" horiz-adv-x="768" />
<glyph unicode="&#x384;" glyph-name="tonos" horiz-adv-x="109" d="M48 678L60 685L103 669L109 656L18 476L2 482L48 678Z" />
<glyph unicode="&#x385;" glyph-name="dieresistonos" horiz-adv-x="349" d="M162 678L174 685L217 669L223 656L132 476L116 482L162 678ZM4 635Q4 652 16 666T50 680Q66 680 80 668T94 635Q94 614 81 602T50 589Q31 589 18 602T4 635ZM259 635Q259 655 272 667T304
680Q322 680 335 668T349 635Q349 616 336 603T304 589Q287 589 273 601T259 635Z" />
<glyph unicode="&#x386;" glyph-name="Alphatonos" horiz-adv-x="747" d="M170 693L182 700L226 684L232 671L141 491L125 497L170 693ZM640 132Q653 102 662 83T679 52T694 36T712 30L746 27V-3Q705 -2 683 -2T649 -1T632 0T619 0Q613 0 608 0T590 0T552 -1T480
-3V27L527 30Q546 32 557 37T568 50Q568 57 564 69T547 114L501 229H213L185 162Q169 124 160 95T150 56Q150 44 161 38T198 30L235 27V-3Q194 -2 172 -2T139 -1T124 0T114 0Q108 0 104 0T89 0T59 -1T5 -3V27L42 30Q77 33 96 79L327 605L366 700H398L640 132ZM483
269L357 567L230 269H483Z" />
<glyph unicode="&#x387;" glyph-name="anoteleia" horiz-adv-x="144" d="M8 390Q8 413 25 433T72 453Q101 453 118 434T135 390Q135 363 117 345T72 327Q43 327 26 346T8 390Z" />
<glyph unicode="&#x388;" glyph-name="Epsilontonos" horiz-adv-x="713" d="M50 685L62 692L105 676L111 663L20 483L4 489L50 685ZM683 0Q632 -1 604 -1T560 -2T536 -3T516 -3Q490 -3 457 -3T392 -2T331 -1T284 0Q263 0 237 -1T161 -3V27L197 30Q215 31 225 34T240
47T246 73T248 120V569Q248 599 247 616T240 642T224 655T197 659L149 662V692Q186 691 213 691T262 690T298 689T327 689Q345 689 370 689T425 690T490 691T559 692Q592 692 619 692T683 689Q667 625 667 537H632V602Q632 619 628 625T605 636Q581 643 542 646T460
650Q434 650 417 650T388 649T365 647T343 642V375Q369 373 395 373T453 372Q503 372 527 374T565 383Q572 396 573 409L578 461H608Q607 423 607 403T606 372T605 356T605 345Q605 338 605 333T605 318T606 288T608 234H578L573 293L565 318Q558 321 549 323T527
327T494 329T446 330Q412 330 388 330T343 327V47Q354 45 363 44T384 41T408 40T442 39Q510 39 560 42T626 51Q636 55 643 71T655 107T662 144T664 164H699Q691 125 687 85T683 0Z" />
<glyph unicode="&#x389;" glyph-name="Etatonos" horiz-adv-x="961" d="M52 685L64 692L106 676L112 663L22 483L6 489L52 685ZM756 343Q746 344 738 344T720 345T700 345T674 345H440Q410 345 394 345T356 343V120Q356 90 357 73T364 47T380 34T408 30L456 27V-3Q411
-1 379 -1T308 0Q288 0 272 0T238 0T203 -1T162 -3V27L210 30Q227 31 237 34T253 46T260 73T262 120V569Q262 599 261 616T254 642T238 655T210 659L162 662V692Q189 691 208 691T243 690T274 689T308 689Q327 689 342 689T374 689T409 690T456 692V662L408 659Q391
658 381 655T365 643T358 616T356 569V391Q371 390 389 390T440 389H674Q704 389 722 389T756 391V569Q756 599 755 616T748 642T733 655T706 659L658 662V692Q685 691 704 691T739 690T770 689T804 689Q823 689 838 689T869 689T904 690T950 692V662L902 659Q885
658 875 655T860 643T854 616T852 569V120Q852 90 853 73T860 47T875 34T902 30L950 27V-3Q928 -2 910 -2T875 -1T841 0T804 0Q765 0 733 -1T658 -3V27L706 30Q723 31 733 34T748 46T754 73T756 120V343Z" />
<glyph unicode="&#x38a;" glyph-name="Iotatonos" horiz-adv-x="439" d="M47 685L59 692L101 676L107 663L17 483L1 489L47 685ZM335 120Q335 90 336 73T343 47T358 34T386 30L434 27V-3Q390 -2 358 -1T287 0Q248 0 217 -1T141 -3V27L189 30Q206 31 216 34T231
46T238 73T240 120V569Q240 599 239 616T232 642T216 655T189 659L141 662V692Q168 691 187 691T222 690T253 689T287 689Q306 689 321 689T352 689T387 690T434 692V662L386 659Q369 658 359 655T343 643T337 616T335 569V120Z" />
<glyph unicode="&#x38c;" glyph-name="Omicrontonos" horiz-adv-x="836" d="M52 702L64 709L108 693L114 680L23 500L7 506L52 702ZM465 709Q548 709 615 685T729 617T801 509T827 367Q827 284 797 214T714 91T589 10T433 -20Q357 -20 294 7T184 82T111 196T85
341Q85 423 112 491T189 607T309 682T465 709ZM448 667Q324 667 258 593T192 378Q192 298 212 232T269 120T358 48T473 22Q590 22 655 105T720 337Q720 415 702 476T648 580T563 644T448 667Z" />
<glyph unicode="&#x38e;" glyph-name="Upsilontonos" horiz-adv-x="860" d="M47 684L59 691L101 675L107 662L17 482L1 488L47 684ZM852 546L836 537Q822 619 742 619Q711 619 683 606T632 573Q597 543 577 502T547 414T533 319T530 229Q530 218 530 190T530 130T533
73T541 41Q545 36 556 34T579 30T604 28T623 27L626 24V0L623 -4Q588 -2 554 -1T483 0Q449 0 416 -1T347 -4L343 0V24L347 27Q353 27 365 27T390 29T415 33T430 41Q435 48 437 73T440 130T441 189T441 229V267Q441 293 436 330T421 406T396 484T358 553T308 603T246
622Q205 622 182 601T138 547L129 546L121 558Q133 585 149 609T187 652T234 680T292 691Q334 691 364 672T414 621T446 549T464 467T472 386T476 316H501Q504 352 509 394T524 477T551 557T593 626T653 673T738 691Q797 691 826 656T853 564L852 546Z" />
<glyph unicode="&#x38f;" glyph-name="Omegatonos" horiz-adv-x="858" d="M55 702L67 709L111 693L117 680L26 500L10 506L55 702ZM847 145Q842 107 837 70T830 -6Q752 -3 675 -3T519 0V68Q579 76 618 105T681 176T715 269T725 374Q725 438 713 493T673 589T596
653T475 677Q404 677 354 655T273 593T227 498T212 377Q212 324 221 272T254 177T318 105T418 68V0Q340 -2 263 -2T108 -6Q104 32 100 69T90 145L94 148H109L112 145Q117 125 120 112T131 91T150 79T185 75H314V82Q213 124 160 206T107 398Q107 482 136 540T215
634T333 687T475 704Q550 704 615 687T728 632T803 537T831 398Q831 289 778 207T623 82V75H752Q774 75 786 78T806 90T816 111T825 145L829 148H843L847 145Z" />
<glyph unicode="&#x390;" glyph-name="iotadieresistonos" horiz-adv-x="350" d="M161 723L173 730L216 714L222 701L131 521L115 527L161 723ZM3 680Q3 697 15 711T49 725Q65 725 79 713T93 680Q93 659 80 647T49 634Q30 634 17 647T3 680ZM258 680Q258 700 271
712T303 725Q321 725 334 713T348 680Q348 661 335 648T303 634Q286 634 272 646T258 680ZM292 75Q281 64 264 48T228 18T187 -6T148 -16Q121 -16 105 0T84 43Q81 64 82 108T86 209T91 327T90 449Q110 453 129 458T166 473L177 460Q170 430 164 379T153 272T149
166T153 85Q155 68 165 55T195 41Q206 41 218 46T240 60T260 77T277 93L287 91L293 83L292 75Z" />
<glyph unicode="&#x391;" glyph-name="Alpha" horiz-adv-x="742" d="M635 132Q648 102 657 83T674 52T689 36T707 30L741 27V-3Q700 -2 678 -2T644 -1T627 0T614 0Q608 0 603 0T585 0T547 -1T475 -3V27L522 30Q541 32 552 37T563 50Q563 57 559 69T542 114L496
229H208L180 162Q164 124 155 95T145 56Q145 44 156 38T193 30L230 27V-3Q189 -2 167 -2T134 -1T119 0T109 0Q103 0 99 0T84 0T54 -1T0 -3V27L37 30Q72 33 91 79L322 605L361 700H393L635 132ZM478 269L352 567L225 269H478Z" />
<glyph unicode="&#x392;" glyph-name="Beta" horiz-adv-x="566" d="M279 -3Q265 -3 248 -3T213 -2T180 -1T155 0Q148 0 140 0T119 0T90 -1T46 -3V20L72 30Q94 39 94 95V569Q94 599 93 616T86 642T71 654T43 659L7 662V692Q59 691 87 691T131 690T152 689T165 689Q171
689 176 689T195 689T238 690T319 692H344Q432 692 477 657T523 556Q523 478 450 428Q429 414 408 406T350 390Q379 388 400 385T439 377T470 365T499 347Q557 306 557 228Q557 193 543 153T497 78T411 20T279 -3ZM189 47Q208 42 226 41T266 39Q356 39 405 83T454
208Q454 289 406 326T256 364Q242 364 230 364T189 362V47ZM189 401Q212 399 224 399T250 399Q336 399 380 433T424 533Q424 596 388 624T270 652Q246 652 228 651T189 644V401Z" />
<glyph unicode="&#x393;" glyph-name="Gamma" horiz-adv-x="521" d="M521 689Q513 656 509 616T505 537H470V602Q470 612 469 619T461 629Q441 636 418 640T370 647T324 649T285 650Q265 650 244 649T201 642V120Q201 89 203 72T210 45T226 34T252 30L300 27V-3Q222
0 155 0Q118 0 82 0T7 -3V27L55 30Q71 31 81 34T96 46T104 72T106 120V569Q106 600 104 617T97 644T81 655T55 659L7 662V692Q49 691 91 690T176 689Q201 689 230 689T288 690T344 691T392 692Q462 692 521 689Z" />
<glyph unicode="&#x394;" glyph-name="Delta" horiz-adv-x="637" d="M1 6Q17 36 43 92T101 215T164 357T226 497T277 617T311 697H336L636 6L630 -4Q554 -2 479 -1T327 0Q246 0 167 0T8 -4L1 6ZM511 37Q462 171 409 302T299 564H292Q235 432 182 302T79 37H511Z" />
<glyph unicode="&#x395;" glyph-name="Epsilon" horiz-adv-x="571" d="M541 0Q490 -1 462 -1T418 -2T394 -3T374 -3Q348 -3 315 -3T249 -2T188 -1T142 0Q121 0 95 -1T19 -3V27L55 30Q73 31 83 34T98 47T104 73T106 120V569Q106 599 105 616T98 642T82 655T55 659L7
662V692Q44 691 71 691T120 690T156 689T185 689Q202 689 227 689T283 690T348 691T417 692Q450 692 477 692T541 689Q525 625 525 537H490V602Q490 619 486 625T463 636Q439 643 400 646T318 650Q292 650 275 650T246 649T223 647T201 642V375Q227 373 253 373T311
372Q361 372 385 374T423 383Q430 396 431 409L436 461H466Q465 423 465 403T464 372T463 356T463 345Q463 338 463 333T463 318T464 288T466 234H436L431 293L423 318Q416 321 407 323T385 327T352 329T304 330Q270 330 246 330T201 327V47Q212 45 221 44T242
41T266 40T300 39Q368 39 418 42T484 51Q494 55 501 71T513 107T520 144T522 164H557Q549 125 545 85T541 0Z" />
<glyph unicode="&#x396;" glyph-name="Zeta" horiz-adv-x="648" d="M146 44H419Q476 44 509 46T560 55T584 77T593 116L599 173H633Q631 152 630 134T628 97T627 53T627 -3L350 0H322L10 -3V25L495 648H267Q221 648 192 646T147 639T123 625T115 601L109 530H75Q77
558 77 574T78 611Q78 631 78 647T75 692L240 691L422 689H472L628 692L632 663L146 44Z" />
<glyph unicode="&#x397;" glyph-name="Eta" horiz-adv-x="808" d="M604 343Q584 345 568 345T521 345H287Q257 345 241 345T204 343V120Q204 90 205 73T212 47T227 34T255 30L303 27V-3Q259 -2 227 -1T156 0Q117 0 86 -1T10 -3V27L58 30Q75 31 85 34T100 46T107
73T109 120V569Q109 599 108 616T101 642T85 655T58 659L10 662V692Q37 691 56 691T91 690T122 689T156 689Q175 689 190 689T221 689T256 690T303 692V662L255 659Q238 658 228 655T212 643T206 616T204 569V391Q219 390 237 390T287 389H521Q552 389 570 389T604
391V569Q604 599 603 616T596 642T580 655T553 659L505 662V692Q532 691 551 691T586 690T617 689T651 689Q670 689 685 689T716 689T751 690T798 692V662L750 659Q733 658 723 655T707 643T701 616T699 569V120Q699 90 700 73T707 47T722 34T750 30L798 27V-3Q754
-2 722 -1T651 0Q612 0 581 -1T505 -3V27L553 30Q570 31 580 34T595 46T602 73T604 120V343Z" />
<glyph unicode="&#x398;" glyph-name="Theta" horiz-adv-x="759" d="M751 367Q751 286 722 216T640 93T517 10T364 -20Q288 -20 223 5T111 78T36 192T9 344Q9 421 35 488T110 604T228 681T385 709Q465 709 532 687T648 622T724 514T751 367ZM644 336Q644 410 627
471T576 575T491 643T369 667Q304 667 256 646T177 586T131 495T116 381Q116 315 132 251T182 136T269 54T396 22Q459 22 505 45T582 110T628 209T644 336ZM225 481Q230 474 231 461T237 434T253 410T291 400H469Q490 400 501 406T518 422T526 446T532 477L536
481H550L553 477Q551 363 553 249L550 245H536L532 249Q529 266 527 280T518 304T501 321T469 327H291Q271 327 260 321T243 305T235 280T228 249L225 245H210L207 249Q208 363 207 477L210 481H225Z" />
<glyph unicode="&#x399;" glyph-name="Iota" horiz-adv-x="297" d="M196 120Q196 90 197 73T204 47T219 34T247 30L295 27V-3Q251 -2 219 -1T148 0Q109 0 78 -1T2 -3V27L50 30Q67 31 77 34T92 46T99 73T101 120V569Q101 599 100 616T93 642T77 655T50 659L2 662V692Q29
691 48 691T83 690T114 689T148 689Q167 689 182 689T213 689T248 690T295 692V662L247 659Q230 658 220 655T204 643T198 616T196 569V120Z" />
<glyph unicode="&#x39a;" glyph-name="Kappa" horiz-adv-x="713" d="M203 120Q203 90 204 73T211 47T226 34T254 30L302 27V-3Q258 -2 226 -1T155 0Q116 0 85 -1T9 -3V27L57 30Q74 31 84 34T99 46T106 73T108 120V569Q108 599 107 616T100 642T84 655T57 659L9
662V692Q36 691 55 691T90 690T121 689T155 689Q174 689 189 689T220 689T255 690T302 692V662L254 659Q237 658 227 655T211 643T205 616T203 569V355L481 626Q493 638 501 649T510 665V692Q532 691 546 691T571 690T587 689T599 689Q605 689 609 689T621 689T642
690T679 692V662L637 660Q600 659 559 622L293 382L623 70Q646 48 660 39T685 29L706 27V-3Q687 -2 677 -2T660 -1T650 0T641 0Q637 0 634 0T624 0T602 -1T561 -3L213 332L203 325V120Z" />
<glyph unicode="&#x39b;" glyph-name="Lambda" horiz-adv-x="713" d="M709 -4Q679 -2 650 -1T590 0Q557 0 524 -1T457 -4L454 0V25L457 29Q463 29 477 29T505 30T529 36T540 52Q540 61 532 87T512 142T491 198T476 234L347 559H340Q337 553 322 516T284 427T237
313T191 198T155 104T141 54Q141 44 150 39T170 32T193 29T211 29L216 25V0L211 -4Q185 -2 159 -1T106 0Q80 0 55 -1T4 -3L0 0V25L4 29Q21 29 38 30T68 42Q75 47 91 76T128 151T174 252T224 366T274 480T317 582T350 659T366 697H386Q387 693 398 665T427 591T468
490T515 374T562 258T606 155T642 78T665 41Q675 33 685 32T709 29L712 25V0L709 -4Z" />
<glyph unicode="&#x39c;" glyph-name="Mu" horiz-adv-x="929" d="M726 578Q712 552 703 533T682 492L504 114Q497 100 490 82T475 46T461 12T450 -13H430L151 578V120Q151 91 152 74T159 47T174 35T202 30L246 27V-3Q207 -2 185 -2T152 -1T137 0T126 0Q120 0 115
0T99 0T68 -1T10 -3V27L54 30Q71 31 81 34T96 47T103 73T105 120V569Q105 598 104 615T97 642T81 654T54 659L10 662V692Q40 691 56 691T82 690T95 689T105 689Q111 689 115 689T128 689T153 690T200 692L464 136L726 692Q756 691 772 691T798 690T811 689T821
689Q827 689 832 689T845 689T869 690T914 692V662L872 659Q855 658 845 655T829 642T823 616T821 569V120Q821 90 822 73T829 47T844 34T872 30L920 27V-3Q876 -2 844 -1T769 0Q730 0 703 -1T641 -3V27L675 30Q693 31 703 34T718 47T724 73T726 120V578Z" />
<glyph unicode="&#x39d;" glyph-name="Nu" horiz-adv-x="811" d="M181 692L662 98V569Q662 598 661 615T654 642T638 654T611 659L567 662V692Q604 691 624 691T656 690T672 689T683 689Q689 689 693 689T709 689T742 690T803 692V662L759 659Q742 658 732 655T716
642T710 616T708 569V17Q708 9 709 -3T711 -20L621 -4L148 583V120Q148 91 149 74T156 47T171 35T199 30L243 27V-3Q204 -2 182 -2T149 -1T134 0T123 0Q117 0 112 0T96 0T65 -1T7 -3V27L51 30Q68 31 78 34T93 47T100 73T102 120V569Q102 598 101 615T94 642T78
654T51 659L7 662V692Q28 691 41 691T67 690T92 690T127 689L181 692Z" />
<glyph unicode="&#x39e;" glyph-name="Xi" horiz-adv-x="634" d="M579 502L559 499L555 503Q550 532 548 553T537 588T510 608T458 615H175Q142 615 125 609T99 589T87 554T79 503L74 499L55 502L52 505Q54 550 56 595T56 686L58 689Q318 683 576 689L578 686L577
647Q576 612 578 577T583 505L579 502ZM168 484Q173 477 174 463T179 435T195 411T234 400H400Q421 400 432 406T450 423T458 448T464 480L467 484H482L485 480Q484 364 485 246L482 243H467Q462 248 461 262T455 290T439 316T400 327H234Q213 327 202 321T185
303T177 278T171 246L168 243H153L149 246Q152 364 149 480L153 484H168ZM622 189Q614 142 609 95T599 0L595 -4Q526 -2 457 -1T317 0Q248 0 179 -1T38 -4L35 0Q31 48 26 95T13 189L17 194H37L42 189Q51 158 57 137T74 102T104 82T160 76H474Q510 76 529 82T560
101T577 136T593 189L597 194H617L622 189Z" />
<glyph unicode="&#x39f;" glyph-name="Omicron" horiz-adv-x="759" d="M389 709Q472 709 539 685T653 617T725 509T751 367Q751 284 721 214T638 91T513 10T357 -20Q281 -20 218 7T108 82T35 196T9 341Q9 423 36 491T113 607T233 682T389 709ZM372 667Q248 667
182 593T116 378Q116 298 136 232T193 120T282 48T397 22Q514 22 579 105T644 337Q644 415 626 476T572 580T487 644T372 667Z" />
<glyph unicode="&#x3a0;" glyph-name="Pi" horiz-adv-x="782" d="M768 -4Q735 -3 702 -2T633 0Q598 0 563 -1T493 -4L489 0V24L493 27Q499 27 511 27T536 29T560 33T576 41Q581 47 583 71T586 123T587 177T586 214V647L195 648V220Q195 209 195 182T195 126T198
72T206 41Q210 36 221 34T245 30T270 28T288 27L292 24V0L288 -4Q254 -3 221 -2T153 0Q118 0 83 -1T12 -4L9 0V24L12 27Q18 27 30 27T55 29T79 33T95 41Q100 47 102 70T105 121T106 174T106 211V479Q106 489 106 514T106 567T102 617T93 646Q88 650 78 652T54 656T30
658T12 659L9 662V686L12 689Q103 688 192 687T372 686Q472 686 570 686T768 689L772 686V662L768 659Q762 659 750 659T726 657T703 654T687 646Q681 641 679 618T676 566T675 511T676 475V209Q676 199 676 174T676 121T679 70T687 41Q691 36 702 34T726 30T750
28T768 27L772 24V0L768 -4Z" />
<glyph unicode="&#x3a1;" glyph-name="Rho" horiz-adv-x="565" d="M8 692Q68 691 101 691T151 690T175 689T190 689Q267 689 307 690T360 692Q456 692 510 651T565 537Q565 492 547 453T496 386T419 341T323 324Q308 324 296 325T265 330L255 366Q275 360 288
358T317 356Q350 356 377 367T423 398T454 447T465 509Q465 581 423 617T299 654Q273 654 250 651T201 642V120Q201 90 202 73T209 47T224 34T252 30L300 27V-3Q256 -2 224 -1T153 0Q114 0 83 -1T7 -3V27L55 30Q72 31 82 34T97 46T104 73T106 120V569Q106 597 104
614T97 640T81 654T53 659L8 662V692V692Z" />
<glyph unicode="&#x3a3;" glyph-name="Sigma" horiz-adv-x="620" d="M608 193Q603 143 601 95T598 -4Q521 -2 445 -1T293 0Q222 0 152 -1T10 -4V15Q22 29 41 53T83 109T129 173T174 238T211 297T237 340Q188 424 136 505T27 665V681Q158 682 288 682T549 689L553
683Q548 648 546 612T541 540L538 536H520L514 540Q509 573 505 593T489 625T458 640T400 644H147Q187 581 227 518T312 393Q258 316 208 237T109 76H467Q503 76 522 82T553 103T570 140T583 193L587 196H605L608 193V193Z" />
<glyph unicode="&#x3a4;" glyph-name="Tau" horiz-adv-x="583" d="M364 689Q380 689 388 689T415 689T470 690T580 692Q578 671 577 652T575 615T574 576T573 531H542L538 610Q537 628 528 635T498 643H343Q341 618 340 598T339 543V120Q339 90 340 73T347 47T362
34T390 30L438 27V-3Q394 -2 362 -1T291 0Q252 0 221 -1T145 -3V27L193 30Q210 31 220 34T235 46T242 73T244 120V543Q244 559 244 572T244 596T242 619T240 643H85Q64 643 55 636T45 610L41 531H10Q10 555 10 575T9 614T7 652T3 692L71 691Q125 690 161 690T206
689H364V689Z" />
<glyph unicode="&#x3a5;" glyph-name="Upsilon" horiz-adv-x="739" d="M732 546L716 537Q702 619 622 619Q591 619 563 606T512 573Q477 543 457 502T427 414T413 319T410 229Q410 218 410 190T410 130T413 73T421 41Q425 36 436 34T459 30T484 28T503 27L506
24V0L503 -4Q468 -2 434 -1T363 0Q329 0 296 -1T227 -4L223 0V24L227 27Q233 27 245 27T270 29T295 33T310 41Q315 48 317 73T320 130T321 189T321 229V267Q321 293 316 330T301 406T276 484T238 553T188 603T126 622Q85 622 62 601T18 547L9 546L1 558Q13 585
29 609T67 652T114 680T172 691Q215 691 244 672T294 621T326 549T344 467T352 386T356 316H381Q384 352 389 394T405 477T431 557T473 626T533 673T618 691Q677 691 706 656T733 564L732 546Z" />
<glyph unicode="&#x3a6;" glyph-name="Phi" horiz-adv-x="706" d="M703 372Q703 298 679 249T613 170T515 128T392 115Q392 99 392 77T399 40Q405 36 416 34T439 30T463 28T482 27L487 24V0L482 -4Q450 -2 418 -1T353 0Q321 0 289 -1T224 -4L218 0V24L224 27Q258
29 276 30T303 38T313 62T315 115Q254 115 198 127T99 167T29 241T3 358Q3 428 29 472T99 542T199 576T315 585Q314 616 311 631T298 651T272 657T224 659L218 662V686L224 689Q288 686 353 686Q417 686 482 689L487 686V662L482 659Q452 657 435 657T408 652T396
631T392 585Q447 585 502 578T602 547T675 483T703 372ZM604 359Q604 463 548 510T392 560V138Q494 141 549 199T604 359ZM315 560Q264 558 225 547T158 511T116 450T102 358Q102 257 157 199T315 138V560Z" />
<glyph unicode="&#x3a7;" glyph-name="Chi" horiz-adv-x="649" d="M642 -3Q577 0 571 0Q566 0 563 0T553 0T533 -1T497 -3L313 303Q294 277 285 264T268 239L111 -3Q95 -2 86 -2T73 -1T66 0T60 0Q57 0 55 0T48 0T34 -1T8 -3V27L34 30Q51 32 62 42T93 78Q95 80
96 81T99 86L288 341L160 554Q135 596 111 619T68 644L23 647L21 673L162 700Q176 692 189 678T219 635L347 419L532 689H633V659L592 656Q586 655 581 652T568 642T550 621T524 588L370 380L546 100Q559 80 568 67T585 46T598 35T612 30L642 27V-3Z" />
<glyph unicode="&#x3a8;" glyph-name="Psi" horiz-adv-x="838" d="M832 665Q813 658 803 656T788 648T779 631T772 595Q763 542 755 493T735 401T703 323T652 263T574 223T463 207Q463 204 463 180T463 126T467 71T478 39Q483 35 493 33T516 30T539 28T557 27L561
24V0L557 -4Q522 -2 488 -1T418 0Q383 0 350 -1T281 -4L278 0V24L281 27Q287 27 299 27T324 29T347 33T363 41Q368 47 370 70T374 121T375 174T375 207Q283 208 228 236T140 314T94 430T69 574Q65 606 61 622T51 645T34 656T6 665L2 672L4 684L8 689Q16 688 35
686T76 682T115 676T139 668Q147 661 152 634T162 569T173 485T192 397T222 318T271 261Q294 246 321 241T375 236V465Q375 476 375 503T375 560T372 614T363 645Q359 650 348 652T324 656T299 658T281 659L278 662V686L281 689Q350 686 418 686Q486 686 557 689L561
686V662L557 659Q551 659 539 659T514 657T490 653T475 645Q470 639 468 615T464 562T463 506T463 468V236Q489 236 516 241T566 261Q596 281 615 317T646 397T664 485T676 568T686 634T700 668Q705 672 723 675T762 681T802 686T829 689L835 684L836 672L832 665Z"
/>
<glyph unicode="&#x3a9;" glyph-name="Omega" horiz-adv-x="779" d="M768 145Q763 107 758 70T751 -6Q673 -3 596 -3T440 0V68Q500 76 539 105T602 176T636 269T646 374Q646 438 634 493T594 589T517 653T396 677Q325 677 275 655T194 593T148 498T133 377Q133
324 142 272T175 177T239 105T339 68V0Q261 -2 184 -2T29 -6Q25 32 21 69T11 145L15 148H30L33 145Q38 125 41 112T52 91T71 79T106 75H235V82Q134 124 81 206T28 398Q28 482 57 540T136 634T254 687T396 704Q471 704 536 687T649 632T724 537T752 398Q752 289
699 207T544 82V75H673Q695 75 707 78T727 90T737 111T746 145L750 148H764L768 145V145Z" />
<glyph unicode="&#x3aa;" glyph-name="Iotadieresis" horiz-adv-x="347" d="M1 774Q1 791 13 805T47 819Q63 819 77 807T91 774Q91 753 78 741T47 728Q28 728 15 741T1 774ZM256 774Q256 794 269 806T301 819Q319 819 332 807T346 774Q346 755 333 742T301 728Q284
728 270 740T256 774ZM223 120Q223 90 224 73T231 47T246 34T274 30L322 27V-3Q278 -2 246 -1T175 0Q136 0 105 -1T29 -3V27L77 30Q94 31 104 34T119 46T126 73T128 120V569Q128 599 127 616T120 642T104 655T77 659L29 662V692Q56 691 75 691T110 690T141 689T175
689Q194 689 209 689T240 689T275 690T322 692V662L274 659Q257 658 247 655T231 643T225 616T223 569V120Z" />
<glyph unicode="&#x3ab;" glyph-name="Upsilondieresis" horiz-adv-x="736" d="M191 774Q191 791 204 805T237 819Q254 819 267 807T281 774Q281 753 268 741T237 728Q219 728 205 741T191 774ZM447 774Q447 794 460 806T491 819Q509 819 523 807T537 774Q537
755 523 742T491 728Q475 728 461 740T447 774ZM731 546L715 537Q701 619 621 619Q590 619 562 606T511 573Q476 543 456 502T426 414T412 319T409 229Q409 218 409 190T409 130T412 73T420 41Q424 36 435 34T458 30T483 28T502 27L505 24V0L502 -4Q467 -2 433
-1T362 0Q328 0 295 -1T226 -4L222 0V24L226 27Q232 27 244 27T269 29T294 33T309 41Q314 48 316 73T319 130T320 189T320 229V267Q320 293 315 330T300 406T275 484T237 553T187 603T125 622Q84 622 61 601T17 547L8 546L0 558Q12 585 28 609T66 652T113 680T171
691Q213 691 243 672T293 621T325 549T343 467T351 386T355 316H380Q383 352 388 394T404 477T430 557T472 626T532 673T617 691Q676 691 705 656T732 564L731 546Z" />
<glyph unicode="&#x3ac;" glyph-name="alphatonos" horiz-adv-x="550" d="M295 723L307 730L351 714L357 701L266 521L250 527L295 723ZM539 97Q547 92 548 84Q538 73 524 56T492 23T456 -4T420 -16Q401 -16 389 2T370 44T358 92T352 128L349 131Q331 106 308
80T257 33T197 -2T131 -16Q105 -16 87 -8T56 16T36 50T25 93Q19 130 23 173T39 258T73 339T123 408T188 455T266 473Q308 473 331 451T366 396T382 326T391 260L398 257Q408 279 418 303T438 354T454 406T461 459H472Q480 448 487 436T502 413Q483 360 458 312T403
216Q405 204 409 178T422 124T441 76T470 55Q490 55 505 69T532 97H539ZM341 192Q339 207 336 231T326 282T312 337T291 387T263 423T224 437Q197 437 176 419T140 373T114 309T99 237T93 169T96 115Q99 98 104 83T118 55T140 36T174 28Q201 28 226 42T273 77T314
121T345 164L341 192Z" />
<glyph unicode="&#x3ad;" glyph-name="epsilontonos" horiz-adv-x="368" d="M241 723L253 730L297 714L303 701L212 521L196 527L241 723ZM92 146Q92 93 130 62T227 30Q294 30 359 72L367 67L352 41Q277 -13 193 -13Q155 -13 120 -4T59 24T16 69T0 132Q0 229 143
255V264Q38 282 38 361Q38 468 212 468Q301 468 350 428Q338 408 329 391T312 360L301 365Q293 448 209 448Q167 448 142 424T116 358Q116 341 120 326T136 298T166 279T214 272Q231 272 247 274T282 279L287 273Q285 263 283 256T279 243L269 237Q234 246 203
246Q186 246 167 242T131 226T103 196T92 146Z" />
<glyph unicode="&#x3ae;" glyph-name="etatonos" horiz-adv-x="483" d="M321 723L333 730L377 714L383 701L292 521L276 527L321 723ZM160 473Q170 473 174 465T178 443T177 410T173 369L180 367Q206 410 247 441T345 473Q390 473 420 451T458 382Q462 356 461
308T456 202T449 78T445 -47T452 -157T475 -238L473 -251Q454 -254 437 -260T403 -275L392 -266Q389 -254 386 -243T382 -215T380 -171T382 -101Q384 -59 387 2T393 127T395 253T387 356Q381 391 360 408T304 426Q261 426 235 404T193 347T173 267T168 177T170
90T174 18L169 9Q153 4 138 -2T108 -16L98 -6Q100 14 101 45T104 115T107 193T108 269T108 335T104 382Q101 401 86 401Q78 401 69 397T49 387T29 375T14 364L8 366L0 377L2 383Q13 391 34 406T79 436T125 462T160 473Z" />
<glyph unicode="&#x3af;" glyph-name="iotatonos" horiz-adv-x="223" d="M90 723L102 730L146 714L152 701L61 521L45 527L90 723ZM222 75Q211 64 194 48T158 18T117 -6T78 -16Q51 -16 35 0T14 43Q11 64 12 108T16 209T21 327T20 449Q40 453 59 458T96 473L107
460Q100 430 94 379T83 272T79 166T83 85Q85 68 95 55T125 41Q136 41 148 46T170 60T190 77T207 93L217 91L223 83L222 75Z" />
<glyph unicode="&#x3b0;" glyph-name="upsilondieresistonos" horiz-adv-x="504" d="M279 723L291 730L334 714L340 701L249 521L233 527L279 723ZM121 680Q121 697 133 711T167 725Q183 725 197 713T211 680Q211 659 198 647T167 634Q148 634 135 647T121 680ZM376
680Q376 700 389 712T421 725Q439 725 452 713T466 680Q466 661 453 648T421 634Q404 634 390 646T376 680ZM475 358Q481 321 476 279T455 196T415 118T360 51T293 5T217 -12Q169 -12 141 14T105 88Q100 116 102 150T107 220T113 289T115 349T105 391T77 407Q60
407 44 393T15 369L8 371L1 379L2 388Q14 400 28 413T59 437T94 456T133 463Q160 463 172 446T188 401T187 335T179 257T173 175T176 99Q181 70 199 47T249 24Q277 24 301 38T345 76T379 130T402 192T413 255T412 311Q407 343 390 376T339 424L336 434Q352 442
366 451T394 471Q463 429 475 358Z" />
<glyph unicode="&#x3b1;" glyph-name="alpha" horiz-adv-x="561" d="M545 97Q553 92 554 84Q544 73 530 56T498 23T462 -4T426 -16Q407 -16 395 2T376 44T364 92T358 128L355 131Q337 106 314 80T263 33T203 -2T137 -16Q111 -16 93 -8T62 16T42 50T31 93Q25 130
29 173T45 258T79 339T129 408T194 455T272 473Q314 473 337 451T372 396T388 326T397 260L404 257Q414 279 424 303T444 354T460 406T467 459H478Q486 448 493 436T508 413Q489 360 464 312T409 216Q411 204 415 178T428 124T447 76T476 55Q496 55 511 69T538
97H545ZM347 192Q345 207 342 231T332 282T318 337T297 387T269 423T230 437Q203 437 182 419T146 373T120 309T105 237T99 169T102 115Q105 98 110 83T124 55T146 36T180 28Q207 28 232 42T279 77T320 121T351 164L347 192Z" />
<glyph unicode="&#x3b2;" glyph-name="beta" horiz-adv-x="431" d="M411 205Q418 158 406 118T366 49T299 2T214 -15Q181 -15 149 -5T87 29Q89 -43 92 -114T104 -259Q84 -264 66 -270T30 -283L21 -273Q29 -133 28 7T26 289Q26 345 26 401T37 506T76 596T161 661Q205
680 249 680Q297 680 325 655T362 581Q368 543 359 510T331 449T283 401T221 369L222 360Q256 359 287 349T344 318T387 270T411 205ZM329 208Q319 271 279 305T177 339Q151 339 130 329L121 337Q124 345 125 353T127 371Q167 371 201 384T258 422T292 481T296
558Q291 594 269 620T207 646Q178 646 155 629Q135 615 122 578T100 490T89 383T85 272T87 173T94 103Q101 59 130 36T202 12Q242 12 269 29T311 75T330 138T329 208Z" />
<glyph unicode="&#x3b3;" glyph-name="gamma" horiz-adv-x="534" d="M121 473Q154 473 184 455T236 387T267 250T267 23L273 19Q291 52 323 98T385 195T435 295T449 385Q447 397 443 410T433 435L437 446Q449 451 468 459T501 467Q513 467 516 457T521 438Q526
406 517 373T490 307T453 245T416 194Q375 138 336 81T260 -36Q258 -89 252 -144T234 -251Q220 -258 206 -263T176 -273Q172 -267 168 -261T160 -249Q166 -224 174 -194T193 -135T216 -78T242 -29Q244 33 241 95T226 220Q222 246 214 279T189 342T149 392T89 412Q61
412 46 400T16 366L10 365Q8 367 6 369T2 377Q11 395 22 412T46 443T78 465T121 473Z" />
<glyph unicode="&#x3b4;" glyph-name="delta" horiz-adv-x="457" d="M432 287Q441 231 430 177T391 80T317 11T213 -16Q128 -16 85 31T28 160Q19 214 27 263T60 351T122 418T213 458V464Q195 475 173 489T131 519T96 555T78 597Q73 627 89 647T132 679T188 696T241
702Q276 702 316 694Q322 684 326 674T335 655L326 649Q301 663 275 671T223 679Q210 679 195 676T168 666T149 649T145 622Q150 593 170 570T220 524T284 480T348 430T402 368T432 287ZM360 269Q350 330 320 370T235 448Q187 434 158 407T114 342T98 260T104 167Q108
141 117 114T141 64T179 27T234 12Q278 12 305 39T347 105T363 188T360 269Z" />
<glyph unicode="&#x3b5;" glyph-name="epsilon" horiz-adv-x="381" d="M99 146Q99 93 137 62T234 30Q301 30 366 72L374 67L359 41Q284 -13 200 -13Q162 -13 127 -4T66 24T23 69T7 132Q7 229 150 255V264Q45 282 45 361Q45 468 219 468Q308 468 357 428Q345 408
336 391T319 360L308 365Q300 448 216 448Q174 448 149 424T123 358Q123 341 127 326T143 298T173 279T221 272Q238 272 254 274T289 279L294 273Q292 263 290 256T286 243L276 237Q241 246 210 246Q193 246 174 242T138 226T110 196T99 146Z" />
<glyph unicode="&#x3b6;" glyph-name="zeta" horiz-adv-x="483" d="M470 26Q474 -4 459 -33T418 -86T362 -127T306 -149Q292 -140 279 -129T253 -108L256 -100Q268 -102 279 -103T303 -104Q319 -104 341 -98T384 -81T417 -54T427 -18Q425 -3 410 0T384 4Q350 4
317 0T248 -5Q154 -5 99 44T28 187Q18 252 26 315T57 437T115 547T193 638L188 643Q171 642 155 641T122 640Q99 640 74 644T28 665L30 684L60 705L72 704Q78 690 90 682T117 670T146 664T173 663Q220 663 263 678T344 712L359 705Q357 692 355 680T348 656Q268
651 213 612T127 512T86 379T88 232Q95 184 110 151T150 96T210 66T292 56Q324 56 353 60T414 65Q433 65 449 57T470 26Z" />
<glyph unicode="&#x3b7;" glyph-name="eta" horiz-adv-x="488" d="M160 473Q170 473 174 465T178 443T177 410T173 369L180 367Q206 410 247 441T345 473Q390 473 420 451T458 382Q462 356 461 308T456 202T449 78T445 -47T452 -157T475 -238L473 -251Q454 -254
437 -260T403 -275L392 -266Q389 -254 386 -243T382 -215T380 -171T382 -101Q384 -59 387 2T393 127T395 253T387 356Q381 391 360 408T304 426Q261 426 235 404T193 347T173 267T168 177T170 90T174 18L169 9Q153 4 138 -2T108 -16L98 -6Q100 14 101 45T104 115T107
193T108 269T108 335T104 382Q101 401 86 401Q78 401 69 397T49 387T29 375T14 364L8 366L0 377L2 383Q13 391 34 406T79 436T125 462T160 473Z" />
<glyph unicode="&#x3b8;" glyph-name="theta" horiz-adv-x="530" d="M494 504Q501 457 502 400T496 286T470 174T423 77T350 10T247 -16Q196 -16 160 1T100 47T62 115T41 199Q33 252 31 310T36 424T61 530T112 619T191 679T303 702Q351 702 384 687T439 646T474
583T494 504ZM425 381Q425 415 425 449T419 517Q415 542 406 570T382 622T344 660T289 676Q241 676 208 645T153 568T122 471T109 381H425ZM109 349Q109 313 109 277T116 203Q120 174 128 141T153 79T194 32T258 13Q294 13 320 30T364 75T393 139T411 212T421 285T425
349H109Z" />
<glyph unicode="&#x3b9;" glyph-name="iota" horiz-adv-x="228" d="M227 75Q216 64 199 48T163 18T122 -6T83 -16Q56 -16 40 0T19 43Q16 64 17 108T21 209T26 327T25 449Q45 453 64 458T101 473L112 460Q105 430 99 379T88 272T84 166T88 85Q90 68 100 55T130
41Q141 41 153 46T175 60T195 77T212 93L222 91L228 83L227 75Z" />
<glyph unicode="&#x3ba;" glyph-name="kappa" horiz-adv-x="552" d="M532 76Q537 75 539 72T544 67L543 61Q533 50 520 37T490 13T457 -7T422 -15Q405 -15 385 1T345 43T305 98T269 156T241 205T224 234Q217 227 205 216T189 197Q184 188 184 163T185 109T189
52T194 11Q179 4 164 -2T134 -16L123 -6Q125 65 125 136T123 280Q123 323 122 348T118 386T110 403T98 407Q90 407 79 402T56 389T34 375T17 363L9 365L4 373V381Q14 389 34 404T77 435T122 461T158 473Q182 473 185 448Q194 395 190 338T185 229L193 227Q197 232
214 252T256 298T307 355T361 409T409 450T443 467Q468 467 479 461T495 444T498 418T495 385L486 382Q470 398 450 398Q433 398 403 384T343 351T290 310T264 274Q267 265 278 247T305 206T339 158T375 112T407 75T430 54Q448 42 464 42Q484 42 501 52T532 76Z"
/>
<glyph unicode="&#x3bb;" glyph-name="lambda" horiz-adv-x="535" d="M522 88Q527 88 529 85T535 80L534 74Q524 63 509 48T477 18T441 -6T407 -16Q393 -16 382 -6Q377 -2 367 27T345 100T319 193T294 289T272 372T258 425L250 428Q223 383 197 333T149 230T111
123T88 13Q70 6 52 -1T17 -16L5 -2Q55 121 111 237T245 460Q241 475 233 507T211 571T182 628T146 653Q134 653 116 647T85 637Q80 639 78 641T74 648L77 656Q88 661 105 668T142 683T181 696T214 702Q222 702 228 700T241 689Q245 684 254 655T277 583T304 487T333
385T359 290T380 219Q384 207 391 180T409 126T433 77T461 55Q477 55 494 67T522 88Z" />
<glyph unicode="&#x3bc;" glyph-name="mu" horiz-adv-x="506" d="M492 92Q501 89 506 81V74Q495 62 479 47T444 18T405 -5T367 -15Q347 -15 339 -2T329 31T329 69T333 101L323 104Q311 85 295 65T260 27T218 -1T170 -12Q143 -12 122 -1T87 35L80 36Q77 -12 77
-54T83 -133T100 -202T133 -261L126 -273Q96 -284 59 -286Q41 -253 35 -219T28 -145T32 -62T40 35Q42 72 45 128T50 244T50 360T37 453Q56 456 75 459T114 467Q120 425 119 384T115 302T111 220T116 137Q119 119 125 102T141 72T166 50T202 42Q223 42 243 51T279
76T308 109T325 146Q331 167 334 207T338 293T337 379T332 445L340 456Q357 458 373 462T405 473L414 463Q410 445 407 415T402 349T398 272T397 194T398 126T403 77Q405 66 409 60T425 54Q445 54 461 67T492 92Z" />
<glyph unicode="&#x3bd;" glyph-name="nu" horiz-adv-x="486" d="M253 71Q293 114 326 163T378 260T396 351T367 426L369 437Q384 445 399 453T432 468Q445 456 454 443T467 412Q471 385 461 352T431 282T386 208T336 134T290 66T256 8Q225 3 200 -7L189 0Q176
90 166 164T143 290T114 372T73 401Q57 401 42 391T16 372H7L1 380V389Q11 396 30 410T70 438T111 462T142 473Q151 473 157 468T170 444T184 388T204 287L244 76L253 71V71Z" />
<glyph unicode="&#x3be;" glyph-name="xi" horiz-adv-x="472" d="M460 28Q464 1 448 -26T406 -78T352 -120T302 -148Q289 -137 274 -127T242 -108L244 -99Q263 -102 284 -102Q299 -102 322 -96T366 -80T401 -54T412 -20Q409 -4 398 1T372 6Q331 6 292 0T211 -7Q178
-7 147 0T89 24T45 67T21 131Q13 181 32 218T84 283T160 329T241 360L240 369Q216 376 193 385T151 409T118 442T100 489Q95 517 103 539T128 579T166 609T211 629L209 636Q202 636 183 636T142 637T103 645T84 666Q83 673 87 678T97 688T109 695T120 701L128 697Q131
682 143 674T169 662T199 657T225 656Q267 656 306 666T380 696L391 685Q389 676 387 667T381 647Q347 647 308 641T235 618T183 574T170 501Q176 465 194 441T239 402T296 381T357 374L361 366Q354 361 349 354T339 338Q329 339 319 339T298 340Q257 340 218 327T148
290T103 230T94 148Q99 116 115 98T153 70T202 58T253 55Q291 55 327 60T401 66Q419 66 437 59T460 28Z" />
<glyph unicode="&#x3bf;" glyph-name="omicron" horiz-adv-x="499" d="M256 469Q307 469 350 452T425 404T473 331T491 237Q491 181 472 134T417 52T334 -1T227 -20Q179 -20 139 -3T70 45T25 120T9 217Q9 273 27 319T77 399T155 450T256 469ZM238 436Q172 436
137 389T102 251Q102 198 114 154T147 79T199 30T266 13Q327 13 362 63T398 200Q398 251 386 294T353 368T302 418T238 436Z" />
<glyph unicode="&#x3c0;" glyph-name="pi" horiz-adv-x="617" d="M493 -15Q455 -15 429 21T394 117T396 252T443 405H216Q213 306 208 208T188 13Q177 4 156 -1T120 -12L109 -2Q139 97 152 198T176 405H153Q125 405 106 403T73 392T47 370T24 332L18 328L9 333L7
340Q11 358 14 380T24 422T45 453T83 466Q147 465 211 464T340 463Q394 463 446 464T551 467Q549 456 547 444T545 418L485 405Q462 351 454 291T456 166Q458 151 463 130T477 89T501 56T537 42Q554 42 568 50T594 67L601 66L608 57L606 51Q596 41 583 30T555 8T524
-8T493 -15Z" />
<glyph unicode="&#x3c1;" glyph-name="rho" horiz-adv-x="441" d="M84 29Q84 -37 87 -85T94 -168T104 -226T113 -266Q95 -274 74 -278T32 -284Q24 -176 24 -70T17 144Q15 177 15 211T18 277Q22 321 42 357T94 419T165 459T250 473Q322 473 363 435T416 325Q425
266 417 206T382 96T309 16T197 -15Q166 -15 139 -6T88 29H84ZM338 311Q334 337 326 360T303 402T268 430T217 441Q183 441 159 426T120 386T96 329T85 264T83 197T89 138Q93 113 100 90T122 50T156 22T206 11Q258 11 287 42T330 120T344 218T338 311Z" />
<glyph unicode="&#x3c2;" glyph-name="sigma1" horiz-adv-x="513" d="M496 34Q501 1 486 -30T446 -86T389 -129T330 -155L284 -111L289 -103Q312 -108 333 -108Q351 -108 373 -102T415 -83T445 -54T454 -16Q452 -4 443 0T423 5Q389 5 357 0T289 -6Q217 -6 176
28T120 115T114 228T153 341T229 428T336 463H471L476 457Q474 432 470 413Q429 413 387 414T306 410T234 388T178 336Q151 296 145 248T154 157T208 86T311 57Q346 57 380 62T450 67Q467 67 480 60T496 34Z" />
<glyph unicode="&#x3c3;" glyph-name="sigma" horiz-adv-x="478" d="M473 469Q472 454 470 440T465 411Q425 405 383 406T300 407L298 404Q325 388 345 375T379 347T401 310T415 257Q424 198 415 148T377 62T305 6T200 -15Q158 -15 128 -4T78 29T46 82T27 153Q19
206 22 246T42 317T87 374T158 422Q181 435 205 444T259 457Q278 459 308 459T369 460T427 463T467 474L473 469ZM346 267Q343 287 338 306T325 344T304 378T272 407Q261 409 250 410T228 412Q179 412 150 392T107 338T92 264T98 182Q102 156 110 126T132 71T169
30T227 13Q274 13 301 39T340 103T352 185T346 267Z" />
<glyph unicode="&#x3c4;" glyph-name="tau" horiz-adv-x="413" d="M13 278Q2 280 1 287Q2 299 3 325T8 380T17 431T32 460Q38 463 52 463T73 463H400L405 457L401 420Q369 413 331 413T259 412Q258 405 254 374T246 301T242 212T247 125T270 59T318 33Q340 33
357 46T389 74L394 75L405 65L404 59Q378 31 342 8T264 -16Q223 -16 204 9T180 71Q174 112 174 155T180 242T194 328T212 408Q151 406 118 406T66 396T39 360T19 281L13 278V278Z" />
<glyph unicode="&#x3c5;" glyph-name="upsilon" horiz-adv-x="506" d="M477 358Q483 321 478 279T457 196T417 118T362 51T295 5T219 -12Q171 -12 143 14T107 88Q102 116 104 150T109 220T115 289T117 349T107 391T79 407Q62 407 46 393T17 369L10 371L3 379L4
388Q16 400 30 413T61 437T96 456T135 463Q162 463 174 446T190 401T189 335T181 257T175 175T178 99Q183 70 201 47T251 24Q279 24 303 38T347 76T381 130T404 192T415 255T414 311Q409 343 392 376T341 424L338 434Q354 442 368 451T396 471Q465 429 477 358Z"
/>
<glyph unicode="&#x3c6;" glyph-name="phi" horiz-adv-x="649" d="M618 332Q629 261 611 200T553 94T453 23T325 -4L336 -251Q320 -256 305 -262T273 -277L262 -269Q264 -203 267 -138T267 -6Q221 0 181 15T110 56T57 117T28 201Q18 262 34 310T85 395T167 453T270
485L277 475L273 468Q180 441 137 375T110 206Q115 172 126 142T156 87T202 44T265 17Q264 43 263 85T262 172T264 258T274 322Q284 353 304 380T351 428T409 461T473 473Q538 473 573 433T618 332ZM550 317Q547 339 540 361T519 400T487 429T442 440Q397 440 373
412T339 343T327 257T325 178L323 15Q382 21 428 46T505 112T547 204T550 317Z" />
<glyph unicode="&#x3c7;" glyph-name="chi" horiz-adv-x="510" d="M385 -172Q355 -172 334 -152T294 -91T259 10T219 151H211Q165 69 127 -16T60 -193H49Q37 -185 27 -174T9 -152Q46 -61 98 23T210 183Q205 199 196 231T174 299T149 363T126 402Q106 419 89 419Q72
419 62 410T42 392L35 391L27 398L29 405Q38 416 49 428T72 450T100 466T132 473Q140 473 149 471T167 464Q182 455 195 426T218 361T237 293T250 243L257 239Q304 300 350 360T447 479Q464 471 478 463T506 444L503 434Q484 430 462 415T415 380T368 335T324 288T286
246T259 216Q264 200 271 173T289 113T311 45T336 -20T362 -73T390 -105Q409 -117 432 -117Q448 -117 460 -111T484 -96H490L496 -102L495 -107Q473 -129 447 -150T385 -172Z" />
<glyph unicode="&#x3c8;" glyph-name="psi" horiz-adv-x="643" d="M13 377Q8 377 5 379T0 385L2 394Q11 401 28 412T63 435T100 455T130 463Q155 463 161 432T167 354T163 253T168 151Q177 93 213 63T306 36L327 37Q329 193 330 349T323 662Q334 669 346 673T372
682L381 676Q371 517 367 358T357 38Q409 45 449 69T516 131T553 217T555 318Q550 346 541 374T511 425L509 438Q514 439 522 442T540 449T557 455T572 458Q582 458 590 447T603 422T612 394T617 372Q627 312 609 250T553 134T465 44T356 -5Q360 -68 364 -129T374
-254Q360 -262 346 -269T318 -281L309 -271Q318 -207 321 -141T327 -8Q307 -12 279 -12Q243 -12 214 -6T162 15T124 55T103 120Q97 159 100 207T104 298T98 370T66 399Q51 399 38 392T13 377Z" />
<glyph unicode="&#x3c9;" glyph-name="omega" horiz-adv-x="681" d="M649 325Q658 271 647 212T608 103T534 21T429 -12Q391 -12 366 1T319 47H314Q288 20 259 4T187 -12Q151 -12 125 -1T80 30T50 77T34 137Q24 198 37 252T80 348T156 420T257 463L268 452L262
443Q165 401 129 321T110 129Q113 111 119 91T136 55T163 27T204 16Q234 16 254 31T286 71T304 127T311 191T311 252T307 304Q323 308 338 313T369 324L380 315Q371 267 369 218T375 119Q378 102 382 84T395 51T418 27T455 17Q499 17 527 45T571 115T591 202T589
284Q582 325 563 362T506 423L505 434Q515 439 531 448T559 458Q579 458 594 443T621 406T640 362T649 325Z" />
<glyph unicode="&#x3ca;" glyph-name="iotadieresis" horiz-adv-x="349" d="M2 600Q2 617 14 631T48 645Q64 645 78 633T92 600Q92 579 79 567T48 554Q29 554 16 567T2 600ZM257 600Q257 620 270 632T302 645Q320 645 333 633T347 600Q347 581 334 568T302 554Q285
554 271 566T257 600ZM291 75Q280 64 263 48T227 18T186 -6T147 -16Q120 -16 104 0T83 43Q80 64 81 108T85 209T90 327T89 449Q109 453 128 458T165 473L176 460Q169 430 163 379T152 272T148 166T152 85Q154 68 164 55T194 41Q205 41 217 46T239 60T259 77T276
93L286 91L292 83L291 75Z" />
<glyph unicode="&#x3cb;" glyph-name="upsilondieresis" horiz-adv-x="504" d="M42 600Q42 617 54 631T88 645Q104 645 118 633T132 600Q132 579 119 567T88 554Q69 554 56 567T42 600ZM297 600Q297 620 310 632T342 645Q360 645 373 633T387 600Q387 581 374
568T342 554Q325 554 311 566T297 600ZM477 358Q483 321 478 279T457 196T417 118T362 51T295 5T219 -12Q171 -12 143 14T107 88Q102 116 104 150T109 220T115 289T117 349T107 391T79 407Q62 407 46 393T17 369L10 371L3 379L4 388Q16 400 30 413T61 437T96 456T135
463Q162 463 174 446T190 401T189 335T181 257T175 175T178 99Q183 70 201 47T251 24Q279 24 303 38T347 76T381 130T404 192T415 255T414 311Q409 343 392 376T341 424L338 434Q354 442 368 451T396 471Q465 429 477 358Z" />
<glyph unicode="&#x3cc;" glyph-name="omicrontonos" horiz-adv-x="486" d="M277 723L289 730L333 714L339 701L248 521L232 527L277 723ZM248 469Q299 469 342 452T417 404T465 331T483 237Q483 181 464 134T409 52T326 -1T219 -20Q171 -20 131 -3T62 45T17 120T1
217Q1 273 19 319T69 399T147 450T248 469ZM230 436Q164 436 129 389T94 251Q94 198 106 154T139 79T191 30T258 13Q319 13 354 63T390 200Q390 251 378 294T345 368T294 418T230 436Z" />
<glyph unicode="&#x3cd;" glyph-name="upsilontonos" horiz-adv-x="500" d="M277 723L289 730L333 714L339 701L248 521L232 527L277 723ZM474 358Q480 321 475 279T454 196T414 118T359 51T292 5T216 -12Q168 -12 140 14T104 88Q100 116 101 150T106 220T112
289T114 349T104 391T76 407Q59 407 43 393T14 369L7 371L0 379L1 388Q13 400 27 413T58 437T93 456T132 463Q159 463 171 446T187 401T186 335T178 257T172 175T175 99Q180 70 198 47T248 24Q277 24 301 38T344 76T378 130T401 192T412 255T411 311Q406 343 389
376T338 424L335 434Q351 442 365 451T393 471Q462 429 474 358Z" />
<glyph unicode="&#x3ce;" glyph-name="omegatonos" horiz-adv-x="669" d="M391 723L403 730L447 714L453 701L362 521L346 527L391 723ZM642 325Q651 271 640 212T601 103T527 21T422 -12Q384 -12 359 1T312 47H307Q281 20 252 4T180 -12Q144 -12 118 -1T73 30T43
77T27 137Q17 198 30 252T73 348T149 420T250 463L261 452L255 443Q158 401 122 321T103 129Q106 111 112 91T129 55T156 27T197 16Q227 16 247 31T279 71T297 127T304 191T304 252T300 304Q316 308 331 313T362 324L373 315Q364 267 362 218T368 119Q371 102 375
84T388 51T411 27T448 17Q492 17 520 45T564 115T584 202T582 284Q575 325 556 362T499 423L498 434Q508 439 524 448T552 458Q572 458 587 443T614 406T633 362T642 325Z" />
<glyph unicode="&#x3d0;" glyph-name="uni03D0" horiz-adv-x="477" d="M328 701Q367 701 390 691T427 667T445 637T450 609Q450 558 413 516T319 445Q300 437 278 424T226 403Q246 404 259 404T281 405Q321 405 355 392T415 353T454 293T468 216Q468 172 452 131T404
57T326 6T222 -13Q158 -13 117 9T51 66T16 145T6 235Q6 284 15 337T44 443T90 541T153 623T233 680T328 701ZM309 677Q277 677 247 657T189 600T138 508T100 386Q158 403 205 429T286 485T344 548T377 610Q377 630 371 643T355 663T333 674T309 677ZM242 15Q284
15 311 35T354 84T376 145T383 201Q383 226 376 258T351 318T302 365T222 384Q193 384 163 377T97 354Q87 337 83 310T79 251T86 184T104 120T133 66T173 31Q203 15 242 15Z" />
<glyph unicode="&#x3d1;" glyph-name="theta1" horiz-adv-x="526" d="M240 702Q282 702 316 683T377 633T422 560T452 475T467 387T467 305Q492 301 520 299L523 291Q509 279 493 269T460 252Q452 211 435 165T392 78T328 12T240 -15Q226 -15 212 -13T186 -2Q171
8 160 29T138 78T119 133T101 185T82 224T60 239Q47 239 37 228T18 209H11L3 217L2 225Q10 234 23 247T51 273T83 295T113 304Q130 304 141 284T161 234T179 169T200 103T232 53T279 33Q315 33 341 58T384 120T410 196T422 265Q375 277 322 298T221 352T140 426T96
522Q90 558 98 590T126 647T175 687T240 702ZM423 317Q421 331 420 344T417 371Q411 406 397 456T357 552T296 631T212 664Q172 664 149 637T133 569Q140 524 172 486T247 416T338 359T423 317Z" />
<glyph unicode="&#x3d5;" glyph-name="phi1" horiz-adv-x="638" d="M607 285Q619 211 603 157T551 65T459 9T336 -16Q342 -138 363 -261Q353 -271 342 -277T316 -289L305 -280V-16Q257 -13 212 -2T128 32T64 92T29 185Q18 253 36 307T92 398T186 454T305 473L303
684Q322 697 342 705L350 699Q342 642 339 586T333 473Q379 473 424 464T507 433T571 375T607 285ZM526 273Q513 354 465 400T333 449L335 6Q391 8 431 30T495 88T527 171T526 273ZM305 449Q248 447 207 427T142 372T109 290T110 187Q124 101 170 57T304 5L305
449Z" />
<glyph unicode="&#x3d6;" glyph-name="omega1" horiz-adv-x="683" d="M651 301Q660 244 649 188T609 87T534 16T426 -12Q388 -12 363 1T316 47H310Q284 20 255 4T183 -12Q113 -12 78 28T31 134Q12 254 59 330T211 443L222 431L221 423Q182 403 157 371T118 300T102
218T106 129Q109 111 115 91T133 55T160 27T200 16Q245 16 268 48T300 127T308 222T303 304Q319 308 334 313T365 324L377 315Q367 267 365 218T371 117Q374 100 378 83T392 51T415 27T451 17Q495 17 523 45T566 114T584 200T582 282Q571 353 530 395T432 460T312
489T193 496V506L208 526Q241 529 277 529Q335 529 396 520T510 486T601 417T651 301Z" />
<glyph unicode="&#x3dc;" glyph-name="uni03DC" horiz-adv-x="521" d="M200 120Q200 90 201 73T208 47T223 34T251 30H299V-3Q258 -2 223 -1T152 0T82 -1T6 -3V27H54Q71 28 81 31T96 45T103 72T105 120V569Q105 599 104 616T97 642T81 655T54 659H6V692Q66 690
110 690T191 689T259 689T328 690T411 691T520 689Q504 625 504 537H469V602Q469 618 462 627T428 641T348 646T200 642V375H461Q461 368 461 359T461 333T463 293T465 234H435Q440 255 436 276T422 318Q417 324 388 326T323 330T251 330T200 327V120V120Z" />
<glyph unicode="&#x3dd;" glyph-name="uni03DD" horiz-adv-x="486" d="M172 -233Q130 -225 89 -225T5 -232V-202L51 -199Q64 -198 71 -196T82 -186T87 -165T88 -127V495Q116 493 144 492T204 489L459 495Q476 481 477 465T459 432Q406 437 353 437T242 433Q221
433 207 424T184 390T173 321T172 205Q232 200 289 200T403 205Q411 191 410 179T401 156Q344 160 287 160T172 156V-233Z" />
<glyph unicode="&#x3f0;" glyph-name="uni03F0" horiz-adv-x="627" d="M617 67Q604 52 590 38T559 11T525 -8T485 -16Q456 -16 439 -3T411 30T397 74T393 122Q393 161 401 199T422 275L414 281Q326 203 233 127T42 -14L16 -10Q7 12 7 38Q7 44 7 50T9 62Q47 80
80 111T137 181T176 263T190 348Q190 360 188 375T181 404T166 427T139 436Q117 436 97 421T62 391L55 392L49 400L50 407Q63 420 80 435T117 465T156 488T196 498Q228 498 241 478T254 429Q254 399 244 363T219 292T186 224T150 166L156 160Q232 211 284 250T369
320T422 372T451 410T468 439T482 461Q493 475 505 487T531 510L550 502L551 480Q552 460 549 439T541 398Q519 375 496 354T449 312Q444 292 442 271T439 229Q439 205 442 174T456 115T486 68T537 48Q558 48 574 57T607 80H612L618 72L617 67Z" />
<glyph unicode="&#x3f1;" glyph-name="uni03F1" horiz-adv-x="428" d="M404 313Q412 263 407 206T381 99T321 18T223 -15Q189 -15 163 -3T116 29T83 77T62 135L50 133Q48 95 48 55T53 -24Q62 -83 80 -108T126 -140T188 -147T267 -154Q277 -156 285 -158T301 -170T315
-196T328 -243Q326 -247 322 -252T315 -260H311Q309 -253 307 -245T300 -232Q290 -219 269 -217T220 -214T164 -207T107 -184T59 -129T27 -27Q21 10 20 61T23 168T40 278T76 376T133 447T215 474Q251 474 283 463T340 431T381 380T404 313ZM335 363Q329 400 308
423T247 447Q217 447 194 430T153 383T123 319T105 246T98 176T100 118Q103 100 110 82T128 49T156 25T193 16Q224 16 248 35T289 84T317 152T333 229T338 303T335 363Z" />
<glyph unicode="&#x3f4;" glyph-name="uni03F4" horiz-adv-x="759" d="M389 709Q472 709 539 685T653 617T725 509T751 367Q751 284 721 214T638 91T513 10T357 -20Q281 -20 218 7T108 82T35 196T9 341Q9 423 36 491T113 607T233 682T389 709ZM643 375Q634 515
564 591T372 667Q248 667 182 591T116 375H643ZM118 330Q124 260 146 203T205 106T290 44T397 22Q454 22 499 43T577 103T626 200T644 330H118Z" />
<glyph unicode="&#x3f5;" glyph-name="uni03F5" horiz-adv-x="425" d="M386 355L367 354Q356 395 324 408T248 422Q211 422 185 407T143 368T118 314T108 252Q165 252 221 252T336 253L327 219L322 213Q299 214 277 214T233 214H176Q159 214 143 214T108 211Q108
177 121 146T155 90T202 51T256 36Q300 36 337 50T405 88L416 70Q378 37 331 13T227 -12Q148 -12 95 27T28 149Q19 208 34 265T83 366T167 438T279 466Q316 466 352 451T417 408L386 355Z" />
<glyph unicode="&#x13a0;" glyph-name="uni13A0" horiz-adv-x="746" d="M328 -3Q296 -3 262 -2T183 0Q174 0 168 0T148 0T111 -1T44 -3Q43 -2 43 -3T44 -3V20L75 36Q87 42 93 57T100 95V569Q100 598 99 615T92 642T76 654T49 659L9 662V692Q52 691 84 691T140
690T183 689T215 689Q241 689 269 689T321 690T364 691T389 692Q468 692 532 670T642 608T713 512T738 385Q738 304 707 229T622 99Q519 -3 328 -3ZM631 368Q631 451 599 504T515 589T397 633T261 646Q244 646 228 646T195 644V49Q237 49 286 51T383 59T469 77T531
107Q631 189 631 359V368Z" />
<glyph unicode="&#x13a1;" glyph-name="uni13A1" horiz-adv-x="660" d="M202 120Q202 90 203 73T210 47T225 34T253 30L301 27V-3Q257 -2 225 -1T154 0Q115 0 84 -1T8 -3V27L56 30Q73 31 83 34T98 46T105 73T107 120V569Q107 598 106 615T99 642T83 654T56 659L15
662V692Q67 691 96 691T141 690T167 689T188 689Q201 689 212 689T242 690T289 691T368 692Q462 692 512 653T562 542Q562 473 514 424T367 349L594 53Q604 40 617 35T655 27V-3Q631 -2 618 -2T599 -1T589 0T583 0Q575 0 563 0T515 -3L238 360L244 372Q254 371
261 371T273 371Q361 371 411 411T462 521Q462 585 420 619T300 654Q274 654 251 651T202 642V120Z" />
<glyph unicode="&#x13a2;" glyph-name="uni13A2" horiz-adv-x="583" d="M364 689Q380 689 388 689T415 689T470 690T580 692Q578 671 577 652T575 615T574 576T573 531H542L538 610Q537 628 528 635T498 643H343L339 120Q339 102 339 89T338 66Q338 44 344 38T375
30L423 27V-3Q401 -2 385 -2T355 -1T325 0T291 0Q271 0 257 0T228 0T198 -1T160 -3V27L208 30Q232 32 238 38T245 66Q245 76 245 89T244 120L240 643H85Q64 643 55 636T45 610L41 531H10Q10 555 10 575T9 614T7 652T3 692L71 691Q125 690 161 690T206 689H364V689Z"
/>
<glyph unicode="&#x13a3;" glyph-name="uni13A3" horiz-adv-x="752" d="M750 272Q750 222 733 177T688 96T622 38T547 14T471 30T403 99Q405 99 409 107T420 127Q435 105 451 87Q465 72 480 60T511 48Q520 48 543 58T590 92T634 157T653 257Q653 289 646 328T622
412Q610 443 584 465T524 500T453 515T381 510T318 481T276 429Q328 406 359 355T390 235Q390 184 374 142T330 69T262 21T176 3Q137 3 105 18T49 62T13 130T0 217Q0 272 18 318T68 394T145 436T245 439Q262 471 287 497T350 541V597Q350 627 339 641T311 661T274
667T237 669H222V699Q331 696 433 696T645 699V666H630Q608 665 587 665T550 661T524 643T513 599V542Q578 521 623 491T696 426T737 351T750 272ZM316 202Q316 248 306 287T279 354T238 399T186 415Q132 415 105 372T77 248Q77 200 86 161T113 93T155 50T209 34Q259
34 287 79T316 202Z" />
<glyph unicode="&#x13a4;" glyph-name="uni13A4" horiz-adv-x="685" d="M447 301Q439 137 382 59T221 -20Q171 -20 133 -1T67 59T26 166T12 324Q12 689 246 689Q294 689 330 675T391 629T430 548T447 427Q448 421 454 413T470 399T489 388T510 383Q567 383 593
408T619 464Q619 481 614 497T600 525T577 545T548 553Q532 553 523 550T509 540T499 522T487 496H458Q469 542 495 563T568 585Q623 585 654 556T685 460Q685 420 665 390T615 340T548 309T477 299Q469 299 462 299T447 301ZM228 654Q192 654 167 638T127 586T104
495T96 360Q96 268 104 203T128 96T171 35T234 15Q268 15 293 32T333 85T356 179T364 316Q364 406 357 470T333 575T290 635T228 654Z" />
<glyph unicode="&#x13a5;" glyph-name="uni13A5" horiz-adv-x="250" d="M158 469V102Q158 78 160 65T168 44T182 34T204 30H250V-3Q215 -2 194 -2T159 -1T139 0T125 0Q119 0 112 0T91 0T56 -1T0 -3V27H46Q59 28 66 31T77 42T82 64T83 102V469H158ZM121 687Q142
687 159 670T176 631Q176 609 159 593T120 576Q98 576 82 592T65 631Q65 654 81 670T121 687Z" />
<glyph unicode="&#x13a6;" glyph-name="uni13A6" horiz-adv-x="785" d="M591 343Q617 326 628 296T640 230Q640 176 618 130T555 51T460 -1T340 -20Q254 -20 167 18Q169 35 170 48T173 74T174 100T175 131Q175 136 175 146T174 171H206L214 104Q216 89 230 75T267
49T318 31T377 24Q416 24 449 35T505 67T542 116T556 179Q556 218 541 241T502 278T445 298T379 310T310 321T247 343L60 344Q42 343 28 334T1 298Q3 312 5 325T7 352Q7 358 7 364T5 375H198Q179 393 170 418T161 484Q161 533 180 574T233 646T315 692T418 709Q439
709 458 707T499 700T544 687T598 667Q594 647 592 630T588 597T585 563T584 526H552L546 583Q542 620 501 643T396 667Q363 667 336 657T288 627T256 581T245 523Q245 487 258 465T293 429T344 410T404 400T468 390T531 375L719 374Q732 374 742 381T759 397T773
417T784 437Q782 426 781 413T780 385Q780 373 781 362T784 343H591Z" />
<glyph unicode="&#x13a7;" glyph-name="uni13A7" horiz-adv-x="604" d="M119 254Q158 270 179 303T201 382Q201 432 185 463T148 495Q130 495 119 487T100 464T91 432T88 393Q88 319 119 254ZM83 679Q127 706 155 720T207 740T254 746T311 748Q381 748 434 718T523
637T577 522T595 392Q595 327 577 266T523 156T433 79T304 49Q243 49 189 79T94 157T29 268T5 393Q5 421 15 445T45 486T90 514T148 524Q167 524 183 511T210 478T228 434T235 389Q235 330 208 293T130 233Q203 113 330 113Q379 113 418 139T486 205T529 292T544
381Q544 439 528 497T482 601T409 677T313 706Q253 706 204 693T115 649Q103 660 94 669T83 680V679Z" />
<glyph unicode="&#x13a8;" glyph-name="uni13A8" horiz-adv-x="564" d="M285 562Q285 517 302 493T347 461T405 456T465 474T514 506T540 545Q549 507 540 479T511 431T461 402T400 392Q363 392 328 404T271 441L201 331V120Q201 90 202 73T209 46T224 33T252
30H300V-3Q260 -2 224 -1T154 0T83 -1T7 -3V27H55Q72 28 82 31T97 45T104 72T106 120V569Q106 599 105 616T98 643T82 656T55 659H7V692Q55 690 89 689T154 688T219 689T300 692V662H252Q235 661 225 661T209 655T203 635T201 590V387L285 562V562Z" />
<glyph unicode="&#x13a9;" glyph-name="uni13A9" horiz-adv-x="630" d="M5 692Q62 688 127 688T249 692V660Q235 656 225 654T208 649T197 642T189 627Q220 575 238 546T267 498T285 470T300 446T320 411T355 351L502 621Q493 643 478 648T432 660V692Q466 690
489 689T533 688T576 689T630 692V660Q614 656 600 653T577 644L244 31Q215 8 177 1T99 11Q97 52 92 88T81 156H101Q117 126 132 113T179 94Q200 96 220 113T257 153T288 201T312 243L73 634Q65 640 59 644T45 651T28 656T5 660V692V692Z" />
<glyph unicode="&#x13aa;" glyph-name="uni13AA" horiz-adv-x="742" d="M230 -3Q181 -2 158 -2T124 -1T110 0T98 0T68 -1T0 -3V27H37Q54 29 67 43T91 79L361 700H393L635 132Q648 102 657 82T674 51T689 35T707 30H741V-3Q688 -2 663 -1T628 0T613 0T598 0T559
-1T475 -3V27H522Q541 28 554 36T567 52L496 229H208L178 146L214 30H230V-3ZM478 269L352 567L225 269H478Z" />
<glyph unicode="&#x13ab;" glyph-name="uni13AB" horiz-adv-x="466" d="M26 -56Q30 -81 44 -96T79 -118T122 -128T167 -131Q197 -131 217 -130T249 -119T266 -85T271 -17V569Q271 599 270 617T263 645T247 658T220 662H172V692Q220 690 254 689T319 688T384 689T465
692V659H417Q400 659 390 656T374 644T368 617T366 569V117Q367 48 362 -12T337 -115T278 -180T173 -195Q171 -195 146 -192T91 -181T34 -160T0 -128V-56H26Z" />
<glyph unicode="&#x13ac;" glyph-name="uni13AC" horiz-adv-x="566" d="M53 27Q71 28 81 32T96 45T102 72T104 120V569Q104 599 103 616T96 643T80 656T53 659H5V692Q84 689 146 689T267 690T390 691T539 689Q523 625 523 537H488V602Q486 620 468 630T423 645T364
650T300 650T242 646T199 642V375Q249 380 308 378T429 379V461H464Q463 415 463 393T462 360T461 345T461 331T462 300T464 234H434L431 323Q426 327 395 328T326 329T251 329T199 327V47Q212 43 237 41T292 39T353 40T412 43T458 47T482 51Q492 55 499 72T510
108T517 144T520 164H555Q547 125 543 85T539 0Q479 -2 432 -2T345 -3T269 -2T195 -1T114 0T17 -3V27H53Z" />
<glyph unicode="&#x13ad;" glyph-name="uni13AD" horiz-adv-x="732" d="M369 588Q369 610 367 624T358 647T339 659T309 664H261V697Q324 696 354 696T398 695T418 694T438 694T482 695T575 697V667H513Q495 666 483 662T465 649T456 625T453 588V448H731V425L448
27L369 -3V384H261Q252 337 217 311T133 284Q105 284 81 294T38 322T10 364T0 416Q0 453 17 480T62 524T122 544T183 540T233 510T261 452Q271 451 281 450T303 449T331 448T369 448V588ZM221 416Q221 453 195 478T133 504Q95 504 70 479T44 416Q44 378 69 353T133
327Q151 327 167 334T195 353T214 381T221 416ZM453 97L658 384H453V97Z" />
<glyph unicode="&#x13ae;" glyph-name="uni13AE" horiz-adv-x="482" d="M313 689Q348 689 378 677T431 641T466 583T479 507Q479 453 459 399T402 305T312 248T196 252V103Q196 79 198 65T205 43T221 33T247 30H295V-3Q255 -2 219 -1T149 0T78 -1T2 -3V27H50Q67
28 77 31T92 45T99 72T101 120V377Q101 407 100 424T93 451T77 464T50 467H2V500Q50 498 84 497T149 496T214 497T295 500V470H247Q230 469 220 466T205 452T198 425T196 377V323Q237 298 273 305T338 339T382 406T397 489Q397 515 390 540T367 586T326 618T266
630Q245 630 224 623T186 603T158 574T142 540V597Q152 618 170 635T211 664T260 682T313 689Z" />
<glyph unicode="&#x13af;" glyph-name="uni13AF" horiz-adv-x="566" d="M558 382Q558 328 544 274T499 169T418 75T298 0L242 19L230 93L240 103Q257 88 272 83T312 77Q331 77 348 90T382 137T414 226T447 366H225Q217 291 201 226T164 112T119 34T69 1L13 20L1
94L11 104Q19 96 31 91T55 83Q68 79 83 78Q99 85 110 92T129 109T141 135T148 172Q159 304 170 393T195 541T224 630T257 675T295 691T339 693Q385 693 425 668T494 600T541 501T558 382ZM447 396Q453 440 449 485T433 566T402 626T357 649Q331 649 308 634T268
588T239 509T225 396H447Z" />
<glyph unicode="&#x13b0;" glyph-name="uni13B0" horiz-adv-x="469" d="M200 120Q200 90 201 73T208 46T223 33T251 30H299V-3Q258 -2 223 -1T152 0T82 -1T6 -3V27H54Q71 28 81 31T96 45T103 72T105 120V569Q105 599 104 616T97 643T81 656T54 659H6V692Q54 690
87 690T152 689T217 689T299 692V662H251Q234 661 224 658T208 644T202 617T200 569V375Q223 374 257 374T327 373T391 373T435 376L432 461H466Q466 414 466 392T467 359T467 344T468 330T467 299T466 234H435V326Q429 327 398 328T328 329T253 329T200 327V120V120Z"
/>
<glyph unicode="&#x13b1;" glyph-name="uni13B1" horiz-adv-x="520" d="M469 537V629Q399 648 333 650T200 642V120Q200 89 202 72T209 45T225 34T251 30H299V-3Q221 0 152 0T6 -3V27H54Q70 28 80 31T95 44T103 72T105 120V569Q105 600 103 617T96 644T80 655T54
659H6V692Q69 689 134 689T265 690T395 691T520 689Q512 656 508 616T504 537H469Z" />
<glyph unicode="&#x13b2;" glyph-name="uni13B2" horiz-adv-x="773" d="M87 174Q68 155 64 135T69 98T100 71T154 63Q171 64 185 64T210 69T232 85T250 120Q250 131 246 144T230 172Q209 201 189 250T157 356T142 472T153 579T201 657T295 687Q333 687 360 668T405
621T431 558T439 493Q439 445 427 399T397 308T362 222T330 144Q330 131 343 120T377 101T424 88T477 83Q522 83 546 96T581 132T593 184T595 246V288Q596 312 596 326T591 347T568 356T518 357H480V404Q528 402 562 401T627 400T692 401T773 404V358H719Q702 357
692 355T677 345T671 321T669 275Q669 203 651 154T604 76T539 33T465 20Q438 20 412 26T364 42T325 66T299 95V92Q285 76 269 60T233 30T190 8T138 -1Q98 -1 73 10T32 39T12 78T6 117Q7 159 25 184T73 205Q81 188 83 183T87 174ZM377 491Q377 537 366 567T341
615T311 640T287 647Q264 647 248 633T221 595T205 541T199 481Q199 413 222 333T293 170Q309 201 324 240T351 321T370 407T377 491Z" />
<glyph unicode="&#x13b3;" glyph-name="uni13B3" horiz-adv-x="952" d="M517 692H700V659H670Q655 657 644 643T616 587L524 374Q544 322 562 277T596 197T620 142T629 121Q630 124 639 147T661 206T692 287T727 379T762 470T792 550T813 608T821 633Q821 644
812 653T786 662H734V692H950V659H920Q905 657 894 642T866 587L621 -6H578Q572 14 567 31T556 67T541 106T520 156L475 259L442 166Q431 136 423 114T407 72T392 33T378 -9H336L82 618Q73 641 63 651T38 662H2V692Q53 691 77 691T113 690T127 689T140 689T170
690T238 692V659H212Q180 656 180 639Q180 638 188 616T211 557T243 475T279 380T315 286T347 203T370 145T379 121Q381 127 398 173T452 316L332 618Q323 641 313 649T288 662H278V692Q309 691 327 690T357 689T376 688T394 688T419 689T462 691V658Q445 653 438
647T431 629Q431 617 439 600T459 559T484 504T507 433Q542 525 556 576T571 632Q571 656 536 661H517V692Z" />
<glyph unicode="&#x13b4;" glyph-name="uni13B4" horiz-adv-x="817" d="M597 674Q650 674 690 649T757 582T799 482T817 360H738Q733 400 724 439T698 510T658 562T597 582Q561 582 536 563T494 512T467 440T452 360Q476 316 482 271T479 184T448 104T391 40T314
-4T221 -20Q173 -20 133 -3T64 45T19 120T3 217Q3 292 38 348T128 436T250 469T381 435Q389 487 407 531T453 607T517 656T597 674ZM232 436Q166 436 131 389T96 251Q96 198 108 154T141 79T193 30T260 13Q321 13 356 63T392 200Q392 251 380 294T347 368T296 418T232
436Z" />
<glyph unicode="&#x13b5;" glyph-name="uni13B5" horiz-adv-x="565" d="M333 357Q399 357 432 398T465 509Q465 558 442 590T381 638T296 654T201 642V120Q201 90 202 73T209 47T224 34T252 30H300V-3Q259 -2 224 -1T153 0T83 -1T7 -3V27H55Q72 28 82 31T97 45T104
72T106 120V569Q106 597 104 614T97 640T81 654T53 659H8V692Q84 690 133 690T219 689T287 691T360 692Q456 692 510 651T565 537Q565 492 549 454T502 387T430 342T336 324H250Q256 340 260 357T267 393T272 436T280 490H308V382Q308 371 314 364T333 357Z" />
<glyph unicode="&#x13b6;" glyph-name="uni13B6" horiz-adv-x="676" d="M453 320Q448 291 468 281T522 269T595 269T669 269V31Q618 17 579 7T507 -9T447 -17T393 -20Q315 -20 245 2T121 70T35 183T3 341Q3 418 31 480T107 589T220 664T359 704T514 707T673 668Q662
627 658 591T653 516H622V569Q622 598 601 617T547 647T476 662T405 667Q264 667 187 588T110 362Q110 284 133 221T198 114T300 46T434 22Q459 22 483 24T526 31T559 42T577 55V199Q577 225 561 230T509 235Q489 235 478 233T462 224T457 208T456 184V105H423Q424
145 425 181T426 252T425 322T423 398H453V320V320Z" />
<glyph unicode="&#x13b7;" glyph-name="uni13B7" horiz-adv-x="985" d="M726 578L450 -13H430L151 578V120Q151 91 152 74T159 47T174 35T202 30H246V-3Q197 -2 174 -2T140 -1T126 0T112 0T80 -1T10 -3V27H54Q71 28 81 32T96 45T103 73T105 120V569Q105 598 104
615T97 642T81 654T54 659H10V692Q47 691 65 691T92 690T105 689T117 689T144 690T200 692L464 136L726 692Q762 691 783 690T819 689T845 689T872 689T912 690T979 692V662H872Q855 662 845 658T829 644T823 616T821 569V120Q821 90 822 73T829 46T844 33T872
30H979V-3Q895 -1 807 0T641 -3V27H675Q693 28 703 32T718 45T724 72T726 120V578Z" />
<glyph unicode="&#x13b8;" glyph-name="uni13B8" horiz-adv-x="516" d="M56 672Q113 693 162 708T252 725T322 713T374 662T405 563T416 405V-72Q416 -102 417 -120T424 -148T439 -161T467 -165H515V-195Q468 -194 434 -193T369 -192T304 -193T222 -195V-162H270Q287
-162 297 -159T312 -147T319 -120T321 -72V109H178L121 213Q100 214 84 214T56 210T41 195T41 165V86H11Q12 126 13 162T14 233T13 303T11 379H45V301Q46 284 47 274T54 259T76 253T121 252H153L211 148H321V514Q321 577 309 602T267 627Q228 637 191 631T124 608T72
569T39 525H27L0 597Q7 605 13 616T27 639T41 660T56 672Z" />
<glyph unicode="&#x13b9;" glyph-name="uni13B9" horiz-adv-x="899" d="M776 473Q750 473 729 466T688 447T649 423T607 398T560 380T503 372Q487 372 477 375T457 384T432 398T394 419Q364 417 344 410T311 388T290 355T276 311Q311 308 340 293T392 256T426
205T438 146Q438 115 426 89T395 44T352 15T303 4Q245 4 205 34T149 106T142 195T194 274Q161 276 135 274T88 266T46 250T2 224V251Q40 272 67 284T117 302T162 309T215 312Q237 348 253 393T285 483Q285 513 284 544T277 602T261 645T234 662H186V692Q234 690
268 689T333 688T398 689T479 692V659H431Q414 658 404 642T388 600T382 544T380 483Q405 454 432 445T487 439T543 455T601 482T659 509T719 526V525Q746 528 770 529T816 526T858 511T899 481Q897 458 896 435T894 368H866V391Q866 408 859 423T839 449T810 466T776
473ZM394 129Q394 150 382 168T351 201T309 223T264 232Q230 232 216 221T201 191T211 153T242 115T284 86T332 74Q358 74 376 88T394 129Z" />
<glyph unicode="&#x13ba;" glyph-name="uni13BA" horiz-adv-x="1071" d="M753 345Q753 262 727 195T655 80T545 6T405 -20Q321 -20 249 9T124 91T41 213T11 367Q11 446 36 509T109 616T223 685T373 709Q452 709 518 686T633 621T712 520T750 389H868V569Q868 599
867 616T860 642T844 655T817 659H769V692Q817 690 850 690T915 689T980 689T1062 692V662H1014Q997 661 987 658T971 644T965 617T963 569V120Q963 90 964 73T971 47T986 34T1014 30H1062V-3Q1021 -2 986 -1T916 0T845 -1T769 -3V27H817Q834 28 844 31T859 45T866
72T868 120V345H753ZM390 667Q326 667 276 645T190 580T137 477T118 337Q118 188 183 105T365 22Q428 22 480 47T568 119T625 232T646 378Q646 518 580 592T390 667Z" />
<glyph unicode="&#x13bb;" glyph-name="uni13BB" horiz-adv-x="808" d="M604 345H204V120Q204 90 205 73T212 47T227 34T255 30H303V-3Q262 -2 227 -1T156 0T86 -1T10 -3V27H58Q75 28 85 31T100 45T107 72T109 120V569Q109 599 108 616T101 642T85 655T58 659H10V692Q58
690 91 690T156 689T221 689T303 692V662H255Q238 661 228 658T212 644T206 617T204 569V389H604V569Q604 599 603 616T596 642T580 655T553 659H505V692Q553 690 586 690T651 689T716 689T798 692V662H750Q733 661 723 658T707 644T701 617T699 569V120Q699 90
700 73T707 47T722 34T750 30H798V-3Q757 -2 722 -1T651 0T581 -1T505 -3V27H553Q570 28 580 31T595 45T602 72T604 120V345Z" />
<glyph unicode="&#x13bc;" glyph-name="uni13BC" horiz-adv-x="466" d="M99 569Q99 599 98 616T91 642T75 655T48 659H0V692Q48 690 81 690T146 689T211 689T293 692V662H245Q228 661 218 658T202 644T196 617T194 569V494Q257 502 307 488T392 440T447 359T466
253Q466 209 447 165T396 83T323 19T239 -15T154 -12T78 43Q92 99 92 166H120V105Q153 73 197 64T282 70T349 124T377 227Q377 293 352 342T286 418T194 445T88 416L78 431L99 463V569V569Z" />
<glyph unicode="&#x13bd;" glyph-name="uni13BD" horiz-adv-x="706" d="M126 75Q126 100 130 131T132 188T118 232T73 245H3V280Q51 278 84 278T149 277T214 277T296 280V248H245Q210 246 198 217T186 128Q186 103 189 90T202 72T227 66T269 65Q275 65 279 71T292
97T322 157T382 263Q383 264 366 293T322 367T262 461T200 556T148 629T119 660V692Q147 690 157 689T174 688T191 689T230 692Q230 690 244 665T279 604T326 525T374 445T412 382T431 351L578 621Q569 643 554 648T508 660V692Q542 690 565 689T609 688T652 689T706
692V660Q690 656 676 653T653 644L320 31Q308 15 280 9T221 2Q189 2 171 5T142 16T129 38T126 75Z" />
<glyph unicode="&#x13be;" glyph-name="uni13BE" horiz-adv-x="759" d="M389 709Q472 709 539 685T653 617T725 509T751 367Q751 284 721 214T638 91T513 10T357 -20Q281 -20 218 7T108 82T35 196T9 341Q9 423 36 491T113 607T233 682T389 709ZM372 667Q310 667
263 646T183 586T133 490T116 365H643Q637 509 566 588T372 667ZM397 22Q509 22 573 98T643 312H120Q128 246 151 192T210 101T293 43T397 22Z" />
<glyph unicode="&#x13bf;" glyph-name="uni13BF" horiz-adv-x="541" d="M249 29V64Q296 62 329 61T394 60T459 61T541 64V32H496Q473 30 463 17T449 -17T447 -63T450 -114T451 -161T442 -199Q390 -204 349 -207T272 -210Q208 -210 171 -198T113 -153T87 -67T81
71V382H5V399L81 434V691Q79 690 94 690T127 689T161 689T176 691V430H316V382H176V-17Q176 -44 189 -66T223 -105T267 -130T312 -139Q332 -139 346 -131T365 -105Q365 -59 363 -32T355 8T341 25T320 29H249Z" />
<glyph unicode="&#x13c0;" glyph-name="uni13C0" horiz-adv-x="787" d="M394 -20Q316 -20 246 2T122 70T36 183T4 341Q4 418 32 480T108 589T221 664T360 704T515 707T674 668Q663 627 659 591T654 516H623V569Q623 598 602 617T548 647T477 662T406 667Q265 667
188 588T111 362Q111 284 134 221T199 114T301 46T435 22Q460 22 484 24T527 31T560 42T578 55V199Q578 217 571 224T544 234H461V271Q502 270 529 270T576 269T615 269T655 269T709 270T787 271V237H681Q673 237 672 230T670 199V31Q619 17 580 7T508 -9T448 -17T394
-20Z" />
<glyph unicode="&#x13c1;" glyph-name="uni13C1" horiz-adv-x="615" d="M216 222Q205 152 186 99T139 17T77 -12T0 27L32 159H52Q53 154 55 146T60 129T70 116T88 110Q119 110 137 147T176 271L251 594Q251 614 236 628T174 642V684Q221 684 262 685T349 697L542
97Q551 69 557 59T576 47H615V3Q576 4 554 5T517 6T492 7T466 7T424 5T354 3V44H408Q422 45 435 54T448 76Q448 80 437 115T410 203T374 315T338 428T308 518T294 562L216 222V222Z" />
<glyph unicode="&#x13c2;" glyph-name="uni13C2" horiz-adv-x="574" d="M90 685Q90 709 89 722T84 743T73 753T53 757H8V790Q42 789 64 789T102 788T132 787T161 787T200 788T256 790V760H211Q198 759 191 756T180 745T175 723T174 685V378Q192 415 222 437T289
466T362 467T429 438T477 380T496 295V102Q496 78 497 64T501 43T512 33T533 30H574V-3Q543 -2 527 -2T503 -1T491 0T479 0T456 -1T412 -3V281Q417 323 402 349T360 390T301 404T241 395T193 364T174 314V102Q174 78 175 65T179 44T190 34T211 30H256V-3Q222 -2
200 -2T162 -1T132 0T103 0T64 -1T8 -3V27H53Q66 28 73 31T84 42T89 64T90 102Q90 242 89 389T90 685Z" />
<glyph unicode="&#x13c3;" glyph-name="uni13C3" horiz-adv-x="648" d="M419 44Q476 44 509 46T560 55T584 77T593 116V173H633Q631 152 630 134T628 97T627 53T627 -3H10V25L495 648H267Q221 648 192 646T147 639T123 625T115 601V530H75Q76 556 77 575T78 611T77
647T75 692H628V663L146 44H419V44Z" />
<glyph unicode="&#x13c4;" glyph-name="uni13C4" horiz-adv-x="563" d="M368 539Q368 570 365 590T355 622T337 637T311 642H160Q149 642 145 640T140 626V595Q138 573 139 556T145 526T162 508T192 504H236V471Q187 472 164 472T130 473T116 474T102 474T70 473T0
471V501H44Q61 502 71 506T86 519T92 547T94 594V653Q94 669 110 678T149 692T197 698T243 700H304Q335 700 364 695T411 668Q429 645 439 632T453 603T459 563T460 493V125Q460 95 461 78T468 51T483 38T511 35H559V2Q511 4 478 4T413 5T348 4T266 2V32H314Q331
33 341 36T356 50T363 77T365 125V248Q309 248 277 248T229 248T206 248T193 248T176 248T139 248Q116 246 106 249T93 261T91 285T93 321Q93 345 91 359T84 382T70 393T44 396H0V429Q48 428 70 428T102 427T116 426T130 426T163 427T236 429V399H192Q175 398 165
394T149 380T142 352T140 304V291Q157 289 188 289T252 289T316 290T365 291L368 539V539Z" />
<glyph unicode="&#x13c5;" glyph-name="uni13C5" horiz-adv-x="978" d="M803 563Q788 540 783 512T782 458T803 416T850 399Q878 399 906 418T958 474L978 462Q935 393 895 362T817 330Q797 330 779 339T752 366Q752 283 722 213T639 90T514 9T358 -21Q282 -21
219 6T109 81T36 195T10 340Q10 422 37 490T114 606T234 681T390 708Q530 708 620 647T739 470V469Q745 494 754 517T783 575L803 563ZM420 680Q296 680 230 606T164 391Q164 311 184 245T241 133T330 61T445 35Q503 35 549 56T628 118T677 218T695 351Q695 429
676 490T622 593T535 658T420 680Z" />
<glyph unicode="&#x13c6;" glyph-name="uni13C6" horiz-adv-x="448" d="M273 49H350Q371 49 382 56T394 82V161H425Q425 137 425 117T426 79T428 43T432 4H16Q18 25 19 43T21 79T22 117T23 161H58V82Q59 64 68 57T98 49H176V643H98Q77 643 66 636T54 610V531H23Q23
555 23 575T22 613T20 649T16 689H432Q430 668 429 650T427 613T426 575T425 531H390V610Q389 628 380 635T350 643H273V49Z" />
<glyph unicode="&#x13c7;" glyph-name="uni13C7" horiz-adv-x="641" d="M323 691Q385 689 441 651T540 550T608 409T633 249Q633 198 618 151T573 68T501 10T404 -12Q366 -12 341 1T294 47Q268 20 236 4T161 -12Q118 -12 88 4T39 49T12 117T3 203Q3 291 47 338T189
386L200 374V366Q165 363 142 350T104 316T84 266T77 206Q77 190 79 158T91 95T121 40T178 16Q221 16 246 42T285 109T300 196T298 287Q315 306 339 317T387 328L360 251Q353 225 349 205T345 161Q345 146 347 122T358 74T383 34T429 17Q471 17 499 42T543 107T562
192T560 282Q549 353 533 412T484 515T397 587T256 624L239 634L254 654Q272 674 288 682T323 691Z" />
<glyph unicode="&#x13c8;" glyph-name="uni13C8" horiz-adv-x="520" d="M421 649Q454 649 473 634T503 596T516 544T519 486Q519 462 515 439T500 396Q500 394 497 386T488 369T479 353T473 345Q459 348 449 351T427 358T403 366T369 377Q380 420 384 457T390
536H423V481Q423 465 425 449T430 420T438 398T451 388Q465 403 474 425T486 473T486 522T473 567T444 599T400 612Q383 612 367 610T337 605Q321 602 308 599V600Q313 592 318 561T328 485T335 384T337 273T332 165T317 74T291 13T252 -4Q225 -4 196 19T143 82T104
174T88 286Q88 326 96 368T124 451T175 531T251 606Q236 631 218 638T182 642T144 623T108 592T76 559T51 531Q32 560 42 588T80 640T144 677T217 692Q243 692 265 678T300 630Q300 632 312 635T342 642T381 647T421 649ZM169 292Q169 242 174 196T192 116T223
62T270 48Q277 75 281 119T287 216T289 325T285 431T275 520T260 581Q236 566 219 536T191 466T175 382T169 292Z" />
<glyph unicode="&#x13c9;" glyph-name="uni13C9" horiz-adv-x="1158" d="M692 668Q675 666 668 655T662 630T672 605T696 592Q708 595 715 607T722 632T715 657T692 668ZM760 587Q802 586 838 604T909 644T981 686T1063 705Q1097 705 1116 690T1142 652T1146 604T1134
558Q1129 553 1119 542T1096 519T1071 498T1052 486L1019 518Q1034 521 1051 528T1083 546T1106 569T1116 597Q1116 615 1102 631T1067 656T1024 665T987 649Q958 621 932 602T877 570T818 555T750 556L499 -6H463L210 626L130 539Q118 526 103 517T71 502T36 498T0
509L10 629H30Q53 583 98 583Q116 583 132 599T160 636Q174 659 185 689H289L512 124L703 562Q691 564 678 567T652 577T633 595T625 625Q625 657 638 674T671 695T712 692T748 670T768 634T760 587Z" />
<glyph unicode="&#x13ca;" glyph-name="uni13CA" horiz-adv-x="644" d="M72 231Q72 201 75 164T90 94T122 39T180 16Q223 16 248 42T287 109T302 196T300 287Q327 313 360 324T435 317V240H423Q414 248 408 252T396 259T383 262T366 263Q359 234 354 209T348 155Q348
139 350 116T361 70T386 33T431 17Q473 17 501 42T545 107T564 192T562 282Q551 353 535 406T486 495T399 554T258 585L241 595L256 615Q274 635 290 643T325 652Q387 651 443 619T542 531T610 403T635 249Q635 198 620 151T575 68T503 10T406 -12Q368 -12 343
1T296 47Q270 20 238 4T163 -12Q117 -12 86 6T37 57T10 131T2 222Q2 251 9 269T34 301T78 326T145 351L156 339V331Q132 318 116 307T90 284T76 260T72 231Z" />
<glyph unicode="&#x13cb;" glyph-name="uni13CB" horiz-adv-x="520" d="M5 222Q5 253 19 279T54 325T100 355T147 368Q130 371 110 380T73 404T43 439T31 484Q30 537 49 578T102 647T178 691T268 709T363 702T454 667Q450 647 448 638T444 623T441 608T440 579H402Q400
600 387 616T355 643T312 661T266 667Q238 667 213 658T169 631T139 586T128 523Q128 471 157 444T226 406T310 393T382 392V331H343Q311 331 271 327T195 308T136 262T112 179Q112 109 151 67T268 24Q331 24 368 37T421 70T433 116T410 165T357 210T280 242V257Q336
250 377 234T445 197T485 152T499 103Q499 79 487 57T450 18T389 -10T305 -20Q225 -20 168 -4T75 44T22 120T5 222Z" />
<glyph unicode="&#x13cc;" glyph-name="uni13CC" horiz-adv-x="757" d="M199 225Q199 128 246 85T398 42Q507 42 558 92T611 249V429H199V225ZM516 692Q564 691 586 691T619 690T632 689T646 689T680 690T752 692V662H708Q691 661 681 657T665 644T659 616T657
569V280Q656 200 641 143T593 50T505 -3T371 -20Q302 -20 252 -8T169 32T120 104T104 214V569Q104 599 103 616T96 643T80 656T53 659H5V692Q53 690 87 689T152 688T217 689T298 692V662H250Q233 661 223 658T207 644T201 617T199 569V469H612V569Q612 598 610
615T603 642T588 654T560 659H516V692Z" />
<glyph unicode="&#x13cd;" glyph-name="uni13CD" horiz-adv-x="807" d="M796 411Q796 336 783 261T740 125T661 28T541 -10Q502 -10 468 -3T409 20T369 64T354 132Q322 48 278 14T187 -20Q143 -20 109 -3T50 45T14 116T1 203Q1 291 45 338T187 386L198 374V366Q163
363 140 350T102 316T82 266T75 206Q75 135 94 96T162 57Q187 57 215 68T269 102T317 155T353 228Q353 258 352 271T345 290T329 294T302 293H254V326Q302 324 336 323T401 322T466 323T547 326V296H499Q482 295 472 292T456 278T450 251T448 203Q448 171 453 139T468
80T493 38T529 21Q568 12 601 46T659 143T698 287T713 451Q713 496 700 532T667 594T622 634T573 648Q531 648 507 607T478 492L413 482Q422 518 434 556T466 625T510 677T572 698Q611 698 651 674T723 610T776 518T796 411Z" />
<glyph unicode="&#x13ce;" glyph-name="uni13CE" horiz-adv-x="536" d="M532 334Q531 290 531 266T530 229T529 213T529 207T529 202T529 186T530 150T532 82H502V144Q503 165 501 173T492 184T475 184T447 182Q400 182 383 182T362 183V106Q362 83 364 69T373
47T392 35T422 30H470V-3Q407 -2 377 -2T333 -1T313 0T293 0T249 -1T156 -3V27H218Q255 28 266 44T278 106V181H11L0 204L283 667L368 698Q364 667 363 593T362 384V246Q383 246 407 245T452 246T486 257T500 286V334H532ZM278 597L63 245H278V597Z" />
<glyph unicode="&#x13cf;" glyph-name="uni13CF" horiz-adv-x="572" d="M106 569Q106 599 105 616T98 642T82 655T55 659H7V692Q47 690 83 690T153 689T223 689T300 692V662H252Q235 661 225 658T209 644T203 617T201 569V47Q249 34 296 34T380 51T441 98T465
180Q465 222 448 255T402 307T335 332T255 323L265 359Q326 371 381 360T478 319T544 246T565 152Q562 93 534 62T456 17T339 2T190 0Q182 0 175 0T151 0T101 -1T8 -3V27H53Q70 28 80 32T96 47T104 74T106 120V569Z" />
<glyph unicode="&#x13d0;" glyph-name="uni13D0" horiz-adv-x="595" d="M349 120Q349 90 350 72T357 44T372 31T400 27H448V-3Q408 -2 373 -1T302 0T231 -1T155 -3V30H203Q220 31 230 34T245 46T252 73T254 120V231Q198 216 153 233T82 287T55 372T85 468Q112
463 132 462T180 460V439H141Q127 439 117 431T100 409T89 380T85 349Q85 319 107 300T159 274T215 277T254 316V569Q254 599 253 617T246 645T230 658T203 662H155V692Q203 690 237 689T302 688T367 689T448 692V659H400Q383 658 373 655T357 643T351 616T349
569V489Q407 501 451 480T520 418T547 327T521 227Q492 230 470 231T419 231V253H463Q486 259 498 276T514 314T512 358T493 400T459 431T411 444Q374 444 349 420V120V120Z" />
<glyph unicode="&#x13d1;" glyph-name="uni13D1" horiz-adv-x="509" d="M5 178Q5 225 17 261T51 326T98 380T151 426T203 472T248 522Q227 523 208 529T173 545T149 572T140 610Q140 622 144 636T157 663T181 684T219 693Q238 693 253 679T277 643T284 595T271
545Q287 554 296 568T316 595T341 619T380 629Q405 629 425 619T461 592T488 554T509 512Q494 498 489 494T483 489Q476 511 467 525T443 547T409 561T365 569Q357 537 326 499T255 422T175 347T110 283Q91 262 84 235T76 180Q76 144 80 116T95 67T123 37T168 30Q196
33 211 48T232 84T235 130T221 177T194 218T159 244H171Q207 244 235 226T282 179T305 117T301 56T264 8T189 -11Q104 -11 55 36T5 178ZM218 655Q196 655 185 642T174 610Q174 584 195 571T245 557Q246 569 248 586T249 618T241 644T218 655Z" />
<glyph unicode="&#x13d2;" glyph-name="uni13D2" horiz-adv-x="667" d="M203 72Q203 59 204 51T209 39T220 33T241 30H301V-3Q260 -2 225 -1T154 0T84 -1T8 -3V27H56Q73 28 83 31T98 45T105 72T107 120V569Q107 598 106 615T99 642T83 654T56 659H15V692Q79 690
112 690T163 689T192 689T221 689T272 690T368 692Q462 692 512 653T562 542Q562 501 544 469T496 411T428 369T351 341Q379 303 409 268T469 201T527 137T579 74Q599 74 614 80T648 102H660V20Q651 15 630 11T586 3T543 -1T515 -3L203 360V72ZM203 409Q247 404
293 406T376 422T438 459T462 521Q462 566 440 593T381 633T298 647T203 642V409Z" />
<glyph unicode="&#x13d3;" glyph-name="uni13D3" horiz-adv-x="467" d="M467 -128Q462 -140 439 -152T387 -173T333 -189T297 -195Q229 -195 190 -172T131 -108T106 -10T101 117V569Q101 599 100 616T93 643T77 656T50 659H2V692Q49 690 82 689T147 688T212 689T295
692V662H247Q230 661 220 658T204 644T198 617T196 569V-17Q196 -62 201 -85T218 -118T250 -130T300 -131Q321 -131 344 -129T387 -119T422 -96T441 -56H467V-128Z" />
<glyph unicode="&#x13d4;" glyph-name="uni13D4" horiz-adv-x="858" d="M160 662Q145 662 134 655T122 639Q122 638 130 616T153 557T185 475T221 380T257 286T289 203T312 145T321 121Q323 126 342 178T400 334L259 692Q287 690 309 689T363 692L419 557Q440
593 453 618T475 658T487 681T491 691Q495 689 506 689T530 689T553 689T567 691L449 470Q463 434 478 395T508 318T536 245T560 184T577 141T584 125Q632 257 669 348T732 498T771 589T785 636Q785 650 774 653T738 659H726V689H854L573 -6H537L425 278L319 -6H278L4
690L160 693V662V662Z" />
<glyph unicode="&#x13d5;" glyph-name="uni13D5" horiz-adv-x="522" d="M380 588Q380 613 367 628T332 652T286 664T237 667Q204 667 177 657T129 627T97 581T86 523Q86 495 90 473T107 436T147 412T216 404H522V373H387Q435 358 458 322T482 210Q482 161 460
122T400 53T314 5T212 -18T106 -15T8 18Q11 39 13 57T15 94T16 130T15 171H55V104Q55 89 69 75T106 49T159 31T218 24Q256 24 289 37T346 72T383 122T397 179Q397 200 392 220T368 258T315 290T221 314Q165 322 124 332T56 360T16 411T2 495Q2 545 23 584T78 650T158
692T251 709T348 702T439 667Q436 644 430 621T424 578T435 547T478 537H522V509Q473 510 450 510T417 511T403 512T389 512T357 511T286 509V540H340Q354 540 362 539T374 541T379 555T380 588Z" />
<glyph unicode="&#x13d6;" glyph-name="uni13D6" horiz-adv-x="607" d="M11 531Q11 555 11 575T10 614T8 652T4 692H367V655H293Q276 654 266 652T250 641T244 616T242 569V47Q290 33 338 33T427 50T493 98T522 180Q524 233 514 264T484 309T434 322T367 309L377
345Q427 355 469 349T542 321T590 263T607 179Q607 124 590 90T541 36T461 9T351 -1T213 -2T49 -3V27H94Q111 28 121 32T137 47T145 74T147 120V617Q147 627 146 632T138 640T121 642T91 643Q64 643 55 636T46 610V531H11V531Z" />
<glyph unicode="&#x13d7;" glyph-name="uni13D7" horiz-adv-x="439" d="M219 569Q219 599 209 614T181 635T140 642T90 643Q63 643 54 636T45 610V531H10Q10 555 10 575T9 614T7 652T3 692H439V644H365Q348 644 338 644T322 636T316 614T314 569V0Q309 1 294 1T263
1T233 1T219 0V222Q208 151 190 98T145 16T85 -12T8 27L40 159H60Q61 153 63 145T68 129T78 116T96 110Q111 110 128 137T163 205T194 294T219 386V569V569Z" />
<glyph unicode="&#x13d8;" glyph-name="uni13D8" horiz-adv-x="423" d="M413 1H170V50H184Q201 49 214 56Q225 62 234 77T244 124V222Q232 169 208 128T155 59T95 15T42 0Q10 0 1 27L33 159H53Q54 153 56 145T61 129T71 116T89 110Q104 110 126 136T172 204T214
294T244 386V568Q244 597 235 612T215 634T195 641T184 642H170V691H413V644H398Q396 644 387 643T367 635T348 612T339 568V124Q339 95 347 80T366 58T386 49T398 48H413V1Z" />
<glyph unicode="&#x13d9;" glyph-name="uni13D9" horiz-adv-x="655" d="M482 662V692Q513 691 540 689T590 687H653L370 -6H334L80 619Q71 642 61 652T36 663H0V693Q51 692 76 692T114 691T132 690T150 690T188 691T265 693V660H209Q194 660 185 654T175 639L376
122L574 631Q574 642 563 652T534 662H482Z" />
<glyph unicode="&#x13da;" glyph-name="uni13DA" horiz-adv-x="557" d="M464 583Q461 604 446 619T409 645T360 661T307 667Q274 667 247 657T199 627T167 581T156 523Q156 494 164 474T192 438T243 414T321 397Q382 388 426 379T498 352T539 300T552 210Q552
162 530 122T470 53T384 5T282 -18T176 -15T78 18Q81 39 83 57T86 94T87 130T86 171H118V104Q120 89 135 75T175 49T229 31T289 24Q341 24 382 48T446 108T466 186T430 267Q419 279 394 287T335 303T266 316T198 329T144 347T115 372Q72 428 73 487T108 596T199
677T330 709Q351 709 370 707T411 700T456 687T510 667Q506 647 504 630T500 597T497 563T496 526H464V583V583Z" />
<glyph unicode="&#x13db;" glyph-name="uni13DB" horiz-adv-x="790" d="M20 315Q20 404 48 474T128 592T249 666T405 692Q419 692 433 692T461 690Q479 694 509 691T574 676T641 648T693 607T718 553T699 487Q677 468 654 462T605 455L592 467V477Q602 481 616
482T643 486T665 494T675 508Q675 531 657 553T610 592T545 619T475 629Q479 626 490 615T512 588T533 551T542 509Q542 486 531 474T503 456T467 449T432 448L476 561Q469 598 450 611T405 626T349 622T289 616Q309 574 325 522T351 412T362 293T354 174T322 62T262
-36Q224 -36 182 -11T103 59T44 170T20 315ZM224 29Q238 26 248 49T264 113T273 207T276 314Q276 362 274 409T266 496T254 565T236 607Q179 603 148 561T105 456T99 323T122 188T166 81T224 29Z" />
<glyph unicode="&#x13dc;" glyph-name="uni13DC" horiz-adv-x="634" d="M287 719Q334 719 373 701T440 653T484 586T501 510T486 435T435 372Q478 352 514 331T575 283T615 218T629 129Q629 54 600 14T503 -27Q456 -27 425 -4T378 55T361 133T374 211T416 273T487
302Q471 311 459 317T435 325T411 324T381 314Q374 307 353 300T309 287Q283 280 251 274Q273 265 290 249T320 210T338 163T344 112Q344 46 308 7T192 -33Q153 -33 119 -24T60 4T20 54T5 126Q5 184 22 219T69 275T135 305T210 319T285 331T350 353Q332 346 311
346Q275 346 243 362T187 404T149 463T134 530Q134 627 175 673T287 719ZM282 650Q190 650 190 551Q190 524 198 496T229 443T288 404T383 388Q403 393 413 417T423 475Q423 506 415 537T390 594T346 634T282 650ZM71 138Q71 117 79 97T100 62T131 38T169 28Q205
28 228 43T264 82T276 134T267 187T237 232T189 256Q124 240 98 207T71 138ZM506 261Q476 255 457 236T427 190T417 135T427 82T456 40T506 22Q530 24 544 41T563 83T566 138T555 193T534 238T506 261Z" />
<glyph unicode="&#x13dd;" glyph-name="uni13DD" horiz-adv-x="469" d="M97 462Q97 496 113 531T158 596T223 649T301 684T384 693T466 668Q459 631 457 601T457 532H424Q424 568 419 590T401 625T367 642T315 647Q278 647 252 631T210 586T187 520T180 443V354Q178
321 172 285T153 212T124 139T83 69Q118 74 157 75T238 75T319 72T396 69Q410 69 417 76T425 106V158H458V10Q451 4 446 2T435 0T424 -1T408 0H380Q297 0 224 8T67 19L22 0H0V50Q6 50 15 51T35 57T53 68T63 87Q70 102 76 124T87 172T94 228T97 287V462Z" />
<glyph unicode="&#x13de;" glyph-name="uni13DE" horiz-adv-x="570" d="M549 0Q482 -3 421 -3T299 -3T178 -2T49 -3V20L80 36Q92 42 98 57T105 95V569Q105 599 104 616T97 643T81 656T54 659H6V692Q54 690 88 689T153 688T218 689T299 692V662H251Q234 661 224
658T208 644T202 617T200 569V72Q213 68 241 66T303 64T374 65T440 68T489 74T510 81L538 172H570Q566 136 564 111T559 66T554 32T549 0Z" />
<glyph unicode="&#x13df;" glyph-name="uni13DF" horiz-adv-x="642" d="M598 733Q598 711 598 696T597 668T599 640T606 603Q589 599 567 608T519 631T461 655T393 667Q328 667 276 645T186 583T128 487T107 361Q107 290 131 233T196 134T290 67T403 36T524 43T642
93L620 34Q554 -1 482 -13T341 -16T210 21T102 96T28 204T0 342Q0 406 24 465T91 571T190 652T309 699T438 704T567 657V733H598Z" />
<glyph unicode="&#x13e0;" glyph-name="uni13E0" horiz-adv-x="625" d="M295 95V-116Q322 -125 346 -129T389 -128T417 -101T427 -38V95H295ZM521 95Q520 30 504 -23T460 -115T395 -174T316 -196Q297 -196 281 -187T254 -165T237 -137T230 -110V96H106Q86 98 71
109T45 136T28 172T22 212Q22 240 33 262T62 299T101 322T143 330Q172 330 199 316T248 275T282 213T295 135H427V569Q427 599 426 617T419 645T403 658T376 662H328V692Q376 690 410 689T475 688T540 689T621 692V659H573Q556 658 546 655T530 643T524 617T522
570V134H620V95H521ZM223 137Q229 158 226 180T210 219T176 248T124 259Q93 254 81 240T71 208T88 174T124 145T171 130T223 137Z" />
<glyph unicode="&#x13e1;" glyph-name="uni13E1" horiz-adv-x="920" d="M731 411Q744 411 754 423T770 451T780 485T783 511Q783 556 754 587T684 631T596 639T515 605Q540 570 564 522T608 418T640 308T652 204Q652 155 635 115T586 47T513 3T421 -13Q355 -13
306 23T232 115T208 233T248 349L417 587Q400 609 369 621T303 634T238 616T195 562Q195 532 196 516T203 491T218 481T246 479H294V446Q254 447 218 448T148 449T77 448T1 446V476H49Q76 475 85 482T96 503T95 535T91 574Q90 608 113 635T174 680T257 706T345
712T423 692T474 645Q514 687 553 704T631 722Q668 722 703 707T768 665T819 605T848 535T851 464T821 398Q791 381 759 371T685 352Q680 367 675 380T663 407T647 438T625 478L651 493L672 457Q684 436 700 424T731 411ZM462 553Q441 525 408 485T344 396T290
294T267 185Q267 133 289 101T344 54T416 44T486 69T539 128T557 220Q555 265 545 309T522 395T493 477T462 553Z" />
<glyph unicode="&#x13e2;" glyph-name="uni13E2" horiz-adv-x="566" d="M8 692Q55 691 85 691T138 690T180 690T222 690T278 691T360 692Q456 692 510 651T565 537Q565 486 541 443T476 370T380 330T265 330L255 366Q296 352 334 357T401 381T447 434T465 509Q465
559 441 591T379 638T294 654T201 642V120Q201 90 202 73T209 46T224 33T252 30H300V-3Q260 -2 224 -1T154 0T83 -1T7 -3V27H55Q72 28 82 31T97 45T104 72T106 120V569Q106 597 104 614T97 640T81 654T53 659H8V692V692Z" />
<glyph unicode="&#x13e3;" glyph-name="uni13E3" horiz-adv-x="721" d="M477 118V146Q517 151 561 161T643 187V90L621 34Q555 -1 484 -13T343 -16T212 21T103 96T29 204T1 342Q1 417 28 479T103 587T214 663T349 704T496 707T643 668Q643 647 643 637T644 621T644
608T644 589T643 551T643 485Q648 479 660 476T685 470T708 467T721 465V435Q674 436 652 437T619 438T604 439T590 439T559 437T493 435V465Q504 468 514 469T534 470H556Q565 470 572 472T583 481T590 502T593 540V588Q593 603 576 617T530 642T467 660T394 667Q329
667 277 645T187 583T129 487T108 361Q108 263 146 190T247 76T391 28T558 53Q558 78 557 91T551 110T538 117T514 118H477Z" />
<glyph unicode="&#x13e4;" glyph-name="uni13E4" horiz-adv-x="600" d="M309 2Q304 2 289 2T259 1T231 0T219 0V569Q219 595 211 610T188 632T155 641T113 643Q72 643 59 638T45 610V531H10Q10 555 10 575T9 614T7 652T3 692H397V644H365Q348 644 338 644T322
636T316 614T314 569V122Q315 125 325 150T352 215T390 305T432 407T474 509T511 598T536 662T546 689H599L309 2V2Z" />
<glyph unicode="&#x13e5;" glyph-name="uni13E5" horiz-adv-x="646" d="M600 362Q604 398 598 426T580 473T553 500T521 505Q501 505 487 499T472 490Q470 473 470 438T469 359T469 270T470 187T471 125T472 101Q472 78 473 64T479 43T493 32T518 27H546V-3Q511
-2 482 -1T425 0T368 -1T303 -3V30H331Q347 32 357 34T372 44T380 66T382 105V461L179 368V96Q179 75 180 62T186 42T200 31T225 27H253V-3Q218 -2 189 -1T132 0T75 -1T10 -3V30H38Q55 32 64 35T78 47T83 73T84 120V569Q84 599 84 616T79 643T65 656T38 662H10V692Q52
690 80 689T132 688T184 689T253 692V659H225Q208 657 199 654T186 642T182 616T181 569V418L344 496Q392 517 428 531T498 548T566 541T646 504Q642 484 640 467T636 433T633 399T632 362H600Z" />
<glyph unicode="&#x13e6;" glyph-name="uni13E6" horiz-adv-x="685" d="M648 -1Q622 2 606 2T576 3T550 2T515 0L358 436L203 292V120Q203 90 204 73T211 47T226 34T254 30H302V-3Q261 -2 226 -1T155 0T85 -1T9 -3V27H57Q74 28 84 31T99 45T106 72T108 120V569Q108
599 107 616T100 642T84 655T57 659H9V692Q57 690 90 690T155 689T220 689T302 692V662H254Q237 661 227 658T211 644T205 617T203 569V371L516 658L510 692H679V662H637Q617 661 598 651T559 622L419 492L565 72Q570 57 578 49T596 38T613 34T628 32H648V-1V-1Z"
/>
<glyph unicode="&#x13e7;" glyph-name="uni13E7" horiz-adv-x="456" d="M0 226Q0 287 24 332T85 400T169 420T259 379V586Q259 610 257 624T250 646T236 656T210 659H162V692Q210 690 244 689T309 688T374 689T455 692V662H407Q390 661 380 658T364 644T358 617T356
569V57Q300 18 237 9T122 21T35 93T0 226ZM173 372Q105 372 78 345T51 263Q51 214 58 175T84 109T134 68T214 54Q232 54 244 61T256 88V335Q256 347 247 354T226 365T199 370T173 372Z" />
<glyph unicode="&#x13e8;" glyph-name="uni13E8" horiz-adv-x="833" d="M622 529Q580 566 526 584T414 604T302 589T204 538T135 452T108 331Q108 262 128 206T186 109T276 47T394 25Q415 18 440 20T490 30T535 47T571 63V188H599L651 121L685 175L734 121L779
173Q788 161 788 161L739 71L692 130L651 75L599 146Q599 116 599 87T601 18Q594 18 592 18T588 20T583 22T571 23Q504 -8 436 -14T305 -6T186 42T90 122T25 227T1 350Q1 427 33 489T119 596T239 664T375 688T508 663T622 582L680 661L726 600L778 666L833 565Q833
566 822 552L772 610L718 550L680 610L622 529V529Z" />
<glyph unicode="&#x13e9;" glyph-name="uni13E9" horiz-adv-x="668" d="M110 338Q109 264 119 206T156 107T232 46T354 25Q383 25 409 33T455 55T486 84T497 114V137L498 161Q499 200 493 214T473 230T440 231T398 237V267Q443 265 465 265T497 264T513 263T530
263T564 265T634 267V237Q630 236 622 236T605 237T586 238T569 237V54Q582 50 597 46T627 43T651 53T665 82Q666 79 666 69T667 48T665 29T661 23Q656 23 644 24T619 28T593 31T573 33Q521 13 470 1T369 -11Q294 -11 227 14T111 86T32 202T3 357Q3 433 27 495T93
604T191 678T310 715T439 712T570 665L592 609L582 512Q504 544 426 553V581H463Q478 581 486 582T499 589T505 608T507 646Q424 679 353 672T228 624T144 510T110 338Z" />
<glyph unicode="&#x13ea;" glyph-name="uni13EA" horiz-adv-x="1044" d="M1034 479Q1034 428 1020 372T980 262T916 160T832 74T730 16T614 -6Q577 -6 540 0T468 17T407 44T362 82Q299 33 254 12T177 -9Q144 -9 125 9T97 57T86 127T89 209T102 294T120 373T137
437T149 478Q162 475 172 472T193 468T215 465T244 464V436H211Q182 367 166 298T150 176Q150 120 166 95T209 67T269 81T335 128Q322 162 310 199T288 275T273 349T267 418Q267 473 285 517T334 593T403 642T483 659Q550 659 578 621T607 524Q607 410 562 318T448
163Q459 141 477 121T518 86T568 61T624 52Q675 52 717 77T794 139T853 218T895 296Q847 305 814 322T762 363T734 415T725 474Q725 514 737 553T768 623T806 673T842 692Q891 692 927 675T987 629T1022 561T1034 479ZM852 602Q828 594 812 575T789 531T783 479T793
430T818 391T860 372Q889 368 903 384T922 427T922 486T907 544T882 588T852 602ZM466 591Q434 583 413 562T379 514T361 458T356 405Q356 367 364 332T383 271T405 230T422 216Q442 232 464 265T504 341T534 430T546 522Q546 546 525 568T466 591Z" />
<glyph unicode="&#x13eb;" glyph-name="uni13EB" horiz-adv-x="759" d="M389 709Q472 709 539 685T653 617T725 509T751 367Q751 284 721 214T638 91T513 10T357 -20Q281 -20 218 7T108 82T35 196T9 341Q9 423 36 491T113 607T233 682T389 709ZM328 346Q328 385
317 404T286 431T238 439T176 439Q156 439 142 439T122 438Q109 359 124 284T176 151T269 58T397 22Q479 22 532 55T614 167Q573 157 525 152T433 153T357 178T315 235Q321 259 324 288T328 346ZM372 667Q272 667 212 627T131 494Q192 495 247 495T344 481T411
436T436 347Q436 322 430 295T412 239Q422 215 449 209T508 204T573 213T626 222Q650 305 643 385T601 527T509 628T372 667Z" />
<glyph unicode="&#x13ec;" glyph-name="uni13EC" horiz-adv-x="921" d="M625 694Q690 686 743 667T834 615T892 539T913 436Q913 337 872 253T759 108T591 13T383 -22Q311 -22 244 4T125 80T41 199T9 357Q9 423 26 478T76 574T154 638T260 661Q294 661 322 651T372
623T405 581T417 526Q417 464 395 411T337 315T255 241T160 192Q173 150 196 121T249 72T317 43T395 34Q447 34 503 48T611 88T711 152T793 235T849 334T870 447Q870 490 847 522T791 576T718 607T645 618Q623 618 609 613T593 596Q599 583 600 580T601 576T604
569T616 545V532L539 507Q539 507 538 508T535 515T531 532T526 562Q521 596 527 621T548 664T582 689T625 694ZM165 242Q216 260 253 289T314 352T350 421T362 487Q362 516 354 541T332 586T298 617T255 631Q212 622 182 598T133 539T106 466T97 389Q97 359 102
333T116 286T137 254T165 242Z" />
<glyph unicode="&#x13ed;" glyph-name="uni13ED" horiz-adv-x="544" d="M327 693Q384 693 423 665T488 591T524 490T535 380Q535 343 530 300T510 215T472 134T413 66T328 18T214 0Q194 0 170 2T123 8T79 19T42 36L3 81L29 151H43Q54 116 84 99T176 82Q207 82
242 88T310 106T372 138T423 185Q350 185 294 211T201 279T144 374T124 481Q124 523 136 561T174 629T237 675T327 693ZM466 360Q466 406 461 456T440 546T397 613T328 639Q301 639 275 624T229 584T197 526T184 457Q184 423 197 389T240 323T320 267T441 225Q452
232 459 270T466 360Z" />
<glyph unicode="&#x13ee;" glyph-name="uni13EE" horiz-adv-x="497" d="M339 625Q279 608 245 584T193 524T167 441T152 331Q191 363 232 386T313 409Q353 409 385 396T440 357T475 297T488 219Q488 168 471 125T424 49T352 -2T261 -20Q196 -20 153 14T84 103T53
226T54 362T87 491T147 593Q158 605 185 622T246 654T317 679T385 690Q410 690 428 682T454 652Q450 632 448 615T444 582T441 548T440 511H408V568Q403 598 383 611T339 625ZM402 184Q402 233 383 268T335 324T273 348T210 341T162 298T143 220Q143 119 176 66T274
13Q332 13 367 59T402 184Z" />
<glyph unicode="&#x13ef;" glyph-name="uni13EF" horiz-adv-x="747" d="M173 -20Q131 -20 99 4T46 66T13 154T2 254Q2 302 9 330T31 373H95Q67 310 63 251T85 129Q124 92 154 82T208 85T254 138T296 236Q291 236 284 243T270 258T256 275T244 287Q239 284 233
277T219 262T205 246T192 236V254Q206 273 218 290T244 308Q250 308 256 301T270 285T284 268T297 256Q303 259 309 267T322 285T335 301T349 308Q356 308 363 299T378 280T394 261T410 252Q418 252 425 260T440 279T454 299T470 308Q476 308 485 299T503 279Q513
267 524 251V236Q517 236 510 244T495 262T480 280T469 289Q462 286 452 273T430 250T404 237T376 252Q376 220 383 182T402 112T432 57T470 35Q511 25 545 57T603 147T640 283T654 443Q654 488 636 525T588 588T524 629T457 643Q400 643 376 602T347 487L282 477Q292
515 305 553T338 623T386 673T456 693Q503 693 553 669T644 604T711 511T737 404Q737 330 724 256T680 123T601 27T482 -10Q404 -10 362 20T320 132Q288 48 250 14T173 -20Z" />
<glyph unicode="&#x13f0;" glyph-name="uni13F0" horiz-adv-x="480" d="M106 550Q111 578 137 604T198 648T274 674T349 673T406 636T429 553Q429 489 388 451T287 396V387Q324 383 359 365T420 317T463 250T479 170Q479 129 463 96T420 39T358 1T284 -15T208
-9T138 25V-150Q132 -152 126 -153T105 -158V23H0V50H106V550ZM143 224Q141 179 146 141T167 74T206 29T267 12Q301 12 325 25T366 60T389 110T397 169Q397 211 380 250T332 317T259 359T168 364V406Q207 403 242 409T303 432T346 475T362 538Q362 560 355 579T336
614T306 637T270 646Q217 632 193 605T159 529T150 406T143 224Z" />
<glyph unicode="&#x13f1;" glyph-name="uni13F1" horiz-adv-x="545" d="M46 152Q70 126 82 127T111 171L276 611Q276 638 255 649T208 661H160V691Q208 689 242 688T307 687T373 688T454 691V658H406Q389 658 379 647T363 617T356 571T354 515Q394 515 427 499T485
454T524 383T538 291Q538 252 524 203T485 109T428 34T359 3Q336 3 319 17T293 53T281 100T285 148T308 185T350 201Q363 201 373 198T391 189T408 172T426 147Q434 177 438 212T441 282T433 351T412 409T375 450T320 465Q304 465 296 463T281 454T270 438T254
413L98 2Q90 21 79 42T54 84T26 124T0 159L20 179L46 152ZM307 111Q307 100 313 88T328 66T347 50T365 43Q383 43 393 61T403 104Q403 129 388 145T353 165Q332 164 320 148T307 111Z" />
<glyph unicode="&#x13f2;" glyph-name="uni13F2" horiz-adv-x="549" d="M86 476Q83 504 97 539T129 605T165 659T186 686Q199 698 232 708T306 723T387 728T455 717V640H443Q404 654 356 658T267 652T198 612T170 532V456Q202 471 243 474T325 471T401 449T455
413V102Q455 78 457 64T465 43T479 33T501 30H547V-3Q506 -2 481 -1T438 0T409 0T384 1T354 1T310 0Q308 2 308 15T310 30H343Q356 31 363 33T374 43T379 64T380 102V313Q380 338 379 352T373 374T360 384T336 386H170V102Q170 78 171 64T175 43T186 33T207 30H235V0Q204
0 186 0T154 1T130 1T104 1T65 -1T3 -3V27H49Q62 28 69 31T80 42T85 64T86 102V385H17V403L86 434V476Z" />
<glyph unicode="&#x13f3;" glyph-name="uni13F3" horiz-adv-x="794" d="M353 28Q382 28 408 37T453 59T484 87T496 114V236Q485 236 475 236T453 236T428 236T396 237V267Q441 266 468 266T513 265T546 264T580 265T627 266T702 267V237Q687 237 680 237T667 237T654
237T634 237V34Q624 50 620 56T615 66T612 71T606 80T592 101T566 142Q566 137 566 124T567 94T567 62T566 34Q498 4 430 -5T299 -4T182 36T88 111T25 220T2 360Q2 437 26 499T93 608T191 682T310 718T439 714T570 665L613 754L657 674L705 754L732 686L794 759Q794
752 786 725T766 667T746 613T734 586Q720 608 716 624T704 643L659 568Q657 568 652 580T642 606T631 631T623 641V642Q620 642 610 622T584 573Q580 598 569 610T544 626T520 631T506 634Q425 655 354 647T229 601T143 498T109 341Q107 267 117 209T155 110T231
49T353 28Z" />
<glyph unicode="&#x13f4;" glyph-name="uni13F4" horiz-adv-x="566" d="M279 -3Q238 -3 214 -3T167 -2T118 -1T46 -3V20L72 30Q94 38 94 95V569Q94 599 93 616T86 642T71 654T43 659H7V692Q74 691 104 691T147 690T163 689T178 689T221 690T319 692H344Q432 692
477 657T523 556Q523 497 481 453T350 390Q459 382 508 341T557 228Q557 193 543 153T497 78T411 20T279 -3ZM189 47Q242 35 290 40T374 65T432 122T454 208Q454 257 435 289T380 339T296 362T189 362V47ZM189 401Q239 395 282 400T358 421T408 465T424 533Q430
575 410 600T355 639T275 652T189 644V401Z" />
<glyph unicode="&#x2013;" glyph-name="endash" horiz-adv-x="534" d="M17 219V277H517V219H17Z" />
<glyph unicode="&#x2014;" glyph-name="emdash" horiz-adv-x="1034" d="M17 219V277H1017V219H17Z" />
<glyph unicode="&#x2015;" glyph-name="afii00208" horiz-adv-x="1034" d="M17 271H1017V213H17V271Z" />
<glyph unicode="&#x2016;" glyph-name="uni2016" horiz-adv-x="304" d="M227 -172V713H286V-172H227ZM17 -172V713H76V-172H17Z" />
<glyph unicode="&#x2017;" glyph-name="underscoredbl" horiz-adv-x="521" d="M17 -225V-175H517V-225H17ZM17 -125V-75H517V-125H17Z" />
<glyph unicode="&#x2018;" glyph-name="quoteleft" horiz-adv-x="188" d="M173 709L188 699Q152 641 134 589T110 476Q91 470 79 467T56 460T36 454T13 446L0 459Q26 524 56 577T129 685L173 709Z" />
<glyph unicode="&#x2019;" glyph-name="quoteright" horiz-adv-x="188" d="M15 446L0 456Q36 514 54 566T78 679Q97 685 109 688T132 695T151 701T175 709L188 696Q162 631 132 578T59 470L15 446Z" />
<glyph unicode="&#x201a;" glyph-name="quotesinglbase" horiz-adv-x="193" d="M0 -153Q14 -132 24 -114T41 -82Q48 -68 54 -52T65 -16Q70 4 74 25T81 71Q107 77 131 84T178 100L193 88Q132 -60 61 -141L15 -165L0 -153Z" />
<glyph unicode="&#x201b;" glyph-name="quotereversed" horiz-adv-x="188" d="M129 470Q86 525 56 578T0 696L13 709Q26 704 36 701T56 695T78 689T110 679Q115 619 133 567T188 456L173 446L129 470Z" />
<glyph unicode="&#x201c;" glyph-name="quotedblleft" horiz-adv-x="431" d="M411 709L426 699Q390 641 372 589T348 476Q329 470 317 467T294 460T274 454T251 446L238 459Q264 524 294 577T367 685L411 709ZM178 709L193 699Q157 641 139 589T115 476Q96 470
84 467T61 460T41 454T18 446L5 459Q31 524 61 577T134 685L178 709Z" />
<glyph unicode="&#x201d;" glyph-name="quotedblright" horiz-adv-x="432" d="M21 446L6 456Q42 514 60 566T84 679Q103 685 115 688T138 695T157 701T181 709L194 696Q168 631 138 578T65 470L21 446ZM254 446L239 456Q275 514 293 566T317 679Q336 685 348 688T371
695T390 701T414 709L427 696Q401 631 371 578T298 470L254 446Z" />
<glyph unicode="&#x201e;" glyph-name="quotedblbase" horiz-adv-x="404" d="M207 -153Q221 -132 231 -114T248 -82Q255 -68 261 -52T272 -16Q277 4 281 25T288 71Q314 77 338 84T385 100L400 88Q339 -60 268 -141L222 -165L207 -153ZM5 -153Q19 -132 29 -114T46
-82Q53 -68 59 -52T70 -16Q75 4 79 25T86 71Q112 77 136 84T183 100L198 88Q137 -60 66 -141L20 -165L5 -153Z" />
<glyph unicode="&#x2020;" glyph-name="dagger" horiz-adv-x="432" d="M427 390L408 391Q384 393 360 395T312 397H253V319Q253 245 254 172T260 26L262 0L257 -5Q246 -3 236 -2T216 -1Q207 -1 197 -2T175 -5L170 0L172 26Q177 99 178 172T179 319V397H120Q96
397 72 395T24 391L5 390L0 395Q4 412 4 429T0 462L5 467L24 466Q48 464 72 462T120 460H179V512Q179 551 176 589T168 667L166 689L171 694Q183 693 194 692T216 691Q227 691 238 692T261 694L266 689L264 667Q260 628 257 590T253 512V460H312Q336 460 360 462T408
466L427 467L432 462Q429 447 429 430T432 395L427 390Z" />
<glyph unicode="&#x2021;" glyph-name="daggerdbl" horiz-adv-x="432" d="M427 -45Q402 -43 378 -41T328 -38H253V-85Q253 -120 256 -155T264 -225L266 -244L261 -249Q249 -248 238 -247T216 -246Q205 -246 194 -247T171 -249L166 -244L168 -225Q172 -190 175
-155T179 -85V-38H104Q79 -38 55 -40T5 -45L0 -40Q6 -4 0 27L5 32Q30 30 54 28T104 25H179Q179 75 177 124T171 223Q175 273 177 321T179 420H104Q79 420 55 418T5 413L0 418Q6 454 0 485L5 490Q30 488 54 486T104 483H179V530Q179 565 176 600T168 670L166 689L171
694Q183 693 194 692T216 691Q227 691 238 692T261 694L266 689L264 670Q260 635 257 600T253 530V483H328Q353 483 377 485T427 490L432 485Q426 454 432 418L427 413Q402 415 378 417T328 420H253Q253 370 255 322T261 223Q257 173 255 124T253 25H328Q353 25
377 27T427 32L432 27Q426 -4 432 -40L427 -45Z" />
<glyph unicode="&#x2022;" glyph-name="bullet" horiz-adv-x="409" d="M401 271Q401 230 386 194T344 132T282 90T205 75Q164 75 128 90T66 131T24 194T8 271Q8 311 23 347T65 409T128 450T205 466Q246 466 281 451T343 409T385 347T401 271Z" />
<glyph unicode="&#x2024;" glyph-name="onedotenleader" horiz-adv-x="132" d="M65 111Q88 111 106 94T124 53Q124 30 106 13T64 -5Q42 -5 25 12T8 53Q8 76 25 93T65 111Z" />
<glyph unicode="&#x2025;" glyph-name="twodotenleader" horiz-adv-x="358" d="M286 111Q309 111 327 94T345 53Q345 30 327 13T285 -5Q263 -5 246 12T229 53Q229 76 246 93T286 111ZM71 111Q94 111 112 94T130 53Q130 30 112 13T70 -5Q48 -5 31 12T14 53Q14 76
31 93T71 111Z" />
<glyph unicode="&#x2026;" glyph-name="ellipsis" horiz-adv-x="577" d="M503 111Q526 111 544 94T562 53Q562 30 544 13T502 -5Q480 -5 463 12T446 53Q446 76 463 93T503 111ZM287 111Q310 111 328 94T346 53Q346 30 328 13T286 -5Q264 -5 247 12T230 53Q230
76 247 93T287 111ZM72 111Q95 111 113 94T131 53Q131 30 113 13T71 -5Q49 -5 32 12T15 53Q15 76 32 93T72 111Z" />
<glyph unicode="&#x2030;" glyph-name="perthousand" horiz-adv-x="908" d="M152 689Q180 689 204 678T247 647T275 600T286 541Q286 506 275 477T245 426T200 392T143 380Q114 380 90 391T47 421T19 468T9 528Q9 563 19 592T49 643T94 677T152 689ZM150 666Q113
666 93 631T73 529Q73 468 91 436T144 403Q180 403 201 439T222 537Q222 598 203 632T150 666ZM450 309Q478 309 502 298T545 267T573 220T584 161Q584 126 573 97T543 46T498 12T441 0Q412 0 388 11T345 41T317 88T307 148Q307 183 317 212T347 263T392 297T450
309ZM448 286Q411 286 391 251T371 149Q371 88 389 56T442 23Q478 23 499 59T520 157Q520 218 501 252T448 286ZM773 309Q801 309 825 298T868 267T896 220T907 161Q907 126 896 97T866 46T821 12T764 0Q735 0 711 11T668 41T640 88T630 148Q630 183 640 212T670
263T715 297T773 309ZM771 286Q734 286 714 251T694 149Q694 88 712 56T765 23Q801 23 822 59T843 157Q843 218 824 252T771 286ZM84 -20L475 709H515L124 -20H84Z" />
<glyph unicode="&#x2031;" glyph-name="uni2031" horiz-adv-x="1232" d="M1098 309Q1126 309 1150 298T1193 267T1221 220T1232 161Q1232 126 1221 97T1191 46T1146 12T1089 0Q1060 0 1036 11T993 41T965 88T955 148Q955 183 965 212T995 263T1040 297T1098 309ZM1096
286Q1059 286 1039 251T1019 149Q1019 88 1037 56T1090 23Q1126 23 1147 59T1168 157Q1168 218 1149 252T1096 286ZM154 689Q182 689 206 678T249 647T277 600T288 541Q288 506 277 477T247 426T202 392T145 380Q116 380 92 391T49 421T21 468T11 528Q11 563 21
592T51 643T96 677T154 689ZM152 666Q115 666 95 631T75 529Q75 468 93 436T146 403Q182 403 203 439T224 537Q224 598 205 632T152 666ZM452 309Q480 309 504 298T547 267T575 220T586 161Q586 126 575 97T545 46T500 12T443 0Q414 0 390 11T347 41T319 88T309
148Q309 183 319 212T349 263T394 297T452 309ZM450 286Q413 286 393 251T373 149Q373 88 391 56T444 23Q480 23 501 59T522 157Q522 218 503 252T450 286ZM775 309Q803 309 827 298T870 267T898 220T909 161Q909 126 898 97T868 46T823 12T766 0Q737 0 713 11T670
41T642 88T632 148Q632 183 642 212T672 263T717 297T775 309ZM773 286Q736 286 716 251T696 149Q696 88 714 56T767 23Q803 23 824 59T845 157Q845 218 826 252T773 286ZM86 -20L477 709H517L126 -20H86Z" />
<glyph unicode="&#x2032;" glyph-name="minute" horiz-adv-x="261" d="M261 433Q261 412 252 392T231 354L59 81Q53 72 41 60T17 47Q9 47 5 54T1 69Q1 77 5 88T11 106L121 425Q129 449 144 472T189 495Q202 495 214 491T237 478T254 458T261 433Z" />
<glyph unicode="&#x2033;" glyph-name="second" horiz-adv-x="503" d="M500 433Q500 412 491 392T470 354L298 81Q292 72 280 60T256 47Q248 47 244 54T240 69Q240 77 244 88T250 106L360 425Q368 449 383 472T428 495Q441 495 453 491T476 478T493 458T500 433ZM265
433Q265 412 256 392T235 354L63 81Q57 72 45 60T21 47Q13 47 9 54T5 69Q5 77 9 88T15 106L125 425Q133 449 148 472T193 495Q206 495 218 491T241 478T258 458T265 433Z" />
<glyph unicode="&#x2034;" glyph-name="uni2034" horiz-adv-x="744" d="M738 433Q738 412 729 392T708 354L536 81Q530 72 518 60T494 47Q486 47 482 54T478 69Q478 77 482 88T488 106L598 425Q606 449 621 472T666 495Q679 495 691 491T714 478T731 458T738 433ZM503
433Q503 412 494 392T473 354L301 81Q295 72 283 60T259 47Q251 47 247 54T243 69Q243 77 247 88T253 106L363 425Q371 449 386 472T431 495Q444 495 456 491T479 478T496 458T503 433ZM268 433Q268 412 259 392T238 354L66 81Q60 72 48 60T24 47Q16 47 12 54T8
69Q8 77 12 88T18 106L128 425Q136 449 151 472T196 495Q209 495 221 491T244 478T261 458T268 433Z" />
</font>
</defs>
</svg>
